  0
SECTION
  2
HEADER
  9
$ACADVER
  1
AC1015
  9
$ACADMAINTVER
 70
    14
  9
$DWGCODEPAGE
  3
ANSI_1252
  9
$INSBASE
 10
0.0
 20
0.0
 30
0.0
  9
$EXTMIN
 10
1.000000000000000E+20
 20
1.000000000000000E+20
 30
1.000000000000000E+20
  9
$EXTMAX
 10
-1.000000000000000E+20
 20
-1.000000000000000E+20
 30
-1.000000000000000E+20
  9
$LIMMIN
 10
0.0
 20
0.0
  9
$LIMMAX
 10
12.0
 20
9.0
  9
$ORTHOMODE
 70
     1
  9
$REGENMODE
 70
     1
  9
$FILLMODE
 70
     1
  9
$QTEXTMODE
 70
     0
  9
$MIRRTEXT
 70
     1
  9
$LTSCALE
 40
1.0
  9
$ATTMODE
 70
     1
  9
$TEXTSIZE
 40
0.06
  9
$TRACEWID
 40
0.05
  9
$TEXTSTYLE
  7
STANDARD
  9
$CLAYER
  8
DIMENSION
  9
$CELTYPE
  6
BYLAYER
  9
$CECOLOR
 62
   256
  9
$CELTSCALE
 40
1.0
  9
$DISPSILH
 70
     0
  9
$DIMSCALE
 40
1.0
  9
$DIMASZ
 40
0.125
  9
$DIMEXO
 40
0.0625
  9
$DIMDLI
 40
0.38
  9
$DIMRND
 40
0.0
  9
$DIMDLE
 40
0.0
  9
$DIMEXE
 40
0.0625
  9
$DIMTP
 40
0.0
  9
$DIMTM
 40
0.0
  9
$DIMTXT
 40
0.125
  9
$DIMCEN
 40
0.09
  9
$DIMTSZ
 40
0.0
  9
$DIMTOL
 70
     0
  9
$DIMLIM
 70
     0
  9
$DIMTIH
 70
     1
  9
$DIMTOH
 70
     1
  9
$DIMSE1
 70
     0
  9
$DIMSE2
 70
     0
  9
$DIMTAD
 70
     0
  9
$DIMZIN
 70
     0
  9
$DIMBLK
  1

  9
$DIMASO
 70
     1
  9
$DIMSHO
 70
     0
  9
$DIMPOST
  1

  9
$DIMAPOST
  1

  9
$DIMALT
 70
     0
  9
$DIMALTD
 70
     2
  9
$DIMALTF
 40
25.4
  9
$DIMLFAC
 40
1.0
  9
$DIMTOFL
 70
     0
  9
$DIMTVP
 40
0.0
  9
$DIMTIX
 70
     0
  9
$DIMSOXD
 70
     0
  9
$DIMSAH
 70
     0
  9
$DIMBLK1
  1

  9
$DIMBLK2
  1

  9
$DIMSTYLE
  2
STANDARD
  9
$DIMCLRD
 70
     0
  9
$DIMCLRE
 70
     0
  9
$DIMCLRT
 70
     0
  9
$DIMTFAC
 40
1.0
  9
$DIMGAP
 40
0.09
  9
$DIMJUST
 70
     0
  9
$DIMSD1
 70
     0
  9
$DIMSD2
 70
     0
  9
$DIMTOLJ
 70
     1
  9
$DIMTZIN
 70
     0
  9
$DIMALTZ
 70
     0
  9
$DIMALTTZ
 70
     0
  9
$DIMUPT
 70
     1
  9
$DIMDEC
 70
     2
  9
$DIMTDEC
 70
     2
  9
$DIMALTU
 70
     2
  9
$DIMALTTD
 70
     2
  9
$DIMTXSTY
  7
STANDARD
  9
$DIMAUNIT
 70
     0
  9
$DIMADEC
 70
     0
  9
$DIMALTRND
 40
0.0
  9
$DIMAZIN
 70
     0
  9
$DIMDSEP
 70
    46
  9
$DIMATFIT
 70
     3
  9
$DIMFRAC
 70
     0
  9
$DIMLDRBLK
  1

  9
$DIMLUNIT
 70
     5
  9
$DIMLWD
 70
    -2
  9
$DIMLWE
 70
    -2
  9
$DIMTMOVE
 70
     0
  9
$LUNITS
 70
     2
  9
$LUPREC
 70
     4
  9
$SKETCHINC
 40
0.1
  9
$FILLETRAD
 40
0.0
  9
$AUNITS
 70
     0
  9
$AUPREC
 70
     0
  9
$MENU
  1
ACAD
  9
$ELEVATION
 40
0.0
  9
$PELEVATION
 40
0.0
  9
$THICKNESS
 40
0.0
  9
$LIMCHECK
 70
     0
  9
$CHAMFERA
 40
0.0
  9
$CHAMFERB
 40
0.0
  9
$CHAMFERC
 40
0.0
  9
$CHAMFERD
 40
0.0
  9
$SKPOLY
 70
     0
  9
$TDCREATE
 40
2447762.569426620
  9
$TDUCREATE
 40
2447762.736093287
  9
$TDUPDATE
 40
2452558.636006944
  9
$TDUUPDATE
 40
2452558.802673611
  9
$TDINDWG
 40
0.3836175810
  9
$TDUSRTIMER
 40
0.3836174074
  9
$USRTIMER
 70
     1
  9
$ANGBASE
 50
0.0
  9
$ANGDIR
 70
     0
  9
$PDMODE
 70
     0
  9
$PDSIZE
 40
0.0
  9
$PLINEWID
 40
0.0
  9
$SPLFRAME
 70
     0
  9
$SPLINETYPE
 70
     6
  9
$SPLINESEGS
 70
     8
  9
$HANDSEED
  5
6F5
  9
$SURFTAB1
 70
     6
  9
$SURFTAB2
 70
     6
  9
$SURFTYPE
 70
     6
  9
$SURFU
 70
     6
  9
$SURFV
 70
     6
  9
$UCSBASE
  2

  9
$UCSNAME
  2

  9
$UCSORG
 10
0.0
 20
0.0
 30
0.0
  9
$UCSXDIR
 10
1.0
 20
0.0
 30
0.0
  9
$UCSYDIR
 10
0.0
 20
1.0
 30
0.0
  9
$UCSORTHOREF
  2

  9
$UCSORTHOVIEW
 70
     0
  9
$UCSORGTOP
 10
0.0
 20
0.0
 30
0.0
  9
$UCSORGBOTTOM
 10
0.0
 20
0.0
 30
0.0
  9
$UCSORGLEFT
 10
0.0
 20
0.0
 30
0.0
  9
$UCSORGRIGHT
 10
0.0
 20
0.0
 30
0.0
  9
$UCSORGFRONT
 10
0.0
 20
0.0
 30
0.0
  9
$UCSORGBACK
 10
0.0
 20
0.0
 30
0.0
  9
$PUCSBASE
  2

  9
$PUCSNAME
  2

  9
$PUCSORG
 10
0.0
 20
0.0
 30
0.0
  9
$PUCSXDIR
 10
1.0
 20
0.0
 30
0.0
  9
$PUCSYDIR
 10
0.0
 20
1.0
 30
0.0
  9
$PUCSORTHOREF
  2

  9
$PUCSORTHOVIEW
 70
     0
  9
$PUCSORGTOP
 10
0.0
 20
0.0
 30
0.0
  9
$PUCSORGBOTTOM
 10
0.0
 20
0.0
 30
0.0
  9
$PUCSORGLEFT
 10
0.0
 20
0.0
 30
0.0
  9
$PUCSORGRIGHT
 10
0.0
 20
0.0
 30
0.0
  9
$PUCSORGFRONT
 10
0.0
 20
0.0
 30
0.0
  9
$PUCSORGBACK
 10
0.0
 20
0.0
 30
0.0
  9
$USERI1
 70
     0
  9
$USERI2
 70
     0
  9
$USERI3
 70
     0
  9
$USERI4
 70
     0
  9
$USERI5
 70
     0
  9
$USERR1
 40
0.0
  9
$USERR2
 40
0.0
  9
$USERR3
 40
0.0
  9
$USERR4
 40
0.0
  9
$USERR5
 40
0.0
  9
$WORLDVIEW
 70
     1
  9
$SHADEDGE
 70
     3
  9
$SHADEDIF
 70
    70
  9
$TILEMODE
 70
     0
  9
$MAXACTVP
 70
    48
  9
$PINSBASE
 10
0.0
 20
0.0
 30
0.0
  9
$PLIMCHECK
 70
     0
  9
$PEXTMIN
 10
-0.191995661181636
 20
-0.6619640799652871
 30
-0.0000069581527042
  9
$PEXTMAX
 10
16.80900280282287
 20
10.33837355943718
 30
0.0000281391902106
  9
$PLIMMIN
 10
-0.1966666612099475
 20
-0.6666661810687208
  9
$PLIMMAX
 10
16.79999995419359
 20
10.32666656914658
  9
$UNITMODE
 70
     0
  9
$VISRETAIN
 70
     0
  9
$PLINEGEN
 70
     0
  9
$PSLTSCALE
 70
     0
  9
$TREEDEPTH
 70
  3020
  9
$CMLSTYLE
  2
STANDARD
  9
$CMLJUST
 70
     0
  9
$CMLSCALE
 40
1.0
  9
$PROXYGRAPHICS
 70
     1
  9
$MEASUREMENT
 70
     0
  9
$CELWEIGHT
370
    -1
  9
$ENDCAPS
280
     0
  9
$JOINSTYLE
280
     0
  9
$LWDISPLAY
290
     0
  9
$INSUNITS
 70
     0
  9
$HYPERLINKBASE
  1

  9
$STYLESHEET
  1

  9
$XEDIT
290
     1
  9
$CEPSNTYPE
380
     0
  9
$PSTYLEMODE
290
     1
  9
$FINGERPRINTGUID
  2
{48188CA0-689B-11D4-9FC7-005004B2D6C8}
  9
$VERSIONGUID
  2
{A789D5DD-DC72-11D6-A0E2-005004B2D6C8}
  9
$EXTNAMES
290
     1
  9
$PSVPSCALE
 40
0.0
  9
$OLESTARTUP
290
     0
  0
ENDSEC
  0
SECTION
  2
CLASSES
  0
CLASS
  1
DICTIONARYVAR
  2
AcDbDictionaryVar
  3
AutoCAD 2000
 90
        0
280
     0
281
     0
  0
CLASS
  1
ACME_DOCUMENT
  2
AcMeDoc
  3
AcMeServices
 90
    32768
280
     1
281
     0
  0
CLASS
  1
ACMESTATEMGR
  2
AcMeStateMgr
  3
AcMeServices
 90
        0
280
     0
281
     0
  0
CLASS
  1
ACMESCOPE
  2
AcMeScope
  3
AcMeServices
 90
        0
280
     0
281
     0
  0
CLASS
  1
ACMECOMMANDHISTORY
  2
AcMeCommandHistory
  3
AcMeServices
 90
        0
280
     0
281
     0
  0
CLASS
  1
ACRFINSADJUSTERMGR
  2
AcRfInsAdjusterMgr
  3
AcMeServices
 90
        0
280
     0
281
     0
  0
CLASS
  1
ACIMSYSVARMAN
  2
AcImSysVarManager
  3
AcMeServices
 90
        0
280
     0
281
     0
  0
CLASS
  1
ACIMREALSYSVAR
  2
AcImRealSysVar
  3
AcMeServices
 90
        0
280
     0
281
     0
  0
CLASS
  1
ACIMINTSYSVAR
  2
AcImIntSysVar
  3
AcMeServices
 90
        0
280
     0
281
     0
  0
CLASS
  1
ACMEDRAWINGMAN
  2
AcMeDrawingMan
  3
AcMeServices
 90
        0
280
     0
281
     0
  0
CLASS
  1
ACMEVIEW
  2
AcMeView
  3
AcMeServices
 90
        0
280
     0
281
     0
  0
CLASS
  1
ACDBENTITYCACHE
  2
AcMeEntityCache
  3
AcMeServices
 90
        0
280
     0
281
     0
  0
CLASS
  1
ACGREFMASTER
  2
AcGrefMaster
  3
AcAttribServices
 90
        0
280
     0
281
     0
  0
CLASS
  1
AMIMASTER
  2
AmiMaster
  3
AmiServices
 90
        0
280
     0
281
     0
  0
CLASS
  1
ACASGREFMASTER
  2
AcAsGrefMaster
  3
AutoSurfResolverServices
 90
        0
280
     0
281
     0
  0
CLASS
  1
ADAPPL
  2
AcAdAppl
  3
DesignerServices
 90
        0
280
     0
281
     0
  0
CLASS
  1
DEPMGR
  2
AcAdDepMgr
  3
DesignerServices
 90
        0
280
     0
281
     0
  0
CLASS
  1
PARAMMGR
  2
AcAdParamMgr
  3
DesignerServices
 90
        0
280
     0
281
     0
  0
CLASS
  1
PARAMSCOPE
  2
AcAdParamScope
  3
DesignerServices
 90
        0
280
     0
281
     0
  0
CLASS
  1
ACIMSTRSYSVAR
  2
AcImStrSysVar
  3
AcMeServices
 90
        0
280
     0
281
     0
  0
CLASS
  1
NAMEDAPPL
  2
AcAdNamedAppl
  3
DesignerServices
 90
        0
280
     0
281
     0
  0
CLASS
  1
ADHNTMPLT
  2
AdHoleNoteTemplateMgr
  3
DesignerServices
 90
    32768
280
     0
281
     0
  0
CLASS
  1
AM_HNTEMPLATE_MGR_NAME
  2
AdHoleNoteTemplateMgrName
  3
DesignerServices
 90
    32768
280
     0
281
     0
  0
CLASS
  1
ACADGREFMODULE
  2
AcAdGrefModule
  3
AdGrefServices
 90
        0
280
     0
281
     0
  0
CLASS
  1
AM_DRAWING_MGR
  2
AcDmDwgMgr
  3
AcMechDwgViewMgmt
 90
        0
280
     0
281
     0
  0
CLASS
  1
AM_DWG_DOCUMENT
  2
AcDmDwgDocument
  3
AcMechDwgViewMgmt
 90
        0
280
     0
281
     0
  0
CLASS
  1
AM_DWG_SHEET
  2
AcDmSheet
  3
AcMechDwgViewMgmt
 90
        0
280
     0
281
     0
  0
CLASS
  1
AM_VIEWDIMPARMAP
  2
AcDmViewDimParMap
  3
AcMechDwgViewMgmt
 90
        0
280
     0
281
     0
  0
CLASS
  1
AM_DWGMGR_NAME
  2
AcDmDwgMgrName
  3
AcMechDwgViewMgmt
 90
        0
280
     0
281
     0
  0
CLASS
  1
ACAMPROJECT
  2
AcAmProject
  3
DesignerAssemblies
 90
        0
280
     0
281
     0
  0
CLASS
  1
ACAMGRCOMPSET
  2
AcAmGrCompSet
  3
DesignerAssemblies
 90
    32768
280
     1
281
     0
  0
CLASS
  1
ACAMGRCOMPDEFSET
  2
AcAmGrCompDefSet
  3
DesignerAssemblies
 90
        0
280
     0
281
     0
  0
CLASS
  1
ACAMGRCOMPDEF
  2
AcAmGrCompDef
  3
DesignerAssemblies
 90
        0
280
     0
281
     0
  0
CLASS
  1
ACCMCONTEXT
  2
AcCmContext
  3
DesignerAssemblies
 90
        0
280
     0
281
     0
  0
CLASS
  1
ACAMCOMPDEF
  2
AcAmCompDef
  3
DesignerAssemblies
 90
        0
280
     0
281
     0
  0
CLASS
  1
ACAMCOMPDEFMGR
  2
AcAmCompDefMgr
  3
DesignerAssemblies
 90
        0
280
     0
281
     0
  0
CLASS
  1
AMCONTEXTMGR
  2
AcAmContextMgr
  3
DesignerAssemblies
 90
        0
280
     0
281
     0
  0
CLASS
  1
ACAMCONTEXTMODELER
  2
AcAmContextModeler
  3
DesignerAssemblies
 90
        0
280
     0
281
     0
  0
CLASS
  1
ACMDATADICTIONARY
  2
AcmDataDictionary
  3
"AcmSymBB|Product Description: AutoCAD Mechanical 2000|Company: Autodesk"
 90
        0
280
     0
281
     0
  0
CLASS
  1
ACMDATAENTRYBLOCK
  2
AcmDataEntryBlock
  3
"AcmSymBB|Product Description: AutoCAD Mechanical 2000|Company: Autodesk"
 90
        0
280
     0
281
     0
  0
CLASS
  1
ACDMVIEWGEOM
  2
AcDmViewGeometry
  3
AcMechDwgViewMgmt
 90
    32768
280
     0
281
     1
  0
CLASS
  1
CBROWSERAPPOBJECT
  2
CBrowserAppObject
  3
McadcomServices
 90
        0
280
     0
281
     0
  0
CLASS
  1
IM_STATIC_MAN
  2
AcImStaticVarManager
  3
AcMeServices
 90
        0
280
     0
281
     0
  0
CLASS
  1
ASAPP
  2
AcAsAppObject
  3
AutoSurfServices
 90
        0
280
     0
281
     0
  0
CLASS
  1
ACIMDBLSTATICVAR
  2
AcImDblStaticVar
  3
AcMeServices
 90
        0
280
     0
281
     0
  0
CLASS
  1
ACIMSTRSTATICVAR
  2
AcImStrStaticVar
  3
AcMeServices
 90
        0
280
     0
281
     0
  0
CLASS
  1
ACIMINTSTATICVAR
  2
AcImIntStaticVar
  3
AcMeServices
 90
        0
280
     0
281
     0
  0
CLASS
  1
CATALOGSTATE
  2
AcAmCatalogState
  3
DesignerAssemblies
 90
        0
280
     0
281
     0
  0
CLASS
  1
DM_PLACEHOLDER
  2
AcDmSelsetPlaceholder
  3
AcMechDwgViewMgmt
 90
        0
280
     0
281
     0
  0
CLASS
  1
AGDICTIONARY
  2
AgDictionary
  3
"AccelView"
 90
    32769
280
     0
281
     0
  0
CLASS
  1
LAYER_INDEX
  2
AcDbLayerIndex
  3
AutoCAD 2000
 90
        0
280
     0
281
     0
  0
CLASS
  1
IDBUFFER
  2
AcDbIdBuffer
  3
AutoCAD 2000
 90
        0
280
     0
281
     0
  0
CLASS
  1
ACRFATTGENMGR
  2
AcRfAttGeneralMgr
  3
AcAttribServices
 90
    32768
280
     0
281
     0
  0
CLASS
  1
ACDBDICTIONARYWDFLT
  2
AcDbDictionaryWithDefault
  3
AutoCAD 2000
 90
        0
280
     0
281
     0
  0
CLASS
  1
ACDBPLACEHOLDER
  2
AcDbPlaceHolder
  3
AutoCAD 2000
 90
        0
280
     0
281
     0
  0
CLASS
  1
LAYOUT
  2
AcDbLayout
  3
AutoCAD 2000
 90
        0
280
     0
281
     0
  0
CLASS
  1
ACME_DOCUMENT
  2
AcMeDbDoc
  3
AcMeServices
 90
        0
280
     0
281
     0
  0
CLASS
  1
GSMANAGER
  2
AcMeGSManager
  3
AcMeServices
 90
        0
280
     0
281
     0
  0
CLASS
  1
AMDTINTERNALREACTOR
  2
AmdtInternalReactor
  3
AcMeServices
 90
        0
280
     0
281
     0
  0
CLASS
  1
ACME_DATABASE
  2
AcMeDbDatabase
  3
AcMeServices
 90
        0
280
     0
281
     0
  0
CLASS
  1
ACGREFACADMASTER
  2
AcGrefacadMaster
  3
AcGrefServices
 90
        0
280
     0
281
     0
  0
CLASS
  1
AMDTMENUSTATEMGR
  2
AmdtMenuStateMgr
  3
McadcomServices
 90
        0
280
     0
281
     0
  0
CLASS
  1
AMDTMCOMMENUSTATE
  2
AmdtMcomMenuState
  3
McadcomServices
 90
        0
280
     0
281
     0
  0
CLASS
  1
MAPIAMMOUDLE
  2
MApiAmModule
  3
MApiAmServices
 90
        0
280
     0
281
     0
  0
CLASS
  1
AMDTDMMENUSTATE
  2
AmdtDmMenuState
  3
AcMechDwgViewMgmt
 90
        0
280
     0
281
     0
  0
CLASS
  1
AMDTADMENUSTATE
  2
AmdtAdMenuState
  3
DesignerServices
 90
        0
280
     0
281
     0
  0
CLASS
  1
AMDTAMMENUSTATE
  2
AmdtAmMenuState
  3
DesignerAssemblies
 90
        0
280
     0
281
     0
  0
CLASS
  1
MAPIADMODULE
  2
MApiAdModule
  3
MApiAdServices
 90
        0
280
     0
281
     0
  0
CLASS
  1
AMDTBROWSERDBTAB
  2
AmdtBrowserDbTab
  3
McadcomServices
 90
        0
280
     0
281
     0
  0
CLASS
  1
AMGOBJPROPCFG
  2
AmgObjPropCfg
  3
"AmgLay|Product Description: AutoCAD Mechanical 2000|Company: Autodesk"
 90
        1
280
     0
281
     0
  0
CLASS
  1
ADPART
  2
AcAdPart
  3
DesignerServices
 90
    32768
280
     0
281
     1
  0
CLASS
  1
ADBASE
  2
AcAdBase
  3
DesignerServices
 90
    32768
280
     0
281
     0
  0
CLASS
  1
BODYID
  2
AcAdBodyId
  3
DesignerServices
 90
    32768
280
     0
281
     0
  0
CLASS
  1
WORKPLANEDISPLAYMGR
  2
AcAdDisplayMgr
  3
DesignerServices
 90
    32768
280
     0
281
     0
  0
CLASS
  1
ACCMBODY
  2
AcCmBody
  3
DesignerAssemblies
 90
    32768
280
     0
281
     0
  0
CLASS
  1
ACAMCOMPENT
  2
AcAmCompEnt
  3
DesignerAssemblies
 90
    32768
280
     0
281
     1
  0
CLASS
  1
ACAMCOMPFEEDBACK
  2
AcAmCompFeedback
  3
DesignerAssemblies
 90
    32768
280
     0
281
     0
  0
CLASS
  1
ACAMCOMP
  2
AcAmComp
  3
DesignerAssemblies
 90
    32768
280
     0
281
     0
  0
CLASS
  1
ACAMCOMPENTCLONE
  2
AcAmCompEntClone
  3
DesignerAssemblies
 90
    32768
280
     0
281
     1
  0
CLASS
  1
ACAMCLONEREACTOR
  2
AcAmGrCompCloneReactor
  3
DesignerAssemblies
 90
    32768
280
     0
281
     0
  0
CLASS
  1
ADDATUMPLANEABS
  2
AcAdDatumPlaneAbs
  3
DesignerServices
 90
    32768
280
     0
281
     0
  0
CLASS
  1
ADDATUMAXISABS
  2
AcAdDatumAxisAbs
  3
DesignerServices
 90
    32768
280
     0
281
     0
  0
CLASS
  1
ADDATUMORIENTEDPLANE
  2
AcAdDatumOrientedPlane
  3
DesignerServices
 90
    32768
280
     0
281
     0
  0
CLASS
  1
ACAD_ARC
  2
AcAdArc
  3
DesignerServices
 90
    32768
280
     0
281
     1
  0
CLASS
  1
ACADARCACAD
  2
AcAdVirtualArcAcad
  3
DesignerServices
 90
    32768
280
     0
281
     0
  0
CLASS
  1
ACAD_LINE
  2
AcAdLine
  3
DesignerServices
 90
    32768
280
     0
281
     1
  0
CLASS
  1
ACADLINEACAD
  2
AcAdVirtualBoundedLineAcad
  3
DesignerServices
 90
    32768
280
     0
281
     0
  0
CLASS
  1
ACADREFLINEACAD
  2
AcAdVirtualReferenceLine
  3
DesignerServices
 90
    32768
280
     0
281
     0
  0
CLASS
  1
ACADCONSLINE
  2
AcAdConstrainedLine
  3
DesignerServices
 90
    32768
280
     0
281
     0
  0
CLASS
  1
ACADCONSGROUP
  2
AcAdConstraintGroup
  3
DesignerServices
 90
    32768
280
     0
281
     0
  0
CLASS
  1
ACADCONSCIRCLE
  2
AcAdConstrainedCircle
  3
DesignerServices
 90
    32768
280
     0
281
     0
  0
CLASS
  1
ACADIMPPTACAD
  2
AcAdVirtualImplicitPoint
  3
DesignerServices
 90
    32768
280
     0
281
     0
  0
CLASS
  1
ACADCONSPOINT
  2
AcAdConstrainedPoint
  3
DesignerServices
 90
    32768
280
     0
281
     0
  0
CLASS
  1
ADPCURCNS
  2
AcAdPointCurveConstr
  3
DesignerServices
 90
    32768
280
     0
281
     0
  0
CLASS
  1
ADCTRPTCNS
  2
AcAdCenterPointConstr
  3
DesignerServices
 90
    32768
280
     0
281
     0
  0
CLASS
  1
ADHORCNS
  2
AcAdHorizontalConstr
  3
DesignerServices
 90
    32768
280
     0
281
     0
  0
CLASS
  1
ADVERCNS
  2
AcAdVerticalConstr
  3
DesignerServices
 90
    32768
280
     0
281
     0
  0
CLASS
  1
ADTANCNS
  2
AcAdTangentConstr
  3
DesignerServices
 90
    32768
280
     0
281
     0
  0
CLASS
  1
ADEQRADCNS
  2
AcAdEqualRadiusConstr
  3
DesignerServices
 90
    32768
280
     0
281
     0
  0
CLASS
  1
ADCLPROF2D
  2
AcAdClosedProfile2d
  3
DesignerServices
 90
    32768
280
     0
281
     0
  0
CLASS
  1
ACAD_FIXCONSTRAINT
  2
AcAdFixedConstraint
  3
DesignerServices
 90
    32768
280
     0
281
     0
  0
CLASS
  1
ADCOLNCNS
  2
AcAdColinearConstr
  3
DesignerServices
 90
    32768
280
     0
281
     0
  0
CLASS
  1
ADPARCNS
  2
AcAdParallelConstr
  3
DesignerServices
 90
    32768
280
     0
281
     0
  0
CLASS
  1
ADCONCCNS
  2
AcAdConcentricConstr
  3
DesignerServices
 90
    32768
280
     0
281
     0
  0
CLASS
  1
ACMELINEARARROW
  2
AcImLinearArrowDisplay
  3
AcMeServices
 90
    32768
280
     0
281
     1
  0
CLASS
  1
PARAM
  2
AcAdParam
  3
DesignerServices
 90
    32768
280
     0
281
     0
  0
CLASS
  1
ACADVOLFEATWITHTRIM
  2
AcAdVolFeatWithTrim
  3
DesignerServices
 90
    32768
280
     0
281
     0
  0
CLASS
  1
DEPEDGEFEATUREORDERING
  2
AcAdDepEdgeFeatureOrdering
  3
DesignerServices
 90
    32768
280
     0
281
     0
  0
CLASS
  1
ADPLANEID
  2
AcAdPlaneId
  3
DesignerServices
 90
    32768
280
     0
281
     0
  0
CLASS
  1
ADDATUMPLANEFACE
  2
AcAdDatumPlaneFace
  3
DesignerServices
 90
    32768
280
     0
281
     0
  0
CLASS
  1
ACMEPLINE
  2
AcImPlineDisplay
  3
AcMeServices
 90
    32768
280
     0
281
     1
  0
CLASS
  1
EDGEID
  2
AcAdEdgeId
  3
DesignerServices
 90
    32768
280
     0
281
     0
  0
CLASS
  1
ADFILLET
  2
AcAdFillet
  3
DesignerServices
 90
    32768
280
     0
281
     0
  0
CLASS
  1
FEEDBACK
  2
AcAmFeedback
  3
DesignerAssemblies
 90
    32768
280
     0
281
     1
  0
CLASS
  1
ACAMTRIAXISSYMBOL
  2
AcAmTriAxisSymbol
  3
DesignerAssemblies
 90
    32768
280
     0
281
     0
  0
CLASS
  1
ACAMTEXTCIRCLESYMBOL
  2
AcAmTextCircleSymbol
  3
DesignerAssemblies
 90
    32768
280
     0
281
     0
  0
CLASS
  1
DEPEDGESECONDARYDEPID
  2
AcAdDepEdgeSecondaryDepId
  3
DesignerServices
 90
    32768
280
     0
281
     0
  0
CLASS
  1
ACAMEXTERNALCOMPDEF
  2
AcAmExternalCompDef
  3
DesignerAssemblies
 90
    32768
280
     0
281
     0
  0
CLASS
  1
ACAMGRBLOCKRECORD
  2
AcAmGrBlockRecord
  3
DesignerAssemblies
 90
    32768
280
     0
281
     0
  0
CLASS
  1
ACAMVIEWREACTOR
  2
AcAmViewReactor
  3
DesignerAssemblies
 90
    32768
280
     0
281
     0
  0
CLASS
  1
AMVIEW
  2
AcAmView
  3
DesignerAssemblies
 90
    32768
280
     0
281
     0
  0
CLASS
  1
ACAMVIEWCONTEXT
  2
AcAmViewContext
  3
DesignerAssemblies
 90
    32768
280
     0
281
     0
  0
CLASS
  1
ACAMCOMPVIEWREACTOR
  2
AcAmGrCompViewReactor
  3
DesignerAssemblies
 90
    32768
280
     0
281
     0
  0
CLASS
  1
ACAMCOMPENTVIEW
  2
AcAmCompEntView
  3
DesignerAssemblies
 90
    32768
280
     0
281
     1
  0
CLASS
  1
ACAMTRANSTWEAK
  2
AcAmTransTweak
  3
DesignerAssemblies
 90
    32768
280
     0
281
     0
  0
CLASS
  1
ACAMVIEWENTITYFILTER
  2
AcAmViewEntityFilter
  3
DesignerAssemblies
 90
    32768
280
     0
281
     0
  0
CLASS
  1
FACEID
  2
AcAdFaceId
  3
DesignerServices
 90
    32768
280
     0
281
     0
  0
CLASS
  1
ACADPARTPLANARFACERES
  2
AcAdPartPlanarFaceRes
  3
AdGrefServices
 90
    32768
280
     0
281
     0
  0
CLASS
  1
ACRFINSADJ
  2
AcRfInsAdjuster
  3
AcMeServices
 90
    32768
280
     0
281
     0
  0
CLASS
  1
AM_GREF_PLANE
  2
AcDmGrefPlnDef
  3
AcMechDwgViewMgmt
 90
    32768
280
     0
281
     0
  0
CLASS
  1
ACADPARTLINEDGRES
  2
AcAdPartLinEdgRes
  3
AdGrefServices
 90
    32768
280
     0
281
     0
  0
CLASS
  1
AM_GREF_AXIS
  2
AcDmGrefAxisDef
  3
AcMechDwgViewMgmt
 90
    32768
280
     0
281
     0
  0
CLASS
  1
AM_BASE_VIEW_ORIENT
  2
AcDmBaseViewOr
  3
AcMechDwgViewMgmt
 90
    32768
280
     0
281
     0
  0
CLASS
  1
AM_DWG_VIEWPORT
  2
AcDmViewport
  3
AcMechDwgViewMgmt
 90
    32768
280
     0
281
     0
  0
CLASS
  1
AM_VIEW_DISPLAY
  2
AcDmDwgViewDisplay
  3
AcMechDwgViewMgmt
 90
    32768
280
     0
281
     0
  0
CLASS
  1
AM_CLDFLTS
  2
AcDmClDflts
  3
AcMechDwgViewMgmt
 90
    32768
280
     0
281
     0
  0
CLASS
  1
AM_BASE_VIEW
  2
AcDmBaseView
  3
AcMechDwgViewMgmt
 90
    32768
280
     0
281
     0
  0
CLASS
  1
AM_ORTHO_VIEW_ORIENT
  2
AcDmOrthoViewOr
  3
AcMechDwgViewMgmt
 90
    32768
280
     0
281
     0
  0
CLASS
  1
AM_ORTHO_VIEW
  2
AcDmOrthoView
  3
AcMechDwgViewMgmt
 90
    32768
280
     0
281
     0
  0
CLASS
  1
AM_ISO_VIEW_ORIENT
  2
AcDmIsoViewOr
  3
AcMechDwgViewMgmt
 90
    32768
280
     0
281
     0
  0
CLASS
  1
AM_ISO_VIEW
  2
AcDmIsoView
  3
AcMechDwgViewMgmt
 90
    32768
280
     0
281
     0
  0
CLASS
  1
ACDMVWEDARC
  2
AcDmViewEdgeArc
  3
AcMechDwgViewMgmt
 90
    32768
280
     0
281
     1
  0
CLASS
  1
ACDMVWEDLINE
  2
AcDmViewEdgeLine
  3
AcMechDwgViewMgmt
 90
    32768
280
     0
281
     1
  0
CLASS
  1
ACDMVWEDELLIPSE
  2
AcDmViewEdgeEllipse
  3
AcMechDwgViewMgmt
 90
    32768
280
     0
281
     1
  0
CLASS
  1
ACDMVWEDSPLINE
  2
AcDmViewEdgeSpline
  3
AcMechDwgViewMgmt
 90
    32768
280
     0
281
     1
  0
CLASS
  1
ACDMVWEDCIRC
  2
AcDmViewEdgeCircle
  3
AcMechDwgViewMgmt
 90
    32768
280
     0
281
     1
  0
CLASS
  1
ACMBOM
  2
AcmBom
  3
"AcmSymBB|Product Description: AutoCAD Mechanical 2000|Company: Autodesk"
 90
    32768
280
     0
281
     0
  0
CLASS
  1
ACMBOMROW
  2
AcmBomRow
  3
"AcmSymBB|Product Description: AutoCAD Mechanical 2000|Company: Autodesk"
 90
    32768
280
     0
281
     0
  0
CLASS
  1
ACMSTANDARDANSI
  2
AcmStandardANSI
  3
"Amdt_StdImp|Product Description: AutoCAD Mechanical 2000|Company: Autodesk"
 90
        0
280
     0
281
     0
  0
CLASS
  1
ACMSURFSTANDARDANSI
  2
AcmSurfTextStdANSI
  3
"Amdt_StdImp|Product Description: AutoCAD Mechanical 2000|Company: Autodesk"
 90
        0
280
     0
281
     0
  0
CLASS
  1
ACMFCFSTANDARDANSI
  2
AcmFCFStdANSI
  3
"Amdt_StdImp|Product Description: AutoCAD Mechanical 2000|Company: Autodesk"
 90
        0
280
     0
281
     0
  0
CLASS
  1
ACMWELDSTANDARDANSI
  2
AcmWeldingStdANSI
  3
"Amdt_StdImp|Product Description: AutoCAD Mechanical 2000|Company: Autodesk"
 90
        0
280
     0
281
     0
  0
CLASS
  1
ACMIDSTANDARDANSI
  2
AcmIdStdANSI
  3
"Amdt_StdImp|Product Description: AutoCAD Mechanical 2000|Company: Autodesk"
 90
        0
280
     0
281
     0
  0
CLASS
  1
ACMDATUMSTANDARDANSI
  2
AcmDatumStdANSI
  3
"Amdt_StdImp|Product Description: AutoCAD Mechanical 2000|Company: Autodesk"
 90
        0
280
     0
281
     0
  0
CLASS
  1
ACMBOMSTANDARDANSI
  2
AcmBOMStdANSI
  3
"Amdt_StdImp|Product Description: AutoCAD Mechanical 2000|Company: Autodesk"
 90
        0
280
     0
281
     0
  0
CLASS
  1
ACMPICKOBJ
  2
AcmPickEnt
  3
"AcmSymBB|Product Description: AutoCAD Mechanical 2000|Company: Autodesk"
 90
    32768
280
     0
281
     1
  0
CLASS
  1
ACMBALLOON
  2
AcmBalloon
  3
"AcmSymBB|Product Description: AutoCAD Mechanical 2000|Company: Autodesk"
 90
    33791
280
     0
281
     1
  0
CLASS
  1
AM_VWNOTEADAPTER
  2
AcDmViewAnnotAdapter
  3
AcMechDwgViewMgmt
 90
    32768
280
     0
281
     0
  0
CLASS
  1
AM_VIEW_SELECT_FILTER
  2
AcDmSelectViewEntFilter
  3
AcMechDwgViewMgmt
 90
    32768
280
     0
281
     0
  0
CLASS
  1
AMGSETTINGSOBJ
  2
AmgSettingsObj
  3
"AcadM|Product Description: AutoCAD Mechanical 2000|Company: Autodesk"
 90
        0
280
     0
281
     0
  0
CLASS
  1
AMDTMAPISURFMOUDULE
  2
AmdtMApiSurfModule
  3
MApiSurfServices
 90
        0
280
     0
281
     0
  0
CLASS
  1
ACDMPARTVIEWDATA
  2
AcDmPartViewData
  3
AcMechDwgViewMgmt
 90
    32768
280
     0
281
     0
  0
CLASS
  1
ACDMDISPLAYATTRIBS
  2
AcDmDisplayAttribs
  3
AcMechDwgViewMgmt
 90
    32768
280
     0
281
     0
  0
CLASS
  1
ACDMBODYINSTANCEDATA
  2
AcDmBodyInstanceData
  3
AcMechDwgViewMgmt
 90
    32768
280
     0
281
     0
  0
CLASS
  1
AMDTFORMULAUPDATEDISPATCHER
  2
AmdtFormulaUpdateDispatcher
  3
AcMeServices
 90
    32768
280
     0
281
     0
  0
CLASS
  1
ACAMGTITLESTD
  2
AcAmgTitleStd
  3
"TITLEAPP"
 90
        0
280
     0
281
     0
  0
CLASS
  1
ACMDETAILSTANDARDANSI
  2
AmdtDetailSymStdANSI
  3
"Amdt_StdImp|Product Description: AutoCAD Mechanical 2000|Company: Autodesk"
 90
        0
280
     0
281
     0
  0
CLASS
  1
ACMSECTIONSTANDARDANSI
  2
AmdtSectionSymStdANSI
  3
"Amdt_StdImp|Product Description: AutoCAD Mechanical 2000|Company: Autodesk"
 90
        0
280
     0
281
     0
  0
CLASS
  1
ACMCENTERLINESTANDARDANSI
  2
AmdtCenterLineStdANSI
  3
"Amdt_StdImp|Product Description: AutoCAD Mechanical 2000|Company: Autodesk"
 90
        0
280
     0
281
     0
  0
CLASS
  1
ACMTHREADLINESTANDARDANSI
  2
AmdtThreadLineStdANSI
  3
"Amdt_StdImp|Product Description: AutoCAD Mechanical 2000|Company: Autodesk"
 90
        0
280
     0
281
     0
  0
CLASS
  1
ACMNOTESTANDARDANSI
  2
AmdtNoteStdANSI
  3
"Amdt_StdImp|Product Description: AutoCAD Mechanical 2000|Company: Autodesk"
 90
        0
280
     0
281
     0
  0
CLASS
  1
ACAMGLAYSTD
  2
AcAmgLayStd
  3
"AcAmgLayStd|Product Description: AutoCAD Mechanical 2000|Company: Autodesk"
 90
        0
280
     0
281
     0
  0
CLASS
  1
ACAMGDIMSTD
  2
AcAmgDimStd
  3
"AcAmgDimStd|Product Description: AutoCAD Mechanical 2000|Company: Autodesk"
 90
        0
280
     0
281
     0
  0
CLASS
  1
ACAMGFILTERDAT
  2
AcAmgFilterDat
  3
"AcadM|Product Description: AutoCAD Mechanical 2000|Company: Autodesk"
 90
        0
280
     0
281
     0
  0
CLASS
  1
ACAMGHOLECHARTSTDANSI
  2
AcAmgHoleChartStdANSI
  3
ACMSYMBB_MODULE_NAME
 90
        0
280
     0
281
     0
  0
ENDSEC
  0
SECTION
  2
TABLES
  0
TABLE
  2
VPORT
  5
1A
330
0
100
AcDbSymbolTable
 70
     1
  0
VPORT
  5
1B
330
1A
100
AcDbSymbolTableRecord
100
AcDbViewportTableRecord
  2
*Active
 70
     0
 10
0.0
 20
0.0
 11
1.0
 21
1.0
 12
0.0
 22
0.0
 13
0.0
 23
0.0
 14
1.0
 24
1.0
 15
0.0
 25
0.0
 16
0.0
 26
0.0
 36
1.0
 17
0.0
 27
0.0
 37
0.0
 40
2.000000000000000E+20
 41
1.0
 42
50.0
 43
0.0
 44
0.0
 50
0.0
 51
0.0
 71
     0
 72
  2000
 73
     1
 74
     1
 75
     0
 76
     0
 77
     0
 78
     0
281
     0
 65
     0
110
0.0
120
0.0
130
0.0
111
1.0
121
0.0
131
0.0
112
0.0
122
1.0
132
0.0
 79
     0
146
0.0
  0
ENDTAB
  0
TABLE
  2
LTYPE
  5
15
330
0
100
AcDbSymbolTable
 70
    19
  0
LTYPE
  5
16
330
15
100
AcDbSymbolTableRecord
100
AcDbLinetypeTableRecord
  2
BYBLOCK
 70
     0
  3

 72
    65
 73
     0
 40
0.0
  0
LTYPE
  5
17
330
15
100
AcDbSymbolTableRecord
100
AcDbLinetypeTableRecord
  2
BYLAYER
 70
     0
  3

 72
    65
 73
     0
 40
0.0
  0
LTYPE
  5
9
330
15
100
AcDbSymbolTableRecord
100
AcDbLinetypeTableRecord
  2
CONTINUOUS
 70
     0
  3
Solid line
 72
    65
 73
     0
 40
0.0
  0
LTYPE
  5
1B2
330
15
100
AcDbSymbolTableRecord
100
AcDbLinetypeTableRecord
  2
HIDDEN
 70
     0
  3
_ _ _ _ _ _ _ _ _ _ _ _ _ _ _ _ _ _ _ _ _ _ _
 72
    65
 73
     2
 40
0.375
 49
0.25
 74
     0
 49
-0.125
 74
     0
  0
LTYPE
  5
51
330
15
100
AcDbSymbolTableRecord
100
AcDbLinetypeTableRecord
  2
PHANTOM
 70
     0
  3
Phantom ______  __  __  ______  __  __  ______
 72
    65
 73
     6
 40
2.5
 49
1.25
 74
     0
 49
-0.25
 74
     0
 49
0.25
 74
     0
 49
-0.25
 74
     0
 49
0.25
 74
     0
 49
-0.25
 74
     0
  0
LTYPE
  5
610
330
15
100
AcDbSymbolTableRecord
100
AcDbLinetypeTableRecord
  2
PHANTOM2
 70
     0
  3
Phantom (.5x) ___ _ _ ___ _ _ ___ _ _ ___ _ _
 72
    65
 73
     6
 40
1.25
 49
0.625
 74
     0
 49
-0.125
 74
     0
 49
0.125
 74
     0
 49
-0.125
 74
     0
 49
0.125
 74
     0
 49
-0.125
 74
     0
  0
LTYPE
  5
611
330
15
100
AcDbSymbolTableRecord
100
AcDbLinetypeTableRecord
  2
CENTER
 70
     0
  3
Center ____ _ ____ _ ____ _ ____ _ ____ _ ____
 72
    65
 73
     4
 40
2.0
 49
1.25
 74
     0
 49
-0.25
 74
     0
 49
0.25
 74
     0
 49
-0.25
 74
     0
  0
LTYPE
  5
673
330
15
100
AcDbSymbolTableRecord
100
AcDbLinetypeTableRecord
  2
ASULTYPE
 70
     0
  3
Solid line
 72
    65
 73
     2
 40
3.0
 49
2.5
 74
     0
 49
0.5
 74
     0
  0
LTYPE
  5
674
330
15
100
AcDbSymbolTableRecord
100
AcDbLinetypeTableRecord
  2
ASVLTYPE
 70
     0
  3
__ __ __ __ __ __ __ __ __ __ __ __ __ __ __ __ __ __ __ __ __
 72
    65
 73
     2
 40
0.75
 49
0.5
 74
     0
 49
-0.25
 74
     0
  0
LTYPE
  5
6B8
330
15
100
AcDbSymbolTableRecord
100
AcDbLinetypeTableRecord
  2
AM_ISO02W050
 70
     0
  3
__ __ __ __ __ __ __ __ __ __ __ __ __ __ __
 72
    65
 73
     2
 40
7.5
 49
6.0
 74
     0
 49
-1.5
 74
     0
  0
LTYPE
  5
6B9
330
15
100
AcDbSymbolTableRecord
100
AcDbLinetypeTableRecord
  2
AM_ISO08W050
 70
     0
  3
____ . ____ . ____ . ____ . ____ . ____ . ____
 72
    65
 73
     4
 40
18.0
 49
12.0
 74
     0
 49
-1.5
 74
     0
 49
3.0
 74
     0
 49
-1.5
 74
     0
  0
LTYPE
  5
6BA
330
15
100
AcDbSymbolTableRecord
100
AcDbLinetypeTableRecord
  2
AM_ISO09W050
 70
     0
  3
_____ . . _____ . . _____ . . ____ .. ____
 72
    65
 73
     6
 40
22.5
 49
12.0
 74
     0
 49
-1.5
 74
     0
 49
3.0
 74
     0
 49
-1.5
 74
     0
 49
3.0
 74
     0
 49
-1.5
 74
     0
  0
LTYPE
  5
6BB
330
15
100
AcDbSymbolTableRecord
100
AcDbLinetypeTableRecord
  2
Amconstr
 70
     0
  3
_______________________
 72
    65
 73
     2
 40
9999.0
 49
9999.0
 74
     0
 49
0.0
 74
     0
  0
LTYPE
  5
6BC
330
15
100
AcDbSymbolTableRecord
100
AcDbLinetypeTableRecord
  2
AM_ISO08W050x2
 70
     0
  3
__ . __ . __ . __ . __ . __
 72
    65
 73
     4
 40
9.0
 49
6.0
 74
     0
 49
-0.75
 74
     0
 49
1.5
 74
     0
 49
-0.75
 74
     0
  0
LTYPE
  5
6BD
330
15
100
AcDbSymbolTableRecord
100
AcDbLinetypeTableRecord
  2
AM_ISO02W050x2
 70
     0
  3
 _ _ _ _ _ _ _ _ _ _ _ _
 72
    65
 73
     2
 40
3.75
 49
3.0
 74
     0
 49
-0.75
 74
     0
  0
LTYPE
  5
6C0
330
15
100
AcDbSymbolTableRecord
100
AcDbLinetypeTableRecord
  2
Amzigzag
 70
     0
  3
/\/-/\/-/\/-/\/-/\/-/\/
 72
    65
 73
     2
 40
11.00009999999999
 49
0.0001
 74
     4
 75
   135
340
6BF
 46
0.04
 50
0.0
 44
0.0
 45
0.0
 49
-11.0
 74
     0
  0
LTYPE
  5
6C1
330
15
100
AcDbSymbolTableRecord
100
AcDbLinetypeTableRecord
  2
CENTER2
 70
     0
  3
Center (.5x) ___ _ ___ _ ___ _ ___ _ ___ _ ___
 72
    65
 73
     4
 40
1.125
 49
0.75
 74
     0
 49
-0.125
 74
     0
 49
0.125
 74
     0
 49
-0.125
 74
     0
  0
LTYPE
  5
6C2
330
15
100
AcDbSymbolTableRecord
100
AcDbLinetypeTableRecord
  2
HIDDEN2
 70
     0
  3
Hidden (.5x) _ _ _ _ _ _ _ _ _ _ _ _ _ _ _ _ _
 72
    65
 73
     2
 40
0.1875
 49
0.125
 74
     0
 49
-0.0625
 74
     0
  0
LTYPE
  5
6C3
330
15
100
AcDbSymbolTableRecord
100
AcDbLinetypeTableRecord
  2
Amzigzag2
 70
     0
  3
/\/-/\/-/\/-/\/-/\/-/\/
 72
    65
 73
     2
 40
0.4401
 49
0.0001
 74
     4
 75
   135
340
6BF
 46
0.0016
 50
0.0
 44
0.0
 45
0.0
 49
-0.4400000000000001
 74
     0
  0
LTYPE
  5
6D1
330
15
100
AcDbSymbolTableRecord
100
AcDbLinetypeTableRecord
  2
ACANSTGB
 70
     0
  3
__ . . __ . .
 72
    65
 73
     6
 40
0.35433070866
 49
0.15748031496
 74
     0
 49
-0.03937007874
 74
     0
 49
0.03937007874
 74
     0
 49
-0.03937007874
 74
     0
 49
0.03937007874
 74
     0
 49
-0.03937007874
 74
     0
  0
LTYPE
  5
6D2
330
15
100
AcDbSymbolTableRecord
100
AcDbLinetypeTableRecord
  2
ACANSTGL
 70
     0
  3
_ _ _ _ _
 72
    65
 73
     2
 40
0.11811023622
 49
0.07874015748
 74
     0
 49
-0.03937007874
 74
     0
  0
ENDTAB
  0
TABLE
  2
LAYER
  5
11
330
0
100
AcDbSymbolTable
 70
     9
  0
LAYER
  5
5
330
11
100
AcDbSymbolTableRecord
100
AcDbLayerTableRecord
  2
0
 70
     0
 62
     7
  6
CONTINUOUS
370
    -3
390
6
  0
LAYER
  5
117
330
11
100
AcDbSymbolTableRecord
100
AcDbLayerTableRecord
  2
Defpoints
 70
     0
 62
    -7
  6
CONTINUOUS
290
     0
370
    -3
390
6
  0
LAYER
  5
13E
330
11
100
AcDbSymbolTableRecord
100
AcDbLayerTableRecord
  2
AM_VIS
 70
     0
 62
     7
  6
CONTINUOUS
370
    30
390
6
  0
LAYER
  5
1B1
330
11
100
AcDbSymbolTableRecord
100
AcDbLayerTableRecord
  2
AM_HID
 70
     0
 62
    -7
  6
HIDDEN
370
    15
390
6
  0
LAYER
  5
53
330
11
100
AcDbSymbolTableRecord
100
AcDbLayerTableRecord
  2
CENTER
 70
     0
 62
     5
  6
CONTINUOUS
370
    -3
390
6
  0
LAYER
  5
50
330
11
100
AcDbSymbolTableRecord
100
AcDbLayerTableRecord
  2
PHANTOM
 70
     0
 62
     2
  6
PHANTOM
370
    -3
390
6
  0
LAYER
  5
58
330
11
100
AcDbSymbolTableRecord
100
AcDbLayerTableRecord
  2
10
 70
     0
 62
     7
  6
CONTINUOUS
370
    -3
390
6
  0
LAYER
  5
24
330
11
100
AcDbSymbolTableRecord
100
AcDbLayerTableRecord
  2
DIMENSION
 70
     0
 62
     1
  6
CONTINUOUS
370
    -3
390
6
  0
LAYER
  5
13C
330
11
100
AcDbSymbolTableRecord
100
AcDbLayerTableRecord
  2
STD10004-H38
 70
     0
 62
     8
  6
CONTINUOUS
370
    -3
390
6
  0
ENDTAB
  0
TABLE
  2
STYLE
  5
12
330
0
100
AcDbSymbolTable
 70
     4
  0
STYLE
  5
13
330
12
100
AcDbSymbolTableRecord
100
AcDbTextStyleTableRecord
  2
STANDARD
 70
     0
 40
0.0
 41
1.0
 50
0.0
 71
     0
 42
0.06
  3
simplex.shx
  4

  0
STYLE
  5
6BF
330
12
100
AcDbSymbolTableRecord
100
AcDbTextStyleTableRecord
  2

 70
     1
 40
0.0
 41
1.0
 50
0.0
 71
     0
 42
0.06
  3
ltypeshp.shx
  4

  0
STYLE
  5
6C4
330
12
100
AcDbSymbolTableRecord
100
AcDbTextStyleTableRecord
  2
ACANSTS
 70
     0
 40
1.0
 41
1.0
 50
0.0
 71
     0
 42
0.06
  3
romans.shx
  4

  0
STYLE
  5
6D0
330
12
100
AcDbSymbolTableRecord
100
AcDbTextStyleTableRecord
  2
ACANSGDT
 70
     0
 40
0.0
 41
1.0
 50
0.0
 71
     0
 42
0.06
  3
amgdtans.shx
  4

  0
ENDTAB
  0
TABLE
  2
VIEW
  5
18
330
0
100
AcDbSymbolTable
 70
     0
  0
ENDTAB
  0
TABLE
  2
UCS
  5
19
330
0
100
AcDbSymbolTable
 70
     0
  0
ENDTAB
  0
TABLE
  2
APPID
  5
1C
330
0
100
AcDbSymbolTable
 70
    13
  0
APPID
  5
1D
330
1C
100
AcDbSymbolTableRecord
100
AcDbRegAppTableRecord
  2
ACAD
 70
     0
  0
APPID
  5
5EE
330
1C
100
AcDbSymbolTableRecord
100
AcDbRegAppTableRecord
  2
GENIUS_GENDIM_13
 70
     0
  0
APPID
  5
5EF
330
1C
100
AcDbSymbolTableRecord
100
AcDbRegAppTableRecord
  2
GENIUS_GENDTOL_13
 70
     0
  0
APPID
  5
5F0
330
1C
100
AcDbSymbolTableRecord
100
AcDbRegAppTableRecord
  2
GENIUS_GE3DTOL_13
 70
     0
  0
APPID
  5
5F3
330
1C
100
AcDbSymbolTableRecord
100
AcDbRegAppTableRecord
  2
MCAD_NO_VIS
 70
     0
  0
APPID
  5
5F4
330
1C
100
AcDbSymbolTableRecord
100
AcDbRegAppTableRecord
  2
ACAD_TEMP_GRAPHIC
 70
     0
  0
APPID
  5
626
330
1C
100
AcDbSymbolTableRecord
100
AcDbRegAppTableRecord
  2
AD_DRAW
 70
     0
  0
APPID
  5
629
330
1C
100
AcDbSymbolTableRecord
100
AcDbRegAppTableRecord
  2
ACATTRIBSERVICES
 70
     0
  0
APPID
  5
675
330
1C
100
AcDbSymbolTableRecord
100
AcDbRegAppTableRecord
  2
ASURF_PCURVE_APPNAME
 70
     0
  0
APPID
  5
67A
330
1C
100
AcDbSymbolTableRecord
100
AcDbRegAppTableRecord
  2
AMG_3D2D_5.0
 70
     0
  0
APPID
  5
6A5
330
1C
100
AcDbSymbolTableRecord
100
AcDbRegAppTableRecord
  2
DESIGNERASSEMBLIES
 70
     0
  0
APPID
  5
6AD
330
1C
100
AcDbSymbolTableRecord
100
AcDbRegAppTableRecord
  2
ACADM_DIM_EDIT
 70
     0
  0
APPID
  5
6AE
330
1C
100
AcDbSymbolTableRecord
100
AcDbRegAppTableRecord
  2
AMDT_DM_ADJ
 70
     0
  0
ENDTAB
  0
TABLE
  2
DIMSTYLE
  5
1E
330
0
100
AcDbSymbolTable
 70
     7
100
AcDbDimStyleTable
 71
     1
340
1F
  0
DIMSTYLE
105
1F
102
{ACAD_REACTORS
330
10D
330
11C
330
12A
102
}
330
1E
100
AcDbSymbolTableRecord
100
AcDbDimStyleTableRecord
  2
STANDARD
 70
     0
 41
0.125
 44
0.0625
140
0.125
271
     2
272
     2
277
     5
288
     1
340
13
  0
DIMSTYLE
105
6D6
330
1E
100
AcDbSymbolTableRecord
100
AcDbDimStyleTableRecord
  2
AM_ANSI
 70
     0
  4
mm
 41
0.1
 42
0.05
 43
0.5
 44
0.1
 47
0.1
 48
0.1
 78
     7
 79
     2
140
0.12
141
0.0
146
0.71
147
0.06
176
   256
177
   256
178
     2
274
     4
284
     7
340
13
371
    -1
372
    -1
  0
DIMSTYLE
105
6D7
330
1E
100
AcDbSymbolTableRecord
100
AcDbDimStyleTableRecord
  2
AM_ANSI$3
 70
     0
  4
mm
 41
0.1
 42
0.05
 43
0.5
 44
0.1
 47
0.1
 48
0.1
 78
     7
 79
     2
140
0.12
141
0.0
146
0.71
147
0.06
176
   256
177
   256
178
     2
274
     4
284
     7
288
     1
289
     0
340
13
371
    -1
372
    -1
  0
DIMSTYLE
105
6D8
330
1E
100
AcDbSymbolTableRecord
100
AcDbDimStyleTableRecord
  2
AM_ANSI$4
 70
     0
  4
mm
 41
0.1
 42
0.05
 43
0.5
 44
0.1
 47
0.1
 48
0.1
 78
     7
 79
     2
140
0.12
141
0.0
146
0.71
147
0.06
176
   256
177
   256
178
     2
274
     4
284
     7
288
     1
289
     0
340
13
371
    -1
372
    -1
  0
DIMSTYLE
105
6D9
330
1E
100
AcDbSymbolTableRecord
100
AcDbDimStyleTableRecord
  2
AM_ANSI$7
 70
     0
  4
mm
 41
0.1
 42
0.05
 43
0.5
 44
0.1
 47
0.1
 48
0.1
 78
     7
 79
     2
140
0.24
141
0.0
146
0.71
147
0.06
176
   256
177
   256
178
     2
274
     4
284
     7
340
13
371
    -1
372
    -1
  0
DIMSTYLE
105
6DA
330
1E
100
AcDbSymbolTableRecord
100
AcDbDimStyleTableRecord
  2
AM_ANSI$SF
 70
     0
  4
mm
 41
0.1
 42
0.05
 43
0.5
 44
0.1
 47
0.1
 48
0.1
 75
     1
 76
     1
 78
     7
 79
     2
140
0.12
141
0.0
146
0.71
147
0.06
176
   256
177
   256
178
     2
274
     4
284
     7
340
13
371
    -1
372
    -1
  0
DIMSTYLE
105
6DF
330
1E
100
AcDbSymbolTableRecord
100
AcDbDimStyleTableRecord
  2
AM_ANSI$SH
 70
     0
  4
mm
 41
0.1
 42
0.05
 43
0.5
 44
0.1
 47
0.1
 48
0.1
 75
     1
 76
     1
 78
     7
 79
     2
140
0.12
141
0.0
146
0.71
147
0.06
173
     1
176
   256
177
   256
178
     2
274
     4
284
     7
340
13
343
6DB
371
    -1
372
    -1
  0
ENDTAB
  0
TABLE
  2
BLOCK_RECORD
  5
1
330
0
100
AcDbSymbolTable
 70
    15
  0
BLOCK_RECORD
  5
2
102
{ACAD_XDICTIONARY
360
3
102
}
330
1
100
AcDbSymbolTableRecord
100
AcDbBlockTableRecord
  2
*MODEL_SPACE
340
B
  0
BLOCK_RECORD
  5
D
330
1
100
AcDbSymbolTableRecord
100
AcDbBlockTableRecord
  2
*PAPER_SPACE
340
10
  0
BLOCK_RECORD
  5
28
330
1
100
AcDbSymbolTableRecord
100
AcDbBlockTableRecord
  2
*U0
340
0
102
{BLKREFS
331
27
102
}
  0
BLOCK_RECORD
  5
2D
330
1
100
AcDbSymbolTableRecord
100
AcDbBlockTableRecord
  2
*U1
340
0
102
{BLKREFS
331
2C
102
}
  0
BLOCK_RECORD
  5
32
330
1
100
AcDbSymbolTableRecord
100
AcDbBlockTableRecord
  2
*U2
340
0
102
{BLKREFS
331
31
102
}
  0
BLOCK_RECORD
  5
37
330
1
100
AcDbSymbolTableRecord
100
AcDbBlockTableRecord
  2
*U3
340
0
102
{BLKREFS
331
36
102
}
  0
BLOCK_RECORD
  5
61
330
1
100
AcDbSymbolTableRecord
100
AcDbBlockTableRecord
  2
A$C708B5813
340
0
102
{BLKREFS
331
D1
331
60
102
}
  0
BLOCK_RECORD
  5
3C
330
1
100
AcDbSymbolTableRecord
100
AcDbBlockTableRecord
  2
*U5
340
0
102
{BLKREFS
331
3B
102
}
  0
BLOCK_RECORD
  5
41
330
1
100
AcDbSymbolTableRecord
100
AcDbBlockTableRecord
  2
*U6
340
0
102
{BLKREFS
331
40
102
}
  0
BLOCK_RECORD
  5
46
330
1
100
AcDbSymbolTableRecord
100
AcDbBlockTableRecord
  2
*U7
340
0
102
{BLKREFS
331
45
102
}
  0
BLOCK_RECORD
  5
4B
330
1
100
AcDbSymbolTableRecord
100
AcDbBlockTableRecord
  2
*U8
340
0
102
{BLKREFS
331
4A
102
}
  0
BLOCK_RECORD
  5
D0
330
1
100
AcDbSymbolTableRecord
100
AcDbBlockTableRecord
  2
A$C2BF30918
340
0
102
{BLKREFS
331
CF
102
}
  0
BLOCK_RECORD
  5
10E
330
1
100
AcDbSymbolTableRecord
100
AcDbBlockTableRecord
  2
*D10
340
0
  0
BLOCK_RECORD
  5
11D
330
1
100
AcDbSymbolTableRecord
100
AcDbBlockTableRecord
  2
*D11
340
0
  0
BLOCK_RECORD
  5
12B
330
1
100
AcDbSymbolTableRecord
100
AcDbBlockTableRecord
  2
*D12
340
0
  0
BLOCK_RECORD
  5
69C
330
1
100
AcDbSymbolTableRecord
100
AcDbBlockTableRecord
  2
*U13
340
0
  0
BLOCK_RECORD
  5
6DB
330
1
100
AcDbSymbolTableRecord
100
AcDbBlockTableRecord
  2
GENAXEH
340
0
  0
ENDTAB
  0
ENDSEC
  0
SECTION
  2
BLOCKS
  0
BLOCK
  5
4
330
2
100
AcDbEntity
  8
0
 62
     2
100
AcDbBlockBegin
  2
*MODEL_SPACE
 70
     0
 10
0.0
 20
0.0
 30
0.0
  3
*MODEL_SPACE
  1

  0
ENDBLK
  5
A
330
2
100
AcDbEntity
  8
0
 62
     2
100
AcDbBlockEnd
  0
BLOCK
  5
E
330
D
100
AcDbEntity
 67
     1
  8
0
 62
     2
100
AcDbBlockBegin
  2
*PAPER_SPACE
 70
     0
 10
0.0
 20
0.0
 30
0.0
  3
*PAPER_SPACE
  1

  0
ENDBLK
  5
F
330
D
100
AcDbEntity
 67
     1
  8
0
 62
     2
100
AcDbBlockEnd
  0
BLOCK
  5
2A
330
28
100
AcDbEntity
  8
0
  6
ByBlock
 62
     2
100
AcDbBlockBegin
  2
*U0
 70
     1
 10
0.0
 20
0.0
 30
0.0
  3
*U0
  1

  0
TEXT
  5
29
330
28
100
AcDbEntity
  8
0
  6
ByBlock
 62
     2
100
AcDbText
 10
15.253
 20
1.7495
 30
0.0
 40
0.094
  1
 
 41
0.8842105263157966
 72
     5
 11
15.3282
 21
1.7495
 31
0.0
100
AcDbText
  0
ENDBLK
  5
2B
330
28
100
AcDbEntity
  8
0
100
AcDbBlockEnd
  0
BLOCK
  5
2F
330
2D
100
AcDbEntity
  8
0
  6
ByBlock
 62
     2
100
AcDbBlockBegin
  2
*U1
 70
     1
 10
0.0
 20
0.0
 30
0.0
  3
*U1
  1

  0
TEXT
  5
2E
330
2D
100
AcDbEntity
  8
0
  6
ByBlock
 62
     2
100
AcDbText
 10
15.253
 20
1.436999999999999
 30
0.0
 40
0.094
  1
 
 41
0.8842105263157966
 72
     5
 11
15.3282
 21
1.436999999999999
 31
0.0
100
AcDbText
  0
ENDBLK
  5
30
330
2D
100
AcDbEntity
  8
0
100
AcDbBlockEnd
  0
BLOCK
  5
34
330
32
100
AcDbEntity
  8
0
  6
ByBlock
 62
     2
100
AcDbBlockBegin
  2
*U2
 70
     1
 10
0.0
 20
0.0
 30
0.0
  3
*U2
  1

  0
TEXT
  5
33
330
32
100
AcDbEntity
  8
0
  6
ByBlock
 62
     2
100
AcDbText
 10
15.253
 20
1.1245
 30
0.0
 40
0.094
  1
 
 41
0.8842105263157966
 72
     5
 11
15.3282
 21
1.1245
 31
0.0
100
AcDbText
  0
ENDBLK
  5
35
330
32
100
AcDbEntity
  8
0
100
AcDbBlockEnd
  0
BLOCK
  5
39
330
37
100
AcDbEntity
  8
0
  6
ByBlock
 62
     2
100
AcDbBlockBegin
  2
*U3
 70
     1
 10
0.0
 20
0.0
 30
0.0
  3
*U3
  1

  0
TEXT
  5
38
330
37
100
AcDbEntity
  8
0
  6
ByBlock
 62
     2
100
AcDbText
 10
15.253
 20
0.812
 30
0.0
 40
0.094
  1
 
 41
0.8842105263157966
 72
     5
 11
15.3282
 21
0.812
 31
0.0
100
AcDbText
  0
ENDBLK
  5
3A
330
37
100
AcDbEntity
  8
0
100
AcDbBlockEnd
  0
BLOCK
  5
A2
330
61
100
AcDbEntity
  8
0
100
AcDbBlockBegin
  2
A$C708B5813
 70
     0
 10
0.0
 20
0.0
 30
0.0
  3
A$C708B5813
  1

  0
LINE
  5
62
330
61
100
AcDbEntity
  8
10
100
AcDbLine
 10
0.2399999692803618
 20
0.2640315084226485
 30
0.0
 11
0.2436013672279564
 21
0.2661107764971518
 31
0.0
  0
CIRCLE
  5
63
330
61
100
AcDbEntity
  8
10
100
AcDbCircle
 10
0.2399999692803618
 20
0.2640315084226485
 30
0.0
 40
0.0041585361490064
  0
ARC
  5
64
330
61
100
AcDbEntity
  8
10
100
AcDbCircle
 10
0.2399999692803512
 20
0.2871255191902322
 30
0.0
 40
0.01
100
AcDbArc
 50
239.9999999999999
 51
300.0000000000007
  0
ARC
  5
65
330
61
100
AcDbEntity
  8
10
100
AcDbCircle
 10
0.2399999692803618
 20
0.529612632249878
 30
0.0
 40
0.01
100
AcDbArc
 50
60.00000000000078
 51
119.9999999999996
  0
ARC
  5
66
330
61
100
AcDbEntity
  8
10
100
AcDbCircle
 10
0.2399999692511088
 20
0.3949160812035983
 30
0.0
 40
0.01
100
AcDbArc
 50
239.9999999674644
 51
300.0000000465846
  0
ARC
  5
67
330
61
100
AcDbEntity
  8
10
100
AcDbCircle
 10
0.2393667475655192
 20
0.4214564796978131
 30
0.0
 40
0.01
100
AcDbArc
 50
60.0
 51
119.9999999818938
  0
LINE
  5
68
330
61
100
AcDbEntity
  8
10
100
AcDbLine
 10
0.0249999692803549
 20
0.3997088216822098
 30
0.0
 11
0.2349999692803522
 21
0.2784652651523878
 31
0.0
  0
LINE
  5
69
330
61
100
AcDbEntity
  8
10
100
AcDbLine
 10
-0.0000000307196402
 20
0.3737280595686747
 30
0.0
 11
-0.0000000307196366
 21
0.1312409465090325
 31
0.0
  0
LINE
  5
6A
330
61
100
AcDbEntity
  8
10
100
AcDbLine
 10
0.0149999692803604
 20
0.3823883136065191
 30
0.0
 11
0.2249999692803613
 21
0.2611447570767011
 31
0.0
  0
LINE
  5
6B
330
61
100
AcDbEntity
  8
10
100
AcDbLine
 10
0.2399999692803618
 20
0.2640315084226485
 30
0.0
 11
0.2399999692803618
 21
0.2598729722736421
 31
0.0
  0
LINE
  5
6C
330
61
100
AcDbEntity
  8
10
100
AcDbLine
 10
0.2363985713327672
 20
0.2661107764971531
 30
0.0
 11
0.2399999692803618
 21
0.2640315084226485
 31
0.0
  0
LINE
  5
6D
330
61
100
AcDbEntity
  8
10
100
AcDbLine
 10
0.2299999692803709
 20
0.1139204384333419
 30
0.0
 11
0.1356921705519909
 21
0.168369071415853
 31
0.0
  0
LINE
  5
6E
330
61
100
AcDbEntity
  8
10
100
AcDbLine
 10
0.2299999692803674
 20
0.1370144492009269
 30
0.0
 11
0.1366506043749744
 21
0.1909097301577374
 31
0.0
  0
LINE
  5
6F
330
61
100
AcDbEntity
  8
10
100
AcDbLine
 10
0.2299999692803709
 20
0.113920438433345
 30
0.0
 11
0.2299999692803674
 21
0.0099973899792092
 31
0.0
  0
LINE
  5
70
330
61
100
AcDbEntity
  8
10
100
AcDbLine
 10
0.2299999692803638
 20
0.2524845030388567
 30
0.0
 11
0.2299999692803674
 21
0.1370144492009304
 31
0.0
  0
ARC
  5
71
330
61
100
AcDbEntity
  8
10
100
AcDbCircle
 10
0.1266506043749622
 20
0.1726410827766105
 30
0.0
 40
0.01
100
AcDbArc
 50
239.9999999999995
 51
334.709932108123
  0
LINE
  5
72
330
61
100
AcDbEntity
  8
10
100
AcDbLine
 10
0.1366506043749744
 20
0.1909097301577414
 30
0.0
 11
0.1366506043749673
 21
0.1985892220820524
 31
0.0
  0
LINE
  5
73
330
61
100
AcDbEntity
  8
10
100
AcDbLine
 10
0.1216506043749632
 20
0.1639808287387661
 30
0.0
 11
0.0983493341857553
 21
0.177433823354967
 31
0.0
  0
ARC
  5
74
330
61
100
AcDbEntity
  8
10
100
AcDbCircle
 10
0.1266506043749658
 20
0.1985892220820524
 30
0.0
 40
0.01
100
AcDbArc
 50
0.0
 51
59.99999999999917
  0
LINE
  5
75
330
61
100
AcDbEntity
  8
10
100
AcDbLine
 10
0.1316506043749648
 20
0.2072494761198969
 30
0.0
 11
0.1083493341857533
 21
0.2207024707360996
 31
0.0
  0
ARC
  5
76
330
61
100
AcDbEntity
  8
10
100
AcDbCircle
 10
0.1033493341857543
 20
0.1860940773928115
 30
0.0
 40
0.01
100
AcDbArc
 50
180.0
 51
239.9999999999999
  0
LINE
  5
77
330
61
100
AcDbEntity
  8
10
100
AcDbLine
 10
0.0933493341857528
 20
0.1860940773928115
 30
0.0
 11
0.0933493341857528
 21
0.2120422166982552
 31
0.0
  0
ARC
  5
78
330
61
100
AcDbEntity
  8
10
100
AcDbCircle
 10
0.1033493341857543
 20
0.2120422166982552
 30
0.0
 40
0.01
100
AcDbArc
 50
60.0
 51
180.0
  0
ARC
  5
79
330
61
100
AcDbEntity
  8
10
100
AcDbCircle
 10
0.009999969280365
 20
0.1312409465090325
 30
0.0
 40
0.01
100
AcDbArc
 50
180.0000000000006
 51
240.0000000000003
  0
LINE
  5
7A
330
61
100
AcDbEntity
  8
10
100
AcDbLine
 10
0.0049999692803659
 20
0.1225806924711881
 30
0.0
 11
0.2149999692803668
 21
0.0013371359413648
 31
0.0
  0
ARC
  5
7B
330
61
100
AcDbEntity
  8
10
100
AcDbCircle
 10
0.2199999692803658
 20
0.0099973899792092
 30
0.0
 40
0.01
100
AcDbArc
 50
239.9999999999999
 51
0.0
  0
ARC
  5
7C
330
61
100
AcDbEntity
  8
10
100
AcDbCircle
 10
0.2199999692803622
 20
0.2524845030388567
 30
0.0
 40
0.01
100
AcDbArc
 50
0.0000000000007124
 51
60.00000000000078
  0
LINE
  5
7D
330
61
100
AcDbEntity
  8
10
100
AcDbLine
 10
0.0249999692803549
 20
0.4170293297578988
 30
0.0
 11
0.2349999692803628
 21
0.5382728862877224
 31
0.0
  0
ARC
  5
7E
330
61
100
AcDbEntity
  8
10
100
AcDbCircle
 10
0.0299999692803539
 20
0.4083690757200542
 30
0.0
 40
0.01
100
AcDbArc
 50
119.9999999999997
 51
240.0000000000002
  0
LINE
  5
7F
330
61
100
AcDbEntity
  8
10
100
AcDbLine
 10
0.2349999692461928
 20
0.3862558271685934
 30
0.0
 11
0.2116986990911549
 21
0.3997088217818918
 31
0.0
  0
LINE
  5
80
330
61
100
AcDbEntity
  8
10
100
AcDbLine
 10
0.2116986990911549
 20
0.4170293298575807
 30
0.0
 11
0.2343667475682558
 21
0.4301167337372376
 31
0.0
  0
ARC
  5
81
330
61
100
AcDbEntity
  8
10
100
AcDbCircle
 10
0.2166986990911539
 20
0.4083690758197364
 30
0.0
 40
0.01
100
AcDbArc
 50
119.9999999999999
 51
239.9999999999999
  0
ARC
  5
82
330
61
100
AcDbEntity
  8
10
100
AcDbCircle
 10
0.0099999692803614
 20
0.3737280595686747
 30
0.0
 40
0.01
100
AcDbArc
 50
60.00000000000071
 51
180.0
  0
LINE
  5
83
330
61
100
AcDbEntity
  8
10
100
AcDbLine
 10
0.2449999692803502
 20
0.2784652651523878
 30
0.0
 11
0.4549999692803617
 21
0.399708821682216
 31
0.0
  0
LINE
  5
84
330
61
100
AcDbEntity
  8
10
100
AcDbLine
 10
0.2599999692803685
 20
0.2640315084226534
 30
0.0
 11
0.4499999692803557
 21
0.3737280595686805
 31
0.0
  0
ARC
  5
85
330
61
100
AcDbEntity
  8
10
100
AcDbCircle
 10
0.4599999692803573
 20
0.3564075514929916
 30
0.0
 40
0.02
100
AcDbArc
 50
0.0000000000006997
 51
119.9999999999999
  0
LINE
  5
86
330
61
100
AcDbEntity
  8
10
100
AcDbLine
 10
0.3853226110081884
 20
0.1920490020623578
 30
0.0
 11
0.4799999692803604
 21
0.2467110003469632
 31
0.0
  0
LINE
  5
87
330
61
100
AcDbEntity
  8
10
100
AcDbLine
 10
0.3860173827363553
 20
0.2155441394742277
 30
0.0
 11
0.4799999692803567
 21
0.269805011114542
 31
0.0
  0
ARC
  5
88
330
61
100
AcDbEntity
  8
10
100
AcDbCircle
 10
0.3766506043749799
 20
0.2120422166982596
 30
0.0
 40
0.01
100
AcDbArc
 50
20.49907611913283
 51
120.000000000006
  0
LINE
  5
89
330
61
100
AcDbEntity
  8
10
100
AcDbLine
 10
0.3853226110081849
 20
0.192049002062356
 30
0.0
 11
0.3853226110081813
 21
0.1857245431213443
 31
0.0
  0
LINE
  5
8A
330
61
100
AcDbEntity
  8
10
100
AcDbLine
 10
0.4799999692803604
 20
0.2467110003469597
 30
0.0
 11
0.4799999692803639
 21
0.1370144492009322
 31
0.0
  0
LINE
  5
8B
330
61
100
AcDbEntity
  8
10
100
AcDbLine
 10
0.4799999692803567
 20
0.3564075514929921
 30
0.0
 11
0.4799999692803567
 21
0.2698050111145451
 31
0.0
  0
ARC
  5
8C
330
61
100
AcDbEntity
  8
10
100
AcDbCircle
 10
0.3533493341857579
 20
0.1722355030579732
 30
0.0
 40
0.01
100
AcDbArc
 50
180.0
 51
301.5450923819967
  0
LINE
  5
8D
330
61
100
AcDbEntity
  8
10
100
AcDbLine
 10
0.3805543054044094
 20
0.1772022562366846
 30
0.0
 11
0.358581028581991
 21
0.1637132161733139
 31
0.0
  0
LINE
  5
8E
330
61
100
AcDbEntity
  8
10
100
AcDbLine
 10
0.3433493341857599
 20
0.1793627247739491
 30
0.0
 11
0.3433493341857563
 21
0.1722355030579732
 31
0.0
  0
ARC
  5
8F
330
61
100
AcDbEntity
  8
10
100
AcDbCircle
 10
0.3753226110081798
 20
0.1857245431213443
 30
0.0
 40
0.01
100
AcDbArc
 50
301.5450923819923
 51
0.0
  0
LINE
  5
90
330
61
100
AcDbEntity
  8
10
100
AcDbLine
 10
0.3483493341857553
 20
0.2072494761198902
 30
0.0
 11
0.3716506043749774
 21
0.2207024707361036
 31
0.0
  0
ARC
  5
91
330
61
100
AcDbEntity
  8
10
100
AcDbCircle
 10
0.3533493341857579
 20
0.1985892220820467
 30
0.0
 40
0.01
100
AcDbArc
 50
120.000000000009
 51
180.0
  0
LINE
  5
92
330
61
100
AcDbEntity
  8
10
100
AcDbLine
 10
0.3433493341857599
 20
0.1793627247739509
 30
0.0
 11
0.3433493341857563
 21
0.1985892220820467
 31
0.0
  0
ARC
  5
93
330
61
100
AcDbEntity
  8
10
100
AcDbCircle
 10
0.2699999692803701
 20
0.2467110003469646
 30
0.0
 40
0.02
100
AcDbArc
 50
120.0000000000001
 51
180.0000000000026
  0
LINE
  5
94
330
61
100
AcDbEntity
  8
10
100
AcDbLine
 10
0.2499999692803705
 20
0.2467110003469637
 30
0.0
 11
0.2499999692803705
 21
0.0273178980548985
 31
0.0
  0
ARC
  5
95
330
61
100
AcDbEntity
  8
10
100
AcDbCircle
 10
0.2699999692803701
 20
0.0273178980548989
 30
0.0
 40
0.02
100
AcDbArc
 50
180.0000000000014
 51
300.0000000000003
  0
LINE
  5
96
330
61
100
AcDbEntity
  8
10
100
AcDbLine
 10
0.2799999692803716
 20
0.0099973899792101
 30
0.0
 11
0.4699999692803658
 21
0.1196939411252429
 31
0.0
  0
ARC
  5
97
330
61
100
AcDbEntity
  8
10
100
AcDbCircle
 10
0.4599999692803644
 20
0.1370144492009317
 30
0.0
 40
0.02
100
AcDbArc
 50
300.0000000000003
 51
0.0000000000017175
  0
ARC
  5
98
330
61
100
AcDbEntity
  8
10
100
AcDbCircle
 10
0.2699999692803594
 20
0.2467110003469637
 30
0.0
 40
0.02
100
AcDbArc
 50
120.0000000000008
 51
180.0000000000006
  0
ARC
  5
99
330
61
100
AcDbEntity
  8
10
100
AcDbCircle
 10
0.4499999692803627
 20
0.4083690757200606
 30
0.0
 40
0.01
100
AcDbArc
 50
300.0000000000008
 51
60.00000000000074
  0
LINE
  5
9A
330
61
100
AcDbEntity
  8
10
100
AcDbLine
 10
0.3599999691803148
 20
0.4718776053886781
 30
0.0
 11
0.4549999692803617
 21
0.417029329757905
 31
0.0
  0
LINE
  5
9B
330
61
100
AcDbEntity
  8
10
100
AcDbLine
 10
0.2449999692803608
 20
0.5382728862877224
 30
0.0
 11
0.3399999691803188
 21
0.4834246107724695
 31
0.0
  0
LINE
  5
9C
330
61
100
AcDbEntity
  8
10
100
AcDbLine
 10
0.2660173827513717
 20
0.4176167338147875
 30
0.0
 11
0.3599999691803148
 21
0.4718776053886781
 31
0.0
  0
LINE
  5
9D
330
61
100
AcDbEntity
  8
10
100
AcDbLine
 10
0.2460173826459275
 20
0.429163739137699
 30
0.0
 11
0.3399999691803188
 21
0.4834246107724695
 31
0.0
  0
LINE
  5
9E
330
61
100
AcDbEntity
  8
10
100
AcDbLine
 10
0.2460173826459311
 20
0.4291637391376977
 30
0.0
 11
0.2443667475655182
 21
0.4301167337356575
 31
0.0
  0
LINE
  5
9F
330
61
100
AcDbEntity
  8
10
100
AcDbLine
 10
0.267668017831781
 20
0.4166637392168293
 30
0.0
 11
0.2660173827513788
 21
0.417616733814787
 31
0.0
  0
LINE
  5
A0
330
61
100
AcDbEntity
  8
10
100
AcDbLine
 10
0.2449999692581493
 20
0.3862558271698191
 30
0.0
 11
0.2676680178317312
 21
0.3993432311411684
 31
0.0
  0
ARC
  5
A1
330
61
100
AcDbEntity
  8
10
100
AcDbCircle
 10
0.2626680178317322
 20
0.408003485179013
 30
0.0
 40
0.01
100
AcDbArc
 50
299.9999999999999
 51
59.99999999968121
  0
ENDBLK
  5
A3
330
61
100
AcDbEntity
  8
0
100
AcDbBlockEnd
  0
BLOCK
  5
3E
330
3C
100
AcDbEntity
  8
0
  6
ByBlock
 62
     2
100
AcDbBlockBegin
  2
*U5
 70
     1
 10
0.0
 20
0.0
 30
0.0
  3
*U5
  1

  0
TEXT
  5
3D
330
3C
100
AcDbEntity
  8
0
  6
ByBlock
 62
     2
100
AcDbText
 10
15.253
 20
1.7495
 30
0.0
 40
0.094
  1
 
 41
0.8842105263157966
 72
     5
 11
15.3282
 21
1.7495
 31
0.0
100
AcDbText
  0
ENDBLK
  5
3F
330
3C
100
AcDbEntity
  8
0
100
AcDbBlockEnd
  0
BLOCK
  5
43
330
41
100
AcDbEntity
  8
0
  6
ByBlock
 62
     2
100
AcDbBlockBegin
  2
*U6
 70
     1
 10
0.0
 20
0.0
 30
0.0
  3
*U6
  1

  0
TEXT
  5
42
330
41
100
AcDbEntity
  8
0
  6
ByBlock
 62
     2
100
AcDbText
 10
15.253
 20
1.436999999999999
 30
0.0
 40
0.094
  1
 
 41
0.8842105263157966
 72
     5
 11
15.3282
 21
1.436999999999999
 31
0.0
100
AcDbText
  0
ENDBLK
  5
44
330
41
100
AcDbEntity
  8
0
100
AcDbBlockEnd
  0
BLOCK
  5
48
330
46
100
AcDbEntity
  8
0
  6
ByBlock
 62
     2
100
AcDbBlockBegin
  2
*U7
 70
     1
 10
0.0
 20
0.0
 30
0.0
  3
*U7
  1

  0
TEXT
  5
47
330
46
100
AcDbEntity
  8
0
  6
ByBlock
 62
     2
100
AcDbText
 10
15.253
 20
1.1245
 30
0.0
 40
0.094
  1
 
 41
0.8842105263157966
 72
     5
 11
15.3282
 21
1.1245
 31
0.0
100
AcDbText
  0
ENDBLK
  5
49
330
46
100
AcDbEntity
  8
0
100
AcDbBlockEnd
  0
BLOCK
  5
4D
330
4B
100
AcDbEntity
  8
0
  6
ByBlock
 62
     2
100
AcDbBlockBegin
  2
*U8
 70
     1
 10
0.0
 20
0.0
 30
0.0
  3
*U8
  1

  0
TEXT
  5
4C
330
4B
100
AcDbEntity
  8
0
  6
ByBlock
 62
     2
100
AcDbText
 10
15.253
 20
0.812
 30
0.0
 40
0.094
  1
 
 41
0.8842105263157966
 72
     5
 11
15.3282
 21
0.812
 31
0.0
100
AcDbText
  0
ENDBLK
  5
4E
330
4B
100
AcDbEntity
  8
0
100
AcDbBlockEnd
  0
BLOCK
  5
D2
330
D0
100
AcDbEntity
  8
0
100
AcDbBlockBegin
  2
A$C2BF30918
 70
     0
 10
0.0
 20
0.0
 30
0.0
  3
A$C2BF30918
  1

  0
INSERT
  5
D1
330
D0
100
AcDbEntity
  8
10
100
AcDbBlockReference
  2
A$C708B5813
 10
0.0000000098500248
 20
-0.0001119937962062
 30
0.0
 41
0.75
 42
0.75
 43
0.75
  0
ENDBLK
  5
D3
330
D0
100
AcDbEntity
  8
0
100
AcDbBlockEnd
  0
BLOCK
  5
11A
330
10E
100
AcDbEntity
  8
0
100
AcDbBlockBegin
  2
*D10
 70
     1
 10
0.0
 20
0.0
 30
0.0
  3
*D10
  1

  0
LINE
  5
10F
330
10E
100
AcDbEntity
  8
DIMENSION
 62
     0
370
    -2
100
AcDbLine
 10
2.804774708150918
 20
4.950935265377419
 30
0.0
 11
1.937129891047569
 21
4.95093526537742
 31
0.0
  0
LINE
  5
110
330
10E
100
AcDbEntity
  8
DIMENSION
 62
     0
370
    -2
100
AcDbLine
 10
2.652654708150912
 20
3.353295404314381
 30
0.0
 11
1.937129891047569
 21
3.353295404314381
 31
0.0
  0
LINE
  5
111
330
10E
100
AcDbEntity
  8
DIMENSION
 62
     0
370
    -2
100
AcDbLine
 10
1.999629891047569
 20
4.82593526537742
 30
0.0
 11
1.999629891047569
 21
4.432456385031445
 31
0.0
  0
LINE
  5
112
330
10E
100
AcDbEntity
  8
DIMENSION
 62
     0
370
    -2
100
AcDbLine
 10
1.999629891047569
 20
3.478295404314381
 30
0.0
 11
1.999629891047569
 21
3.960789718364777
 31
0.0
  0
SOLID
  5
113
330
10E
100
AcDbEntity
  8
DIMENSION
 62
     0
100
AcDbTrace
 10
1.978796557714235
 20
4.82593526537742
 30
0.0
 11
2.020463224380901
 21
4.825935265377419
 31
0.0
 12
1.999629891047569
 22
4.95093526537742
 32
0.0
 13
1.999629891047569
 23
4.95093526537742
 33
0.0
  0
SOLID
  5
114
330
10E
100
AcDbEntity
  8
DIMENSION
 62
     0
100
AcDbTrace
 10
1.978796557714235
 20
3.478295404314381
 30
0.0
 11
2.020463224380901
 21
3.478295404314381
 31
0.0
 12
1.999629891047569
 22
3.353295404314381
 32
0.0
 13
1.999629891047569
 23
3.353295404314381
 33
0.0
  0
MTEXT
  5
115
330
10E
100
AcDbEntity
  8
DIMENSION
 62
     0
100
AcDbMText
 10
1.999629891047568
 20
4.196623051698111
 30
0.0
 40
0.125
 41
0.0
 71
     5
 72
     1
  1
\A1;1{\H1.000000x;\S5/8;}
 73
     1
 44
1.0
  0
POINT
  5
116
330
10E
100
AcDbEntity
  8
Defpoints
 62
     0
100
AcDbPoint
 10
2.867274708150918
 20
4.950935265377419
 30
0.0
  0
POINT
  5
118
330
10E
100
AcDbEntity
  8
Defpoints
 62
     0
100
AcDbPoint
 10
2.715154708150911
 20
3.353295404314381
 30
0.0
  0
POINT
  5
119
330
10E
100
AcDbEntity
  8
Defpoints
 62
     0
100
AcDbPoint
 10
1.999629891047569
 20
3.353295404314381
 30
0.0
  0
ENDBLK
  5
11B
330
10E
100
AcDbEntity
  8
0
100
AcDbBlockEnd
  0
BLOCK
  5
128
330
11D
100
AcDbEntity
  8
0
100
AcDbBlockBegin
  2
*D11
 70
     1
 10
0.0
 20
0.0
 30
0.0
  3
*D11
  1

  0
LINE
  5
11E
330
11D
100
AcDbEntity
  8
DIMENSION
 62
     0
370
    -2
100
AcDbLine
 10
2.65195470815091
 20
3.353995404314381
 30
0.0
 11
2.65195470815091
 21
2.779760293262191
 31
0.0
  0
LINE
  5
11F
330
11D
100
AcDbEntity
  8
DIMENSION
 62
     0
370
    -2
100
AcDbLine
 10
4.441424708150901
 20
3.353995404314381
 30
0.0
 11
4.441424708150901
 21
2.779760293262191
 31
0.0
  0
LINE
  5
120
330
11D
100
AcDbEntity
  8
DIMENSION
 62
     0
370
    -2
100
AcDbLine
 10
2.77695470815091
 20
2.842260293262191
 30
0.0
 11
3.391664337000793
 21
2.842260293262191
 31
0.0
  0
LINE
  5
121
330
11D
100
AcDbEntity
  8
DIMENSION
 62
     0
370
    -2
100
AcDbLine
 10
4.316424708150901
 20
2.842260293262191
 30
0.0
 11
3.756188146524602
 21
2.842260293262191
 31
0.0
  0
SOLID
  5
122
330
11D
100
AcDbEntity
  8
DIMENSION
 62
     0
100
AcDbTrace
 10
2.77695470815091
 20
2.863093626595526
 30
0.0
 11
2.77695470815091
 21
2.821426959928858
 31
0.0
 12
2.65195470815091
 22
2.842260293262191
 32
0.0
 13
2.65195470815091
 23
2.842260293262191
 33
0.0
  0
SOLID
  5
123
330
11D
100
AcDbEntity
  8
DIMENSION
 62
     0
100
AcDbTrace
 10
4.316424708150901
 20
2.863093626595526
 30
0.0
 11
4.316424708150901
 21
2.821426959928858
 31
0.0
 12
4.441424708150901
 22
2.842260293262191
 32
0.0
 13
4.441424708150901
 23
2.842260293262191
 33
0.0
  0
MTEXT
  5
124
330
11D
100
AcDbEntity
  8
DIMENSION
 62
     0
100
AcDbMText
 10
3.573926241762698
 20
2.842260293262191
 30
0.0
 40
0.125
 41
0.0
 71
     5
 72
     1
  1
\A1;1{\H1.000000x;\S3/4;}
 73
     1
 44
1.0
  0
POINT
  5
125
330
11D
100
AcDbEntity
  8
Defpoints
 62
     0
100
AcDbPoint
 10
2.65195470815091
 20
3.416495404314381
 30
0.0
  0
POINT
  5
126
330
11D
100
AcDbEntity
  8
Defpoints
 62
     0
100
AcDbPoint
 10
4.441424708150901
 20
3.416495404314381
 30
0.0
  0
POINT
  5
127
330
11D
100
AcDbEntity
  8
Defpoints
 62
     0
100
AcDbPoint
 10
4.441424708150901
 20
2.842260293262191
 30
0.0
  0
ENDBLK
  5
129
330
11D
100
AcDbEntity
  8
0
100
AcDbBlockEnd
  0
BLOCK
  5
136
330
12B
100
AcDbEntity
  8
0
100
AcDbBlockBegin
  2
*D12
 70
     1
 10
0.0
 20
0.0
 30
0.0
  3
*D12
  1

  0
LINE
  5
12C
330
12B
100
AcDbEntity
  8
DIMENSION
 62
     0
370
    -2
100
AcDbLine
 10
7.727327830765244
 20
3.290795404314382
 30
0.0
 11
7.727327830765244
 21
2.823450711854114
 31
0.0
  0
LINE
  5
12D
330
12B
100
AcDbEntity
  8
DIMENSION
 62
     0
370
    -2
100
AcDbLine
 10
8.102327830765245
 20
3.290795404314382
 30
0.0
 11
8.102327830765245
 21
2.823450711854114
 31
0.0
  0
LINE
  5
12E
330
12B
100
AcDbEntity
  8
DIMENSION
 62
     0
370
    -2
100
AcDbLine
 10
7.602327830765244
 20
2.885950711854114
 30
0.0
 11
7.477327830765244
 21
2.885950711854114
 31
0.0
  0
LINE
  5
12F
330
12B
100
AcDbEntity
  8
DIMENSION
 62
     0
370
    -2
100
AcDbLine
 10
8.227327830765245
 20
2.885950711854114
 30
0.0
 11
8.352327830765245
 21
2.885950711854114
 31
0.0
  0
SOLID
  5
130
330
12B
100
AcDbEntity
  8
DIMENSION
 62
     0
100
AcDbTrace
 10
7.602327830765244
 20
2.906784045187448
 30
0.0
 11
7.602327830765244
 21
2.865117378520779
 31
0.0
 12
7.727327830765244
 22
2.885950711854114
 32
0.0
 13
7.727327830765244
 23
2.885950711854114
 33
0.0
  0
SOLID
  5
131
330
12B
100
AcDbEntity
  8
DIMENSION
 62
     0
100
AcDbTrace
 10
8.227327830765245
 20
2.906784045187448
 30
0.0
 11
8.227327830765245
 21
2.865117378520779
 31
0.0
 12
8.102327830765245
 22
2.885950711854114
 32
0.0
 13
8.102327830765245
 23
2.885950711854114
 33
0.0
  0
MTEXT
  5
132
330
12B
100
AcDbEntity
  8
DIMENSION
 62
     0
100
AcDbMText
 10
7.914827830765244
 20
2.885950711854114
 30
0.0
 40
0.125
 41
0.0
 71
     5
 72
     1
  1
\A1;{\H1.000000x;\S3/8;}
 73
     1
 44
1.0
  0
POINT
  5
133
330
12B
100
AcDbEntity
  8
Defpoints
 62
     0
100
AcDbPoint
 10
7.727327830765244
 20
3.353295404314382
 30
0.0
  0
POINT
  5
134
330
12B
100
AcDbEntity
  8
Defpoints
 62
     0
100
AcDbPoint
 10
8.102327830765245
 20
3.353295404314382
 30
0.0
  0
POINT
  5
135
330
12B
100
AcDbEntity
  8
Defpoints
 62
     0
100
AcDbPoint
 10
8.102327830765245
 20
2.885950711854114
 30
0.0
  0
ENDBLK
  5
137
330
12B
100
AcDbEntity
  8
0
100
AcDbBlockEnd
  0
BLOCK
  5
69D
330
69C
100
AcDbEntity
  8
0
100
AcDbBlockBegin
  2
*U13
 70
     1
 10
0.0
 20
0.0
 30
0.0
  3
*U13
  1

  0
ENDBLK
  5
69E
330
69C
100
AcDbEntity
  8
0
100
AcDbBlockEnd
  0
BLOCK
  5
6DD
330
6DB
100
AcDbEntity
  8
0
100
AcDbBlockBegin
  2
GENAXEH
 70
     0
 10
0.0
 20
0.0
 30
0.0
  3
GENAXEH
  1

  0
LINE
  5
6DC
330
6DB
100
AcDbEntity
  8
0
100
AcDbLine
 10
-1.0
 20
0.0
 30
0.0
 11
1.0
 21
0.0
 31
0.0
  0
ENDBLK
  5
6DE
330
6DB
100
AcDbEntity
  8
0
100
AcDbBlockEnd
  0
ENDSEC
  0
SECTION
  2
ENTITIES
  0
INSERT
  5
27
330
D
100
AcDbEntity
 67
     1
  8
0
 62
     2
100
AcDbBlockReference
  2
*U0
 10
-0.1037567662468
 20
-0.4117944179501835
 30
0.0
  0
INSERT
  5
2C
330
D
100
AcDbEntity
 67
     1
  8
0
 62
     2
100
AcDbBlockReference
  2
*U1
 10
-0.1037567662468
 20
-0.4117944179501835
 30
0.0
  0
INSERT
  5
31
330
D
100
AcDbEntity
 67
     1
  8
0
 62
     2
100
AcDbBlockReference
  2
*U2
 10
-0.1037567662468
 20
-0.4117944179501835
 30
0.0
  0
INSERT
  5
36
330
D
100
AcDbEntity
 67
     1
  8
0
 62
     2
100
AcDbBlockReference
  2
*U3
 10
-0.1037567662468
 20
-0.4117944179501835
 30
0.0
  0
INSERT
  5
3B
330
D
100
AcDbEntity
 67
     1
  8
0
 62
     2
100
AcDbBlockReference
  2
*U5
 10
-0.4842192561968838
 20
13.70316803334217
 30
0.0
  0
INSERT
  5
40
330
D
100
AcDbEntity
 67
     1
  8
0
 62
     2
100
AcDbBlockReference
  2
*U6
 10
-0.4842192561968838
 20
13.70316803334217
 30
0.0
  0
INSERT
  5
45
330
D
100
AcDbEntity
 67
     1
  8
0
 62
     2
100
AcDbBlockReference
  2
*U7
 10
-0.4842192561968838
 20
13.70316803334217
 30
0.0
  0
INSERT
  5
4A
330
D
100
AcDbEntity
 67
     1
  8
0
 62
     2
100
AcDbBlockReference
  2
*U8
 10
-0.4842192561968838
 20
13.70316803334217
 30
0.0
  0
MTEXT
  5
4F
330
D
100
AcDbEntity
 67
     1
  8
PHANTOM
 62
     7
100
AcDbMText
 10
23.21992704409118
 20
15.4912999148174
 30
0.0
 40
0.18
 41
0.0
 71
     4
 72
     5
  1

 73
     1
 44
1.0
  0
MTEXT
  5
52
330
D
100
AcDbEntity
 67
     1
  8
CENTER
 62
     7
100
AcDbMText
 10
14.55682465044315
 20
4.808546654057443
 30
0.0
 40
0.18
 41
0.0
 71
     4
 72
     5
  1

 73
     1
 44
1.0
  0
MTEXT
  5
54
330
D
100
AcDbEntity
 67
     1
  8
PHANTOM
 62
     7
100
AcDbMText
 10
31.38087559224331
 20
12.11798637137428
 30
0.0
 40
0.18
 41
0.0
 71
     6
 72
     5
  1

 73
     1
 44
1.0
  0
MTEXT
  5
55
330
D
100
AcDbEntity
 67
     1
  8
PHANTOM
 62
     7
100
AcDbMText
 10
33.59971729903509
 20
17.42569063733952
 30
0.0
 40
0.18
 41
0.0
 71
     4
 72
     5
  1

 73
     1
 44
1.0
  0
MTEXT
  5
56
330
D
100
AcDbEntity
 67
     1
  8
PHANTOM
 62
     7
100
AcDbMText
 10
34.01542334028903
 20
17.03551611629313
 30
0.0
 40
0.18
 41
0.0
 71
     4
 72
     5
  1

 73
     1
 44
1.0
  0
LINE
  5
57
330
D
100
AcDbEntity
 67
     1
  8
10
100
AcDbLine
 10
16.80874323375319
 20
10.33820558204981
 30
0.0
 11
16.80874323375319
 21
10.08820558204981
 31
0.0
  0
LINE
  5
59
330
D
100
AcDbEntity
 67
     1
  8
10
100
AcDbLine
 10
-0.1912567662467964
 20
-0.6617944179501834
 30
0.0
 11
0.0587432337532036
 21
-0.6617944179501838
 31
0.0
  0
LINE
  5
5A
330
D
100
AcDbEntity
 67
     1
  8
10
100
AcDbLine
 10
-0.1912567662467964
 20
10.33820558204981
 30
0.0
 11
0.0587432337532036
 21
10.33820558204981
 31
0.0
  0
LINE
  5
5B
330
D
100
AcDbEntity
 67
     1
  8
10
100
AcDbLine
 10
-0.1912567662467964
 20
10.33820558204981
 30
0.0
 11
-0.1912567662467929
 21
10.08820558204981
 31
0.0
  0
LINE
  5
5C
330
D
100
AcDbEntity
 67
     1
  8
10
100
AcDbLine
 10
16.80874323375319
 20
-0.4117944179501817
 30
0.0
 11
16.80874323375319
 21
-0.6617944179501813
 31
0.0
  0
LINE
  5
5D
330
D
100
AcDbEntity
 67
     1
  8
10
100
AcDbLine
 10
16.55874323375319
 20
-0.6617944179501813
 30
0.0
 11
16.80874323375319
 21
-0.6617944179501813
 31
0.0
  0
LINE
  5
5E
330
D
100
AcDbEntity
 67
     1
  8
10
100
AcDbLine
 10
16.55874323375319
 20
10.33820558204981
 30
0.0
 11
16.80874323375321
 21
10.33820558204981
 31
0.0
  0
LINE
  5
5F
330
D
100
AcDbEntity
 67
     1
  8
10
100
AcDbLine
 10
-0.1912567662467929
 20
-0.4117944179501835
 30
0.0
 11
-0.1912567662467964
 21
-0.6617944179501834
 31
0.0
  0
INSERT
  5
60
330
D
100
AcDbEntity
 67
     1
  8
10
100
AcDbBlockReference
  2
A$C708B5813
 10
6.592898116161109
 20
-0.3670099066259165
 30
0.0000000075
 41
0.75
 42
0.75
 43
0.7500000000000001
  0
MTEXT
  5
A4
330
D
100
AcDbEntity
 67
     1
  8
10
 62
     7
100
AcDbMText
 10
11.48504781602776
 20
0.0591137652043681
 30
0.0
 40
0.1
 41
6.799999999999999
 71
     1
 72
     5
  1
P.O. BOX 496\P664 STATE STREET\PBEAVER, PA 15009
 73
     1
 44
1.0
  0
MTEXT
  5
A5
330
D
100
AcDbEntity
 67
     1
  8
10
 62
     7
100
AcDbMText
 10
14.97287988059597
 20
0.0041465746429537
 30
0.0
 40
0.09
 41
4.5
 71
     1
 72
     5
  1
\LDRAWING NO.
 73
     1
 44
1.0
  0
MTEXT
  5
A6
330
D
100
AcDbEntity
 67
     1
  8
10
 62
     7
100
AcDbMText
 10
15.13460452919048
 20
-0.1677802077622261
 30
0.0
 40
0.125
 41
1.8464
 71
     1
 72
     5
  1
WC100107
 73
     1
 44
1.0
  0
LINE
  5
A7
330
D
100
AcDbEntity
 67
     1
  8
10
100
AcDbLine
 10
14.9148336312537
 20
-0.4042220768440982
 30
0.0
 11
14.9148336312537
 21
0.095777923155902
 31
0.0
  0
MTEXT
  5
A8
330
D
100
AcDbEntity
 67
     1
  8
10
 62
     7
100
AcDbMText
 10
13.67055925046173
 20
1.417325874510759
 30
0.0
 40
0.11
 41
2.799999999999998
 71
     1
 72
     5
  1
TERMINAL BLOCK PRODUCT LINE\PDIN RAIL MOUNTED \P25A TERMINAL BLOCK \PDATA SHEET
 73
     1
 44
1.0
  0
LINE
  5
A9
330
D
100
AcDbEntity
 67
     1
  8
10
100
AcDbLine
 10
8.812649468088327
 20
0.5447489857244677
 30
0.0
 11
13.55874321808832
 21
0.5447489857244677
 31
0.0
  0
TEXT
  5
AA
330
D
100
AcDbEntity
 67
     1
  8
10
 62
     7
100
AcDbText
 10
8.935586801269986
 20
0.1558051918080316
 30
0.0
 40
0.094921875
  1
REV
100
AcDbText
  0
TEXT
  5
AB
330
D
100
AcDbEntity
 67
     1
  8
10
 62
     7
100
AcDbText
 10
10.4240761093247
 20
0.1606425951017716
 30
0.0
 40
0.094921875
  1
DESCRIPTION
100
AcDbText
  0
TEXT
  5
AC
330
D
100
AcDbEntity
 67
     1
  8
10
 62
     7
100
AcDbText
 10
12.54661084389701
 20
0.1577160512841704
 30
0.0
 40
0.094921875
  1
DATE
100
AcDbText
  0
TEXT
  5
AD
330
D
100
AcDbEntity
 67
     1
  8
10
 62
     7
100
AcDbText
 10
13.26067704163897
 20
0.162553593462885
 30
0.0
 40
0.094921875
  1
BY
100
AcDbText
  0
LINE
  5
AE
330
D
100
AcDbEntity
 67
     1
  8
10
100
AcDbLine
 10
8.812649468088327
 20
0.3469950794744676
 30
0.0
 11
13.55874321808832
 21
0.3469950794744676
 31
0.0
  0
LINE
  5
AF
330
D
100
AcDbEntity
 67
     1
  8
10
100
AcDbLine
 10
9.287258843088324
 20
0.5447489857244677
 30
0.0
 11
9.287258843088293
 21
0.0882055820498182
 31
0.0
  0
LINE
  5
B0
330
D
100
AcDbEntity
 67
     1
  8
10
100
AcDbLine
 10
13.08413384308831
 20
0.5447489857244677
 30
0.0
 11
13.08413384308831
 21
0.0882055820498183
 31
0.0
  0
LINE
  5
B1
330
D
100
AcDbEntity
 67
     1
  8
10
100
AcDbLine
 10
12.37221978058833
 20
0.5447489857244677
 30
0.0
 11
12.37221978058836
 21
0.0882055820498183
 31
0.0
  0
MTEXT
  5
B2
330
D
100
AcDbEntity
 67
     1
  8
10
 62
     7
100
AcDbMText
 10
13.60694432712383
 20
-0.0047982598865617
 30
0.0
 40
0.09
 41
4.5
 71
     1
 72
     5
  1
\LSCALE:
 73
     1
 44
1.0
  0
TEXT
  5
B3
330
D
100
AcDbEntity
 67
     1
  8
10
 62
     7
100
AcDbText
 10
8.929133992349804
 20
0.385814291027053
 30
0.0
 40
0.094921875
  1
XXX
100
AcDbText
  0
TEXT
  5
B4
330
D
100
AcDbEntity
 67
     1
  8
10
 62
     7
100
AcDbText
 10
10.41762330040451
 20
0.3906516943207947
 30
0.0
 40
0.094921875
  1
XXXXXXXXXXX
100
AcDbText
  0
TEXT
  5
B5
330
D
100
AcDbEntity
 67
     1
  8
10
 62
     7
100
AcDbText
 10
12.54015803497684
 20
0.3877251505031935
 30
0.0
 40
0.094921875
  1
XXXX
100
AcDbText
  0
TEXT
  5
B6
330
D
100
AcDbEntity
 67
     1
  8
10
 62
     7
100
AcDbText
 10
13.20414415176139
 20
0.3925626926819063
 30
0.0
 40
0.094921875
  1
XXX
100
AcDbText
  0
LINE
  5
B7
330
D
100
AcDbEntity
 67
     1
  8
10
100
AcDbLine
 10
0.0587432337532036
 20
-0.4117944179501829
 30
0.0
 11
16.55874323375319
 21
-0.4117944179501932
 31
0.0
  0
LINE
  5
B8
330
D
100
AcDbEntity
 67
     1
  8
10
100
AcDbLine
 10
8.812649468088315
 20
0.5447489857244677
 30
0.0
 11
8.812649468088297
 21
0.0882055820498182
 31
0.0
  0
LINE
  5
B9
330
D
100
AcDbEntity
 67
     1
  8
10
100
AcDbLine
 10
13.55874323012792
 20
1.564768082049817
 30
0.0
 11
13.55874319406612
 21
0.0882055820498278
 31
0.0
  0
LINE
  5
BA
330
D
100
AcDbEntity
 67
     1
  8
10
100
AcDbLine
 10
16.55874323375319
 20
10.08820558204981
 30
0.0
 11
16.55874323375319
 21
-0.4117944179501932
 31
0.0
  0
CIRCLE
  5
BB
330
D
100
AcDbEntity
 67
     1
  8
10
 62
     1
100
AcDbCircle
 10
0.0587432337532
 20
-0.4117944179501835
 30
0.00000001
 40
0.1415883773737505
  0
LINE
  5
BC
330
D
100
AcDbEntity
 67
     1
  8
10
100
AcDbLine
 10
0.0587432337532107
 20
10.08820558204982
 30
0.0
 11
16.55874323375319
 21
10.08820558204981
 31
0.0
  0
LINE
  5
BD
330
D
100
AcDbEntity
 67
     1
  8
10
100
AcDbLine
 10
0.0587432337532107
 20
10.08820558204982
 30
0.0
 11
0.0587432337532036
 21
-0.4117944179501826
 31
0.0
  0
LINE
  5
BE
330
D
100
AcDbEntity
 67
     1
  8
10
100
AcDbLine
 10
13.62874323375319
 20
1.524143166271232
 30
0.0
 11
16.48874323375317
 21
1.524143166271233
 31
0.0
  0
LINE
  5
BF
330
D
100
AcDbEntity
 67
     1
  8
10
100
AcDbLine
 10
16.50874323375319
 20
1.504143166271232
 30
0.0
 11
16.50874323375319
 21
0.6082055820498185
 31
0.0
  0
LINE
  5
C0
330
D
100
AcDbEntity
 67
     1
  8
10
100
AcDbLine
 10
13.6087432337532
 20
1.504143166271232
 30
0.0
 11
13.60874323375319
 21
0.6082055820498185
 31
0.0
  0
LINE
  5
C1
330
D
100
AcDbEntity
 67
     1
  8
10
100
AcDbLine
 10
13.62874323375319
 20
0.5882055820498186
 30
0.0
 11
16.48874323375319
 21
0.5882055820498186
 31
0.0
  0
LINE
  5
C2
330
D
100
AcDbEntity
 67
     1
  8
10
100
AcDbLine
 10
13.55874320505638
 20
0.5447489324281058
 30
0.0
 11
16.55874323375319
 21
0.5447489324281058
 31
0.0
  0
MTEXT
  5
C3
330
D
100
AcDbEntity
 67
     1
  8
10
 62
     7
100
AcDbMText
 10
13.85215756260992
 20
-0.1807313684445066
 30
0.0
 40
0.125
 41
1.8464
 71
     1
 72
     5
  1
1:1
 73
     1
 44
1.0
  0
MTEXT
  5
C4
330
D
100
AcDbEntity
 67
     1
  8
10
 62
     7
100
AcDbMText
 10
13.62256203520151
 20
0.458420010800941
 30
0.0
 40
0.09
 41
4.5
 71
     1
 72
     5
  1
\LDRAWN BY:
 73
     1
 44
1.0
  0
MTEXT
  5
C5
330
D
100
AcDbEntity
 67
     1
  8
10
 62
     7
100
AcDbMText
 10
14.0481240958475
 20
0.2824869022429954
 30
0.0
 40
0.125
 41
1.8464
 71
     1
 72
     5
  1
RCG
 73
     1
 44
1.0
  0
MTEXT
  5
C6
330
D
100
AcDbEntity
 67
     1
  8
10
 62
     7
100
AcDbMText
 10
14.98651104973153
 20
0.4740341243608574
 30
0.0
 40
0.09
 41
4.5
 71
     1
 72
     5
  1
\LDATE:
 73
     1
 44
1.0
  0
MTEXT
  5
C7
330
D
100
AcDbEntity
 67
     1
  8
10
 62
     7
100
AcDbMText
 10
15.31946153111982
 20
0.2981010158029118
 30
0.0
 40
0.125
 41
1.8464
 71
     1
 72
     5
  1
12-11-01
 73
     1
 44
1.0
  0
LINE
  5
C8
330
D
100
AcDbEntity
 67
     1
  8
10
100
AcDbLine
 10
14.9148336312537
 20
0.0882055820498185
 30
0.0
 11
14.9148336312537
 21
0.5382055820498186
 31
0.0000000000000001
  0
LINE
  5
C9
330
D
100
AcDbEntity
 67
     1
  8
10
100
AcDbLine
 10
13.62874323375319
 20
1.524143166271232
 30
0.0
 11
13.60874323375319
 21
1.504143166271232
 31
0.0
  0
LINE
  5
CA
330
D
100
AcDbEntity
 67
     1
  8
10
100
AcDbLine
 10
16.48874323375317
 20
1.524143166271232
 30
0.0
 11
16.50874323375319
 21
1.504143166271232
 31
0.0
  0
LINE
  5
CB
330
D
100
AcDbEntity
 67
     1
  8
10
100
AcDbLine
 10
16.50874323375319
 20
0.6082055820498185
 30
0.0
 11
16.48874323375319
 21
0.5882055820498186
 31
0.0
  0
LINE
  5
CC
330
D
100
AcDbEntity
 67
     1
  8
10
100
AcDbLine
 10
13.62874323375319
 20
0.5882055820498186
 30
0.0
 11
13.60874323375319
 21
0.6082055820498185
 31
0.0
  0
LINE
  5
CD
330
D
100
AcDbEntity
 67
     1
  8
10
100
AcDbLine
 10
13.55874319406612
 20
0.0882055820498185
 30
0.0
 11
13.55874319406612
 21
-0.4117944179501915
 31
0.0
  0
MTEXT
  5
CE
330
D
100
AcDbEntity
 67
     1
  8
10
 62
     7
100
AcDbMText
 10
7.109888170807924
 20
-0.06436374967834
 30
0.0
 40
0.2
 41
4.7621
 71
     1
 72
     5
  1
CONTROL CONCEPTS CORP.
 73
     1
 44
1.0
  0
INSERT
  5
CF
330
D
100
AcDbEntity
 67
     1
  8
DIMENSION
100
AcDbBlockReference
  2
A$C2BF30918
 10
13.08751270335333
 20
-0.3668979128297103
 30
0.0000000075
  0
LINE
  5
D4
330
D
100
AcDbEntity
 67
     1
  8
10
100
AcDbLine
 10
6.558743184519358
 20
0.0882055820498198
 30
0.0
 11
6.558743184519358
 21
-0.4117944179501869
 31
0.0
  0
LINE
  5
D5
330
D
100
AcDbEntity
 67
     1
  8
10
100
AcDbLine
 10
6.558743184519358
 20
-0.1617944179501833
 30
0.0
 11
0.0587432337532038
 21
-0.1617944179501789
 31
0.0
  0
LINE
  5
D6
330
D
100
AcDbEntity
 67
     1
  8
10
100
AcDbLine
 10
5.258743184519357
 20
0.0882055820498198
 30
0.0
 11
5.258743184519357
 21
-0.4117944179501869
 31
0.0
  0
LINE
  5
D7
330
D
100
AcDbEntity
 67
     1
  8
10
100
AcDbLine
 10
3.958743184519359
 20
0.0882055820498198
 30
0.0
 11
3.958743184519359
 21
-0.4117944179501869
 31
0.0
  0
LINE
  5
D8
330
D
100
AcDbEntity
 67
     1
  8
10
100
AcDbLine
 10
2.658743184519359
 20
0.0882055820498198
 30
0.0
 11
2.658743184519359
 21
-0.4117944179501869
 31
0.0
  0
LINE
  5
D9
330
D
100
AcDbEntity
 67
     1
  8
10
100
AcDbLine
 10
1.35874318451936
 20
0.0882055820498198
 30
0.0
 11
1.35874318451936
 21
-0.4117944179501869
 31
0.0
  0
LINE
  5
DA
330
D
100
AcDbEntity
 67
     1
  8
10
100
AcDbLine
 10
8.81264945505638
 20
1.335764344242655
 30
0.0
 11
13.55874320505637
 21
1.335764344242655
 31
0.0
  0
TEXT
  5
DB
330
D
100
AcDbEntity
 67
     1
  8
10
 62
     7
100
AcDbText
 10
8.929133979317857
 20
1.374583555795241
 30
0.0
 40
0.094921875
  1
XXX
100
AcDbText
  0
LINE
  5
DC
330
D
100
AcDbEntity
 67
     1
  8
10
100
AcDbLine
 10
8.812649455056369
 20
1.564768082049817
 30
0.0
 11
8.812649455056357
 21
1.335764344242655
 31
0.0
  0
LINE
  5
DD
330
D
100
AcDbEntity
 67
     1
  8
10
100
AcDbLine
 10
9.287258830056376
 20
1.564768082049817
 30
0.0
 11
9.287258830056362
 21
1.335764344242655
 31
0.0
  0
TEXT
  5
DE
330
D
100
AcDbEntity
 67
     1
  8
10
 62
     7
100
AcDbText
 10
10.41762328737257
 20
1.379420959088984
 30
0.0
 40
0.094921875
  1
XXXXXXXXXXX
100
AcDbText
  0
LINE
  5
DF
330
D
100
AcDbEntity
 67
     1
  8
10
100
AcDbLine
 10
12.37221976755639
 20
1.564768082049817
 30
0.0
 11
12.3722197675564
 21
1.335764344242655
 31
0.0
  0
LINE
  5
E0
330
D
100
AcDbEntity
 67
     1
  8
10
100
AcDbLine
 10
13.08413383005637
 20
1.564768082049817
 30
0.0
 11
13.08413383005637
 21
1.335764344242655
 31
0.0
  0
TEXT
  5
E1
330
D
100
AcDbEntity
 67
     1
  8
10
 62
     7
100
AcDbText
 10
12.54015802194489
 20
1.376494415271382
 30
0.0
 40
0.094921875
  1
XXXX
100
AcDbText
  0
TEXT
  5
E2
330
D
100
AcDbEntity
 67
     1
  8
10
 62
     7
100
AcDbText
 10
13.20414413872943
 20
1.381331957450095
 30
0.0
 40
0.094921875
  1
XXX
100
AcDbText
  0
LINE
  5
E3
330
D
100
AcDbEntity
 67
     1
  8
10
100
AcDbLine
 10
8.81264945505638
 20
1.138010491289016
 30
0.0
 11
13.55874320505637
 21
1.138010491289016
 31
0.0
  0
LINE
  5
E4
330
D
100
AcDbEntity
 67
     1
  8
10
100
AcDbLine
 10
8.81264945505638
 20
1.335764397539016
 30
0.0
 11
13.55874320505637
 21
1.335764397539016
 31
0.0
  0
TEXT
  5
E5
330
D
100
AcDbEntity
 67
     1
  8
10
 62
     7
100
AcDbText
 10
8.929133979317857
 20
1.176829702841603
 30
0.0
 40
0.094921875
  1
XXX
100
AcDbText
  0
LINE
  5
E6
330
D
100
AcDbEntity
 67
     1
  8
10
100
AcDbLine
 10
8.812649455056369
 20
1.335764397539015
 30
0.0
 11
8.812649455056357
 21
1.138010491289016
 31
0.0
  0
LINE
  5
E7
330
D
100
AcDbEntity
 67
     1
  8
10
100
AcDbLine
 10
9.287258830056376
 20
1.335764397539015
 30
0.0
 11
9.287258830056362
 21
1.138010491289016
 31
0.0
  0
TEXT
  5
E8
330
D
100
AcDbEntity
 67
     1
  8
10
 62
     7
100
AcDbText
 10
10.41762328737257
 20
1.181667106135344
 30
0.0
 40
0.094921875
  1
XXXXXXXXXXX
100
AcDbText
  0
LINE
  5
E9
330
D
100
AcDbEntity
 67
     1
  8
10
100
AcDbLine
 10
12.37221976755639
 20
1.335764397539016
 30
0.0
 11
12.3722197675564
 21
1.138010491289016
 31
0.0
  0
LINE
  5
EA
330
D
100
AcDbEntity
 67
     1
  8
10
100
AcDbLine
 10
13.08413383005637
 20
1.335764397539016
 30
0.0
 11
13.08413383005637
 21
1.138010491289016
 31
0.0
  0
TEXT
  5
EB
330
D
100
AcDbEntity
 67
     1
  8
10
 62
     7
100
AcDbText
 10
12.54015802194489
 20
1.178740562317742
 30
0.0
 40
0.094921875
  1
XXXX
100
AcDbText
  0
TEXT
  5
EC
330
D
100
AcDbEntity
 67
     1
  8
10
 62
     7
100
AcDbText
 10
13.20414413872943
 20
1.183578104496456
 30
0.0
 40
0.094921875
  1
XXX
100
AcDbText
  0
LINE
  5
ED
330
D
100
AcDbEntity
 67
     1
  8
10
100
AcDbLine
 10
8.812649461572352
 20
0.742502785381745
 30
0.0
 11
13.55874321157234
 21
0.742502785381745
 31
0.0
  0
LINE
  5
EE
330
D
100
AcDbEntity
 67
     1
  8
10
100
AcDbLine
 10
8.812649461572352
 20
0.940256691631745
 30
0.0
 11
13.55874321157234
 21
0.940256691631745
 31
0.0
  0
TEXT
  5
EF
330
D
100
AcDbEntity
 67
     1
  8
10
 62
     7
100
AcDbText
 10
8.929133985833829
 20
0.7813219969343314
 30
0.0
 40
0.094921875
  1
XXX
100
AcDbText
  0
LINE
  5
F0
330
D
100
AcDbEntity
 67
     1
  8
10
100
AcDbLine
 10
8.812649461572341
 20
0.9402566916317443
 30
0.0
 11
8.812649461572327
 21
0.742502785381745
 31
0.0
  0
LINE
  5
F1
330
D
100
AcDbEntity
 67
     1
  8
10
100
AcDbLine
 10
9.287258836572348
 20
0.9402566916317443
 30
0.0
 11
9.287258836572336
 21
0.742502785381745
 31
0.0
  0
TEXT
  5
F2
330
D
100
AcDbEntity
 67
     1
  8
10
 62
     7
100
AcDbText
 10
10.41762329388854
 20
0.7861594002280734
 30
0.0
 40
0.094921875
  1
XXXXXXXXXXX
100
AcDbText
  0
LINE
  5
F3
330
D
100
AcDbEntity
 67
     1
  8
10
100
AcDbLine
 10
12.37221977407235
 20
0.940256691631745
 30
0.0
 11
12.37221977407236
 21
0.742502785381745
 31
0.0
  0
LINE
  5
F4
330
D
100
AcDbEntity
 67
     1
  8
10
100
AcDbLine
 10
13.08413383657234
 20
0.940256691631745
 30
0.0
 11
13.08413383657234
 21
0.742502785381745
 31
0.0
  0
TEXT
  5
F5
330
D
100
AcDbEntity
 67
     1
  8
10
 62
     7
100
AcDbText
 10
12.54015802846087
 20
0.7832328564104714
 30
0.0
 40
0.094921875
  1
XXXX
100
AcDbText
  0
TEXT
  5
F6
330
D
100
AcDbEntity
 67
     1
  8
10
 62
     7
100
AcDbText
 10
13.20414414524541
 20
0.7880703985891844
 30
0.0
 40
0.094921875
  1
XXX
100
AcDbText
  0
LINE
  5
F7
330
D
100
AcDbEntity
 67
     1
  8
10
100
AcDbLine
 10
8.812649461572352
 20
0.940256638335382
 30
0.0
 11
13.55874321157234
 21
0.940256638335382
 31
0.0
  0
LINE
  5
F8
330
D
100
AcDbEntity
 67
     1
  8
10
100
AcDbLine
 10
8.812649461572352
 20
1.138010544585382
 30
0.0
 11
13.55874321157234
 21
1.138010544585382
 31
0.0
  0
TEXT
  5
F9
330
D
100
AcDbEntity
 67
     1
  8
10
 62
     7
100
AcDbText
 10
8.929133985833829
 20
0.9790758498879682
 30
0.0
 40
0.094921875
  1
XXX
100
AcDbText
  0
LINE
  5
FA
330
D
100
AcDbEntity
 67
     1
  8
10
100
AcDbLine
 10
8.812649461572341
 20
1.13801054458538
 30
0.0
 11
8.812649461572327
 21
0.940256638335382
 31
0.0
  0
LINE
  5
FB
330
D
100
AcDbEntity
 67
     1
  8
10
100
AcDbLine
 10
9.287258836572348
 20
1.13801054458538
 30
0.0
 11
9.287258836572336
 21
0.940256638335382
 31
0.0
  0
TEXT
  5
FC
330
D
100
AcDbEntity
 67
     1
  8
10
 62
     7
100
AcDbText
 10
10.41762329388854
 20
0.9839132531817103
 30
0.0
 40
0.094921875
  1
XXXXXXXXXXX
100
AcDbText
  0
LINE
  5
FD
330
D
100
AcDbEntity
 67
     1
  8
10
100
AcDbLine
 10
12.37221977407235
 20
1.138010544585382
 30
0.0
 11
12.37221977407236
 21
0.940256638335382
 31
0.0
  0
LINE
  5
FE
330
D
100
AcDbEntity
 67
     1
  8
10
100
AcDbLine
 10
13.08413383657234
 20
1.138010544585382
 30
0.0
 11
13.08413383657234
 21
0.940256638335382
 31
0.0
  0
TEXT
  5
FF
330
D
100
AcDbEntity
 67
     1
  8
10
 62
     7
100
AcDbText
 10
12.54015802846087
 20
0.9809867093641083
 30
0.0
 40
0.094921875
  1
XXXX
100
AcDbText
  0
TEXT
  5
100
330
D
100
AcDbEntity
 67
     1
  8
10
 62
     7
100
AcDbText
 10
13.20414414524541
 20
0.9858242515428214
 30
0.0
 40
0.094921875
  1
XXX
100
AcDbText
  0
LINE
  5
101
330
D
100
AcDbEntity
 67
     1
  8
10
100
AcDbLine
 10
8.812649461572352
 20
0.5447489324281058
 30
0.0
 11
13.55874321157234
 21
0.544748932428106
 31
0.0
  0
LINE
  5
102
330
D
100
AcDbEntity
 67
     1
  8
10
100
AcDbLine
 10
8.812649461572352
 20
0.7425028386781061
 30
0.0
 11
13.55874321157234
 21
0.7425028386781061
 31
0.0
  0
TEXT
  5
103
330
D
100
AcDbEntity
 67
     1
  8
10
 62
     7
100
AcDbText
 10
8.929133985833829
 20
0.5835681439806924
 30
0.0
 40
0.094921875
  1
XXX
100
AcDbText
  0
LINE
  5
104
330
D
100
AcDbEntity
 67
     1
  8
10
100
AcDbLine
 10
8.812649461572341
 20
0.7425028386781058
 30
0.0
 11
8.812649461572327
 21
0.5447489324281058
 31
0.0
  0
LINE
  5
105
330
D
100
AcDbEntity
 67
     1
  8
10
100
AcDbLine
 10
9.287258836572348
 20
0.7425028386781058
 30
0.0
 11
9.287258836572336
 21
0.5447489324281058
 31
0.0
  0
TEXT
  5
106
330
D
100
AcDbEntity
 67
     1
  8
10
 62
     7
100
AcDbText
 10
10.41762329388854
 20
0.5884055472744345
 30
0.0
 40
0.094921875
  1
XXXXXXXXXXX
100
AcDbText
  0
LINE
  5
107
330
D
100
AcDbEntity
 67
     1
  8
10
100
AcDbLine
 10
12.37221977407235
 20
0.7425028386781061
 30
0.0
 11
12.37221977407236
 21
0.5447489324281058
 31
0.0
  0
LINE
  5
108
330
D
100
AcDbEntity
 67
     1
  8
10
100
AcDbLine
 10
13.08413383657234
 20
0.7425028386781061
 30
0.0
 11
13.08413383657234
 21
0.544748932428106
 31
0.0
  0
TEXT
  5
109
330
D
100
AcDbEntity
 67
     1
  8
10
 62
     7
100
AcDbText
 10
12.54015802846087
 20
0.5854790034568324
 30
0.0
 40
0.094921875
  1
XXXX
100
AcDbText
  0
TEXT
  5
10A
330
D
100
AcDbEntity
 67
     1
  8
10
 62
     7
100
AcDbText
 10
13.20414414524541
 20
0.5903165456355457
 30
0.0
 40
0.094921875
  1
XXX
100
AcDbText
  0
LINE
  5
10B
330
D
100
AcDbEntity
 67
     1
  8
10
100
AcDbLine
 10
8.812649455056366
 20
1.564768082049817
 30
0.0
 11
16.55874323375319
 21
1.564768082049817
 31
0.0
  0
LINE
  5
10C
330
D
100
AcDbEntity
 67
     1
  8
10
100
AcDbLine
 10
0.0587432337532032
 20
0.0882055820498167
 30
0.0
 11
16.55874323375319
 21
0.0882055820498167
 31
0.0
  0
DIMENSION
  5
10D
330
D
100
AcDbEntity
 67
     1
  8
DIMENSION
100
AcDbDimension
  2
*D10
 10
1.999629891047569
 20
3.353295404314381
 30
0.0
 11
1.999629891047568
 21
4.196623051698111
 31
0.0
 70
   128
 71
     5
 42
1.597639861063039
  3
STANDARD
100
AcDbAlignedDimension
 13
2.867274708150918
 23
4.950935265377419
 33
0.0
 14
2.715154708150911
 24
3.353295404314381
 34
0.0
 50
90.0
100
AcDbRotatedDimension
1001
ACAD
1000
DSTYLE
1002
{
1070
   271
1070
     3
1002
}
  0
DIMENSION
  5
11C
330
D
100
AcDbEntity
 67
     1
  8
DIMENSION
100
AcDbDimension
  2
*D11
 10
4.441424708150901
 20
2.842260293262191
 30
0.0
 11
3.573926241762698
 21
2.842260293262191
 31
0.0
 70
   128
 71
     5
 42
1.789469999999989
  3
STANDARD
100
AcDbAlignedDimension
 13
2.65195470815091
 23
3.416495404314381
 33
0.0
 14
4.441424708150901
 24
3.416495404314381
 34
0.0
100
AcDbRotatedDimension
  0
DIMENSION
  5
12A
330
D
100
AcDbEntity
 67
     1
  8
DIMENSION
100
AcDbDimension
  2
*D12
 10
8.102327830765245
 20
2.885950711854114
 30
0.0
 11
7.914827830765244
 21
2.885950711854114
 31
0.0
 70
   128
 71
     5
 42
0.375
  3
STANDARD
100
AcDbAlignedDimension
 13
7.727327830765244
 23
3.353295404314382
 33
0.0
 14
8.102327830765245
 24
3.353295404314382
 34
0.0
100
AcDbRotatedDimension
1001
ACAD
1000
DSTYLE
1002
{
1070
   271
1070
     3
1002
}
  0
MTEXT
  5
138
330
D
100
AcDbEntity
 67
     1
  8
DIMENSION
100
AcDbMText
 10
3.546676283497688
 20
8.188874181741638
 30
0.0
 40
0.2
 41
0.2628
 71
     2
 72
     5
  1
{\fArial|b0|i0|c0|p34;1}
 73
     1
 44
1.0
  0
LEADER
  5
139
330
D
100
AcDbEntity
 67
     1
  8
DIMENSION
100
AcDbLeader
  3
STANDARD
 72
     1
 73
     0
 74
     0
 40
0.125
 41
1.422619047619046
 76
     4
 10
3.555885251275134
 20
4.982123495338938
 30
0.0
 10
4.088441557628086
 20
6.024448330431786
 30
0.0
 10
4.292399297911359
 20
5.7072190343533
 30
0.0
 10
4.553011937269431
 20
5.7072190343533
 30
0.0
340
13A
  0
MTEXT
  5
13A
102
{ACAD_REACTORS
330
139
102
}
330
D
100
AcDbEntity
 67
     1
  8
DIMENSION
100
AcDbMText
 10
4.643011937269431
 20
5.7072190343533
 30
0.0
 40
0.125
 41
0.0
 71
     4
 72
     1
  1
MARKING STRIP
 73
     1
 44
1.0
  0
MTEXT
  5
13B
330
D
100
AcDbEntity
 67
     1
  8
STD10004-H38
 62
     1
100
AcDbMText
 10
6.799056531730143
 20
8.65488829590987
 30
0.0
 40
0.125
 41
6.6173
 71
     1
 72
     5
  1
{\LNOTE:\P\P}1) CAPTIVE WIRE CLAMPS CAN ACCEPT UP TO #22 TO TWO #12 WIRES\P\P2) RATING - 25A 600v
 73
     1
 44
1.0
  0
ARC
  5
13D
330
D
100
AcDbEntity
 67
     1
  8
AM_VIS
100
AcDbCircle
 10
2.867274708150914
 20
4.85693526537742
 30
0.0
 40
0.094
100
AcDbArc
 50
89.99999999999786
 51
179.9999999999998
  0
ARC
  5
13F
330
D
100
AcDbEntity
 67
     1
  8
AM_VIS
100
AcDbCircle
 10
4.226104708150908
 20
4.85693526537742
 30
0.0
 40
0.094
100
AcDbArc
 50
0.0000000000001527
 51
90.00000000000005
  0
LINE
  5
140
330
D
100
AcDbEntity
 67
     1
  8
AM_VIS
100
AcDbLine
 10
4.320104708150906
 20
4.85693526537742
 30
0.0
 11
4.320104708150906
 21
4.067633909045722
 31
0.0
  0
LINE
  5
141
330
D
100
AcDbEntity
 67
     1
  8
AM_VIS
100
AcDbLine
 10
3.759000380467686
 20
4.95093526537742
 30
0.0
 11
4.226104708150908
 21
4.95093526537742
 31
0.0
  0
LINE
  5
142
330
D
100
AcDbEntity
 67
     1
  8
AM_VIS
100
AcDbLine
 10
2.867274708150914
 20
4.95093526537742
 30
0.0
 11
3.334380380467687
 21
4.95093526537742
 31
0.0
  0
LINE
  5
143
330
D
100
AcDbEntity
 67
     1
  8
AM_VIS
100
AcDbLine
 10
2.773274708150914
 20
4.067633909045722
 30
0.0
 11
2.773274708150914
 21
4.85693526537742
 31
0.0
  0
ARC
  5
144
330
D
100
AcDbEntity
 67
     1
  8
AM_VIS
100
AcDbCircle
 10
3.422986308150906
 20
4.239045638697468
 30
0.0
 40
0.007
100
AcDbArc
 50
270.0
 51
0.0
  0
LINE
  5
145
330
D
100
AcDbEntity
 67
     1
  8
AM_VIS
100
AcDbLine
 10
3.429986308150908
 20
4.686122903491391
 30
0.0
 11
3.429986308150908
 21
4.239045638697468
 31
0.0
  0
ARC
  5
146
330
D
100
AcDbEntity
 67
     1
  8
AM_VIS
100
AcDbCircle
 10
3.461986308150908
 20
4.686122903491391
 30
0.0
 40
0.032
100
AcDbArc
 50
47.65516887408025
 51
180.0000000000004
  0
ARC
  5
147
330
D
100
AcDbEntity
 67
     1
  8
AM_VIS
100
AcDbCircle
 10
3.546690380467687
 20
4.77906526537742
 30
0.0
 40
0.09375
100
AcDbArc
 50
227.6551688740834
 51
312.3448311259181
  0
ARC
  5
148
330
D
100
AcDbEntity
 67
     1
  8
AM_VIS
100
AcDbCircle
 10
3.631394452784468
 20
4.686122903491391
 30
0.0
 40
0.032
100
AcDbArc
 50
359.9999999999991
 51
132.344831125918
  0
LINE
  5
149
330
D
100
AcDbEntity
 67
     1
  8
AM_VIS
100
AcDbLine
 10
3.663394452784473
 20
4.239045638697468
 30
0.0
 11
3.663394452784473
 21
4.686122903491391
 31
0.0
  0
ARC
  5
14A
330
D
100
AcDbEntity
 67
     1
  8
AM_VIS
100
AcDbCircle
 10
3.67039445278447
 20
4.239045638697468
 30
0.0
 40
0.007
100
AcDbArc
 50
180.0
 51
270.0
  0
LINE
  5
14B
330
D
100
AcDbEntity
 67
     1
  8
AM_VIS
100
AcDbLine
 10
3.726394452784471
 20
4.232045638697466
 30
0.0
 11
3.67039445278447
 21
4.232045638697466
 31
0.0
  0
ARC
  5
14C
330
D
100
AcDbEntity
 67
     1
  8
AM_VIS
100
AcDbCircle
 10
3.726394452784471
 20
4.239045638697468
 30
0.0
 40
0.007
100
AcDbArc
 50
270.0
 51
0.0
  0
LINE
  5
14D
330
D
100
AcDbEntity
 67
     1
  8
AM_VIS
100
AcDbLine
 10
3.73339445278447
 20
4.724574503698268
 30
0.0
 11
3.73339445278447
 21
4.239045638697468
 31
0.0
  0
ARC
  5
14E
330
D
100
AcDbEntity
 67
     1
  8
AM_VIS
100
AcDbCircle
 10
3.76539445278447
 20
4.724574503698268
 30
0.0
 40
0.032
100
AcDbArc
 50
135.0000000000003
 51
179.9999999999995
  0
LINE
  5
14F
330
D
100
AcDbEntity
 67
     1
  8
AM_VIS
100
AcDbLine
 10
3.759000380467689
 20
4.763435265377423
 30
0.0
 11
3.742767035786502
 21
4.747201920696237
 31
0.0
  0
LINE
  5
150
330
D
100
AcDbEntity
 67
     1
  8
AM_VIS
100
AcDbLine
 10
3.759000380467686
 20
4.950935265377422
 30
0.0
 11
3.759000380467686
 21
4.763435265377423
 31
0.0
  0
LINE
  5
151
330
D
100
AcDbEntity
 67
     1
  8
AM_VIS
100
AcDbLine
 10
3.68820447743769
 20
4.950935265377423
 30
0.0
 11
3.759000380467689
 21
4.950935265377423
 31
0.0
  0
LINE
  5
152
330
D
100
AcDbEntity
 67
     1
  8
AM_VIS
100
AcDbLine
 10
3.422986308150906
 20
4.232045638697466
 30
0.0
 11
3.366986308150905
 21
4.232045638697466
 31
0.0
  0
ARC
  5
153
330
D
100
AcDbEntity
 67
     1
  8
AM_VIS
100
AcDbCircle
 10
3.366986308150905
 20
4.239045638697468
 30
0.0
 40
0.007
100
AcDbArc
 50
180.0000000000009
 51
270.0
  0
LINE
  5
154
330
D
100
AcDbEntity
 67
     1
  8
AM_VIS
100
AcDbLine
 10
3.359986308150908
 20
4.239045638697468
 30
0.0
 11
3.359986308150908
 21
4.724574503698269
 31
0.0
  0
ARC
  5
155
330
D
100
AcDbEntity
 67
     1
  8
AM_VIS
100
AcDbCircle
 10
3.327986308150908
 20
4.724574503698269
 30
0.0
 40
0.032
100
AcDbArc
 50
359.9999999999996
 51
45.00000000000482
  0
LINE
  5
156
330
D
100
AcDbEntity
 67
     1
  8
AM_VIS
100
AcDbLine
 10
3.350613725148877
 20
4.747201920696239
 30
0.0
 11
3.334380380467687
 21
4.763435265377422
 31
0.0
  0
LINE
  5
157
330
D
100
AcDbEntity
 67
     1
  8
AM_VIS
100
AcDbLine
 10
3.334380380467684
 20
4.763435265377423
 30
0.0
 11
3.334380380467684
 21
4.950935265377422
 31
0.0
  0
LINE
  5
158
330
D
100
AcDbEntity
 67
     1
  8
AM_VIS
100
AcDbLine
 10
3.334380380467684
 20
4.950935265377423
 30
0.0
 11
3.405176283497687
 21
4.950935265377423
 31
0.0
  0
ARC
  5
159
330
D
100
AcDbEntity
 67
     1
  8
AM_VIS
100
AcDbCircle
 10
3.405176283497687
 20
4.940835265377423
 30
0.0
 40
0.0101
100
AcDbArc
 50
359.9999999999987
 51
90.00000000000005
  0
LINE
  5
15A
330
D
100
AcDbEntity
 67
     1
  8
AM_VIS
100
AcDbLine
 10
3.415276283497688
 20
4.940835265377423
 30
0.0
 11
3.415276283497688
 21
4.914882892707389
 31
0.0
  0
ARC
  5
15B
330
D
100
AcDbEntity
 67
     1
  8
AM_VIS
100
AcDbCircle
 10
3.405176283497687
 20
4.914882892707391
 30
0.0
 40
0.0101000000000003
100
AcDbArc
 50
315.0
 51
359.9999999999937
  0
LINE
  5
15C
330
D
100
AcDbEntity
 67
     1
  8
AM_VIS
100
AcDbLine
 10
3.412318061987671
 20
4.907741114217406
 30
0.0
 11
3.384949953427689
 21
4.880373005657419
 31
0.0
  0
LINE
  5
15D
330
D
100
AcDbEntity
 67
     1
  8
AM_VIS
100
AcDbLine
 10
3.384949953427689
 20
4.880373005657419
 30
0.0
 11
3.384949953427689
 21
4.849826702207415
 31
0.0
  0
LINE
  5
15E
330
D
100
AcDbEntity
 67
     1
  8
AM_VIS
100
AcDbLine
 10
3.384949953427689
 20
4.849826702207415
 30
0.0
 11
3.708430807507684
 21
4.849826702207415
 31
0.0
  0
LINE
  5
15F
330
D
100
AcDbEntity
 67
     1
  8
AM_VIS
100
AcDbLine
 10
3.708430807507684
 20
4.849826702207414
 30
0.0
 11
3.708430807507684
 21
4.880373005657417
 31
0.0
  0
LINE
  5
160
330
D
100
AcDbEntity
 67
     1
  8
AM_VIS
100
AcDbLine
 10
3.708430807507684
 20
4.880373005657417
 30
0.0
 11
3.681062698947701
 21
4.907741114217403
 31
0.0
  0
ARC
  5
161
330
D
100
AcDbEntity
 67
     1
  8
AM_VIS
100
AcDbCircle
 10
3.688204477437686
 20
4.914882892707388
 30
0.0
 40
0.0101000000000005
100
AcDbArc
 50
180.0
 51
224.9999999999991
  0
LINE
  5
162
330
D
100
AcDbEntity
 67
     1
  8
AM_VIS
100
AcDbLine
 10
3.678104477437685
 20
4.914882892707388
 30
0.0
 11
3.678104477437685
 21
4.940835265377423
 31
0.0
  0
ARC
  5
163
330
D
100
AcDbEntity
 67
     1
  8
AM_VIS
100
AcDbCircle
 10
3.688204477437686
 20
4.940835265377423
 30
0.0
 40
0.0101
100
AcDbArc
 50
90.00000000000005
 51
180.0
  0
LINE
  5
164
330
D
100
AcDbEntity
 67
     1
  8
AM_VIS
100
AcDbLine
 10
4.069902615185906
 20
4.229991165377468
 30
0.0
 11
4.102739708150905
 21
4.229991165377468
 31
0.0
  0
ARC
  5
165
330
D
100
AcDbEntity
 67
     1
  8
AM_VIS
100
AcDbCircle
 10
4.069902615185906
 20
4.219881165377469
 30
0.0
 40
0.0101099999999994
100
AcDbArc
 50
90.00000000000005
 51
180.0
  0
LINE
  5
166
330
D
100
AcDbEntity
 67
     1
  8
AM_VIS
100
AcDbLine
 10
4.059792615185908
 20
4.157199165377464
 30
0.0
 11
4.059792615185908
 21
4.219881165377469
 31
0.0
  0
LINE
  5
167
330
D
100
AcDbEntity
 67
     1
  8
AM_VIS
100
AcDbLine
 10
3.768493108150908
 20
4.157199165377464
 30
0.0
 11
4.059792615185908
 21
4.157199165377464
 31
0.0
  0
ARC
  5
168
330
D
100
AcDbEntity
 67
     1
  8
AM_VIS
100
AcDbCircle
 10
3.768493108150908
 20
4.147099165377466
 30
0.0
 40
0.0101000000000005
100
AcDbArc
 50
90.00000000000005
 51
180.0
  0
LINE
  5
169
330
D
100
AcDbEntity
 67
     1
  8
AM_VIS
100
AcDbLine
 10
2.990639708150903
 20
4.229991165377468
 30
0.0
 11
3.023486801115903
 21
4.229991165377468
 31
0.0
  0
ARC
  5
16A
330
D
100
AcDbEntity
 67
     1
  8
AM_VIS
100
AcDbCircle
 10
2.990639708150903
 20
4.219881165377469
 30
0.0
 40
0.0101099999999994
100
AcDbArc
 50
90.00000000000005
 51
180.0
  0
LINE
  5
16B
330
D
100
AcDbEntity
 67
     1
  8
AM_VIS
100
AcDbLine
 10
2.904429121471597
 20
4.143780578698163
 30
0.0
 11
2.980529708150906
 21
4.219881165377469
 31
0.0
  0
LINE
  5
16C
330
D
100
AcDbEntity
 67
     1
  8
AM_VIS
100
AcDbLine
 10
3.758393108150908
 20
3.939834165377464
 30
0.0
 11
3.758393108150908
 21
4.147099165377466
 31
0.0
  0
LINE
  5
16D
330
D
100
AcDbEntity
 67
     1
  8
AM_VIS
100
AcDbLine
 10
3.617459708150906
 20
3.939834165377464
 30
0.0
 11
3.758393108150908
 21
3.939834165377464
 31
0.0
  0
LINE
  5
16E
330
D
100
AcDbEntity
 67
     1
  8
AM_VIS
100
AcDbLine
 10
2.82548981392458
 20
4.12986144893918
 30
0.0
 11
2.904429121471597
 21
4.143780578698162
 31
0.0
  0
ARC
  5
16F
330
D
100
AcDbEntity
 67
     1
  8
AM_VIS
100
AcDbCircle
 10
3.546689708150906
 20
3.939834165377466
 30
0.0
 40
0.0707699999999996
100
AcDbArc
 50
0.0000000000002036
 51
180.0000000000007
  0
ARC
  5
170
330
D
100
AcDbEntity
 67
     1
  8
AM_VIS
100
AcDbCircle
 10
2.836462208150908
 20
4.067633909045722
 30
0.0
 40
0.0631875000000002
100
AcDbArc
 50
99.99999999999957
 51
179.9999999999998
  0
LINE
  5
171
330
D
100
AcDbEntity
 67
     1
  8
AM_VIS
100
AcDbLine
 10
3.334986308150909
 20
3.939834165377466
 30
0.0
 11
3.475919708150906
 21
3.939834165377466
 31
0.0
  0
LINE
  5
172
330
D
100
AcDbEntity
 67
     1
  8
AM_VIS
100
AcDbLine
 10
3.033586801115904
 20
4.157199165377464
 30
0.0
 11
3.324886308150908
 21
4.157199165377464
 31
0.0
  0
ARC
  5
173
330
D
100
AcDbEntity
 67
     1
  8
AM_VIS
100
AcDbCircle
 10
3.324886308150908
 20
4.147099165377466
 30
0.0
 40
0.0101000000000005
100
AcDbArc
 50
359.9999999999993
 51
90.00000000000005
  0
LINE
  5
174
330
D
100
AcDbEntity
 67
     1
  8
AM_VIS
100
AcDbLine
 10
3.334986308150909
 20
4.147099165377466
 30
0.0
 11
3.334986308150909
 21
3.939834165377466
 31
0.0
  0
ARC
  5
175
330
D
100
AcDbEntity
 67
     1
  8
AM_VIS
100
AcDbCircle
 10
4.102739708150905
 20
4.219881165377469
 30
0.0
 40
0.0101100000000001
100
AcDbArc
 50
359.9999999999949
 51
90.00000000000005
  0
LINE
  5
176
330
D
100
AcDbEntity
 67
     1
  8
AM_VIS
100
AcDbLine
 10
4.112849708150903
 20
4.219881165377468
 30
0.0
 11
4.188950294830212
 21
4.14378057869816
 31
0.0
  0
LINE
  5
177
330
D
100
AcDbEntity
 67
     1
  8
AM_VIS
100
AcDbLine
 10
4.188950294830212
 20
4.14378057869816
 30
0.0
 11
4.267889602377226
 21
4.129861448939176
 31
0.0
  0
ARC
  5
178
330
D
100
AcDbEntity
 67
     1
  8
AM_VIS
100
AcDbCircle
 10
4.256917208150895
 20
4.067633909045716
 30
0.0
 40
0.0631875000000007
100
AcDbArc
 50
359.9999999999998
 51
79.99999999999736
  0
LINE
  5
179
330
D
100
AcDbEntity
 67
     1
  8
AM_VIS
100
AcDbLine
 10
4.320104708150903
 20
4.067633909045716
 30
0.0
 11
4.320104708150903
 21
3.640578165377468
 31
0.0
  0
ARC
  5
17A
330
D
100
AcDbEntity
 67
     1
  8
AM_VIS
100
AcDbCircle
 10
4.345379708150897
 20
3.640578165377468
 30
0.0
 40
0.0252749999999997
100
AcDbArc
 50
180.0
 51
270.0
  0
LINE
  5
17B
330
D
100
AcDbEntity
 67
     1
  8
AM_VIS
100
AcDbLine
 10
4.345379708150897
 20
3.615303165377468
 30
0.0
 11
4.355489708150904
 21
3.615303165377468
 31
0.0
  0
ARC
  5
17C
330
D
100
AcDbEntity
 67
     1
  8
AM_VIS
100
AcDbCircle
 10
4.355489708150904
 20
3.640578165377468
 30
0.0
 40
0.0252750000000006
100
AcDbArc
 50
270.0
 51
359.9999999999998
  0
LINE
  5
17D
330
D
100
AcDbEntity
 67
     1
  8
AM_VIS
100
AcDbLine
 10
4.380764708150906
 20
3.640578165377468
 30
0.0
 11
4.380764708150906
 21
3.706293165377468
 31
0.0
  0
ARC
  5
17E
330
D
100
AcDbEntity
 67
     1
  8
AM_VIS
100
AcDbCircle
 10
4.390874708150903
 20
3.706293165377468
 30
0.0
 40
0.0101099999999999
100
AcDbArc
 50
90.00000000000005
 51
179.9999999999998
  0
LINE
  5
17F
330
D
100
AcDbEntity
 67
     1
  8
AM_VIS
100
AcDbLine
 10
4.390874708150903
 20
3.716403165377466
 30
0.0
 11
4.431314708150903
 21
3.716403165377466
 31
0.0
  0
ARC
  5
180
330
D
100
AcDbEntity
 67
     1
  8
AM_VIS
100
AcDbCircle
 10
4.431314708150903
 20
3.706293165377468
 30
0.0
 40
0.0101099999999992
100
AcDbArc
 50
0.0000000000001781
 51
90.00000000000005
  0
LINE
  5
181
330
D
100
AcDbEntity
 67
     1
  8
AM_VIS
100
AcDbLine
 10
4.441424708150901
 20
3.706293165377468
 30
0.0
 11
4.441424708150901
 21
3.416495404314381
 31
0.0
  0
ARC
  5
182
330
D
100
AcDbEntity
 67
     1
  8
AM_VIS
100
AcDbCircle
 10
4.378224708150901
 20
3.416495404314381
 30
0.0
 40
0.0632000000000006
100
AcDbArc
 50
270.0
 51
0.0
  0
LINE
  5
183
330
D
100
AcDbEntity
 67
     1
  8
AM_VIS
100
AcDbLine
 10
4.378224708150901
 20
3.353295404314382
 30
0.0
 11
4.289060952355196
 21
3.353295404314382
 31
0.0
  0
LINE
  5
184
330
D
100
AcDbEntity
 67
     1
  8
AM_VIS
100
AcDbLine
 10
4.289060952355196
 20
3.353295404314382
 30
0.0
 11
4.167275057527174
 21
3.564234761801746
 31
0.0
  0
ARC
  5
185
330
D
100
AcDbEntity
 67
     1
  8
AM_VIS
100
AcDbCircle
 10
4.176030574359437
 20
3.569289761801746
 30
0.0
 40
0.0101099999999987
100
AcDbArc
 50
95.00000000000914
 51
209.9999999999949
  0
LINE
  5
186
330
D
100
AcDbEntity
 67
     1
  8
AM_VIS
100
AcDbLine
 10
4.175149429800256
 20
3.579361290199451
 30
0.0
 11
4.239224708150903
 21
3.584967150667406
 31
0.0
  0
LINE
  5
187
330
D
100
AcDbEntity
 67
     1
  8
AM_VIS
100
AcDbLine
 10
4.239224708150906
 20
3.584967150667406
 30
0.0
 11
4.239224708150906
 21
4.010604165377466
 31
0.0
  0
ARC
  5
188
330
D
100
AcDbEntity
 67
     1
  8
AM_VIS
100
AcDbCircle
 10
4.208894708150903
 20
4.010604165377466
 30
0.0
 40
0.0303300000000002
100
AcDbArc
 50
359.9999999999997
 51
180.0000000000075
  0
LINE
  5
189
330
D
100
AcDbEntity
 67
     1
  8
AM_VIS
100
AcDbLine
 10
4.178564708150901
 20
4.010604165377461
 30
0.0
 11
4.178564708150901
 21
3.926119165377466
 31
0.0
  0
LINE
  5
18A
330
D
100
AcDbEntity
 67
     1
  8
AM_VIS
100
AcDbLine
 10
4.178564708150901
 20
3.926119165377464
 30
0.0
 11
4.148564708150913
 21
3.926119165377464
 31
0.0
  0
ARC
  5
18B
330
D
100
AcDbEntity
 67
     1
  8
AM_VIS
100
AcDbCircle
 10
4.148564708150909
 20
3.832369165377464
 30
0.0
 40
0.09375
100
AcDbArc
 50
89.99999999999786
 51
270.0
  0
LINE
  5
18C
330
D
100
AcDbEntity
 67
     1
  8
AM_VIS
100
AcDbLine
 10
4.148564708150909
 20
3.738619165377464
 30
0.0
 11
4.178564708150901
 21
3.738619165377464
 31
0.0
  0
LINE
  5
18D
330
D
100
AcDbEntity
 67
     1
  8
AM_VIS
100
AcDbLine
 10
4.178564708150901
 20
3.738619165377464
 30
0.0
 11
4.178564708150901
 21
3.654134165377463
 31
0.0
  0
ARC
  5
18E
330
D
100
AcDbEntity
 67
     1
  8
AM_VIS
100
AcDbCircle
 10
4.1469647081509
 20
3.654134165377463
 30
0.0
 40
0.0315999999999996
100
AcDbArc
 50
270.0
 51
0.0
  0
LINE
  5
18F
330
D
100
AcDbEntity
 67
     1
  8
AM_VIS
100
AcDbLine
 10
4.1469647081509
 20
3.622534165377464
 30
0.0
 11
4.023129708150906
 21
3.622534165377464
 31
0.0
  0
ARC
  5
190
330
D
100
AcDbEntity
 67
     1
  8
AM_VIS
100
AcDbCircle
 10
4.023129708150906
 20
3.654134165377463
 30
0.0
 40
0.0315999999999992
100
AcDbArc
 50
180.0
 51
270.0
  0
LINE
  5
191
330
D
100
AcDbEntity
 67
     1
  8
AM_VIS
100
AcDbLine
 10
3.991529708150905
 20
3.654134165377463
 30
0.0
 11
3.991529708150905
 21
3.818954165377466
 31
0.0
  0
ARC
  5
192
330
D
100
AcDbEntity
 67
     1
  8
AM_VIS
100
AcDbCircle
 10
3.951529708150906
 20
3.818954165377468
 30
0.0
 40
0.04
100
AcDbArc
 50
359.9999999999987
 51
90.00000000000005
  0
LINE
  5
193
330
D
100
AcDbEntity
 67
     1
  8
AM_VIS
100
AcDbLine
 10
3.951529708150906
 20
3.858954165377466
 30
0.0
 11
3.141849708150906
 21
3.858954165377466
 31
0.0
  0
ARC
  5
194
330
D
100
AcDbEntity
 67
     1
  8
AM_VIS
100
AcDbCircle
 10
3.141849708150906
 20
3.818954165377468
 30
0.0
 40
0.0399999999999992
100
AcDbArc
 50
90.00000000000005
 51
179.9999999999998
  0
LINE
  5
195
330
D
100
AcDbEntity
 67
     1
  8
AM_VIS
100
AcDbLine
 10
3.101849708150908
 20
3.818954165377468
 30
0.0
 11
3.101849708150908
 21
3.654134165377463
 31
0.0
  0
ARC
  5
196
330
D
100
AcDbEntity
 67
     1
  8
AM_VIS
100
AcDbCircle
 10
3.070249708150906
 20
3.654134165377463
 30
0.0
 40
0.0315999999999996
100
AcDbArc
 50
270.0
 51
0.000000000000229
  0
LINE
  5
197
330
D
100
AcDbEntity
 67
     1
  8
AM_VIS
100
AcDbLine
 10
3.070249708150906
 20
3.622534165377464
 30
0.0
 11
2.946414708150906
 21
3.622534165377464
 31
0.0
  0
ARC
  5
198
330
D
100
AcDbEntity
 67
     1
  8
AM_VIS
100
AcDbCircle
 10
2.946414708150906
 20
3.654134165377465
 30
0.0
 40
0.031600000000001
100
AcDbArc
 50
180.0000000000032
 51
270.0
  0
LINE
  5
199
330
D
100
AcDbEntity
 67
     1
  8
AM_VIS
100
AcDbLine
 10
2.914814708150906
 20
3.654134165377463
 30
0.0
 11
2.914814708150906
 21
3.738619165377464
 31
0.0
  0
LINE
  5
19A
330
D
100
AcDbEntity
 67
     1
  8
AM_VIS
100
AcDbLine
 10
2.914814708150906
 20
3.738619165377464
 30
0.0
 11
2.944814708150906
 21
3.738619165377464
 31
0.0
  0
ARC
  5
19B
330
D
100
AcDbEntity
 67
     1
  8
AM_VIS
100
AcDbCircle
 10
2.944814708150906
 20
3.832369165377464
 30
0.0
 40
0.09375
100
AcDbArc
 50
270.0
 51
90.00000000000005
  0
LINE
  5
19C
330
D
100
AcDbEntity
 67
     1
  8
AM_VIS
100
AcDbLine
 10
2.944814708150906
 20
3.926119165377464
 30
0.0
 11
2.914814708150906
 21
3.926119165377464
 31
0.0
  0
LINE
  5
19D
330
D
100
AcDbEntity
 67
     1
  8
AM_VIS
100
AcDbLine
 10
2.914814708150906
 20
3.926119165377463
 30
0.0
 11
2.914814708150906
 21
4.010604165377462
 31
0.0
  0
ARC
  5
19E
330
D
100
AcDbEntity
 67
     1
  8
AM_VIS
100
AcDbCircle
 10
2.884484708150909
 20
4.010604165377464
 30
0.0
 40
0.0303300000000011
100
AcDbArc
 50
359.9999999999966
 51
180.0000000000041
  0
LINE
  5
19F
330
D
100
AcDbEntity
 67
     1
  8
AM_VIS
100
AcDbLine
 10
2.854154708150906
 20
4.010604165377462
 30
0.0
 11
2.854154708150906
 21
3.584967150667404
 31
0.0
  0
LINE
  5
1A0
330
D
100
AcDbEntity
 67
     1
  8
AM_VIS
100
AcDbLine
 10
2.854154708150906
 20
3.584967150667404
 30
0.0
 11
2.918229986501553
 21
3.579361290199451
 31
0.0
  0
ARC
  5
1A1
330
D
100
AcDbEntity
 67
     1
  8
AM_VIS
100
AcDbCircle
 10
2.917348841942373
 20
3.569289761801745
 30
0.0
 40
0.0101099999999984
100
AcDbArc
 50
329.9999999999956
 51
84.99999999999085
  0
LINE
  5
1A2
330
D
100
AcDbEntity
 67
     1
  8
AM_VIS
100
AcDbLine
 10
2.926104358774633
 20
3.564234761801745
 30
0.0
 11
2.804318463946618
 21
3.353295404314381
 31
0.0
  0
LINE
  5
1A3
330
D
100
AcDbEntity
 67
     1
  8
AM_VIS
100
AcDbLine
 10
2.804318463946618
 20
3.353295404314382
 30
0.0
 11
2.715154708150908
 21
3.353295404314382
 31
0.0
  0
ARC
  5
1A4
330
D
100
AcDbEntity
 67
     1
  8
AM_VIS
100
AcDbCircle
 10
2.715154708150911
 20
3.416495404314381
 30
0.0
 40
0.0632000000000002
100
AcDbArc
 50
179.9999999999998
 51
270.0
  0
LINE
  5
1A5
330
D
100
AcDbEntity
 67
     1
  8
AM_VIS
100
AcDbLine
 10
2.65195470815091
 20
3.416495404314381
 30
0.0
 11
2.65195470815091
 21
3.706293165377468
 31
0.0
  0
ARC
  5
1A6
330
D
100
AcDbEntity
 67
     1
  8
AM_VIS
100
AcDbCircle
 10
2.662064708150911
 20
3.706293165377468
 30
0.0
 40
0.0101099999999987
100
AcDbArc
 50
90.00000000000005
 51
179.9999999999998
  0
LINE
  5
1A7
330
D
100
AcDbEntity
 67
     1
  8
AM_VIS
100
AcDbLine
 10
2.662064708150911
 20
3.716403165377466
 30
0.0
 11
2.702504708150911
 21
3.716403165377466
 31
0.0
  0
ARC
  5
1A8
330
D
100
AcDbEntity
 67
     1
  8
AM_VIS
100
AcDbCircle
 10
2.702504708150911
 20
3.706293165377468
 30
0.0
 40
0.0101099999999992
100
AcDbArc
 50
0.0000000000001781
 51
90.00000000000005
  0
LINE
  5
1A9
330
D
100
AcDbEntity
 67
     1
  8
AM_VIS
100
AcDbLine
 10
2.712614708150908
 20
3.706293165377468
 30
0.0
 11
2.712614708150908
 21
3.640578165377468
 31
0.0
  0
ARC
  5
1AA
330
D
100
AcDbEntity
 67
     1
  8
AM_VIS
100
AcDbCircle
 10
2.737889708150909
 20
3.640578165377468
 30
0.0
 40
0.0252750000000006
100
AcDbArc
 50
179.9999999999998
 51
270.0
  0
LINE
  5
1AB
330
D
100
AcDbEntity
 67
     1
  8
AM_VIS
100
AcDbLine
 10
2.737889708150909
 20
3.615303165377468
 30
0.0
 11
2.747999708150909
 21
3.615303165377468
 31
0.0
  0
ARC
  5
1AC
330
D
100
AcDbEntity
 67
     1
  8
AM_VIS
100
AcDbCircle
 10
2.747999708150909
 20
3.640578165377468
 30
0.0
 40
0.0252749999999997
100
AcDbArc
 50
270.0
 51
359.9999999999998
  0
LINE
  5
1AD
330
D
100
AcDbEntity
 67
     1
  8
AM_VIS
100
AcDbLine
 10
2.773274708150906
 20
3.640578165377468
 30
0.0
 11
2.773274708150906
 21
4.067633909045722
 31
0.0
  0
ARC
  5
1AE
330
D
100
AcDbEntity
 67
     1
  8
AM_VIS
100
AcDbCircle
 10
3.023486801115903
 20
4.219891165377468
 30
0.0
 40
0.0100999999999996
100
AcDbArc
 50
0.0000000000000254
 51
90.00000000000005
  0
LINE
  5
1AF
330
D
100
AcDbEntity
 67
     1
  8
AM_VIS
100
AcDbLine
 10
3.033586801115904
 20
4.219891165377468
 30
0.0
 11
3.033586801115904
 21
4.157199165377464
 31
0.0
  0
ARC
  5
1B0
330
D
100
AcDbEntity
 67
     1
  8
AM_HID
100
AcDbCircle
 10
3.031524708150871
 20
4.272765165377461
 30
0.0
 40
0.005
100
AcDbArc
 50
90.00000000000225
 51
179.9999999999992
  0
LINE
  5
1B3
330
D
100
AcDbEntity
 67
     1
  8
AM_HID
100
AcDbLine
 10
3.083515857106681
 20
4.277765165377461
 30
0.0
 11
3.031524708150871
 21
4.277765165377461
 31
0.0
  0
LINE
  5
1B4
330
D
100
AcDbEntity
 67
     1
  8
AM_HID
100
AcDbLine
 10
3.083515857106681
 20
4.277765165377461
 30
0.0
 11
3.086285123561427
 21
4.277765165377461
 31
0.0
  0
ARC
  5
1B5
330
D
100
AcDbEntity
 67
     1
  8
AM_HID
100
AcDbCircle
 10
3.33052470815087
 20
4.272765165377461
 30
0.0
 40
0.005
100
AcDbArc
 50
359.9999999999991
 51
90.00000000000319
  0
LINE
  5
1B6
330
D
100
AcDbEntity
 67
     1
  8
AM_VIS
100
AcDbLine
 10
3.335524708150873
 20
4.278165165377461
 30
0.0
 11
3.335524708150873
 21
4.248765165377461
 31
0.0
  0
LINE
  5
1B7
330
D
100
AcDbEntity
 67
     1
  8
AM_VIS
100
AcDbLine
 10
3.335524708150873
 20
4.232765165377461
 30
0.0
 11
3.335524708150873
 21
4.248765165377461
 31
0.0
  0
ELLIPSE
  5
1B8
330
D
100
AcDbEntity
 67
     1
  8
AM_VIS
100
AcDbEllipse
 10
3.127848016421548
 20
4.272765165377461
 30
0.0
 11
0.0
 21
0.005
 31
0.0
210
0.0
220
0.0
230
1.0
 40
0.8646616541353594
 41
-0.000000000000117
 42
1.570796326794909
  0
ELLIPSE
  5
1B9
330
D
100
AcDbEntity
 67
     1
  8
AM_VIS
100
AcDbEllipse
 10
3.234201399880198
 20
4.272765165377461
 30
0.0
 11
0.0
 21
-0.005
 31
0.0
210
0.0
220
0.0
230
1.0
 40
0.8646616541353454
 41
1.570796326794909
 42
3.141592653589853
  0
LINE
  5
1BA
330
D
100
AcDbEntity
 67
     1
  8
AM_VIS
100
AcDbLine
 10
3.234201399880198
 20
4.277765165377461
 30
0.0
 11
3.127848016421548
 21
4.277765165377461
 31
0.0
  0
LINE
  5
1BB
330
D
100
AcDbEntity
 67
     1
  8
AM_VIS
100
AcDbLine
 10
3.238524708150873
 20
4.272765165377461
 30
0.0
 11
3.238524708150873
 21
4.278165165377461
 31
0.0
  0
LINE
  5
1BC
330
D
100
AcDbEntity
 67
     1
  8
AM_VIS
100
AcDbLine
 10
3.123524708150871
 20
4.278165165377461
 30
0.0
 11
3.123524708150871
 21
4.272765165377461
 31
0.0
  0
LINE
  5
1BD
330
D
100
AcDbEntity
 67
     1
  8
AM_VIS
100
AcDbLine
 10
3.026524708150873
 20
4.248765165377461
 30
0.0
 11
3.026524708150873
 21
4.278165165377461
 31
0.0
  0
LINE
  5
1BE
330
D
100
AcDbEntity
 67
     1
  8
AM_VIS
100
AcDbLine
 10
3.123524708150871
 20
4.232765165377461
 30
0.0
 11
3.123524708150871
 21
4.248765165377461
 31
0.0
  0
LINE
  5
1BF
330
D
100
AcDbEntity
 67
     1
  8
AM_VIS
100
AcDbLine
 10
3.238524708150873
 20
4.248765165377461
 30
0.0
 11
3.238524708150873
 21
4.232765165377461
 31
0.0
  0
ELLIPSE
  5
1C0
330
D
100
AcDbEntity
 67
     1
  8
AM_VIS
100
AcDbEllipse
 10
3.127848016421545
 20
4.232765165377461
 30
0.0
 11
0.0
 21
-0.005
 31
0.0
210
0.0
220
0.0
230
1.0
 40
0.8646616541353594
 41
4.712388980384691
 42
6.283185307179454
  0
LINE
  5
1C1
330
D
100
AcDbEntity
 67
     1
  8
AM_VIS
100
AcDbLine
 10
3.127848016421545
 20
4.227765165377461
 30
0.0
 11
3.234201399880198
 21
4.227765165377461
 31
0.0
  0
ELLIPSE
  5
1C2
330
D
100
AcDbEntity
 67
     1
  8
AM_VIS
100
AcDbEllipse
 10
3.234201399880198
 20
4.232765165377461
 30
0.0
 11
0.0
 21
0.005
 31
0.0
210
0.0
220
0.0
230
1.0
 40
0.8646616541353456
 41
3.141592653589826
 42
4.712388980384685
  0
ELLIPSE
  5
1C3
330
D
100
AcDbEntity
 67
     1
  8
AM_HID
100
AcDbEllipse
 10
3.127848016421545
 20
4.248765165377461
 30
0.0
 11
0.0
 21
-0.005
 31
0.0
210
0.0
220
0.0
230
1.0
 40
0.8646616541353594
 41
4.712388980384674
 42
6.28318530717944
  0
LINE
  5
1C4
330
D
100
AcDbEntity
 67
     1
  8
AM_HID
100
AcDbLine
 10
3.175130341772702
 20
4.243765165377461
 30
0.0
 11
3.127848016421548
 21
4.243765165377461
 31
0.0
  0
SPLINE
  5
1C5
330
D
100
AcDbEntity
 67
     1
  8
AM_HID
100
AcDbSpline
210
0.0
220
0.0
230
1.0
 70
     8
 71
     3
 72
    14
 73
    10
 74
     0
 42
0.0000000001
 43
0.0000000001
 40
0.0083220153421731
 40
0.0083220153421731
 40
0.0083220153421731
 40
0.0083220153421731
 40
0.0108383486000981
 40
0.0108383486000981
 40
0.0131131555432174
 40
0.0131131555432174
 40
0.0150716653566343
 40
0.0150716653566343
 40
0.0167760747934346
 40
0.0167760747934346
 40
0.0167760747934346
 40
0.0167760747934346
 10
3.175130341772702
 20
4.243765165377461
 30
0.0
 10
3.175678956095925
 20
4.243765165377461
 30
0.0
 10
3.176328157797883
 20
4.243932264009441
 30
0.0
 10
3.177311784402823
 20
4.244469791761232
 30
0.0
 10
3.177832490969926
 20
4.244910437987521
 30
0.0
 10
3.178534187997726
 20
4.245827096471268
 30
0.0
 10
3.178857611861392
 20
4.246434721157241
 30
0.0
 10
3.179204636174439
 20
4.247534391411546
 30
0.0
 10
3.179309517951518
 20
4.248197028898529
 30
0.0
 10
3.179309517951518
 20
4.248765165377461
 30
0.0
  0
LINE
  5
1C6
330
D
100
AcDbEntity
 67
     1
  8
AM_HID
100
AcDbLine
 10
3.179309517951518
 20
4.227765165377461
 30
0.0
 11
3.179309517951518
 21
4.248765165377461
 31
0.0
  0
ARC
  5
1C7
330
D
100
AcDbEntity
 67
     1
  8
AM_VIS
100
AcDbCircle
 10
3.031524708150871
 20
4.232765165377461
 30
0.0
 40
0.005
100
AcDbArc
 50
180.0000000000004
 51
269.9999999999985
  0
LINE
  5
1C8
330
D
100
AcDbEntity
 67
     1
  8
AM_VIS
100
AcDbLine
 10
3.031524708150868
 20
4.227765165377461
 30
0.0
 11
3.091041053398576
 21
4.227765165377461
 31
0.0
  0
LINE
  5
1C9
330
D
100
AcDbEntity
 67
     1
  8
AM_VIS
100
AcDbLine
 10
3.091041053398579
 20
4.227765165377461
 30
0.0
 11
3.091041053398579
 21
4.243765165377461
 31
0.0
  0
LINE
  5
1CA
330
D
100
AcDbEntity
 67
     1
  8
AM_HID
100
AcDbLine
 10
3.091041053398579
 20
4.243765165377461
 30
0.0
 11
3.091041053398579
 21
4.248765165377461
 31
0.0
  0
ARC
  5
1CB
330
D
100
AcDbEntity
 67
     1
  8
AM_HID
100
AcDbCircle
 10
3.086090457423433
 20
4.248714629783862
 30
0.0
 40
0.0049508539016324
100
AcDbArc
 50
271.3574888250615
 51
0.5848539603916692
  0
LINE
  5
1CC
330
D
100
AcDbEntity
 67
     1
  8
AM_VIS
100
AcDbLine
 10
3.026524708150873
 20
4.248765165377461
 30
0.0
 11
3.026524708150873
 21
4.232765165377461
 31
0.0
  0
ARC
  5
1CD
330
D
100
AcDbEntity
 67
     1
  8
AM_VIS
100
AcDbCircle
 10
3.33052470815087
 20
4.232765165377461
 30
0.0
 40
0.005
100
AcDbArc
 50
269.9999999999934
 51
0.0000000000007194
  0
ARC
  5
1CE
330
D
100
AcDbEntity
 67
     1
  8
AM_HID
100
AcDbCircle
 10
3.275958958878316
 20
4.248714629783873
 30
0.0
 40
0.0049508539016443
100
AcDbArc
 50
179.4151460397547
 51
268.6425111748537
  0
LINE
  5
1CF
330
D
100
AcDbEntity
 67
     1
  8
AM_HID
100
AcDbLine
 10
3.271008362903167
 20
4.248765165377461
 30
0.0
 11
3.271008362903167
 21
4.243765165377461
 31
0.0
  0
LINE
  5
1D0
330
D
100
AcDbEntity
 67
     1
  8
AM_VIS
100
AcDbLine
 10
3.271008362903167
 20
4.243765165377461
 30
0.0
 11
3.271008362903167
 21
4.227765165377461
 31
0.0
  0
LINE
  5
1D1
330
D
100
AcDbEntity
 67
     1
  8
AM_VIS
100
AcDbLine
 10
3.271008362903167
 20
4.227765165377461
 30
0.0
 11
3.33052470815087
 21
4.227765165377461
 31
0.0
  0
SPLINE
  5
1D2
330
D
100
AcDbEntity
 67
     1
  8
AM_HID
100
AcDbSpline
210
0.0
220
0.0
230
1.0
 70
     8
 71
     3
 72
    14
 73
    10
 74
     0
 42
0.0000000001
 43
0.0000000001
 40
0.0167760747934347
 40
0.0167760747934347
 40
0.0167760747934347
 40
0.0167760747934347
 40
0.0184804842302351
 40
0.0184804842302351
 40
0.0204389940436519
 40
0.0204389940436519
 40
0.0227138009867712
 40
0.0227138009867712
 40
0.0252301342446963
 40
0.0252301342446963
 40
0.0252301342446963
 40
0.0252301342446963
 10
3.182739898350223
 20
4.248765165377461
 30
0.0
 10
3.182739898350223
 20
4.248197028898528
 30
0.0
 10
3.182844780127303
 20
4.247534391411546
 30
0.0
 10
3.183191804440351
 20
4.246434721157241
 30
0.0
 10
3.183515228304017
 20
4.245827096471268
 30
0.0
 10
3.184216925331821
 20
4.244910437987521
 30
0.0
 10
3.184737631898921
 20
4.244469791761232
 30
0.0
 10
3.185721258503863
 20
4.243932264009441
 30
0.0
 10
3.186370460205822
 20
4.243765165377461
 30
0.0
 10
3.186919074529042
 20
4.243765165377461
 30
0.0
  0
LINE
  5
1D3
330
D
100
AcDbEntity
 67
     1
  8
AM_HID
100
AcDbLine
 10
3.182739898350223
 20
4.248765165377461
 30
0.0
 11
3.182739898350223
 21
4.227765165377461
 31
0.0
  0
LINE
  5
1D4
330
D
100
AcDbEntity
 67
     1
  8
AM_VIS
100
AcDbLine
 10
3.031524708150871
 20
4.243765165377461
 30
0.0
 11
3.123524708150866
 21
4.243765165377461
 31
0.0
  0
LINE
  5
1D5
330
D
100
AcDbEntity
 67
     1
  8
AM_HID
100
AcDbLine
 10
3.123524708150866
 20
4.243765165377461
 30
0.0
 11
3.127848016421545
 21
4.243765165377461
 31
0.0
  0
ARC
  5
1D6
330
D
100
AcDbEntity
 67
     1
  8
AM_VIS
100
AcDbCircle
 10
3.031524708150871
 20
4.248765165377461
 30
0.0
 40
0.005
100
AcDbArc
 50
180.0
 51
270.0000000000005
  0
ARC
  5
1D7
330
D
100
AcDbEntity
 67
     1
  8
AM_VIS
100
AcDbCircle
 10
3.33052470815087
 20
4.248765165377461
 30
0.0
 40
0.005
100
AcDbArc
 50
269.9999999999944
 51
0.0
  0
ELLIPSE
  5
1D8
330
D
100
AcDbEntity
 67
     1
  8
AM_HID
100
AcDbEllipse
 10
3.234201399880198
 20
4.248765165377461
 30
0.0
 11
0.0
 21
0.005
 31
0.0
210
0.0
220
0.0
230
1.0
 40
0.8646616541353459
 41
3.141592653589816
 42
4.712388980384674
  0
LINE
  5
1D9
330
D
100
AcDbEntity
 67
     1
  8
AM_HID
100
AcDbLine
 10
3.234201399880198
 20
4.243765165377461
 30
0.0
 11
3.238524708150873
 21
4.243765165377461
 31
0.0
  0
LINE
  5
1DA
330
D
100
AcDbEntity
 67
     1
  8
AM_VIS
100
AcDbLine
 10
3.238524708150873
 20
4.243765165377461
 30
0.0
 11
3.33052470815087
 21
4.243765165377461
 31
0.0
  0
LINE
  5
1DB
330
D
100
AcDbEntity
 67
     1
  8
AM_HID
100
AcDbLine
 10
3.234201399880198
 20
4.243765165377461
 30
0.0
 11
3.186919074529042
 21
4.243765165377461
 31
0.0
  0
ARC
  5
1DC
330
D
100
AcDbEntity
 67
     1
  8
AM_HID
100
AcDbCircle
 10
3.275938916923376
 20
4.272092215590308
 30
0.0
 40
0.0056756367830298
100
AcDbArc
 50
91.76311633121814
 51
173.1905260039531
  0
ARC
  5
1DD
330
D
100
AcDbEntity
 67
     1
  8
AM_HID
100
AcDbCircle
 10
3.086110499378366
 20
4.272092215590305
 30
0.0
 40
0.0056756367830319
100
AcDbArc
 50
6.809473996052654
 51
88.23688366882079
  0
ARC
  5
1DE
330
D
100
AcDbEntity
 67
     1
  8
AM_HID
100
AcDbCircle
 10
3.213551761479936
 20
4.295526492176808
 30
0.0
 40
0.0310741043484819
100
AcDbArc
 50
214.8604556673223
 51
227.095158005089
  0
ARC
  5
1DF
330
D
100
AcDbEntity
 67
     1
  8
AM_HID
100
AcDbCircle
 10
3.148497654821575
 20
4.295526492177013
 30
0.0
 40
0.031074104348791
100
AcDbArc
 50
312.9048419949721
 51
325.1395443326164
  0
LINE
  5
1E0
330
D
100
AcDbEntity
 67
     1
  8
AM_VIS
100
AcDbLine
 10
3.128178012024982
 20
4.293765165377461
 30
0.0
 11
3.116390490884543
 21
4.293765165377461
 31
0.0
  0
ELLIPSE
  5
1E1
330
D
100
AcDbEntity
 67
     1
  8
AM_VIS
100
AcDbEllipse
 10
3.116390490884543
 20
4.278165165377461
 30
0.0
 11
0.0
 21
-0.0156
 31
0.0
210
0.0
220
0.0
230
1.0
 40
0.4573216196363233
 41
1.570796326794901
 42
3.141592653589759
  0
LINE
  5
1E2
330
D
100
AcDbEntity
 67
     1
  8
AM_VIS
100
AcDbLine
 10
3.116390490884543
 20
4.293765165377461
 30
0.0
 11
3.042124708150871
 21
4.293765165377461
 31
0.0
  0
LINE
  5
1E3
330
D
100
AcDbEntity
 67
     1
  8
AM_HID
100
AcDbLine
 10
3.275764292740318
 20
4.277765165377461
 30
0.0
 11
3.278533559195063
 21
4.277765165377461
 31
0.0
  0
ELLIPSE
  5
1E4
330
D
100
AcDbEntity
 67
     1
  8
AM_VIS
100
AcDbEllipse
 10
3.245658925417198
 20
4.278165165377461
 30
0.0
 11
0.0
 21
-0.0156
 31
0.0
210
0.0
220
0.0
230
1.0
 40
0.4573216196363283
 41
3.141592653589705
 42
4.712388980384683
  0
LINE
  5
1E5
330
D
100
AcDbEntity
 67
     1
  8
AM_VIS
100
AcDbLine
 10
3.245658925417203
 20
4.293765165377461
 30
0.0
 11
3.233871404276768
 21
4.293765165377461
 31
0.0
  0
ARC
  5
1E6
330
D
100
AcDbEntity
 67
     1
  8
AM_VIS
100
AcDbCircle
 10
3.31992470815087
 20
4.278165165377461
 30
0.0
 40
0.0156
100
AcDbArc
 50
0.0000000000002544
 51
90.00000000000255
  0
LINE
  5
1E7
330
D
100
AcDbEntity
 67
     1
  8
AM_VIS
100
AcDbLine
 10
3.31992470815087
 20
4.293765165377461
 30
0.0
 11
3.245658925417203
 21
4.293765165377461
 31
0.0
  0
ARC
  5
1E8
330
D
100
AcDbEntity
 67
     1
  8
AM_VIS
100
AcDbCircle
 10
3.042124708150871
 20
4.278165165377461
 30
0.0
 40
0.0156
100
AcDbArc
 50
90.00000000000074
 51
179.9999999999996
  0
LINE
  5
1E9
330
D
100
AcDbEntity
 67
     1
  8
AM_HID
100
AcDbLine
 10
3.33052470815087
 20
4.277765165377461
 30
0.0
 11
3.278533559195063
 21
4.277765165377461
 31
0.0
  0
LINE
  5
1EA
330
D
100
AcDbEntity
 67
     1
  8
AM_HID
100
AcDbLine
 10
3.27102470815087
 20
4.272765165377461
 30
0.0
 11
3.27102470815087
 21
4.227765165377461
 31
0.0
  0
LINE
  5
1EB
330
D
100
AcDbEntity
 67
     1
  8
AM_HID
100
AcDbLine
 10
3.091024708150872
 20
4.272765165377461
 30
0.0
 11
3.091024708150872
 21
4.227765165377461
 31
0.0
  0
ARC
  5
1EC
330
D
100
AcDbEntity
 67
     1
  8
AM_HID
100
AcDbCircle
 10
3.276024708150869
 20
4.272765165377461
 30
0.0
 40
0.005
100
AcDbArc
 50
90.00000000000005
 51
180.0
  0
ARC
  5
1ED
330
D
100
AcDbEntity
 67
     1
  8
AM_HID
100
AcDbCircle
 10
3.086024708150873
 20
4.272765165377461
 30
0.0
 40
0.005
100
AcDbArc
 50
0.0000000000000254
 51
90.00000000000005
  0
ARC
  5
1EE
330
D
100
AcDbEntity
 67
     1
  8
AM_VIS
100
AcDbCircle
 10
3.15736801155031
 20
4.277081073344663
 30
0.0
 40
0.0166878118354896
100
AcDbArc
 50
3.724734600806561
 51
91.20977875312709
  0
LINE
  5
1EF
330
D
100
AcDbEntity
 67
     1
  8
AM_HID
100
AcDbLine
 10
3.174020573164703
 20
4.277739947390514
 30
0.0
 11
3.174020573164703
 21
4.277765165377461
 31
0.0
  0
LINE
  5
1F0
330
D
100
AcDbEntity
 67
     1
  8
AM_VIS
100
AcDbLine
 10
3.174020573164703
 20
4.277765165377461
 30
0.0
 11
3.174020573164703
 21
4.278165165377461
 31
0.0
  0
ARC
  5
1F1
330
D
100
AcDbEntity
 67
     1
  8
AM_VIS
100
AcDbCircle
 10
3.204686133537109
 20
4.277075918697806
 30
0.0
 40
0.0166928661949112
100
AcDbArc
 50
88.80682202633611
 51
176.2586646197384
  0
LINE
  5
1F2
330
D
100
AcDbEntity
 67
     1
  8
AM_VIS
100
AcDbLine
 10
3.188028843137042
 20
4.278165165377461
 30
0.0
 11
3.188028843137042
 21
4.277765165377461
 31
0.0
  0
LINE
  5
1F3
330
D
100
AcDbEntity
 67
     1
  8
AM_HID
100
AcDbLine
 10
3.188028843137042
 20
4.277765165377461
 30
0.0
 11
3.188028843137042
 21
4.277739947390513
 31
0.0
  0
ARC
  5
1F4
330
D
100
AcDbEntity
 67
     1
  8
AM_HID
100
AcDbCircle
 10
3.756524708150873
 20
4.272765165377461
 30
0.0
 40
0.005
100
AcDbArc
 50
90.00000000000225
 51
179.9999999999978
  0
LINE
  5
1F5
330
D
100
AcDbEntity
 67
     1
  8
AM_HID
100
AcDbLine
 10
3.808515857106683
 20
4.277765165377461
 30
0.0
 11
3.756524708150873
 21
4.277765165377461
 31
0.0
  0
LINE
  5
1F6
330
D
100
AcDbEntity
 67
     1
  8
AM_HID
100
AcDbLine
 10
3.808515857106683
 20
4.277765165377461
 30
0.0
 11
3.811285123561428
 21
4.277765165377461
 31
0.0
  0
ARC
  5
1F7
330
D
100
AcDbEntity
 67
     1
  8
AM_HID
100
AcDbCircle
 10
4.055524708150873
 20
4.272765165377461
 30
0.0
 40
0.005
100
AcDbArc
 50
359.9999999999991
 51
90.00000000000319
  0
LINE
  5
1F8
330
D
100
AcDbEntity
 67
     1
  8
AM_VIS
100
AcDbLine
 10
4.060524708150874
 20
4.278165165377461
 30
0.0
 11
4.060524708150874
 21
4.248765165377461
 31
0.0
  0
LINE
  5
1F9
330
D
100
AcDbEntity
 67
     1
  8
AM_VIS
100
AcDbLine
 10
4.060524708150874
 20
4.232765165377461
 30
0.0
 11
4.060524708150874
 21
4.248765165377461
 31
0.0
  0
ELLIPSE
  5
1FA
330
D
100
AcDbEntity
 67
     1
  8
AM_VIS
100
AcDbEllipse
 10
3.852848016421549
 20
4.272765165377461
 30
0.0
 11
0.0
 21
0.005
 31
0.0
210
0.0
220
0.0
230
1.0
 40
0.8646616541353594
 41
-0.000000000000117
 42
1.570796326794909
  0
ELLIPSE
  5
1FB
330
D
100
AcDbEntity
 67
     1
  8
AM_VIS
100
AcDbEllipse
 10
3.959201399880199
 20
4.272765165377461
 30
0.0
 11
0.0
 21
-0.005
 31
0.0
210
0.0
220
0.0
230
1.0
 40
0.8646616541353454
 41
1.570796326794909
 42
3.141592653589853
  0
LINE
  5
1FC
330
D
100
AcDbEntity
 67
     1
  8
AM_VIS
100
AcDbLine
 10
3.959201399880199
 20
4.277765165377461
 30
0.0
 11
3.852848016421549
 21
4.277765165377461
 31
0.0
  0
LINE
  5
1FD
330
D
100
AcDbEntity
 67
     1
  8
AM_VIS
100
AcDbLine
 10
3.963524708150874
 20
4.272765165377461
 30
0.0
 11
3.963524708150874
 21
4.278165165377461
 31
0.0
  0
LINE
  5
1FE
330
D
100
AcDbEntity
 67
     1
  8
AM_VIS
100
AcDbLine
 10
3.848524708150872
 20
4.278165165377461
 30
0.0
 11
3.848524708150872
 21
4.272765165377461
 31
0.0
  0
LINE
  5
1FF
330
D
100
AcDbEntity
 67
     1
  8
AM_VIS
100
AcDbLine
 10
3.751524708150873
 20
4.248765165377461
 30
0.0
 11
3.751524708150873
 21
4.278165165377461
 31
0.0
  0
LINE
  5
200
330
D
100
AcDbEntity
 67
     1
  8
AM_VIS
100
AcDbLine
 10
3.848524708150872
 20
4.232765165377461
 30
0.0
 11
3.848524708150872
 21
4.248765165377461
 31
0.0
  0
LINE
  5
201
330
D
100
AcDbEntity
 67
     1
  8
AM_VIS
100
AcDbLine
 10
3.963524708150874
 20
4.248765165377461
 30
0.0
 11
3.963524708150874
 21
4.232765165377461
 31
0.0
  0
ELLIPSE
  5
202
330
D
100
AcDbEntity
 67
     1
  8
AM_VIS
100
AcDbEllipse
 10
3.852848016421546
 20
4.232765165377461
 30
0.0
 11
0.0
 21
-0.005
 31
0.0
210
0.0
220
0.0
230
1.0
 40
0.8646616541353594
 41
4.712388980384691
 42
6.283185307179454
  0
LINE
  5
203
330
D
100
AcDbEntity
 67
     1
  8
AM_VIS
100
AcDbLine
 10
3.852848016421546
 20
4.227765165377461
 30
0.0
 11
3.959201399880199
 21
4.227765165377461
 31
0.0
  0
ELLIPSE
  5
204
330
D
100
AcDbEntity
 67
     1
  8
AM_VIS
100
AcDbEllipse
 10
3.959201399880199
 20
4.232765165377461
 30
0.0
 11
0.0
 21
0.005
 31
0.0
210
0.0
220
0.0
230
1.0
 40
0.8646616541353456
 41
3.141592653589826
 42
4.712388980384685
  0
ELLIPSE
  5
205
330
D
100
AcDbEntity
 67
     1
  8
AM_HID
100
AcDbEllipse
 10
3.852848016421546
 20
4.248765165377461
 30
0.0
 11
0.0
 21
-0.005
 31
0.0
210
0.0
220
0.0
230
1.0
 40
0.8646616541353594
 41
4.712388980384674
 42
6.28318530717944
  0
LINE
  5
206
330
D
100
AcDbEntity
 67
     1
  8
AM_HID
100
AcDbLine
 10
3.900130341772705
 20
4.243765165377461
 30
0.0
 11
3.852848016421549
 21
4.243765165377461
 31
0.0
  0
SPLINE
  5
207
330
D
100
AcDbEntity
 67
     1
  8
AM_HID
100
AcDbSpline
210
0.0
220
0.0
230
1.0
 70
     8
 71
     3
 72
    14
 73
    10
 74
     0
 42
0.0000000001
 43
0.0000000001
 40
0.0083220153421731
 40
0.0083220153421731
 40
0.0083220153421731
 40
0.0083220153421731
 40
0.0108383486000981
 40
0.0108383486000981
 40
0.0131131555432174
 40
0.0131131555432174
 40
0.0150716653566343
 40
0.0150716653566343
 40
0.0167760747934346
 40
0.0167760747934346
 40
0.0167760747934346
 40
0.0167760747934346
 10
3.900130341772705
 20
4.243765165377461
 30
0.0
 10
3.900678956095926
 20
4.243765165377461
 30
0.0
 10
3.901328157797883
 20
4.243932264009441
 30
0.0
 10
3.902311784402826
 20
4.244469791761232
 30
0.0
 10
3.902832490969926
 20
4.244910437987521
 30
0.0
 10
3.903534187997728
 20
4.245827096471268
 30
0.0
 10
3.903857611861393
 20
4.246434721157241
 30
0.0
 10
3.904204636174441
 20
4.247534391411546
 30
0.0
 10
3.904309517951521
 20
4.248197028898529
 30
0.0
 10
3.904309517951521
 20
4.248765165377461
 30
0.0
  0
LINE
  5
208
330
D
100
AcDbEntity
 67
     1
  8
AM_HID
100
AcDbLine
 10
3.904309517951521
 20
4.227765165377461
 30
0.0
 11
3.904309517951521
 21
4.248765165377461
 31
0.0
  0
ARC
  5
209
330
D
100
AcDbEntity
 67
     1
  8
AM_VIS
100
AcDbCircle
 10
3.756524708150873
 20
4.232765165377461
 30
0.0
 40
0.005
100
AcDbArc
 50
179.999999999999
 51
269.9999999999985
  0
LINE
  5
20A
330
D
100
AcDbEntity
 67
     1
  8
AM_VIS
100
AcDbLine
 10
3.75652470815087
 20
4.227765165377461
 30
0.0
 11
3.816041053398578
 21
4.227765165377461
 31
0.0
  0
LINE
  5
20B
330
D
100
AcDbEntity
 67
     1
  8
AM_VIS
100
AcDbLine
 10
3.816041053398581
 20
4.227765165377461
 30
0.0
 11
3.816041053398581
 21
4.243765165377461
 31
0.0
  0
LINE
  5
20C
330
D
100
AcDbEntity
 67
     1
  8
AM_HID
100
AcDbLine
 10
3.816041053398581
 20
4.243765165377461
 30
0.0
 11
3.816041053398581
 21
4.248765165377461
 31
0.0
  0
ARC
  5
20D
330
D
100
AcDbEntity
 67
     1
  8
AM_HID
100
AcDbCircle
 10
3.811090457423436
 20
4.248714629783862
 30
0.0
 40
0.0049508539016324
100
AcDbArc
 50
271.3574888250615
 51
0.5848539603916692
  0
LINE
  5
20E
330
D
100
AcDbEntity
 67
     1
  8
AM_VIS
100
AcDbLine
 10
3.751524708150873
 20
4.248765165377461
 30
0.0
 11
3.751524708150873
 21
4.232765165377461
 31
0.0
  0
ARC
  5
20F
330
D
100
AcDbEntity
 67
     1
  8
AM_VIS
100
AcDbCircle
 10
4.055524708150873
 20
4.232765165377461
 30
0.0
 40
0.005
100
AcDbArc
 50
269.9999999999934
 51
0.0000000000007194
  0
ARC
  5
210
330
D
100
AcDbEntity
 67
     1
  8
AM_HID
100
AcDbCircle
 10
4.000958958878316
 20
4.248714629783873
 30
0.0
 40
0.0049508539016443
100
AcDbArc
 50
179.4151460397547
 51
268.6425111748537
  0
LINE
  5
211
330
D
100
AcDbEntity
 67
     1
  8
AM_HID
100
AcDbLine
 10
3.996008362903168
 20
4.248765165377461
 30
0.0
 11
3.996008362903168
 21
4.243765165377461
 31
0.0
  0
LINE
  5
212
330
D
100
AcDbEntity
 67
     1
  8
AM_VIS
100
AcDbLine
 10
3.996008362903168
 20
4.243765165377461
 30
0.0
 11
3.996008362903168
 21
4.227765165377461
 31
0.0
  0
LINE
  5
213
330
D
100
AcDbEntity
 67
     1
  8
AM_VIS
100
AcDbLine
 10
3.996008362903168
 20
4.227765165377461
 30
0.0
 11
4.055524708150873
 21
4.227765165377461
 31
0.0
  0
SPLINE
  5
214
330
D
100
AcDbEntity
 67
     1
  8
AM_HID
100
AcDbSpline
210
0.0
220
0.0
230
1.0
 70
     8
 71
     3
 72
    14
 73
    10
 74
     0
 42
0.0000000001
 43
0.0000000001
 40
0.0167760747934347
 40
0.0167760747934347
 40
0.0167760747934347
 40
0.0167760747934347
 40
0.0184804842302351
 40
0.0184804842302351
 40
0.0204389940436519
 40
0.0204389940436519
 40
0.0227138009867712
 40
0.0227138009867712
 40
0.0252301342446963
 40
0.0252301342446963
 40
0.0252301342446963
 40
0.0252301342446963
 10
3.907739898350225
 20
4.248765165377461
 30
0.0
 10
3.907739898350225
 20
4.248197028898529
 30
0.0
 10
3.907844780127305
 20
4.247534391411546
 30
0.0
 10
3.908191804440352
 20
4.246434721157241
 30
0.0
 10
3.908515228304017
 20
4.245827096471268
 30
0.0
 10
3.909216925331822
 20
4.244910437987521
 30
0.0
 10
3.909737631898924
 20
4.244469791761232
 30
0.0
 10
3.910721258503865
 20
4.243932264009441
 30
0.0
 10
3.911370460205823
 20
4.243765165377461
 30
0.0
 10
3.911919074529044
 20
4.243765165377461
 30
0.0
  0
LINE
  5
215
330
D
100
AcDbEntity
 67
     1
  8
AM_HID
100
AcDbLine
 10
3.907739898350225
 20
4.248765165377461
 30
0.0
 11
3.907739898350225
 21
4.227765165377461
 31
0.0
  0
LINE
  5
216
330
D
100
AcDbEntity
 67
     1
  8
AM_VIS
100
AcDbLine
 10
3.756524708150873
 20
4.243765165377461
 30
0.0
 11
3.848524708150872
 21
4.243765165377461
 31
0.0
  0
LINE
  5
217
330
D
100
AcDbEntity
 67
     1
  8
AM_HID
100
AcDbLine
 10
3.848524708150872
 20
4.243765165377461
 30
0.0
 11
3.852848016421546
 21
4.243765165377461
 31
0.0
  0
ARC
  5
218
330
D
100
AcDbEntity
 67
     1
  8
AM_VIS
100
AcDbCircle
 10
3.756524708150873
 20
4.248765165377461
 30
0.0
 40
0.005
100
AcDbArc
 50
179.9999999999986
 51
270.0000000000005
  0
ARC
  5
219
330
D
100
AcDbEntity
 67
     1
  8
AM_VIS
100
AcDbCircle
 10
4.055524708150873
 20
4.248765165377461
 30
0.0
 40
0.005
100
AcDbArc
 50
269.9999999999944
 51
0.0
  0
ELLIPSE
  5
21A
330
D
100
AcDbEntity
 67
     1
  8
AM_HID
100
AcDbEllipse
 10
3.959201399880199
 20
4.248765165377461
 30
0.0
 11
0.0
 21
0.005
 31
0.0
210
0.0
220
0.0
230
1.0
 40
0.8646616541353459
 41
3.141592653589816
 42
4.712388980384674
  0
LINE
  5
21B
330
D
100
AcDbEntity
 67
     1
  8
AM_HID
100
AcDbLine
 10
3.959201399880199
 20
4.243765165377461
 30
0.0
 11
3.963524708150876
 21
4.243765165377461
 31
0.0
  0
LINE
  5
21C
330
D
100
AcDbEntity
 67
     1
  8
AM_VIS
100
AcDbLine
 10
3.963524708150876
 20
4.243765165377461
 30
0.0
 11
4.055524708150873
 21
4.243765165377461
 31
0.0
  0
LINE
  5
21D
330
D
100
AcDbEntity
 67
     1
  8
AM_HID
100
AcDbLine
 10
3.959201399880199
 20
4.243765165377461
 30
0.0
 11
3.911919074529044
 21
4.243765165377461
 31
0.0
  0
ARC
  5
21E
330
D
100
AcDbEntity
 67
     1
  8
AM_HID
100
AcDbCircle
 10
4.000938916923373
 20
4.272092215590315
 30
0.0
 40
0.0056756367830222
100
AcDbArc
 50
91.76311633114869
 51
173.1905260040164
  0
ARC
  5
21F
330
D
100
AcDbEntity
 67
     1
  8
AM_HID
100
AcDbCircle
 10
3.811110499378368
 20
4.272092215590305
 30
0.0
 40
0.0056756367830319
100
AcDbArc
 50
6.809473996052654
 51
88.23688366882079
  0
ARC
  5
220
330
D
100
AcDbEntity
 67
     1
  8
AM_HID
100
AcDbCircle
 10
3.93855176148039
 20
4.295526492177198
 30
0.0
 40
0.031074104349073
100
AcDbArc
 50
214.8604556674361
 51
227.0951580049691
  0
ARC
  5
221
330
D
100
AcDbEntity
 67
     1
  8
AM_HID
100
AcDbCircle
 10
3.873497654821576
 20
4.295526492177013
 30
0.0
 40
0.031074104348791
100
AcDbArc
 50
312.9048419949721
 51
325.1395443326164
  0
LINE
  5
222
330
D
100
AcDbEntity
 67
     1
  8
AM_VIS
100
AcDbLine
 10
3.853178012024983
 20
4.293765165377461
 30
0.0
 11
3.841390490884544
 21
4.293765165377461
 31
0.0
  0
ELLIPSE
  5
223
330
D
100
AcDbEntity
 67
     1
  8
AM_VIS
100
AcDbEllipse
 10
3.841390490884544
 20
4.278165165377461
 30
0.0
 11
0.0
 21
-0.0156
 31
0.0
210
0.0
220
0.0
230
1.0
 40
0.4573216196363233
 41
1.570796326794901
 42
3.141592653589759
  0
LINE
  5
224
330
D
100
AcDbEntity
 67
     1
  8
AM_VIS
100
AcDbLine
 10
3.841390490884544
 20
4.293765165377461
 30
0.0
 11
3.767124708150872
 21
4.293765165377461
 31
0.0
  0
LINE
  5
225
330
D
100
AcDbEntity
 67
     1
  8
AM_HID
100
AcDbLine
 10
4.000764292740321
 20
4.277765165377461
 30
0.0
 11
4.003533559195066
 21
4.277765165377461
 31
0.0
  0
ELLIPSE
  5
226
330
D
100
AcDbEntity
 67
     1
  8
AM_VIS
100
AcDbEllipse
 10
3.9706589254172
 20
4.278165165377461
 30
0.0
 11
0.0
 21
-0.0156
 31
0.0
210
0.0
220
0.0
230
1.0
 40
0.4573216196363283
 41
3.141592653589705
 42
4.712388980384683
  0
LINE
  5
227
330
D
100
AcDbEntity
 67
     1
  8
AM_VIS
100
AcDbLine
 10
3.970658925417204
 20
4.293765165377461
 30
0.0
 11
3.958871404276769
 21
4.293765165377461
 31
0.0
  0
ARC
  5
228
330
D
100
AcDbEntity
 67
     1
  8
AM_VIS
100
AcDbCircle
 10
4.044924708150873
 20
4.278165165377461
 30
0.0
 40
0.0156
100
AcDbArc
 50
0.0000000000002544
 51
90.00000000000255
  0
LINE
  5
229
330
D
100
AcDbEntity
 67
     1
  8
AM_VIS
100
AcDbLine
 10
4.044924708150873
 20
4.293765165377461
 30
0.0
 11
3.970658925417204
 21
4.293765165377461
 31
0.0
  0
ARC
  5
22A
330
D
100
AcDbEntity
 67
     1
  8
AM_VIS
100
AcDbCircle
 10
3.767124708150872
 20
4.278165165377461
 30
0.0
 40
0.0156
100
AcDbArc
 50
90.00000000000074
 51
179.9999999999993
  0
LINE
  5
22B
330
D
100
AcDbEntity
 67
     1
  8
AM_HID
100
AcDbLine
 10
4.055524708150873
 20
4.277765165377461
 30
0.0
 11
4.003533559195066
 21
4.277765165377461
 31
0.0
  0
LINE
  5
22C
330
D
100
AcDbEntity
 67
     1
  8
AM_HID
100
AcDbLine
 10
3.996024708150873
 20
4.272765165377461
 30
0.0
 11
3.996024708150873
 21
4.227765165377461
 31
0.0
  0
LINE
  5
22D
330
D
100
AcDbEntity
 67
     1
  8
AM_HID
100
AcDbLine
 10
3.816024708150873
 20
4.272765165377461
 30
0.0
 11
3.816024708150873
 21
4.227765165377461
 31
0.0
  0
ARC
  5
22E
330
D
100
AcDbEntity
 67
     1
  8
AM_HID
100
AcDbCircle
 10
4.001024708150872
 20
4.272765165377461
 30
0.0
 40
0.005
100
AcDbArc
 50
90.00000000000005
 51
180.0
  0
ARC
  5
22F
330
D
100
AcDbEntity
 67
     1
  8
AM_HID
100
AcDbCircle
 10
3.811024708150873
 20
4.272765165377461
 30
0.0
 40
0.005
100
AcDbArc
 50
0.0000000000000254
 51
90.00000000000005
  0
ARC
  5
230
330
D
100
AcDbEntity
 67
     1
  8
AM_VIS
100
AcDbCircle
 10
3.882368011550307
 20
4.277081073344658
 30
0.0
 40
0.016687811835496
100
AcDbArc
 50
3.724734600823283
 51
91.20977875311421
  0
LINE
  5
231
330
D
100
AcDbEntity
 67
     1
  8
AM_HID
100
AcDbLine
 10
3.899020573164705
 20
4.277739947390514
 30
0.0
 11
3.899020573164705
 21
4.277765165377461
 31
0.0
  0
LINE
  5
232
330
D
100
AcDbEntity
 67
     1
  8
AM_VIS
100
AcDbLine
 10
3.899020573164705
 20
4.277765165377461
 30
0.0
 11
3.899020573164705
 21
4.278165165377461
 31
0.0
  0
ARC
  5
233
330
D
100
AcDbEntity
 67
     1
  8
AM_VIS
100
AcDbCircle
 10
3.929686133537113
 20
4.277075918697801
 30
0.0
 40
0.0166928661949176
100
AcDbArc
 50
88.80682202634442
 51
176.2586646197171
  0
LINE
  5
234
330
D
100
AcDbEntity
 67
     1
  8
AM_VIS
100
AcDbLine
 10
3.913028843137044
 20
4.278165165377461
 30
0.0
 11
3.913028843137044
 21
4.277765165377461
 31
0.0
  0
LINE
  5
235
330
D
100
AcDbEntity
 67
     1
  8
AM_HID
100
AcDbLine
 10
3.913028843137044
 20
4.277765165377461
 30
0.0
 11
3.913028843137044
 21
4.277739947390514
 31
0.0
  0
LINE
  5
236
330
D
100
AcDbEntity
 67
     1
  8
AM_VIS
100
AcDbLine
 10
3.197791708150876
 20
4.372725666054583
 30
0.0
 11
3.197791708150876
 21
4.389449957842781
 31
0.0
  0
LINE
  5
237
330
D
100
AcDbEntity
 67
     1
  8
AM_VIS
100
AcDbLine
 10
3.164257708150876
 20
4.389449957842781
 30
0.0
 11
3.164257708150876
 21
4.372725666054582
 31
0.0
  0
LINE
  5
238
330
D
100
AcDbEntity
 67
     1
  8
AM_HID
100
AcDbLine
 10
3.266882835960653
 20
4.372725666054582
 30
0.0
 11
3.197791708150876
 21
4.372725666054582
 31
0.0
  0
LINE
  5
239
330
D
100
AcDbEntity
 67
     1
  8
AM_VIS
100
AcDbLine
 10
3.266882835960653
 20
4.372725666054582
 30
0.0
 11
3.268504708150873
 21
4.372725666054582
 31
0.0
  0
LINE
  5
23A
330
D
100
AcDbEntity
 67
     1
  8
AM_VIS
100
AcDbLine
 10
3.093544708150876
 20
4.372725666054582
 30
0.0
 11
3.095166580341095
 21
4.372725666054582
 31
0.0
  0
LINE
  5
23B
330
D
100
AcDbEntity
 67
     1
  8
AM_HID
100
AcDbLine
 10
3.164257708150876
 20
4.372725666054582
 30
0.0
 11
3.095166580341095
 21
4.372725666054582
 31
0.0
  0
LINE
  5
23C
330
D
100
AcDbEntity
 67
     1
  8
AM_VIS
100
AcDbLine
 10
3.164257708150876
 20
4.372725666054582
 30
0.0
 11
3.197791708150876
 21
4.372725666054582
 31
0.0
  0
ARC
  5
23D
330
D
100
AcDbEntity
 67
     1
  8
AM_VIS
100
AcDbCircle
 10
3.181024708150875
 20
4.169106165377462
 30
0.0
 40
0.2209808117620166
100
AcDbArc
 50
94.35152041459557
 51
112.86319005972
  0
ARC
  5
23E
330
D
100
AcDbEntity
 67
     1
  8
AM_VIS
100
AcDbCircle
 10
3.181024708150875
 20
4.169106165377462
 30
0.0
 40
0.2209808117620166
100
AcDbArc
 50
67.13680994027997
 51
85.64847958540358
  0
LINE
  5
23F
330
D
100
AcDbEntity
 67
     1
  8
AM_HID
100
AcDbLine
 10
3.250279708150872
 20
4.00632216537746
 30
0.0
 11
3.111769708150876
 21
4.00632216537746
 31
0.0
  0
LINE
  5
240
330
D
100
AcDbEntity
 67
     1
  8
AM_VIS
100
AcDbLine
 10
3.233871404276772
 20
4.293765165377461
 30
0.0
 11
3.128178012024982
 21
4.293765165377461
 31
0.0
  0
LINE
  5
241
330
D
100
AcDbEntity
 67
     1
  8
AM_HID
100
AcDbLine
 10
3.234679708150873
 20
3.990722165377461
 30
0.0
 11
3.127369708150876
 21
3.990722165377461
 31
0.0
  0
LINE
  5
242
330
D
100
AcDbEntity
 67
     1
  8
AM_HID
100
AcDbLine
 10
3.111769708150876
 20
4.00632216537746
 30
0.0
 11
3.111769708150876
 21
4.21212216537746
 31
0.0
  0
LINE
  5
243
330
D
100
AcDbEntity
 67
     1
  8
AM_VIS
100
AcDbLine
 10
3.111769708150876
 20
4.21212216537746
 30
0.0
 11
3.111769708150876
 21
4.243765165377461
 31
0.0
  0
LINE
  5
244
330
D
100
AcDbEntity
 67
     1
  8
AM_HID
100
AcDbLine
 10
3.111769708150876
 20
4.243765165377461
 30
0.0
 11
3.111769708150876
 21
4.293765165377461
 31
0.0
  0
LINE
  5
245
330
D
100
AcDbEntity
 67
     1
  8
AM_HID
100
AcDbLine
 10
3.250279708150872
 20
4.00632216537746
 30
0.0
 11
3.250279708150872
 21
4.21212216537746
 31
0.0
  0
LINE
  5
246
330
D
100
AcDbEntity
 67
     1
  8
AM_VIS
100
AcDbLine
 10
3.250279708150872
 20
4.21212216537746
 30
0.0
 11
3.250279708150872
 21
4.243765165377461
 31
0.0
  0
LINE
  5
247
330
D
100
AcDbEntity
 67
     1
  8
AM_HID
100
AcDbLine
 10
3.250279708150872
 20
4.243765165377461
 30
0.0
 11
3.250279708150872
 21
4.293765165377461
 31
0.0
  0
LINE
  5
248
330
D
100
AcDbEntity
 67
     1
  8
AM_VIS
100
AcDbLine
 10
3.045066208150873
 20
4.293765165377461
 30
0.0
 11
3.045066208150873
 21
4.336829643262191
 31
0.0
  0
LINE
  5
249
330
D
100
AcDbEntity
 67
     1
  8
AM_VIS
100
AcDbLine
 10
3.316983208150876
 20
4.293765165377461
 30
0.0
 11
3.316983208150876
 21
4.336829643262191
 31
0.0
  0
ARC
  5
24A
330
D
100
AcDbEntity
 67
     1
  8
AM_VIS
100
AcDbCircle
 10
3.302403208150873
 20
4.336829643262191
 30
0.0
 40
0.0145800000000007
100
AcDbArc
 50
0.0000000000000254
 51
54.10740889712236
  0
ARC
  5
24B
330
D
100
AcDbEntity
 67
     1
  8
AM_VIS
100
AcDbCircle
 10
3.059646208150876
 20
4.336829643262191
 30
0.0
 40
0.0145800000000007
100
AcDbArc
 50
125.8925911028776
 51
180.0
  0
ARC
  5
24C
330
D
100
AcDbEntity
 67
     1
  8
AM_VIS
100
AcDbCircle
 10
3.181024708150875
 20
4.169106165377462
 30
0.0
 40
0.2216159999999996
100
AcDbArc
 50
113.2495625905866
 51
125.8925911028816
  0
ARC
  5
24D
330
D
100
AcDbEntity
 67
     1
  8
AM_VIS
100
AcDbCircle
 10
3.181024708150875
 20
4.169106165377462
 30
0.0
 40
0.2216159999999996
100
AcDbArc
 50
54.10740889711765
 51
66.75043740941347
  0
LINE
  5
24E
330
D
100
AcDbEntity
 67
     1
  8
AM_HID
100
AcDbLine
 10
3.127369708150876
 20
3.990722165377461
 30
0.0
 11
3.111769708150876
 21
4.00632216537746
 31
0.0
  0
LINE
  5
24F
330
D
100
AcDbEntity
 67
     1
  8
AM_HID
100
AcDbLine
 10
3.234679708150873
 20
3.990722165377461
 30
0.0
 11
3.250279708150872
 21
4.00632216537746
 31
0.0
  0
LINE
  5
250
330
D
100
AcDbEntity
 67
     1
  8
AM_VIS
100
AcDbLine
 10
3.922791708150878
 20
4.372725666054583
 30
0.0
 11
3.922791708150878
 21
4.389449957842781
 31
0.0
  0
LINE
  5
251
330
D
100
AcDbEntity
 67
     1
  8
AM_VIS
100
AcDbLine
 10
3.889257708150879
 20
4.389449957842781
 30
0.0
 11
3.889257708150879
 21
4.372725666054582
 31
0.0
  0
LINE
  5
252
330
D
100
AcDbEntity
 67
     1
  8
AM_HID
100
AcDbLine
 10
3.991882835960654
 20
4.372725666054583
 30
0.0
 11
3.922791708150878
 21
4.372725666054583
 31
0.0
  0
LINE
  5
253
330
D
100
AcDbEntity
 67
     1
  8
AM_VIS
100
AcDbLine
 10
3.991882835960654
 20
4.372725666054583
 30
0.0
 11
3.993504708150876
 21
4.372725666054583
 31
0.0
  0
LINE
  5
254
330
D
100
AcDbEntity
 67
     1
  8
AM_VIS
100
AcDbLine
 10
3.818544708150876
 20
4.372725666054583
 30
0.0
 11
3.820166580341098
 21
4.372725666054583
 31
0.0
  0
LINE
  5
255
330
D
100
AcDbEntity
 67
     1
  8
AM_HID
100
AcDbLine
 10
3.889257708150879
 20
4.372725666054583
 30
0.0
 11
3.820166580341098
 21
4.372725666054583
 31
0.0
  0
LINE
  5
256
330
D
100
AcDbEntity
 67
     1
  8
AM_VIS
100
AcDbLine
 10
3.889257708150879
 20
4.372725666054583
 30
0.0
 11
3.922791708150878
 21
4.372725666054583
 31
0.0
  0
ARC
  5
257
330
D
100
AcDbEntity
 67
     1
  8
AM_VIS
100
AcDbCircle
 10
3.906024708150876
 20
4.169106165377463
 30
0.0
 40
0.2209808117620166
100
AcDbArc
 50
94.35152041459557
 51
112.86319005972
  0
ARC
  5
258
330
D
100
AcDbEntity
 67
     1
  8
AM_VIS
100
AcDbCircle
 10
3.906024708150876
 20
4.169106165377463
 30
0.0
 40
0.2209808117620166
100
AcDbArc
 50
67.13680994027997
 51
85.64847958540358
  0
LINE
  5
259
330
D
100
AcDbEntity
 67
     1
  8
AM_HID
100
AcDbLine
 10
3.975279708150874
 20
4.00632216537746
 30
0.0
 11
3.836769708150877
 21
4.00632216537746
 31
0.0
  0
LINE
  5
25A
330
D
100
AcDbEntity
 67
     1
  8
AM_VIS
100
AcDbLine
 10
3.958871404276774
 20
4.293765165377461
 30
0.0
 11
3.853178012024983
 21
4.293765165377461
 31
0.0
  0
LINE
  5
25B
330
D
100
AcDbEntity
 67
     1
  8
AM_HID
100
AcDbLine
 10
3.959679708150876
 20
3.990722165377461
 30
0.0
 11
3.852369708150876
 21
3.990722165377461
 31
0.0
  0
LINE
  5
25C
330
D
100
AcDbEntity
 67
     1
  8
AM_HID
100
AcDbLine
 10
3.836769708150877
 20
4.00632216537746
 30
0.0
 11
3.836769708150877
 21
4.21212216537746
 31
0.0
  0
LINE
  5
25D
330
D
100
AcDbEntity
 67
     1
  8
AM_VIS
100
AcDbLine
 10
3.836769708150877
 20
4.21212216537746
 30
0.0
 11
3.836769708150877
 21
4.243765165377461
 31
0.0
  0
LINE
  5
25E
330
D
100
AcDbEntity
 67
     1
  8
AM_HID
100
AcDbLine
 10
3.836769708150877
 20
4.243765165377461
 30
0.0
 11
3.836769708150877
 21
4.293765165377461
 31
0.0
  0
LINE
  5
25F
330
D
100
AcDbEntity
 67
     1
  8
AM_HID
100
AcDbLine
 10
3.975279708150874
 20
4.00632216537746
 30
0.0
 11
3.975279708150874
 21
4.21212216537746
 31
0.0
  0
LINE
  5
260
330
D
100
AcDbEntity
 67
     1
  8
AM_VIS
100
AcDbLine
 10
3.975279708150874
 20
4.21212216537746
 30
0.0
 11
3.975279708150874
 21
4.243765165377461
 31
0.0
  0
LINE
  5
261
330
D
100
AcDbEntity
 67
     1
  8
AM_HID
100
AcDbLine
 10
3.975279708150874
 20
4.243765165377461
 30
0.0
 11
3.975279708150874
 21
4.293765165377461
 31
0.0
  0
LINE
  5
262
330
D
100
AcDbEntity
 67
     1
  8
AM_VIS
100
AcDbLine
 10
3.770066208150876
 20
4.293765165377461
 30
0.0
 11
3.770066208150876
 21
4.336829643262191
 31
0.0
  0
LINE
  5
263
330
D
100
AcDbEntity
 67
     1
  8
AM_VIS
100
AcDbLine
 10
4.041983208150877
 20
4.293765165377461
 30
0.0
 11
4.041983208150877
 21
4.336829643262193
 31
0.0
  0
ARC
  5
264
330
D
100
AcDbEntity
 67
     1
  8
AM_VIS
100
AcDbCircle
 10
4.027403208150874
 20
4.336829643262193
 30
0.0
 40
0.0145800000000007
100
AcDbArc
 50
0.0000000000000254
 51
54.10740889712236
  0
ARC
  5
265
330
D
100
AcDbEntity
 67
     1
  8
AM_VIS
100
AcDbCircle
 10
3.784646208150877
 20
4.336829643262193
 30
0.0
 40
0.0145800000000007
100
AcDbArc
 50
125.8925911028776
 51
180.0
  0
ARC
  5
266
330
D
100
AcDbEntity
 67
     1
  8
AM_VIS
100
AcDbCircle
 10
3.906024708150876
 20
4.169106165377463
 30
0.0
 40
0.2216159999999996
100
AcDbArc
 50
113.2495625905866
 51
125.8925911028816
  0
ARC
  5
267
330
D
100
AcDbEntity
 67
     1
  8
AM_VIS
100
AcDbCircle
 10
3.906024708150876
 20
4.169106165377463
 30
0.0
 40
0.2216159999999996
100
AcDbArc
 50
54.10740889711765
 51
66.75043740941347
  0
LINE
  5
268
330
D
100
AcDbEntity
 67
     1
  8
AM_HID
100
AcDbLine
 10
3.852369708150876
 20
3.990722165377461
 30
0.0
 11
3.836769708150877
 21
4.00632216537746
 31
0.0
  0
LINE
  5
269
330
D
100
AcDbEntity
 67
     1
  8
AM_HID
100
AcDbLine
 10
3.959679708150876
 20
3.990722165377461
 30
0.0
 11
3.975279708150874
 21
4.00632216537746
 31
0.0
  0
LINE
  5
26A
330
D
100
AcDbEntity
 67
     1
  8
AM_HID
100
AcDbLine
 10
4.053524708150873
 20
4.144122165377461
 30
0.0
 11
4.053524708150873
 21
4.157199165377464
 31
0.0
  0
LINE
  5
26B
330
D
100
AcDbEntity
 67
     1
  8
AM_VIS
100
AcDbLine
 10
4.053524708150873
 20
4.157199165377464
 30
0.0
 11
4.053524708150873
 21
4.21212216537746
 31
0.0
  0
LINE
  5
26C
330
D
100
AcDbEntity
 67
     1
  8
AM_VIS
100
AcDbLine
 10
4.053524708150873
 20
4.21212216537746
 30
0.0
 11
3.033586801115904
 21
4.21212216537746
 31
0.0
  0
LINE
  5
26D
330
D
100
AcDbEntity
 67
     1
  8
AM_HID
100
AcDbLine
 10
3.033586801115904
 20
4.21212216537746
 30
0.0
 11
3.033524708150873
 21
4.21212216537746
 31
0.0
  0
LINE
  5
26E
330
D
100
AcDbEntity
 67
     1
  8
AM_HID
100
AcDbLine
 10
3.033524708150873
 20
4.144122165377461
 30
0.0
 11
3.033524708150873
 21
4.21212216537746
 31
0.0
  0
LINE
  5
26F
330
D
100
AcDbEntity
 67
     1
  8
AM_HID
100
AcDbLine
 10
4.053524708150873
 20
4.144122165377461
 30
0.0
 11
3.758393108150908
 21
4.144122165377461
 31
0.0
  0
LINE
  5
270
330
D
100
AcDbEntity
 67
     1
  8
AM_VIS
100
AcDbLine
 10
3.758393108150908
 20
4.144122165377461
 30
0.0
 11
3.334986308150905
 21
4.144122165377461
 31
0.0
  0
LINE
  5
271
330
D
100
AcDbEntity
 67
     1
  8
AM_HID
100
AcDbLine
 10
3.334986308150905
 20
4.144122165377461
 30
0.0
 11
3.033524708150873
 21
4.144122165377461
 31
0.0
  0
LINE
  5
272
330
D
100
AcDbEntity
 67
     1
  8
AM_HID
100
AcDbLine
 10
3.852524708150876
 20
4.144122165377461
 30
0.0
 11
3.852524708150876
 21
4.21212216537746
 31
0.0
  0
LINE
  5
273
330
D
100
AcDbEntity
 67
     1
  8
AM_HID
100
AcDbLine
 10
3.959524708150876
 20
4.144122165377461
 30
0.0
 11
3.959524708150876
 21
4.21212216537746
 31
0.0
  0
LINE
  5
274
330
D
100
AcDbEntity
 67
     1
  8
AM_HID
100
AcDbLine
 10
3.127524708150875
 20
4.144122165377461
 30
0.0
 11
3.127524708150875
 21
4.21212216537746
 31
0.0
  0
LINE
  5
275
330
D
100
AcDbEntity
 67
     1
  8
AM_HID
100
AcDbLine
 10
3.234524708150874
 20
4.144122165377461
 30
0.0
 11
3.234524708150874
 21
4.21212216537746
 31
0.0
  0
LINE
  5
276
330
D
100
AcDbEntity
 67
     1
  8
AM_VIS
100
AcDbLine
 10
3.708430807507684
 20
4.849826702207414
 30
0.0
 11
3.708430807507684
 21
4.881076702207414
 31
0.0
  0
LINE
  5
277
330
D
100
AcDbEntity
 67
     1
  8
AM_VIS
100
AcDbLine
 10
3.708430807507684
 20
4.881076702207414
 30
0.0
 11
3.384910807507687
 21
4.881076702207414
 31
0.0
  0
LINE
  5
278
330
D
100
AcDbEntity
 67
     1
  8
AM_VIS
100
AcDbLine
 10
3.384910807507687
 20
4.849826702207414
 30
0.0
 11
3.384910807507687
 21
4.881076702207414
 31
0.0
  0
LINE
  5
279
330
D
100
AcDbEntity
 67
     1
  8
AM_VIS
100
AcDbLine
 10
3.384910807507687
 20
4.849826702207414
 30
0.0
 11
3.708430807507684
 21
4.849826702207414
 31
0.0
  0
LINE
  5
27A
330
D
100
AcDbEntity
 67
     1
  8
AM_VIS
100
AcDbLine
 10
2.867274708150918
 20
8.207668783434254
 30
0.0
 11
2.773274708150914
 21
8.207668783434254
 31
0.0
  0
LINE
  5
27B
330
D
100
AcDbEntity
 67
     1
  8
AM_VIS
100
AcDbLine
 10
2.867274708150918
 20
8.263668783434253
 30
0.0
 11
2.773274708150914
 21
8.263668783434253
 31
0.0
  0
LINE
  5
27C
330
D
100
AcDbEntity
 67
     1
  8
AM_VIS
100
AcDbLine
 10
2.773274708150914
 20
8.263668783434253
 30
0.0
 11
2.773274708150914
 21
8.207668783434254
 31
0.0
  0
LINE
  5
27D
330
D
100
AcDbEntity
 67
     1
  8
AM_VIS
100
AcDbLine
 10
4.32010470815091
 20
8.207668783434254
 30
0.0
 11
4.226104708150908
 21
8.207668783434254
 31
0.0
  0
LINE
  5
27E
330
D
100
AcDbEntity
 67
     1
  8
AM_VIS
100
AcDbLine
 10
4.32010470815091
 20
8.263668783434253
 30
0.0
 11
4.32010470815091
 21
8.207668783434254
 31
0.0
  0
LINE
  5
27F
330
D
100
AcDbEntity
 67
     1
  8
AM_VIS
100
AcDbLine
 10
4.32010470815091
 20
8.263668783434253
 30
0.0
 11
4.226104708150908
 21
8.263668783434253
 31
0.0
  0
LINE
  5
280
330
D
100
AcDbEntity
 67
     1
  8
AM_VIS
100
AcDbLine
 10
3.759000380467686
 20
8.207668783434254
 30
0.0
 11
4.226104708150908
 21
8.207668783434254
 31
0.0
  0
LINE
  5
281
330
D
100
AcDbEntity
 67
     1
  8
AM_HID
100
AcDbLine
 10
3.742767035786502
 20
8.207668783434254
 30
0.0
 11
3.759000380467689
 21
8.207668783434254
 31
0.0
  0
LINE
  5
282
330
D
100
AcDbEntity
 67
     1
  8
AM_HID
100
AcDbLine
 10
3.742767035786498
 20
8.207668783434254
 30
0.0
 11
3.73339445278447
 21
8.207668783434254
 31
0.0
  0
LINE
  5
283
330
D
100
AcDbEntity
 67
     1
  8
AM_HID
100
AcDbLine
 10
3.726394452784471
 20
8.207668783434254
 30
0.0
 11
3.733394452784473
 21
8.207668783434254
 31
0.0
  0
LINE
  5
284
330
D
100
AcDbEntity
 67
     1
  8
AM_HID
100
AcDbLine
 10
3.67039445278447
 20
8.207668783434254
 30
0.0
 11
3.726394452784471
 21
8.207668783434254
 31
0.0
  0
LINE
  5
285
330
D
100
AcDbEntity
 67
     1
  8
AM_HID
100
AcDbLine
 10
3.663394452784468
 20
8.207668783434254
 30
0.0
 11
3.67039445278447
 21
8.207668783434254
 31
0.0
  0
LINE
  5
286
330
D
100
AcDbEntity
 67
     1
  8
AM_HID
100
AcDbLine
 10
3.663394452784468
 20
8.207668783434254
 30
0.0
 11
3.609839539749581
 21
8.207668783434254
 31
0.0
  0
LINE
  5
287
330
D
100
AcDbEntity
 67
     1
  8
AM_HID
100
AcDbLine
 10
3.483541221185792
 20
8.207668783434254
 30
0.0
 11
3.609839539749581
 21
8.207668783434254
 31
0.0
  0
LINE
  5
288
330
D
100
AcDbEntity
 67
     1
  8
AM_HID
100
AcDbLine
 10
3.483541221185795
 20
8.207668783434254
 30
0.0
 11
3.429986308150908
 21
8.207668783434254
 31
0.0
  0
LINE
  5
289
330
D
100
AcDbEntity
 67
     1
  8
AM_HID
100
AcDbLine
 10
3.422986308150906
 20
8.207668783434254
 30
0.0
 11
3.429986308150908
 21
8.207668783434254
 31
0.0
  0
LINE
  5
28A
330
D
100
AcDbEntity
 67
     1
  8
AM_HID
100
AcDbLine
 10
3.366986308150905
 20
8.207668783434254
 30
0.0
 11
3.422986308150906
 21
8.207668783434254
 31
0.0
  0
LINE
  5
28B
330
D
100
AcDbEntity
 67
     1
  8
AM_HID
100
AcDbLine
 10
3.359986308150903
 20
8.207668783434254
 30
0.0
 11
3.366986308150905
 21
8.207668783434254
 31
0.0
  0
LINE
  5
28C
330
D
100
AcDbEntity
 67
     1
  8
AM_HID
100
AcDbLine
 10
3.359986308150908
 20
8.207668783434254
 30
0.0
 11
3.350613725148875
 21
8.207668783434254
 31
0.0
  0
LINE
  5
28D
330
D
100
AcDbEntity
 67
     1
  8
AM_HID
100
AcDbLine
 10
3.334380380467687
 20
8.207668783434254
 30
0.0
 11
3.350613725148875
 21
8.207668783434254
 31
0.0
  0
LINE
  5
28E
330
D
100
AcDbEntity
 67
     1
  8
AM_VIS
100
AcDbLine
 10
2.867274708150914
 20
8.207668783434254
 30
0.0
 11
3.334380380467687
 21
8.207668783434254
 31
0.0
  0
LINE
  5
28F
330
D
100
AcDbEntity
 67
     1
  8
AM_HID
100
AcDbLine
 10
3.429986308150908
 20
8.207668783434254
 30
0.0
 11
3.429986308150908
 21
7.888668783434254
 31
0.0
  0
LINE
  5
290
330
D
100
AcDbEntity
 67
     1
  8
AM_HID
100
AcDbLine
 10
3.663394452784468
 20
8.207668783434254
 30
0.0
 11
3.663394452784468
 21
7.888668783434254
 31
0.0
  0
LINE
  5
291
330
D
100
AcDbEntity
 67
     1
  8
AM_HID
100
AcDbLine
 10
3.73339445278447
 20
8.207668783434254
 30
0.0
 11
3.73339445278447
 21
7.888668783434254
 31
0.0
  0
LINE
  5
292
330
D
100
AcDbEntity
 67
     1
  8
AM_VIS
100
AcDbLine
 10
3.759000380467686
 20
8.207668783434254
 30
0.0
 11
3.759000380467686
 21
7.888668783434254
 31
0.0
  0
LINE
  5
293
330
D
100
AcDbEntity
 67
     1
  8
AM_VIS
100
AcDbLine
 10
3.688204477437686
 20
8.263668783434253
 30
0.0
 11
4.226104708150908
 21
8.263668783434253
 31
0.0
  0
LINE
  5
294
330
D
100
AcDbEntity
 67
     1
  8
AM_VIS
100
AcDbLine
 10
3.68820447743769
 20
7.888668783434252
 30
0.0
 11
3.759000380467689
 21
7.888668783434252
 31
0.0
  0
LINE
  5
295
330
D
100
AcDbEntity
 67
     1
  8
AM_HID
100
AcDbLine
 10
3.359986308150908
 20
8.207668783434254
 30
0.0
 11
3.359986308150908
 21
7.888668783434254
 31
0.0
  0
LINE
  5
296
330
D
100
AcDbEntity
 67
     1
  8
AM_VIS
100
AcDbLine
 10
3.334380380467684
 20
8.207668783434254
 30
0.0
 11
3.334380380467684
 21
7.888668783434254
 31
0.0
  0
LINE
  5
297
330
D
100
AcDbEntity
 67
     1
  8
AM_VIS
100
AcDbLine
 10
3.334380380467684
 20
7.888668783434252
 30
0.0
 11
3.405176283497687
 21
7.888668783434252
 31
0.0
  0
LINE
  5
298
330
D
100
AcDbEntity
 67
     1
  8
AM_VIS
100
AcDbLine
 10
3.405176283497687
 20
8.263668783434253
 30
0.0
 11
2.867274708150914
 21
8.263668783434253
 31
0.0
  0
LINE
  5
299
330
D
100
AcDbEntity
 67
     1
  8
AM_VIS
100
AcDbLine
 10
3.415276283497688
 20
7.888668783434252
 30
0.0
 11
3.405176283497687
 21
7.888668783434252
 31
0.0
  0
LINE
  5
29A
330
D
100
AcDbEntity
 67
     1
  8
AM_VIS
100
AcDbLine
 10
3.415276283497688
 20
8.263668783434253
 30
0.0
 11
3.415276283497688
 21
7.888668783434252
 31
0.0
  0
LINE
  5
29B
330
D
100
AcDbEntity
 67
     1
  8
AM_VIS
100
AcDbLine
 10
3.405176283497687
 20
8.263668783434253
 30
0.0
 11
3.415276283497688
 21
8.263668783434253
 31
0.0
  0
LINE
  5
29C
330
D
100
AcDbEntity
 67
     1
  8
AM_HID
100
AcDbLine
 10
3.384949953427689
 20
8.263668783434253
 30
0.0
 11
3.384949953427689
 21
7.888668783434252
 31
0.0
  0
LINE
  5
29D
330
D
100
AcDbEntity
 67
     1
  8
AM_VIS
100
AcDbLine
 10
3.678104477437685
 20
8.263668783434253
 30
0.0
 11
3.678104477437685
 21
7.888668783434252
 31
0.0
  0
LINE
  5
29E
330
D
100
AcDbEntity
 67
     1
  8
AM_VIS
100
AcDbLine
 10
3.688204477437686
 20
7.888668783434252
 30
0.0
 11
3.678104477437685
 21
7.888668783434252
 31
0.0
  0
LINE
  5
29F
330
D
100
AcDbEntity
 67
     1
  8
AM_VIS
100
AcDbLine
 10
3.678104477437685
 20
8.263668783434253
 30
0.0
 11
3.688204477437686
 21
8.263668783434253
 31
0.0
  0
LINE
  5
2A0
330
D
100
AcDbEntity
 67
     1
  8
AM_VIS
100
AcDbLine
 10
4.069902615185906
 20
7.888668783434252
 30
0.0
 11
4.102739708150905
 21
7.888668783434252
 31
0.0
  0
LINE
  5
2A1
330
D
100
AcDbEntity
 67
     1
  8
AM_VIS
100
AcDbLine
 10
4.059792615185908
 20
8.207668783434254
 30
0.0
 11
4.059792615185908
 21
8.202668783434251
 31
0.0
  0
LINE
  5
2A2
330
D
100
AcDbEntity
 67
     1
  8
AM_HID
100
AcDbLine
 10
4.059792615185908
 20
8.202668783434251
 30
0.0
 11
4.059792615185908
 21
7.893668783434251
 31
0.0
  0
LINE
  5
2A3
330
D
100
AcDbEntity
 67
     1
  8
AM_VIS
100
AcDbLine
 10
4.059792615185908
 20
7.89366878343425
 30
0.0
 11
4.059792615185908
 21
7.888668783434252
 31
0.0
  0
LINE
  5
2A4
330
D
100
AcDbEntity
 67
     1
  8
AM_VIS
100
AcDbLine
 10
4.069902615185906
 20
7.888668783434252
 30
0.0
 11
4.059792615185904
 21
7.888668783434252
 31
0.0
  0
LINE
  5
2A5
330
D
100
AcDbEntity
 67
     1
  8
AM_VIS
100
AcDbLine
 10
3.768493108150908
 20
7.888668783434252
 30
0.0
 11
4.059792615185908
 21
7.888668783434252
 31
0.0
  0
LINE
  5
2A6
330
D
100
AcDbEntity
 67
     1
  8
AM_HID
100
AcDbLine
 10
3.758393108150908
 20
8.207668783434254
 30
0.0
 11
3.758393108150908
 21
7.888668783434254
 31
0.0
  0
LINE
  5
2A7
330
D
100
AcDbEntity
 67
     1
  8
AM_VIS
100
AcDbLine
 10
3.768493108150908
 20
7.888668783434252
 30
0.0
 11
3.759000380467686
 21
7.888668783434252
 31
0.0
  0
LINE
  5
2A8
330
D
100
AcDbEntity
 67
     1
  8
AM_VIS
100
AcDbLine
 10
2.990639708150903
 20
7.888668783434252
 30
0.0
 11
3.023486801115903
 21
7.888668783434252
 31
0.0
  0
LINE
  5
2A9
330
D
100
AcDbEntity
 67
     1
  8
AM_VIS
100
AcDbLine
 10
2.980529708150906
 20
8.207668783434254
 30
0.0
 11
2.980529708150906
 21
7.888668783434254
 31
0.0
  0
LINE
  5
2AA
330
D
100
AcDbEntity
 67
     1
  8
AM_VIS
100
AcDbLine
 10
2.990639708150903
 20
7.888668783434252
 30
0.0
 11
2.980529708150903
 21
7.888668783434252
 31
0.0
  0
LINE
  5
2AB
330
D
100
AcDbEntity
 67
     1
  8
AM_VIS
100
AcDbLine
 10
2.904429121471597
 20
8.207668783434254
 30
0.0
 11
2.904429121471597
 21
7.888668783434254
 31
0.0
  0
LINE
  5
2AC
330
D
100
AcDbEntity
 67
     1
  8
AM_VIS
100
AcDbLine
 10
2.904429121471597
 20
7.888668783434252
 30
0.0
 11
2.980529708150906
 21
7.888668783434252
 31
0.0
  0
LINE
  5
2AD
330
D
100
AcDbEntity
 67
     1
  8
AM_HID
100
AcDbLine
 10
3.617459708150906
 20
8.207668783434254
 30
0.0
 11
3.617459708150906
 21
7.888668783434254
 31
0.0
  0
LINE
  5
2AE
330
D
100
AcDbEntity
 67
     1
  8
AM_VIS
100
AcDbLine
 10
2.82548981392458
 20
7.888668783434252
 30
0.0
 11
2.904429121471597
 21
7.888668783434252
 31
0.0
  0
LINE
  5
2AF
330
D
100
AcDbEntity
 67
     1
  8
AM_HID
100
AcDbLine
 10
3.475919708150906
 20
8.207668783434254
 30
0.0
 11
3.475919708150906
 21
7.888668783434254
 31
0.0
  0
LINE
  5
2B0
330
D
100
AcDbEntity
 67
     1
  8
AM_VIS
100
AcDbLine
 10
2.773274708150906
 20
8.207668783434254
 30
0.0
 11
2.773274708150906
 21
7.888668783434254
 31
0.0
  0
LINE
  5
2B1
330
D
100
AcDbEntity
 67
     1
  8
AM_VIS
100
AcDbLine
 10
2.82548981392458
 20
7.888668783434252
 30
0.0
 11
2.773274708150906
 21
7.888668783434252
 31
0.0
  0
LINE
  5
2B2
330
D
100
AcDbEntity
 67
     1
  8
AM_VIS
100
AcDbLine
 10
3.033586801115904
 20
7.888668783434252
 30
0.0
 11
3.324886308150908
 21
7.888668783434252
 31
0.0
  0
LINE
  5
2B3
330
D
100
AcDbEntity
 67
     1
  8
AM_VIS
100
AcDbLine
 10
3.334380380467684
 20
7.888668783434252
 30
0.0
 11
3.324886308150908
 21
7.888668783434252
 31
0.0
  0
LINE
  5
2B4
330
D
100
AcDbEntity
 67
     1
  8
AM_HID
100
AcDbLine
 10
3.334986308150905
 20
8.207668783434254
 30
0.0
 11
3.334986308150905
 21
7.888668783434254
 31
0.0
  0
LINE
  5
2B5
330
D
100
AcDbEntity
 67
     1
  8
AM_VIS
100
AcDbLine
 10
4.112849708150906
 20
7.888668783434252
 30
0.0
 11
4.102739708150905
 21
7.888668783434252
 31
0.0
  0
LINE
  5
2B6
330
D
100
AcDbEntity
 67
     1
  8
AM_VIS
100
AcDbLine
 10
4.112849708150903
 20
8.207668783434254
 30
0.0
 11
4.112849708150903
 21
7.888668783434254
 31
0.0
  0
LINE
  5
2B7
330
D
100
AcDbEntity
 67
     1
  8
AM_VIS
100
AcDbLine
 10
4.112849708150903
 20
7.888668783434252
 30
0.0
 11
4.188950294830212
 21
7.888668783434252
 31
0.0
  0
LINE
  5
2B8
330
D
100
AcDbEntity
 67
     1
  8
AM_VIS
100
AcDbLine
 10
4.18895029483021
 20
8.207668783434254
 30
0.0
 11
4.18895029483021
 21
7.888668783434254
 31
0.0
  0
LINE
  5
2B9
330
D
100
AcDbEntity
 67
     1
  8
AM_VIS
100
AcDbLine
 10
4.188950294830212
 20
7.888668783434252
 30
0.0
 11
4.267889602377226
 21
7.888668783434252
 31
0.0
  0
LINE
  5
2BA
330
D
100
AcDbEntity
 67
     1
  8
AM_VIS
100
AcDbLine
 10
4.320104708150896
 20
7.888668783434252
 30
0.0
 11
4.267889602377226
 21
7.888668783434252
 31
0.0
  0
LINE
  5
2BB
330
D
100
AcDbEntity
 67
     1
  8
AM_VIS
100
AcDbLine
 10
4.320104708150896
 20
8.207668783434254
 30
0.0
 11
4.320104708150896
 21
7.888668783434254
 31
0.0
  0
LINE
  5
2BC
330
D
100
AcDbEntity
 67
     1
  8
AM_VIS
100
AcDbLine
 10
4.320104708150896
 20
7.888668783434252
 30
0.0
 11
4.345379708150897
 21
7.888668783434252
 31
0.0
  0
LINE
  5
2BD
330
D
100
AcDbEntity
 67
     1
  8
AM_VIS
100
AcDbLine
 10
4.345379708150897
 20
8.263668783434253
 30
0.0
 11
4.320104708150896
 21
8.263668783434253
 31
0.0
  0
LINE
  5
2BE
330
D
100
AcDbEntity
 67
     1
  8
AM_VIS
100
AcDbLine
 10
4.345379708150897
 20
7.888668783434252
 30
0.0
 11
4.355489708150904
 21
7.888668783434252
 31
0.0
  0
LINE
  5
2BF
330
D
100
AcDbEntity
 67
     1
  8
AM_VIS
100
AcDbLine
 10
4.355489708150904
 20
8.263668783434253
 30
0.0
 11
4.345379708150897
 21
8.263668783434253
 31
0.0
  0
LINE
  5
2C0
330
D
100
AcDbEntity
 67
     1
  8
AM_VIS
100
AcDbLine
 10
4.355489708150904
 20
7.888668783434252
 30
0.0
 11
4.380764708150906
 21
7.888668783434252
 31
0.0
  0
LINE
  5
2C1
330
D
100
AcDbEntity
 67
     1
  8
AM_VIS
100
AcDbLine
 10
4.380764708150906
 20
8.263668783434253
 30
0.0
 11
4.355489708150904
 21
8.263668783434253
 31
0.0
  0
LINE
  5
2C2
330
D
100
AcDbEntity
 67
     1
  8
AM_VIS
100
AcDbLine
 10
4.380764708150906
 20
8.263668783434253
 30
0.0
 11
4.380764708150906
 21
7.888668783434252
 31
0.0
  0
LINE
  5
2C3
330
D
100
AcDbEntity
 67
     1
  8
AM_VIS
100
AcDbLine
 10
4.390874708150903
 20
7.888668783434252
 30
0.0
 11
4.380764708150901
 21
7.888668783434252
 31
0.0
  0
LINE
  5
2C4
330
D
100
AcDbEntity
 67
     1
  8
AM_VIS
100
AcDbLine
 10
4.380764708150901
 20
8.263668783434253
 30
0.0
 11
4.390874708150903
 21
8.263668783434253
 31
0.0
  0
LINE
  5
2C5
330
D
100
AcDbEntity
 67
     1
  8
AM_VIS
100
AcDbLine
 10
4.390874708150903
 20
7.888668783434252
 30
0.0
 11
4.431314708150903
 21
7.888668783434252
 31
0.0
  0
LINE
  5
2C6
330
D
100
AcDbEntity
 67
     1
  8
AM_VIS
100
AcDbLine
 10
4.431314708150903
 20
8.263668783434253
 30
0.0
 11
4.390874708150903
 21
8.263668783434253
 31
0.0
  0
LINE
  5
2C7
330
D
100
AcDbEntity
 67
     1
  8
AM_VIS
100
AcDbLine
 10
4.441424708150901
 20
7.888668783434252
 30
0.0
 11
4.431314708150903
 21
7.888668783434252
 31
0.0
  0
LINE
  5
2C8
330
D
100
AcDbEntity
 67
     1
  8
AM_VIS
100
AcDbLine
 10
4.441424708150901
 20
8.263668783434253
 30
0.0
 11
4.441424708150901
 21
7.888668783434252
 31
0.0
  0
LINE
  5
2C9
330
D
100
AcDbEntity
 67
     1
  8
AM_VIS
100
AcDbLine
 10
4.431314708150903
 20
8.263668783434253
 30
0.0
 11
4.441424708150901
 21
8.263668783434253
 31
0.0
  0
LINE
  5
2CA
330
D
100
AcDbEntity
 67
     1
  8
AM_HID
100
AcDbLine
 10
4.289060952355196
 20
8.263668783434253
 30
0.0
 11
4.289060952355196
 21
7.888668783434252
 31
0.0
  0
LINE
  5
2CB
330
D
100
AcDbEntity
 67
     1
  8
AM_HID
100
AcDbLine
 10
4.239224708150906
 20
8.263668783434253
 30
0.0
 11
4.239224708150906
 21
7.888668783434252
 31
0.0
  0
LINE
  5
2CC
330
D
100
AcDbEntity
 67
     1
  8
AM_HID
100
AcDbLine
 10
4.178564708150901
 20
8.263668783434253
 30
0.0
 11
4.178564708150901
 21
7.888668783434252
 31
0.0
  0
LINE
  5
2CD
330
D
100
AcDbEntity
 67
     1
  8
AM_HID
100
AcDbLine
 10
3.991529708150905
 20
8.263668783434253
 30
0.0
 11
3.991529708150905
 21
7.888668783434252
 31
0.0
  0
LINE
  5
2CE
330
D
100
AcDbEntity
 67
     1
  8
AM_HID
100
AcDbLine
 10
3.101849708150908
 20
8.263668783434253
 30
0.0
 11
3.101849708150908
 21
7.888668783434252
 31
0.0
  0
LINE
  5
2CF
330
D
100
AcDbEntity
 67
     1
  8
AM_HID
100
AcDbLine
 10
2.914814708150906
 20
8.263668783434253
 30
0.0
 11
2.914814708150906
 21
7.888668783434252
 31
0.0
  0
LINE
  5
2D0
330
D
100
AcDbEntity
 67
     1
  8
AM_HID
100
AcDbLine
 10
2.854154708150906
 20
8.263668783434253
 30
0.0
 11
2.854154708150906
 21
7.888668783434252
 31
0.0
  0
LINE
  5
2D1
330
D
100
AcDbEntity
 67
     1
  8
AM_HID
100
AcDbLine
 10
2.804318463946618
 20
8.263668783434253
 30
0.0
 11
2.804318463946618
 21
7.888668783434252
 31
0.0
  0
LINE
  5
2D2
330
D
100
AcDbEntity
 67
     1
  8
AM_VIS
100
AcDbLine
 10
2.65195470815091
 20
8.263668783434253
 30
0.0
 11
2.65195470815091
 21
7.888668783434252
 31
0.0
  0
LINE
  5
2D3
330
D
100
AcDbEntity
 67
     1
  8
AM_VIS
100
AcDbLine
 10
2.662064708150911
 20
7.888668783434252
 30
0.0
 11
2.651954708150912
 21
7.888668783434252
 31
0.0
  0
LINE
  5
2D4
330
D
100
AcDbEntity
 67
     1
  8
AM_VIS
100
AcDbLine
 10
2.651954708150912
 20
8.263668783434253
 30
0.0
 11
2.662064708150911
 21
8.263668783434253
 31
0.0
  0
LINE
  5
2D5
330
D
100
AcDbEntity
 67
     1
  8
AM_VIS
100
AcDbLine
 10
2.662064708150911
 20
7.888668783434252
 30
0.0
 11
2.702504708150911
 21
7.888668783434252
 31
0.0
  0
LINE
  5
2D6
330
D
100
AcDbEntity
 67
     1
  8
AM_VIS
100
AcDbLine
 10
2.702504708150911
 20
8.263668783434253
 30
0.0
 11
2.662064708150911
 21
8.263668783434253
 31
0.0
  0
LINE
  5
2D7
330
D
100
AcDbEntity
 67
     1
  8
AM_VIS
100
AcDbLine
 10
2.712614708150911
 20
7.888668783434252
 30
0.0
 11
2.702504708150911
 21
7.888668783434252
 31
0.0
  0
LINE
  5
2D8
330
D
100
AcDbEntity
 67
     1
  8
AM_VIS
100
AcDbLine
 10
2.712614708150908
 20
8.263668783434253
 30
0.0
 11
2.712614708150908
 21
7.888668783434252
 31
0.0
  0
LINE
  5
2D9
330
D
100
AcDbEntity
 67
     1
  8
AM_VIS
100
AcDbLine
 10
2.702504708150911
 20
8.263668783434253
 30
0.0
 11
2.712614708150911
 21
8.263668783434253
 31
0.0
  0
LINE
  5
2DA
330
D
100
AcDbEntity
 67
     1
  8
AM_VIS
100
AcDbLine
 10
2.712614708150908
 20
7.888668783434252
 30
0.0
 11
2.737889708150909
 21
7.888668783434252
 31
0.0
  0
LINE
  5
2DB
330
D
100
AcDbEntity
 67
     1
  8
AM_VIS
100
AcDbLine
 10
2.737889708150909
 20
8.263668783434253
 30
0.0
 11
2.712614708150908
 21
8.263668783434253
 31
0.0
  0
LINE
  5
2DC
330
D
100
AcDbEntity
 67
     1
  8
AM_VIS
100
AcDbLine
 10
2.737889708150909
 20
7.888668783434252
 30
0.0
 11
2.747999708150909
 21
7.888668783434252
 31
0.0
  0
LINE
  5
2DD
330
D
100
AcDbEntity
 67
     1
  8
AM_VIS
100
AcDbLine
 10
2.747999708150909
 20
8.263668783434253
 30
0.0
 11
2.737889708150909
 21
8.263668783434253
 31
0.0
  0
LINE
  5
2DE
330
D
100
AcDbEntity
 67
     1
  8
AM_VIS
100
AcDbLine
 10
2.747999708150909
 20
7.888668783434252
 30
0.0
 11
2.773274708150911
 21
7.888668783434252
 31
0.0
  0
LINE
  5
2DF
330
D
100
AcDbEntity
 67
     1
  8
AM_VIS
100
AcDbLine
 10
2.773274708150911
 20
8.263668783434253
 30
0.0
 11
2.747999708150909
 21
8.263668783434253
 31
0.0
  0
LINE
  5
2E0
330
D
100
AcDbEntity
 67
     1
  8
AM_VIS
100
AcDbLine
 10
3.033586801115904
 20
7.888668783434252
 30
0.0
 11
3.023486801115903
 21
7.888668783434252
 31
0.0
  0
LINE
  5
2E1
330
D
100
AcDbEntity
 67
     1
  8
AM_VIS
100
AcDbLine
 10
3.033586801115904
 20
8.207668783434254
 30
0.0
 11
3.033586801115904
 21
8.202668783434251
 31
0.0
  0
LINE
  5
2E2
330
D
100
AcDbEntity
 67
     1
  8
AM_HID
100
AcDbLine
 10
3.033586801115904
 20
8.202668783434251
 30
0.0
 11
3.033586801115904
 21
7.89366878343425
 31
0.0
  0
LINE
  5
2E3
330
D
100
AcDbEntity
 67
     1
  8
AM_VIS
100
AcDbLine
 10
3.033586801115904
 20
7.89366878343425
 30
0.0
 11
3.033586801115904
 21
7.888668783434252
 31
0.0
  0
LINE
  5
2E4
330
D
100
AcDbEntity
 67
     1
  8
AM_HID
100
AcDbLine
 10
4.165920574359438
 20
8.263668783434253
 30
0.0
 11
4.165920574359438
 21
7.888668783434252
 31
0.0
  0
LINE
  5
2E5
330
D
100
AcDbEntity
 67
     1
  8
AM_HID
100
AcDbLine
 10
4.054814708150909
 20
8.263668783434253
 30
0.0
 11
4.054814708150909
 21
7.888668783434252
 31
0.0
  0
LINE
  5
2E6
330
D
100
AcDbEntity
 67
     1
  8
AM_HID
100
AcDbLine
 10
3.038564708150906
 20
8.263668783434253
 30
0.0
 11
3.038564708150906
 21
7.888668783434252
 31
0.0
  0
LINE
  5
2E7
330
D
100
AcDbEntity
 67
     1
  8
AM_HID
100
AcDbLine
 10
2.927458841942371
 20
8.263668783434253
 30
0.0
 11
2.927458841942371
 21
7.888668783434252
 31
0.0
  0
LINE
  5
2E8
330
D
100
AcDbEntity
 67
     1
  8
AM_VIS
100
AcDbLine
 10
3.026524708150873
 20
8.105668783434252
 30
0.0
 11
3.026524708150873
 21
7.990668783434251
 31
0.0
  0
LINE
  5
2E9
330
D
100
AcDbEntity
 67
     1
  8
AM_VIS
100
AcDbLine
 10
3.238524708150873
 20
8.202668783434251
 30
0.0
 11
3.123524708150873
 21
8.202668783434251
 31
0.0
  0
LINE
  5
2EA
330
D
100
AcDbEntity
 67
     1
  8
AM_HID
100
AcDbLine
 10
3.33552470815087
 20
7.990668783434246
 30
0.0
 11
3.33552470815087
 21
8.105668783434254
 31
0.0
  0
LINE
  5
2EB
330
D
100
AcDbEntity
 67
     1
  8
AM_HID
100
AcDbLine
 10
3.33552470815087
 20
7.893668783434251
 30
0.0
 11
3.33552470815087
 21
7.990668783434246
 31
0.0
  0
LINE
  5
2EC
330
D
100
AcDbEntity
 67
     1
  8
AM_HID
100
AcDbLine
 10
3.33552470815087
 20
8.105668783434254
 30
0.0
 11
3.33552470815087
 21
8.202668783434251
 31
0.0
  0
LINE
  5
2ED
330
D
100
AcDbEntity
 67
     1
  8
AM_VIS
100
AcDbLine
 10
3.123524708150871
 20
7.893668783434251
 30
0.0
 11
3.238524708150876
 21
7.893668783434251
 31
0.0
  0
LINE
  5
2EE
330
D
100
AcDbEntity
 67
     1
  8
AM_VIS
100
AcDbLine
 10
3.026524708150873
 20
7.893668783434251
 30
0.0
 11
3.123524708150871
 21
7.893668783434251
 31
0.0
  0
LINE
  5
2EF
330
D
100
AcDbEntity
 67
     1
  8
AM_VIS
100
AcDbLine
 10
3.238524708150873
 20
7.893668783434251
 30
0.0
 11
3.334380380467684
 21
7.893668783434251
 31
0.0
  0
LINE
  5
2F0
330
D
100
AcDbEntity
 67
     1
  8
AM_HID
100
AcDbLine
 10
3.334380380467684
 20
7.893668783434251
 30
0.0
 11
3.335524708150873
 21
7.893668783434251
 31
0.0
  0
LINE
  5
2F1
330
D
100
AcDbEntity
 67
     1
  8
AM_HID
100
AcDbLine
 10
3.175130341772702
 20
7.953351820579499
 30
0.0
 11
3.172802769278074
 21
7.950659932390059
 31
0.0
  0
LINE
  5
2F2
330
D
100
AcDbEntity
 67
     1
  8
AM_HID
100
AcDbLine
 10
3.175130341772702
 20
7.953351820579499
 30
0.0
 11
3.17930951795152
 21
7.958185128681956
 31
0.0
  0
LINE
  5
2F3
330
D
100
AcDbEntity
 67
     1
  8
AM_HID
100
AcDbLine
 10
3.086207745296118
 20
8.042274417056081
 30
0.0
 11
3.091041053398578
 21
8.0464535932349
 31
0.0
  0
LINE
  5
2F4
330
D
100
AcDbEntity
 67
     1
  8
AM_HID
100
AcDbLine
 10
3.083515857106681
 20
8.039946844561455
 30
0.0
 11
3.086207745296118
 21
8.042274417056081
 31
0.0
  0
LINE
  5
2F5
330
D
100
AcDbEntity
 67
     1
  8
AM_HID
100
AcDbLine
 10
3.275841671005628
 20
8.042274417056077
 30
0.0
 11
3.278533559195063
 21
8.039946844561452
 31
0.0
  0
LINE
  5
2F6
330
D
100
AcDbEntity
 67
     1
  8
AM_HID
100
AcDbLine
 10
3.271008362903167
 20
8.0464535932349
 30
0.0
 11
3.275841671005625
 21
8.042274417056081
 31
0.0
  0
LINE
  5
2F7
330
D
100
AcDbEntity
 67
     1
  8
AM_HID
100
AcDbLine
 10
3.186919074529042
 20
8.142985746289005
 30
0.0
 11
3.189246647023671
 21
8.145677634478445
 31
0.0
  0
LINE
  5
2F8
330
D
100
AcDbEntity
 67
     1
  8
AM_HID
100
AcDbLine
 10
3.182739898350223
 20
8.138152438186544
 30
0.0
 11
3.186919074529042
 21
8.142985746289005
 31
0.0
  0
LINE
  5
2F9
330
D
100
AcDbEntity
 67
     1
  8
AM_HID
100
AcDbLine
 10
3.33552470815087
 20
8.202668783434251
 30
0.0
 11
3.334380380467691
 21
8.202668783434251
 31
0.0
  0
LINE
  5
2FA
330
D
100
AcDbEntity
 67
     1
  8
AM_VIS
100
AcDbLine
 10
3.334380380467691
 20
8.202668783434251
 30
0.0
 11
3.238524708150873
 21
8.202668783434251
 31
0.0
  0
LINE
  5
2FB
330
D
100
AcDbEntity
 67
     1
  8
AM_VIS
100
AcDbLine
 10
3.123524708150871
 20
8.202668783434251
 30
0.0
 11
3.026524708150873
 21
8.202668783434251
 31
0.0
  0
LINE
  5
2FC
330
D
100
AcDbEntity
 67
     1
  8
AM_HID
100
AcDbLine
 10
3.182739898350223
 20
7.958185128681956
 30
0.0
 11
3.186919074529043
 21
7.953351820579499
 31
0.0
  0
ARC
  5
2FD
330
D
100
AcDbEntity
 67
     1
  8
AM_HID
100
AcDbCircle
 10
3.181024708150872
 20
8.048168783434253
 30
0.0
 40
0.09
100
AcDbArc
 50
352.740738682628
 51
7.259261317370298
  0
ARC
  5
2FE
330
D
100
AcDbEntity
 67
     1
  8
AM_HID
100
AcDbCircle
 10
3.180979442239863
 20
8.048160026366428
 30
0.0
 40
0.0900460096697976
100
AcDbArc
 50
7.261149270777584
 51
14.63702939376291
  0
ARC
  5
2FF
330
D
100
AcDbEntity
 67
     1
  8
AM_HID
100
AcDbCircle
 10
3.181024708150872
 20
8.048168783434253
 30
0.0
 40
0.09
100
AcDbArc
 50
14.63891734718368
 51
75.36108265281558
  0
ARC
  5
300
330
D
100
AcDbEntity
 67
     1
  8
AM_HID
100
AcDbCircle
 10
3.181015951083267
 20
8.048123517524386
 30
0.0
 40
0.0900460096686347
100
AcDbArc
 50
75.36297060618697
 51
82.73885072926828
  0
ARC
  5
301
330
D
100
AcDbEntity
 67
     1
  8
AM_HID
100
AcDbCircle
 10
3.181024708150872
 20
8.048168783434253
 30
0.0
 40
0.09
100
AcDbArc
 50
82.74073868262869
 51
97.25926131736905
  0
ARC
  5
302
330
D
100
AcDbEntity
 67
     1
  8
AM_HID
100
AcDbCircle
 10
3.181033465218329
 20
8.048123517525178
 30
0.0
 40
0.0900460096678291
100
AcDbArc
 50
97.261149270699
 51
104.6370293938486
  0
ARC
  5
303
330
D
100
AcDbEntity
 67
     1
  8
AM_HID
100
AcDbCircle
 10
3.181024708150872
 20
8.048168783434253
 30
0.0
 40
0.09
100
AcDbArc
 50
104.6389173471844
 51
165.3610826528178
  0
ARC
  5
304
330
D
100
AcDbEntity
 67
     1
  8
AM_HID
100
AcDbCircle
 10
3.181069974061801
 20
8.04816002636644
 30
0.0
 40
0.0900460096697155
100
AcDbArc
 50
165.3629706062343
 51
172.7388507292261
  0
ARC
  5
305
330
D
100
AcDbEntity
 67
     1
  8
AM_HID
100
AcDbCircle
 10
3.181024708150872
 20
8.048168783434253
 30
0.0
 40
0.09
100
AcDbArc
 50
172.7407386826321
 51
187.2592613173696
  0
ARC
  5
306
330
D
100
AcDbEntity
 67
     1
  8
AM_HID
100
AcDbCircle
 10
3.181069974059941
 20
8.048177540501701
 30
0.0
 40
0.0900460096678196
100
AcDbArc
 50
187.2611492706949
 51
194.637029393843
  0
ARC
  5
307
330
D
100
AcDbEntity
 67
     1
  8
AM_HID
100
AcDbCircle
 10
3.181024708150872
 20
8.048168783434253
 30
0.0
 40
0.09
100
AcDbArc
 50
194.6389173471841
 51
255.3610826528158
  0
ARC
  5
308
330
D
100
AcDbEntity
 67
     1
  8
AM_HID
100
AcDbCircle
 10
3.181033465218336
 20
8.048214049343332
 30
0.0
 40
0.0900460096678355
100
AcDbArc
 50
255.3629706061501
 51
262.7388507292948
  0
ARC
  5
309
330
D
100
AcDbEntity
 67
     1
  8
AM_HID
100
AcDbCircle
 10
3.181024708150872
 20
8.048168783434253
 30
0.0
 40
0.09
100
AcDbArc
 50
262.7407386826309
 51
277.2592613173713
  0
ARC
  5
30A
330
D
100
AcDbEntity
 67
     1
  8
AM_HID
100
AcDbCircle
 10
3.181015951083444
 20
8.048214049343169
 30
0.0
 40
0.0900460096676668
100
AcDbArc
 50
277.2611492706938
 51
284.6370293938544
  0
ARC
  5
30B
330
D
100
AcDbEntity
 67
     1
  8
AM_HID
100
AcDbCircle
 10
3.181024708150872
 20
8.048168783434253
 30
0.0
 40
0.09
100
AcDbArc
 50
284.6389173471841
 51
345.3610826528134
  0
ARC
  5
30C
330
D
100
AcDbEntity
 67
     1
  8
AM_HID
100
AcDbCircle
 10
3.180979442240423
 20
8.048177540501994
 30
0.0
 40
0.0900460096692282
100
AcDbArc
 50
345.3629706061964
 51
352.7388507292283
  0
LINE
  5
30D
330
D
100
AcDbEntity
 67
     1
  8
AM_HID
100
AcDbLine
 10
3.271008362903167
 20
8.049883973633605
 30
0.0
 11
3.275841671005626
 21
8.054063149812424
 31
0.0
  0
LINE
  5
30E
330
D
100
AcDbEntity
 67
     1
  8
AM_HID
100
AcDbLine
 10
3.1751303417727
 20
8.142985746289005
 30
0.0
 11
3.17930951795152
 21
8.138152438186544
 31
0.0
  0
LINE
  5
30F
330
D
100
AcDbEntity
 67
     1
  8
AM_HID
100
AcDbLine
 10
3.086207745296118
 20
8.054063149812424
 30
0.0
 11
3.091041053398578
 21
8.049883973633603
 31
0.0
  0
LINE
  5
310
330
D
100
AcDbEntity
 67
     1
  8
AM_VIS
100
AcDbLine
 10
3.026524708150873
 20
8.202668783434251
 30
0.0
 11
3.026524708150873
 21
8.105668783434254
 31
0.0
  0
LINE
  5
311
330
D
100
AcDbEntity
 67
     1
  8
AM_VIS
100
AcDbLine
 10
3.026524708150873
 20
7.990668783434251
 30
0.0
 11
3.026524708150873
 21
7.893668783434251
 31
0.0
  0
LINE
  5
312
330
D
100
AcDbEntity
 67
     1
  8
AM_HID
100
AcDbLine
 10
3.189246647023671
 20
7.950659932390058
 30
0.0
 11
3.186919074529042
 21
7.953351820579499
 31
0.0
  0
ARC
  5
313
330
D
100
AcDbEntity
 67
     1
  8
AM_HID
100
AcDbCircle
 10
3.169020573164703
 20
7.95393025233771
 30
0.0
 40
0.005
100
AcDbArc
 50
319.1512852664117
 51
82.74073868263881
  0
ARC
  5
314
330
D
100
AcDbEntity
 67
     1
  8
AM_HID
100
AcDbCircle
 10
3.086786177054332
 20
8.036164648448082
 30
0.0
 40
0.005
100
AcDbArc
 50
7.259261317372548
 51
130.8487147335584
  0
LINE
  5
315
330
D
100
AcDbEntity
 67
     1
  8
AM_VIS
100
AcDbLine
 10
3.123524708150871
 20
7.89366878343425
 30
0.0
 11
3.143999883864101
 21
7.917348769259115
 31
0.0
  0
LINE
  5
316
330
D
100
AcDbEntity
 67
     1
  8
AM_HID
100
AcDbLine
 10
3.143999883864101
 20
7.917348769259115
 30
0.0
 11
3.172802769278074
 21
7.950659932390058
 31
0.0
  0
LINE
  5
317
330
D
100
AcDbEntity
 67
     1
  8
AM_VIS
100
AcDbLine
 10
3.123524708150871
 20
7.893668783434251
 30
0.0
 11
3.116390490884543
 21
7.90926878343425
 31
0.0
  0
ARC
  5
318
330
D
100
AcDbEntity
 67
     1
  8
AM_HID
100
AcDbCircle
 10
3.086786177054332
 20
8.060172918420418
 30
0.0
 40
0.005
100
AcDbArc
 50
229.1512852663974
 51
352.7407386826274
  0
ARC
  5
319
330
D
100
AcDbEntity
 67
     1
  8
AM_HID
100
AcDbCircle
 10
3.169020573164703
 20
8.142407314530792
 30
0.0
 40
0.005
100
AcDbArc
 50
277.2592613173624
 51
40.84871473354617
  0
LINE
  5
31A
330
D
100
AcDbEntity
 67
     1
  8
AM_VIS
100
AcDbLine
 10
3.026524708150873
 20
8.105668783434252
 30
0.0
 11
3.050204693975736
 21
8.085193607721024
 31
0.0
  0
LINE
  5
31B
330
D
100
AcDbEntity
 67
     1
  8
AM_HID
100
AcDbLine
 10
3.050204693975736
 20
8.085193607721024
 30
0.0
 11
3.083515857106681
 21
8.056390722307048
 31
0.0
  0
LINE
  5
31C
330
D
100
AcDbEntity
 67
     1
  8
AM_VIS
100
AcDbLine
 10
3.026524708150873
 20
8.105668783434252
 30
0.0
 11
3.042124708150871
 21
8.112803000700576
 31
0.0
  0
ARC
  5
31D
330
D
100
AcDbEntity
 67
     1
  8
AM_HID
100
AcDbCircle
 10
3.193028843137041
 20
8.142407314530792
 30
0.0
 40
0.005
100
AcDbArc
 50
139.1512852664195
 51
262.7407386826374
  0
ARC
  5
31E
330
D
100
AcDbEntity
 67
     1
  8
AM_HID
100
AcDbCircle
 10
3.275263239247415
 20
8.060172918420423
 30
0.0
 40
0.005
100
AcDbArc
 50
187.2592613173725
 51
310.8487147335583
  0
LINE
  5
31F
330
D
100
AcDbEntity
 67
     1
  8
AM_VIS
100
AcDbLine
 10
3.238524708150873
 20
8.202668783434251
 30
0.0
 11
3.21804953243765
 21
8.178988797609394
 31
0.0
  0
LINE
  5
320
330
D
100
AcDbEntity
 67
     1
  8
AM_HID
100
AcDbLine
 10
3.21804953243765
 20
8.178988797609392
 30
0.0
 11
3.189246647023671
 21
8.145677634478445
 31
0.0
  0
LINE
  5
321
330
D
100
AcDbEntity
 67
     1
  8
AM_VIS
100
AcDbLine
 10
3.238524708150873
 20
8.202668783434249
 30
0.0
 11
3.245658925417198
 21
8.18706878343425
 31
0.0
  0
ARC
  5
322
330
D
100
AcDbEntity
 67
     1
  8
AM_HID
100
AcDbCircle
 10
3.275263239247415
 20
8.03616464844808
 30
0.0
 40
0.005
100
AcDbArc
 50
49.15128526641074
 51
172.7407386826274
  0
ARC
  5
323
330
D
100
AcDbEntity
 67
     1
  8
AM_HID
100
AcDbCircle
 10
3.193028843137041
 20
7.95393025233771
 30
0.0
 40
0.005
100
AcDbArc
 50
97.25926131736246
 51
220.8487147335881
  0
LINE
  5
324
330
D
100
AcDbEntity
 67
     1
  8
AM_HID
100
AcDbLine
 10
3.189246647023671
 20
7.950659932390059
 30
0.0
 11
3.218049532437646
 21
7.917348769259112
 31
0.0
  0
LINE
  5
325
330
D
100
AcDbEntity
 67
     1
  8
AM_VIS
100
AcDbLine
 10
3.218049532437646
 20
7.917348769259112
 30
0.0
 11
3.238524708150873
 21
7.893668783434252
 31
0.0
  0
LINE
  5
326
330
D
100
AcDbEntity
 67
     1
  8
AM_VIS
100
AcDbLine
 10
3.238524708150873
 20
7.893668783434251
 30
0.0
 11
3.245658925417198
 21
7.909268783434252
 31
0.0
  0
LINE
  5
327
330
D
100
AcDbEntity
 67
     1
  8
AM_VIS
100
AcDbLine
 10
3.026524708150873
 20
8.202668783434251
 30
0.0
 11
3.042124708150871
 21
8.18706878343425
 31
0.0
  0
LINE
  5
328
330
D
100
AcDbEntity
 67
     1
  8
AM_VIS
100
AcDbLine
 10
3.123524708150871
 20
8.202668783434251
 30
0.0
 11
3.116390490884543
 21
8.187068783434252
 31
0.0
  0
LINE
  5
329
330
D
100
AcDbEntity
 67
     1
  8
AM_HID
100
AcDbLine
 10
3.172802769278074
 20
8.145677634478445
 30
0.0
 11
3.143999883864096
 21
8.178988797609394
 31
0.0
  0
LINE
  5
32A
330
D
100
AcDbEntity
 67
     1
  8
AM_VIS
100
AcDbLine
 10
3.143999883864096
 20
8.178988797609392
 30
0.0
 11
3.123524708150873
 21
8.202668783434251
 31
0.0
  0
LINE
  5
32B
330
D
100
AcDbEntity
 67
     1
  8
AM_VIS
100
AcDbLine
 10
3.334380380467684
 20
8.201524455751066
 30
0.0
 11
3.31992470815087
 21
8.187068783434252
 31
0.0
  0
LINE
  5
32C
330
D
100
AcDbEntity
 67
     1
  8
AM_HID
100
AcDbLine
 10
3.33552470815087
 20
8.202668783434251
 30
0.0
 11
3.334380380467684
 21
8.201524455751066
 31
0.0
  0
LINE
  5
32D
330
D
100
AcDbEntity
 67
     1
  8
AM_HID
100
AcDbLine
 10
3.278533559195063
 20
8.05639072230705
 30
0.0
 11
3.311844722326013
 21
8.085193607721027
 31
0.0
  0
LINE
  5
32E
330
D
100
AcDbEntity
 67
     1
  8
AM_VIS
100
AcDbLine
 10
3.311844722326013
 20
8.085193607721031
 30
0.0
 11
3.334380380467684
 21
8.104679327166836
 31
0.0
  0
LINE
  5
32F
330
D
100
AcDbEntity
 67
     1
  8
AM_HID
100
AcDbLine
 10
3.334380380467684
 20
8.104679327166836
 30
0.0
 11
3.33552470815087
 21
8.105668783434254
 31
0.0
  0
LINE
  5
330
330
D
100
AcDbEntity
 67
     1
  8
AM_HID
100
AcDbLine
 10
3.334380380467684
 20
8.106192109223721
 30
0.0
 11
3.33552470815087
 21
8.105668783434254
 31
0.0
  0
LINE
  5
331
330
D
100
AcDbEntity
 67
     1
  8
AM_VIS
100
AcDbLine
 10
3.31992470815087
 20
8.11280300070058
 30
0.0
 11
3.334380380467684
 21
8.106192109223721
 31
0.0
  0
LINE
  5
332
330
D
100
AcDbEntity
 67
     1
  8
AM_VIS
100
AcDbLine
 10
3.334380380467684
 20
7.894813111117437
 30
0.0
 11
3.31992470815087
 21
7.909268783434252
 31
0.0
  0
LINE
  5
333
330
D
100
AcDbEntity
 67
     1
  8
AM_HID
100
AcDbLine
 10
3.33552470815087
 20
7.893668783434251
 30
0.0
 11
3.334380380467684
 21
7.894813111117437
 31
0.0
  0
LINE
  5
334
330
D
100
AcDbEntity
 67
     1
  8
AM_HID
100
AcDbLine
 10
3.334380380467684
 20
7.990145457644778
 30
0.0
 11
3.33552470815087
 21
7.990668783434246
 31
0.0
  0
LINE
  5
335
330
D
100
AcDbEntity
 67
     1
  8
AM_VIS
100
AcDbLine
 10
3.31992470815087
 20
7.983534566167922
 30
0.0
 11
3.334380380467684
 21
7.990145457644778
 31
0.0
  0
LINE
  5
336
330
D
100
AcDbEntity
 67
     1
  8
AM_HID
100
AcDbLine
 10
3.335524708150873
 20
7.990668783434246
 30
0.0
 11
3.334380380467687
 21
7.991658239701664
 31
0.0
  0
LINE
  5
337
330
D
100
AcDbEntity
 67
     1
  8
AM_VIS
100
AcDbLine
 10
3.334380380467687
 20
7.991658239701664
 30
0.0
 11
3.311844722326013
 21
8.011143959147473
 31
0.0
  0
LINE
  5
338
330
D
100
AcDbEntity
 67
     1
  8
AM_HID
100
AcDbLine
 10
3.311844722326013
 20
8.011143959147471
 30
0.0
 11
3.278533559195068
 21
8.03994684456145
 31
0.0
  0
LINE
  5
339
330
D
100
AcDbEntity
 67
     1
  8
AM_VIS
100
AcDbLine
 10
3.042124708150871
 20
7.90926878343425
 30
0.0
 11
3.026524708150873
 21
7.89366878343425
 31
0.0
  0
LINE
  5
33A
330
D
100
AcDbEntity
 67
     1
  8
AM_VIS
100
AcDbLine
 10
3.026524708150873
 20
7.99066878343425
 30
0.0
 11
3.042124708150871
 21
7.983534566167922
 31
0.0
  0
LINE
  5
33B
330
D
100
AcDbEntity
 67
     1
  8
AM_HID
100
AcDbLine
 10
3.083515857106681
 20
8.039946844561455
 30
0.0
 11
3.050204693975736
 21
8.01114395914748
 31
0.0
  0
LINE
  5
33C
330
D
100
AcDbEntity
 67
     1
  8
AM_VIS
100
AcDbLine
 10
3.050204693975736
 20
8.011143959147476
 30
0.0
 11
3.026524708150873
 21
7.990668783434251
 31
0.0
  0
LINE
  5
33D
330
D
100
AcDbEntity
 67
     1
  8
AM_HID
100
AcDbLine
 10
3.278533559195063
 20
8.05639072230705
 30
0.0
 11
3.275841671005628
 21
8.054063149812424
 31
0.0
  0
LINE
  5
33E
330
D
100
AcDbEntity
 67
     1
  8
AM_HID
100
AcDbLine
 10
3.172802769278071
 20
8.145677634478445
 30
0.0
 11
3.175130341772696
 21
8.142985746289006
 31
0.0
  0
LINE
  5
33F
330
D
100
AcDbEntity
 67
     1
  8
AM_HID
100
AcDbLine
 10
3.086207745296121
 20
8.054063149812421
 30
0.0
 11
3.083515857106681
 21
8.056390722307048
 31
0.0
  0
LINE
  5
340
330
D
100
AcDbEntity
 67
     1
  8
AM_HID
100
AcDbLine
 10
3.751524708150873
 20
8.105668783434252
 30
0.0
 11
3.751524708150873
 21
7.990668783434251
 31
0.0
  0
LINE
  5
341
330
D
100
AcDbEntity
 67
     1
  8
AM_VIS
100
AcDbLine
 10
3.963524708150874
 20
8.202668783434251
 30
0.0
 11
3.848524708150875
 21
8.202668783434251
 31
0.0
  0
LINE
  5
342
330
D
100
AcDbEntity
 67
     1
  8
AM_VIS
100
AcDbLine
 10
4.060524708150872
 20
7.990668783434246
 30
0.0
 11
4.060524708150872
 21
8.105668783434254
 31
0.0
  0
LINE
  5
343
330
D
100
AcDbEntity
 67
     1
  8
AM_VIS
100
AcDbLine
 10
4.060524708150872
 20
7.893668783434251
 30
0.0
 11
4.060524708150872
 21
7.990668783434246
 31
0.0
  0
LINE
  5
344
330
D
100
AcDbEntity
 67
     1
  8
AM_VIS
100
AcDbLine
 10
4.060524708150872
 20
8.105668783434254
 30
0.0
 11
4.060524708150872
 21
8.202668783434251
 31
0.0
  0
LINE
  5
345
330
D
100
AcDbEntity
 67
     1
  8
AM_VIS
100
AcDbLine
 10
3.848524708150872
 20
7.893668783434251
 30
0.0
 11
3.963524708150876
 21
7.893668783434251
 31
0.0
  0
LINE
  5
346
330
D
100
AcDbEntity
 67
     1
  8
AM_HID
100
AcDbLine
 10
3.751524708150873
 20
7.893668783434251
 30
0.0
 11
3.759000380467686
 21
7.893668783434251
 31
0.0
  0
LINE
  5
347
330
D
100
AcDbEntity
 67
     1
  8
AM_VIS
100
AcDbLine
 10
3.759000380467686
 20
7.893668783434251
 30
0.0
 11
3.848524708150872
 21
7.893668783434251
 31
0.0
  0
LINE
  5
348
330
D
100
AcDbEntity
 67
     1
  8
AM_VIS
100
AcDbLine
 10
3.963524708150874
 20
7.893668783434251
 30
0.0
 11
4.060524708150874
 21
7.893668783434251
 31
0.0
  0
LINE
  5
349
330
D
100
AcDbEntity
 67
     1
  8
AM_HID
100
AcDbLine
 10
3.900130341772705
 20
7.953351820579499
 30
0.0
 11
3.897802769278076
 21
7.950659932390059
 31
0.0
  0
LINE
  5
34A
330
D
100
AcDbEntity
 67
     1
  8
AM_HID
100
AcDbLine
 10
3.900130341772705
 20
7.953351820579499
 30
0.0
 11
3.904309517951521
 21
7.958185128681956
 31
0.0
  0
LINE
  5
34B
330
D
100
AcDbEntity
 67
     1
  8
AM_HID
100
AcDbLine
 10
3.811207745296119
 20
8.042274417056081
 30
0.0
 11
3.81604105339858
 21
8.0464535932349
 31
0.0
  0
LINE
  5
34C
330
D
100
AcDbEntity
 67
     1
  8
AM_HID
100
AcDbLine
 10
3.808515857106683
 20
8.039946844561455
 30
0.0
 11
3.811207745296119
 21
8.042274417056081
 31
0.0
  0
LINE
  5
34D
330
D
100
AcDbEntity
 67
     1
  8
AM_HID
100
AcDbLine
 10
4.00084167100563
 20
8.042274417056077
 30
0.0
 11
4.003533559195066
 21
8.039946844561452
 31
0.0
  0
LINE
  5
34E
330
D
100
AcDbEntity
 67
     1
  8
AM_HID
100
AcDbLine
 10
3.996008362903168
 20
8.046453593234902
 30
0.0
 11
4.000841671005626
 21
8.042274417056082
 31
0.0
  0
LINE
  5
34F
330
D
100
AcDbEntity
 67
     1
  8
AM_HID
100
AcDbLine
 10
3.911919074529044
 20
8.142985746289005
 30
0.0
 11
3.914246647023673
 21
8.145677634478445
 31
0.0
  0
LINE
  5
350
330
D
100
AcDbEntity
 67
     1
  8
AM_HID
100
AcDbLine
 10
3.907739898350225
 20
8.138152438186544
 30
0.0
 11
3.911919074529044
 21
8.142985746289005
 31
0.0
  0
LINE
  5
351
330
D
100
AcDbEntity
 67
     1
  8
AM_VIS
100
AcDbLine
 10
4.060524708150872
 20
8.202668783434251
 30
0.0
 11
3.963524708150874
 21
8.202668783434251
 31
0.0
  0
LINE
  5
352
330
D
100
AcDbEntity
 67
     1
  8
AM_VIS
100
AcDbLine
 10
3.848524708150872
 20
8.202668783434251
 30
0.0
 11
3.759000380467686
 21
8.202668783434251
 31
0.0
  0
LINE
  5
353
330
D
100
AcDbEntity
 67
     1
  8
AM_HID
100
AcDbLine
 10
3.759000380467686
 20
8.202668783434251
 30
0.0
 11
3.751524708150873
 21
8.202668783434251
 31
0.0
  0
LINE
  5
354
330
D
100
AcDbEntity
 67
     1
  8
AM_HID
100
AcDbLine
 10
3.907739898350225
 20
7.958185128681958
 30
0.0
 11
3.911919074529046
 21
7.953351820579499
 31
0.0
  0
ARC
  5
355
330
D
100
AcDbEntity
 67
     1
  8
AM_HID
100
AcDbCircle
 10
3.906024708150873
 20
8.048168783434253
 30
0.0
 40
0.09
100
AcDbArc
 50
352.740738682628
 51
7.259261317370298
  0
ARC
  5
356
330
D
100
AcDbEntity
 67
     1
  8
AM_HID
100
AcDbCircle
 10
3.905979442241768
 20
8.048160026366796
 30
0.0
 40
0.0900460096678618
100
AcDbArc
 50
7.261149270698047
 51
14.63702939384219
  0
ARC
  5
357
330
D
100
AcDbEntity
 67
     1
  8
AM_HID
100
AcDbCircle
 10
3.906024708150873
 20
8.048168783434253
 30
0.0
 40
0.09
100
AcDbArc
 50
14.63891734718368
 51
75.36108265281558
  0
ARC
  5
358
330
D
100
AcDbEntity
 67
     1
  8
AM_HID
100
AcDbCircle
 10
3.906015951083205
 20
8.048123517524063
 30
0.0
 40
0.0900460096689631
100
AcDbArc
 50
75.36297060619978
 51
82.73885072925407
  0
ARC
  5
359
330
D
100
AcDbEntity
 67
     1
  8
AM_HID
100
AcDbCircle
 10
3.906024708150873
 20
8.048168783434253
 30
0.0
 40
0.09
100
AcDbArc
 50
82.74073868262869
 51
97.25926131736905
  0
ARC
  5
35A
330
D
100
AcDbEntity
 67
     1
  8
AM_HID
100
AcDbCircle
 10
3.906033465218331
 20
8.048123517525178
 30
0.0
 40
0.0900460096678291
100
AcDbArc
 50
97.261149270699
 51
104.6370293938486
  0
ARC
  5
35B
330
D
100
AcDbEntity
 67
     1
  8
AM_HID
100
AcDbCircle
 10
3.906024708150873
 20
8.048168783434253
 30
0.0
 40
0.09
100
AcDbArc
 50
104.6389173471844
 51
165.3610826528178
  0
ARC
  5
35C
330
D
100
AcDbEntity
 67
     1
  8
AM_HID
100
AcDbCircle
 10
3.906069974061803
 20
8.04816002636644
 30
0.0
 40
0.0900460096697155
100
AcDbArc
 50
165.3629706062343
 51
172.7388507292261
  0
ARC
  5
35D
330
D
100
AcDbEntity
 67
     1
  8
AM_HID
100
AcDbCircle
 10
3.906024708150873
 20
8.048168783434253
 30
0.0
 40
0.09
100
AcDbArc
 50
172.7407386826321
 51
187.2592613173696
  0
ARC
  5
35E
330
D
100
AcDbEntity
 67
     1
  8
AM_HID
100
AcDbCircle
 10
3.906069974059941
 20
8.048177540501701
 30
0.0
 40
0.0900460096678196
100
AcDbArc
 50
187.2611492706949
 51
194.637029393843
  0
ARC
  5
35F
330
D
100
AcDbEntity
 67
     1
  8
AM_HID
100
AcDbCircle
 10
3.906024708150873
 20
8.048168783434253
 30
0.0
 40
0.09
100
AcDbArc
 50
194.6389173471841
 51
255.3610826528158
  0
ARC
  5
360
330
D
100
AcDbEntity
 67
     1
  8
AM_HID
100
AcDbCircle
 10
3.906033465218399
 20
8.048214049343656
 30
0.0
 40
0.090046009668164
100
AcDbArc
 50
255.3629706061648
 51
262.7388507292826
  0
ARC
  5
361
330
D
100
AcDbEntity
 67
     1
  8
AM_HID
100
AcDbCircle
 10
3.906024708150873
 20
8.048168783434253
 30
0.0
 40
0.09
100
AcDbArc
 50
262.7407386826309
 51
277.2592613173713
  0
ARC
  5
362
330
D
100
AcDbEntity
 67
     1
  8
AM_HID
100
AcDbCircle
 10
3.906015951083509
 20
8.048214049342846
 30
0.0
 40
0.0900460096673383
100
AcDbArc
 50
277.2611492706794
 51
284.6370293938671
  0
ARC
  5
363
330
D
100
AcDbEntity
 67
     1
  8
AM_HID
100
AcDbCircle
 10
3.906024708150873
 20
8.048168783434253
 30
0.0
 40
0.09
100
AcDbArc
 50
284.6389173471841
 51
345.3610826528134
  0
ARC
  5
364
330
D
100
AcDbEntity
 67
     1
  8
AM_HID
100
AcDbCircle
 10
3.905979442242333
 20
8.048177540501624
 30
0.0
 40
0.0900460096672925
100
AcDbArc
 50
345.3629706061161
 51
352.7388507293068
  0
LINE
  5
365
330
D
100
AcDbEntity
 67
     1
  8
AM_HID
100
AcDbLine
 10
3.996008362903168
 20
8.049883973633605
 30
0.0
 11
4.000841671005628
 21
8.054063149812424
 31
0.0
  0
LINE
  5
366
330
D
100
AcDbEntity
 67
     1
  8
AM_HID
100
AcDbLine
 10
3.900130341772701
 20
8.142985746289005
 30
0.0
 11
3.904309517951521
 21
8.138152438186544
 31
0.0
  0
LINE
  5
367
330
D
100
AcDbEntity
 67
     1
  8
AM_HID
100
AcDbLine
 10
3.811207745296119
 20
8.054063149812424
 30
0.0
 11
3.81604105339858
 21
8.049883973633603
 31
0.0
  0
LINE
  5
368
330
D
100
AcDbEntity
 67
     1
  8
AM_HID
100
AcDbLine
 10
3.751524708150873
 20
8.202668783434251
 30
0.0
 11
3.751524708150873
 21
8.105668783434254
 31
0.0
  0
LINE
  5
369
330
D
100
AcDbEntity
 67
     1
  8
AM_HID
100
AcDbLine
 10
3.751524708150873
 20
7.990668783434251
 30
0.0
 11
3.751524708150873
 21
7.893668783434251
 31
0.0
  0
LINE
  5
36A
330
D
100
AcDbEntity
 67
     1
  8
AM_HID
100
AcDbLine
 10
3.914246647023673
 20
7.950659932390058
 30
0.0
 11
3.911919074529044
 21
7.953351820579499
 31
0.0
  0
ARC
  5
36B
330
D
100
AcDbEntity
 67
     1
  8
AM_HID
100
AcDbCircle
 10
3.894020573164706
 20
7.95393025233771
 30
0.0
 40
0.005
100
AcDbArc
 50
319.1512852664117
 51
82.74073868263881
  0
ARC
  5
36C
330
D
100
AcDbEntity
 67
     1
  8
AM_HID
100
AcDbCircle
 10
3.811786177054333
 20
8.036164648448082
 30
0.0
 40
0.005
100
AcDbArc
 50
7.259261317372548
 51
130.8487147335584
  0
LINE
  5
36D
330
D
100
AcDbEntity
 67
     1
  8
AM_VIS
100
AcDbLine
 10
3.848524708150872
 20
7.89366878343425
 30
0.0
 11
3.868999883864102
 21
7.917348769259115
 31
0.0
  0
LINE
  5
36E
330
D
100
AcDbEntity
 67
     1
  8
AM_HID
100
AcDbLine
 10
3.868999883864102
 20
7.917348769259115
 30
0.0
 11
3.897802769278076
 21
7.950659932390058
 31
0.0
  0
LINE
  5
36F
330
D
100
AcDbEntity
 67
     1
  8
AM_VIS
100
AcDbLine
 10
3.848524708150872
 20
7.893668783434251
 30
0.0
 11
3.841390490884544
 21
7.90926878343425
 31
0.0
  0
ARC
  5
370
330
D
100
AcDbEntity
 67
     1
  8
AM_HID
100
AcDbCircle
 10
3.811786177054333
 20
8.060172918420418
 30
0.0
 40
0.005
100
AcDbArc
 50
229.1512852663974
 51
352.7407386826274
  0
ARC
  5
371
330
D
100
AcDbEntity
 67
     1
  8
AM_HID
100
AcDbCircle
 10
3.894020573164706
 20
8.142407314530792
 30
0.0
 40
0.005
100
AcDbArc
 50
277.2592613173624
 51
40.84871473354617
  0
LINE
  5
372
330
D
100
AcDbEntity
 67
     1
  8
AM_HID
100
AcDbLine
 10
3.751524708150873
 20
8.105668783434252
 30
0.0
 11
3.759000380467686
 21
8.099204856243023
 31
0.0
  0
LINE
  5
373
330
D
100
AcDbEntity
 67
     1
  8
AM_VIS
100
AcDbLine
 10
3.759000380467686
 20
8.099204856243023
 30
0.0
 11
3.775204693975736
 21
8.085193607721022
 31
0.0
  0
LINE
  5
374
330
D
100
AcDbEntity
 67
     1
  8
AM_HID
100
AcDbLine
 10
3.775204693975736
 20
8.085193607721024
 30
0.0
 11
3.808515857106683
 21
8.056390722307048
 31
0.0
  0
LINE
  5
375
330
D
100
AcDbEntity
 67
     1
  8
AM_VIS
100
AcDbLine
 10
3.759000380467686
 20
8.109087570006046
 30
0.0
 11
3.767124708150872
 21
8.112803000700576
 31
0.0
  0
LINE
  5
376
330
D
100
AcDbEntity
 67
     1
  8
AM_HID
100
AcDbLine
 10
3.751524708150873
 20
8.105668783434252
 30
0.0
 11
3.759000380467686
 21
8.109087570006046
 31
0.0
  0
ARC
  5
377
330
D
100
AcDbEntity
 67
     1
  8
AM_HID
100
AcDbCircle
 10
3.918028843137043
 20
8.142407314530792
 30
0.0
 40
0.005
100
AcDbArc
 50
139.1512852664195
 51
262.7407386826374
  0
ARC
  5
378
330
D
100
AcDbEntity
 67
     1
  8
AM_HID
100
AcDbCircle
 10
4.000263239247416
 20
8.060172918420423
 30
0.0
 40
0.005
100
AcDbArc
 50
187.2592613173725
 51
310.8487147335583
  0
LINE
  5
379
330
D
100
AcDbEntity
 67
     1
  8
AM_VIS
100
AcDbLine
 10
3.963524708150874
 20
8.202668783434251
 30
0.0
 11
3.943049532437651
 21
8.178988797609394
 31
0.0
  0
LINE
  5
37A
330
D
100
AcDbEntity
 67
     1
  8
AM_HID
100
AcDbLine
 10
3.943049532437651
 20
8.178988797609392
 30
0.0
 11
3.914246647023673
 21
8.145677634478445
 31
0.0
  0
LINE
  5
37B
330
D
100
AcDbEntity
 67
     1
  8
AM_VIS
100
AcDbLine
 10
3.963524708150874
 20
8.202668783434249
 30
0.0
 11
3.9706589254172
 21
8.18706878343425
 31
0.0
  0
ARC
  5
37C
330
D
100
AcDbEntity
 67
     1
  8
AM_HID
100
AcDbCircle
 10
4.000263239247416
 20
8.03616464844808
 30
0.0
 40
0.005
100
AcDbArc
 50
49.15128526641074
 51
172.7407386826274
  0
ARC
  5
37D
330
D
100
AcDbEntity
 67
     1
  8
AM_HID
100
AcDbCircle
 10
3.918028843137043
 20
7.95393025233771
 30
0.0
 40
0.005
100
AcDbArc
 50
97.25926131736246
 51
220.8487147335881
  0
LINE
  5
37E
330
D
100
AcDbEntity
 67
     1
  8
AM_HID
100
AcDbLine
 10
3.914246647023673
 20
7.950659932390059
 30
0.0
 11
3.943049532437647
 21
7.917348769259112
 31
0.0
  0
LINE
  5
37F
330
D
100
AcDbEntity
 67
     1
  8
AM_VIS
100
AcDbLine
 10
3.943049532437647
 20
7.917348769259112
 30
0.0
 11
3.963524708150874
 21
7.893668783434252
 31
0.0
  0
LINE
  5
380
330
D
100
AcDbEntity
 67
     1
  8
AM_VIS
100
AcDbLine
 10
3.963524708150874
 20
7.893668783434251
 30
0.0
 11
3.9706589254172
 21
7.909268783434252
 31
0.0
  0
LINE
  5
381
330
D
100
AcDbEntity
 67
     1
  8
AM_VIS
100
AcDbLine
 10
3.759000380467686
 20
8.195193111117438
 30
0.0
 11
3.767124708150872
 21
8.18706878343425
 31
0.0
  0
LINE
  5
382
330
D
100
AcDbEntity
 67
     1
  8
AM_HID
100
AcDbLine
 10
3.751524708150873
 20
8.202668783434251
 30
0.0
 11
3.759000380467686
 21
8.195193111117438
 31
0.0
  0
LINE
  5
383
330
D
100
AcDbEntity
 67
     1
  8
AM_VIS
100
AcDbLine
 10
3.848524708150872
 20
8.202668783434251
 30
0.0
 11
3.841390490884544
 21
8.187068783434252
 31
0.0
  0
LINE
  5
384
330
D
100
AcDbEntity
 67
     1
  8
AM_HID
100
AcDbLine
 10
3.897802769278076
 20
8.145677634478445
 30
0.0
 11
3.868999883864097
 21
8.178988797609394
 31
0.0
  0
LINE
  5
385
330
D
100
AcDbEntity
 67
     1
  8
AM_VIS
100
AcDbLine
 10
3.868999883864097
 20
8.178988797609392
 30
0.0
 11
3.848524708150875
 21
8.202668783434251
 31
0.0
  0
LINE
  5
386
330
D
100
AcDbEntity
 67
     1
  8
AM_VIS
100
AcDbLine
 10
4.060524708150872
 20
8.202668783434251
 30
0.0
 11
4.044924708150873
 21
8.187068783434252
 31
0.0
  0
LINE
  5
387
330
D
100
AcDbEntity
 67
     1
  8
AM_HID
100
AcDbLine
 10
4.003533559195066
 20
8.05639072230705
 30
0.0
 11
4.036844722326016
 21
8.085193607721027
 31
0.0
  0
LINE
  5
388
330
D
100
AcDbEntity
 67
     1
  8
AM_VIS
100
AcDbLine
 10
4.036844722326016
 20
8.085193607721031
 30
0.0
 11
4.060524708150872
 21
8.105668783434254
 31
0.0
  0
LINE
  5
389
330
D
100
AcDbEntity
 67
     1
  8
AM_VIS
100
AcDbLine
 10
4.044924708150873
 20
8.11280300070058
 30
0.0
 11
4.060524708150872
 21
8.105668783434254
 31
0.0
  0
LINE
  5
38A
330
D
100
AcDbEntity
 67
     1
  8
AM_VIS
100
AcDbLine
 10
4.060524708150872
 20
7.893668783434251
 30
0.0
 11
4.044924708150873
 21
7.909268783434252
 31
0.0
  0
LINE
  5
38B
330
D
100
AcDbEntity
 67
     1
  8
AM_VIS
100
AcDbLine
 10
4.044924708150873
 20
7.983534566167922
 30
0.0
 11
4.060524708150872
 21
7.990668783434246
 31
0.0
  0
LINE
  5
38C
330
D
100
AcDbEntity
 67
     1
  8
AM_VIS
100
AcDbLine
 10
4.060524708150874
 20
7.990668783434246
 30
0.0
 11
4.036844722326016
 21
8.011143959147473
 31
0.0
  0
LINE
  5
38D
330
D
100
AcDbEntity
 67
     1
  8
AM_HID
100
AcDbLine
 10
4.036844722326016
 20
8.011143959147471
 30
0.0
 11
4.003533559195068
 21
8.03994684456145
 31
0.0
  0
LINE
  5
38E
330
D
100
AcDbEntity
 67
     1
  8
AM_HID
100
AcDbLine
 10
3.759000380467686
 20
7.901144455751063
 30
0.0
 11
3.751524708150873
 21
7.89366878343425
 31
0.0
  0
LINE
  5
38F
330
D
100
AcDbEntity
 67
     1
  8
AM_VIS
100
AcDbLine
 10
3.767124708150872
 20
7.90926878343425
 30
0.0
 11
3.759000380467686
 21
7.901144455751063
 31
0.0
  0
LINE
  5
390
330
D
100
AcDbEntity
 67
     1
  8
AM_VIS
100
AcDbLine
 10
3.759000380467686
 20
7.987249996862455
 30
0.0
 11
3.767124708150872
 21
7.983534566167922
 31
0.0
  0
LINE
  5
391
330
D
100
AcDbEntity
 67
     1
  8
AM_HID
100
AcDbLine
 10
3.751524708150873
 20
7.99066878343425
 30
0.0
 11
3.759000380467686
 21
7.987249996862455
 31
0.0
  0
LINE
  5
392
330
D
100
AcDbEntity
 67
     1
  8
AM_HID
100
AcDbLine
 10
3.808515857106683
 20
8.039946844561455
 30
0.0
 11
3.775204693975736
 21
8.01114395914748
 31
0.0
  0
LINE
  5
393
330
D
100
AcDbEntity
 67
     1
  8
AM_VIS
100
AcDbLine
 10
3.775204693975736
 20
8.011143959147476
 30
0.0
 11
3.759000380467686
 21
7.997132710625478
 31
0.0
  0
LINE
  5
394
330
D
100
AcDbEntity
 67
     1
  8
AM_HID
100
AcDbLine
 10
3.759000380467686
 20
7.997132710625478
 30
0.0
 11
3.751524708150873
 21
7.990668783434251
 31
0.0
  0
LINE
  5
395
330
D
100
AcDbEntity
 67
     1
  8
AM_HID
100
AcDbLine
 10
4.003533559195066
 20
8.05639072230705
 30
0.0
 11
4.00084167100563
 21
8.054063149812424
 31
0.0
  0
LINE
  5
396
330
D
100
AcDbEntity
 67
     1
  8
AM_HID
100
AcDbLine
 10
3.897802769278071
 20
8.145677634478445
 30
0.0
 11
3.900130341772698
 21
8.142985746289006
 31
0.0
  0
LINE
  5
397
330
D
100
AcDbEntity
 67
     1
  8
AM_HID
100
AcDbLine
 10
3.811207745296123
 20
8.054063149812421
 30
0.0
 11
3.808515857106683
 21
8.056390722307048
 31
0.0
  0
LINE
  5
398
330
D
100
AcDbEntity
 67
     1
  8
AM_VIS
100
AcDbLine
 10
3.197791708150876
 20
7.962310655624474
 30
0.0
 11
3.197791708150876
 21
8.031401783434255
 31
0.0
  0
LINE
  5
399
330
D
100
AcDbEntity
 67
     1
  8
AM_VIS
100
AcDbLine
 10
3.197791708150876
 20
8.064935783434252
 30
0.0
 11
3.197791708150876
 21
8.134026911244031
 31
0.0
  0
LINE
  5
39A
330
D
100
AcDbEntity
 67
     1
  8
AM_VIS
100
AcDbLine
 10
3.164257708150876
 20
8.031401783434255
 30
0.0
 11
3.164257708150876
 21
7.962310655624476
 31
0.0
  0
LINE
  5
39B
330
D
100
AcDbEntity
 67
     1
  8
AM_VIS
100
AcDbLine
 10
3.164257708150876
 20
8.134026911244031
 30
0.0
 11
3.164257708150876
 21
8.064935783434254
 31
0.0
  0
LINE
  5
39C
330
D
100
AcDbEntity
 67
     1
  8
AM_VIS
100
AcDbLine
 10
3.164257708150876
 20
8.064935783434252
 30
0.0
 11
3.095166580341095
 21
8.064935783434252
 31
0.0
  0
LINE
  5
39D
330
D
100
AcDbEntity
 67
     1
  8
AM_VIS
100
AcDbLine
 10
3.266882835960653
 20
8.064935783434252
 30
0.0
 11
3.197791708150876
 21
8.064935783434252
 31
0.0
  0
ARC
  5
39E
330
D
100
AcDbEntity
 67
     1
  8
AM_VIS
100
AcDbCircle
 10
3.181024708150875
 20
8.048168783434253
 30
0.0
 40
0.087480000000001
100
AcDbArc
 50
348.9499350406701
 51
11.05006495933031
  0
ARC
  5
39F
330
D
100
AcDbEntity
 67
     1
  8
AM_VIS
100
AcDbCircle
 10
3.181024708150875
 20
8.048168783434253
 30
0.0
 40
0.087480000000001
100
AcDbArc
 50
78.94993504066839
 51
101.050064959329
  0
ARC
  5
3A0
330
D
100
AcDbEntity
 67
     1
  8
AM_VIS
100
AcDbCircle
 10
3.181024708150875
 20
8.048168783434253
 30
0.0
 40
0.087480000000001
100
AcDbArc
 50
168.9499350406689
 51
191.0500649593297
  0
ARC
  5
3A1
330
D
100
AcDbEntity
 67
     1
  8
AM_VIS
100
AcDbCircle
 10
3.181024708150875
 20
8.048168783434253
 30
0.0
 40
0.087480000000001
100
AcDbArc
 50
258.9499350406707
 51
281.0500649593315
  0
LINE
  5
3A2
330
D
100
AcDbEntity
 67
     1
  8
AM_VIS
100
AcDbLine
 10
3.095166580341095
 20
8.031401783434253
 30
0.0
 11
3.164257708150876
 21
8.031401783434253
 31
0.0
  0
LINE
  5
3A3
330
D
100
AcDbEntity
 67
     1
  8
AM_VIS
100
AcDbLine
 10
3.197791708150876
 20
8.031401783434253
 30
0.0
 11
3.266882835960653
 21
8.031401783434253
 31
0.0
  0
CIRCLE
  5
3A4
330
D
100
AcDbEntity
 67
     1
  8
AM_HID
100
AcDbCircle
 10
3.181024708150875
 20
8.048168783434253
 30
0.0
 40
0.0692550000000001
  0
CIRCLE
  5
3A5
330
D
100
AcDbEntity
 67
     1
  8
AM_VIS
100
AcDbCircle
 10
3.181024708150875
 20
8.048168783434253
 30
0.0
 40
0.1359585000000001
  0
CIRCLE
  5
3A6
330
D
100
AcDbEntity
 67
     1
  8
AM_HID
100
AcDbCircle
 10
3.181024708150875
 20
8.048168783434253
 30
0.0
 40
0.053655
  0
LINE
  5
3A7
330
D
100
AcDbEntity
 67
     1
  8
AM_VIS
100
AcDbLine
 10
3.922791708150878
 20
7.962310655624474
 30
0.0
 11
3.922791708150878
 21
8.031401783434255
 31
0.0
  0
LINE
  5
3A8
330
D
100
AcDbEntity
 67
     1
  8
AM_VIS
100
AcDbLine
 10
3.922791708150878
 20
8.064935783434252
 30
0.0
 11
3.922791708150878
 21
8.134026911244031
 31
0.0
  0
LINE
  5
3A9
330
D
100
AcDbEntity
 67
     1
  8
AM_VIS
100
AcDbLine
 10
3.889257708150879
 20
8.031401783434255
 30
0.0
 11
3.889257708150879
 21
7.962310655624476
 31
0.0
  0
LINE
  5
3AA
330
D
100
AcDbEntity
 67
     1
  8
AM_VIS
100
AcDbLine
 10
3.889257708150879
 20
8.134026911244031
 30
0.0
 11
3.889257708150879
 21
8.064935783434254
 31
0.0
  0
LINE
  5
3AB
330
D
100
AcDbEntity
 67
     1
  8
AM_VIS
100
AcDbLine
 10
3.889257708150879
 20
8.064935783434252
 30
0.0
 11
3.820166580341098
 21
8.064935783434252
 31
0.0
  0
LINE
  5
3AC
330
D
100
AcDbEntity
 67
     1
  8
AM_VIS
100
AcDbLine
 10
3.991882835960654
 20
8.064935783434252
 30
0.0
 11
3.922791708150878
 21
8.064935783434252
 31
0.0
  0
ARC
  5
3AD
330
D
100
AcDbEntity
 67
     1
  8
AM_VIS
100
AcDbCircle
 10
3.906024708150876
 20
8.048168783434253
 30
0.0
 40
0.087480000000001
100
AcDbArc
 50
348.9499350406701
 51
11.05006495933031
  0
ARC
  5
3AE
330
D
100
AcDbEntity
 67
     1
  8
AM_VIS
100
AcDbCircle
 10
3.906024708150876
 20
8.048168783434253
 30
0.0
 40
0.087480000000001
100
AcDbArc
 50
78.94993504066839
 51
101.050064959329
  0
ARC
  5
3AF
330
D
100
AcDbEntity
 67
     1
  8
AM_VIS
100
AcDbCircle
 10
3.906024708150876
 20
8.048168783434253
 30
0.0
 40
0.087480000000001
100
AcDbArc
 50
168.9499350406689
 51
191.0500649593297
  0
ARC
  5
3B0
330
D
100
AcDbEntity
 67
     1
  8
AM_VIS
100
AcDbCircle
 10
3.906024708150876
 20
8.048168783434253
 30
0.0
 40
0.087480000000001
100
AcDbArc
 50
258.9499350406707
 51
281.0500649593315
  0
LINE
  5
3B1
330
D
100
AcDbEntity
 67
     1
  8
AM_VIS
100
AcDbLine
 10
3.820166580341098
 20
8.031401783434253
 30
0.0
 11
3.889257708150879
 21
8.031401783434253
 31
0.0
  0
LINE
  5
3B2
330
D
100
AcDbEntity
 67
     1
  8
AM_VIS
100
AcDbLine
 10
3.922791708150878
 20
8.031401783434253
 30
0.0
 11
3.991882835960654
 21
8.031401783434253
 31
0.0
  0
CIRCLE
  5
3B3
330
D
100
AcDbEntity
 67
     1
  8
AM_HID
100
AcDbCircle
 10
3.906024708150876
 20
8.048168783434253
 30
0.0
 40
0.0692550000000001
  0
CIRCLE
  5
3B4
330
D
100
AcDbEntity
 67
     1
  8
AM_VIS
100
AcDbCircle
 10
3.906024708150876
 20
8.048168783434253
 30
0.0
 40
0.1359585000000001
  0
CIRCLE
  5
3B5
330
D
100
AcDbEntity
 67
     1
  8
AM_HID
100
AcDbCircle
 10
3.906024708150876
 20
8.048168783434253
 30
0.0
 40
0.053655
  0
LINE
  5
3B6
330
D
100
AcDbEntity
 67
     1
  8
AM_HID
100
AcDbLine
 10
4.053524708150873
 20
8.202168783434252
 30
0.0
 11
4.053524708150873
 21
7.894168783434253
 31
0.0
  0
LINE
  5
3B7
330
D
100
AcDbEntity
 67
     1
  8
AM_HID
100
AcDbLine
 10
4.053524708150873
 20
7.894168783434253
 30
0.0
 11
3.033524708150873
 21
7.894168783434253
 31
0.0
  0
LINE
  5
3B8
330
D
100
AcDbEntity
 67
     1
  8
AM_HID
100
AcDbLine
 10
3.033524708150873
 20
7.894168783434253
 30
0.0
 11
3.033524708150873
 21
8.202168783434252
 31
0.0
  0
LINE
  5
3B9
330
D
100
AcDbEntity
 67
     1
  8
AM_HID
100
AcDbLine
 10
3.033524708150873
 20
8.202168783434252
 30
0.0
 11
4.053524708150873
 21
8.202168783434252
 31
0.0
  0
CIRCLE
  5
3BA
330
D
100
AcDbEntity
 67
     1
  8
AM_HID
100
AcDbCircle
 10
3.906024708150876
 20
8.048168783434253
 30
0.0
 40
0.0535
  0
CIRCLE
  5
3BB
330
D
100
AcDbEntity
 67
     1
  8
AM_HID
100
AcDbCircle
 10
3.181024708150875
 20
8.048168783434253
 30
0.0
 40
0.0535
  0
LINE
  5
3BC
330
D
100
AcDbEntity
 67
     1
  8
AM_VIS
100
AcDbLine
 10
3.415276283497688
 20
8.263668783434253
 30
0.0
 11
3.678104477437685
 21
8.263668783434253
 31
0.0
  0
LINE
  5
3BD
330
D
100
AcDbEntity
 67
     1
  8
AM_HID
100
AcDbLine
 10
3.708430807507684
 20
8.263668783434253
 30
0.0
 11
3.708430807507684
 21
7.888668783434252
 31
0.0
  0
LINE
  5
3BE
330
D
100
AcDbEntity
 67
     1
  8
AM_VIS
100
AcDbLine
 10
3.678104477437685
 20
7.888668783434252
 30
0.0
 11
3.415276283497688
 21
7.888668783434252
 31
0.0
  0
LINE
  5
3BF
330
D
100
AcDbEntity
 67
     1
  8
AM_HID
100
AcDbLine
 10
3.384910807507687
 20
7.888668783434252
 30
0.0
 11
3.384910807507687
 21
8.263668783434253
 31
0.0
  0
LINE
  5
3C0
330
D
100
AcDbEntity
 67
     1
  8
AM_VIS
100
AcDbLine
 10
8.046327830765246
 20
4.85693526537742
 30
0.0
 11
8.046327830765246
 21
4.950935265377419
 31
0.0
  0
LINE
  5
3C1
330
D
100
AcDbEntity
 67
     1
  8
AM_VIS
100
AcDbLine
 10
8.102327830765245
 20
4.85693526537742
 30
0.0
 11
8.102327830765245
 21
4.950935265377419
 31
0.0
  0
LINE
  5
3C2
330
D
100
AcDbEntity
 67
     1
  8
AM_VIS
100
AcDbLine
 10
8.102327830765245
 20
4.95093526537742
 30
0.0
 11
8.046327830765246
 21
4.95093526537742
 31
0.0
  0
LINE
  5
3C3
330
D
100
AcDbEntity
 67
     1
  8
AM_VIS
100
AcDbLine
 10
8.046327830765246
 20
4.85693526537742
 30
0.0
 11
8.046327830765246
 21
4.067633909045722
 31
0.0
  0
LINE
  5
3C4
330
D
100
AcDbEntity
 67
     1
  8
AM_HID
100
AcDbLine
 10
8.046327830765246
 20
4.067633909045722
 30
0.0
 11
8.046327830765246
 21
3.939834165377466
 31
0.0
  0
LINE
  5
3C5
330
D
100
AcDbEntity
 67
     1
  8
AM_VIS
100
AcDbLine
 10
8.046327830765246
 20
4.232045638697466
 30
0.0
 11
8.041275788056568
 21
4.232045638697466
 31
0.0
  0
LINE
  5
3C6
330
D
100
AcDbEntity
 67
     1
  8
AM_HID
100
AcDbLine
 10
8.041275788056568
 20
4.232045638697466
 30
0.0
 11
7.976811485517538
 21
4.232045638697466
 31
0.0
  0
LINE
  5
3C7
330
D
100
AcDbEntity
 67
     1
  8
AM_VIS
100
AcDbLine
 10
7.976811485517538
 20
4.232045638697466
 30
0.0
 11
7.956082830765245
 21
4.232045638697466
 31
0.0
  0
LINE
  5
3C8
330
D
100
AcDbEntity
 67
     1
  8
AM_HID
100
AcDbLine
 10
7.956082830765245
 20
4.232045638697466
 30
0.0
 11
7.817572830765245
 21
4.232045638697466
 31
0.0
  0
LINE
  5
3C9
330
D
100
AcDbEntity
 67
     1
  8
AM_VIS
100
AcDbLine
 10
7.817572830765245
 20
4.232045638697466
 30
0.0
 11
7.796844176012952
 21
4.232045638697466
 31
0.0
  0
LINE
  5
3CA
330
D
100
AcDbEntity
 67
     1
  8
AM_HID
100
AcDbLine
 10
7.796844176012952
 20
4.232045638697466
 30
0.0
 11
7.732379873473918
 21
4.232045638697466
 31
0.0
  0
LINE
  5
3CB
330
D
100
AcDbEntity
 67
     1
  8
AM_VIS
100
AcDbLine
 10
7.732379873473918
 20
4.232045638697466
 30
0.0
 11
7.727327830765244
 21
4.232045638697466
 31
0.0
  0
LINE
  5
3CC
330
D
100
AcDbEntity
 67
     1
  8
AM_VIS
100
AcDbLine
 10
7.727327830765244
 20
4.232045638697466
 30
0.0
 11
7.727327830765244
 21
4.239045638697466
 31
0.0
  0
LINE
  5
3CD
330
D
100
AcDbEntity
 67
     1
  8
AM_VIS
100
AcDbLine
 10
7.727327830765244
 20
4.724574503698268
 30
0.0
 11
7.727327830765244
 21
4.239045638697468
 31
0.0
  0
LINE
  5
3CE
330
D
100
AcDbEntity
 67
     1
  8
AM_VIS
100
AcDbLine
 10
7.727327830765244
 20
4.747201920696237
 30
0.0
 11
7.727327830765244
 21
4.724574503698268
 31
0.0
  0
LINE
  5
3CF
330
D
100
AcDbEntity
 67
     1
  8
AM_VIS
100
AcDbLine
 10
8.046327830765246
 20
4.763435265377423
 30
0.0
 11
7.727327830765245
 21
4.763435265377423
 31
0.0
  0
LINE
  5
3D0
330
D
100
AcDbEntity
 67
     1
  8
AM_VIS
100
AcDbLine
 10
7.727327830765244
 20
4.763435265377423
 30
0.0
 11
7.727327830765244
 21
4.747201920696237
 31
0.0
  0
LINE
  5
3D1
330
D
100
AcDbEntity
 67
     1
  8
AM_VIS
100
AcDbLine
 10
8.046327830765246
 20
4.950935265377422
 30
0.0
 11
7.727327830765245
 21
4.950935265377422
 31
0.0
  0
LINE
  5
3D2
330
D
100
AcDbEntity
 67
     1
  8
AM_VIS
100
AcDbLine
 10
7.727327830765244
 20
4.950935265377422
 30
0.0
 11
7.727327830765244
 21
4.763435265377423
 31
0.0
  0
LINE
  5
3D3
330
D
100
AcDbEntity
 67
     1
  8
AM_HID
100
AcDbLine
 10
8.102327830765245
 20
4.849826702207414
 30
0.0
 11
7.727327830765244
 21
4.849826702207414
 31
0.0
  0
LINE
  5
3D4
330
D
100
AcDbEntity
 67
     1
  8
AM_HID
100
AcDbLine
 10
8.102327830765245
 20
4.880373005657417
 30
0.0
 11
7.727327830765244
 21
4.880373005657417
 31
0.0
  0
LINE
  5
3D5
330
D
100
AcDbEntity
 67
     1
  8
AM_VIS
100
AcDbLine
 10
8.046327830765246
 20
4.229991165377468
 30
0.0
 11
7.727327830765245
 21
4.229991165377468
 31
0.0
  0
LINE
  5
3D6
330
D
100
AcDbEntity
 67
     1
  8
AM_HID
100
AcDbLine
 10
8.046327830765246
 20
4.157199165377464
 30
0.0
 11
7.727327830765245
 21
4.157199165377464
 31
0.0
  0
LINE
  5
3D7
330
D
100
AcDbEntity
 67
     1
  8
AM_HID
100
AcDbLine
 10
8.046327830765246
 20
3.939834165377464
 30
0.0
 11
7.727327830765245
 21
3.939834165377464
 31
0.0
  0
LINE
  5
3D8
330
D
100
AcDbEntity
 67
     1
  8
AM_VIS
100
AcDbLine
 10
7.727327830765244
 20
4.219881165377468
 30
0.0
 11
7.727327830765244
 21
4.229991165377469
 31
0.0
  0
LINE
  5
3D9
330
D
100
AcDbEntity
 67
     1
  8
AM_VIS
100
AcDbLine
 10
8.046327830765246
 20
4.219881165377468
 30
0.0
 11
7.727327830765245
 21
4.219881165377468
 31
0.0
  0
LINE
  5
3DA
330
D
100
AcDbEntity
 67
     1
  8
AM_VIS
100
AcDbLine
 10
7.727327830765244
 20
4.219881165377468
 30
0.0
 11
7.727327830765244
 21
4.14378057869816
 31
0.0
  0
LINE
  5
3DB
330
D
100
AcDbEntity
 67
     1
  8
AM_VIS
100
AcDbLine
 10
8.046327830765246
 20
4.14378057869816
 30
0.0
 11
7.727327830765245
 21
4.14378057869816
 31
0.0
  0
LINE
  5
3DC
330
D
100
AcDbEntity
 67
     1
  8
AM_VIS
100
AcDbLine
 10
7.727327830765244
 20
4.14378057869816
 30
0.0
 11
7.727327830765244
 21
4.129861448939176
 31
0.0
  0
LINE
  5
3DD
330
D
100
AcDbEntity
 67
     1
  8
AM_VIS
100
AcDbLine
 10
7.727327830765244
 20
4.067633909045716
 30
0.0
 11
7.727327830765244
 21
4.129861448939176
 31
0.0
  0
LINE
  5
3DE
330
D
100
AcDbEntity
 67
     1
  8
AM_VIS
100
AcDbLine
 10
7.727327830765244
 20
4.067633909045716
 30
0.0
 11
7.727327830765244
 21
3.716403165377468
 31
0.0
  0
LINE
  5
3DF
330
D
100
AcDbEntity
 67
     1
  8
AM_VIS
100
AcDbLine
 10
8.102327830765245
 20
3.716403165377468
 30
0.0
 11
8.102327830765245
 21
4.85693526537742
 31
0.0
  0
LINE
  5
3E0
330
D
100
AcDbEntity
 67
     1
  8
AM_HID
100
AcDbLine
 10
8.102327830765245
 20
3.615303165377468
 30
0.0
 11
7.727327830765244
 21
3.615303165377468
 31
0.0
  0
LINE
  5
3E1
330
D
100
AcDbEntity
 67
     1
  8
AM_VIS
100
AcDbLine
 10
8.102327830765245
 20
3.716403165377466
 30
0.0
 11
7.727327830765244
 21
3.716403165377466
 31
0.0
  0
LINE
  5
3E2
330
D
100
AcDbEntity
 67
     1
  8
AM_VIS
100
AcDbLine
 10
7.727327830765244
 20
3.706293165377468
 30
0.0
 11
7.727327830765244
 21
3.716403165377466
 31
0.0
  0
LINE
  5
3E3
330
D
100
AcDbEntity
 67
     1
  8
AM_VIS
100
AcDbLine
 10
8.102327830765245
 20
3.716403165377466
 30
0.0
 11
8.102327830765245
 21
3.706293165377468
 31
0.0
  0
LINE
  5
3E4
330
D
100
AcDbEntity
 67
     1
  8
AM_VIS
100
AcDbLine
 10
7.727327830765244
 20
3.706293165377468
 30
0.0
 11
7.727327830765244
 21
3.416495404314381
 31
0.0
  0
LINE
  5
3E5
330
D
100
AcDbEntity
 67
     1
  8
AM_VIS
100
AcDbLine
 10
8.102327830765245
 20
3.416495404314381
 30
0.0
 11
8.102327830765245
 21
3.706293165377468
 31
0.0
  0
LINE
  5
3E6
330
D
100
AcDbEntity
 67
     1
  8
AM_VIS
100
AcDbLine
 10
7.727327830765244
 20
3.353295404314379
 30
0.0
 11
7.727327830765244
 21
3.416495404314381
 31
0.0
  0
LINE
  5
3E7
330
D
100
AcDbEntity
 67
     1
  8
AM_VIS
100
AcDbLine
 10
8.102327830765245
 20
3.353295404314382
 30
0.0
 11
7.727327830765244
 21
3.353295404314382
 31
0.0
  0
LINE
  5
3E8
330
D
100
AcDbEntity
 67
     1
  8
AM_VIS
100
AcDbLine
 10
8.102327830765245
 20
3.416495404314381
 30
0.0
 11
8.102327830765245
 21
3.353295404314379
 31
0.0
  0
LINE
  5
3E9
330
D
100
AcDbEntity
 67
     1
  8
AM_HID
100
AcDbLine
 10
8.102327830765245
 20
3.584967150667406
 30
0.0
 11
7.727327830765244
 21
3.584967150667406
 31
0.0
  0
LINE
  5
3EA
330
D
100
AcDbEntity
 67
     1
  8
AM_HID
100
AcDbLine
 10
8.102327830765245
 20
3.926119165377466
 30
0.0
 11
7.727327830765244
 21
3.926119165377466
 31
0.0
  0
LINE
  5
3EB
330
D
100
AcDbEntity
 67
     1
  8
AM_HID
100
AcDbLine
 10
8.102327830765245
 20
3.738619165377464
 30
0.0
 11
7.727327830765244
 21
3.738619165377464
 31
0.0
  0
LINE
  5
3EC
330
D
100
AcDbEntity
 67
     1
  8
AM_HID
100
AcDbLine
 10
8.102327830765245
 20
3.622534165377464
 30
0.0
 11
7.727327830765244
 21
3.622534165377464
 31
0.0
  0
LINE
  5
3ED
330
D
100
AcDbEntity
 67
     1
  8
AM_HID
100
AcDbLine
 10
8.102327830765245
 20
3.858954165377468
 30
0.0
 11
7.727327830765244
 21
3.858954165377468
 31
0.0
  0
LINE
  5
3EE
330
D
100
AcDbEntity
 67
     1
  8
AM_HID
100
AcDbLine
 10
8.046327830765246
 20
4.68531526537742
 30
0.0
 11
7.727327830765245
 21
4.68531526537742
 31
0.0
  0
LINE
  5
3EF
330
D
100
AcDbEntity
 67
     1
  8
AM_HID
100
AcDbLine
 10
8.046327830765246
 20
4.718122903491391
 30
0.0
 11
7.727327830765245
 21
4.718122903491391
 31
0.0
  0
LINE
  5
3F0
330
D
100
AcDbEntity
 67
     1
  8
AM_HID
100
AcDbLine
 10
8.046327830765246
 20
4.010604165377466
 30
0.0
 11
7.727327830765245
 21
4.010604165377466
 31
0.0
  0
LINE
  5
3F1
330
D
100
AcDbEntity
 67
     1
  8
AM_HID
100
AcDbLine
 10
8.102327830765245
 20
4.040934165377466
 30
0.0
 11
7.727327830765244
 21
4.040934165377466
 31
0.0
  0
ARC
  5
3F2
330
D
100
AcDbEntity
 67
     1
  8
AM_HID
100
AcDbCircle
 10
8.036327830765243
 20
4.272765165377461
 30
0.0
 40
0.005
100
AcDbArc
 50
359.9999999999991
 51
89.99999999999317
  0
LINE
  5
3F3
330
D
100
AcDbEntity
 67
     1
  8
AM_HID
100
AcDbLine
 10
7.981567415354692
 20
4.277765165377461
 30
0.0
 11
7.984336681809437
 21
4.277765165377461
 31
0.0
  0
LINE
  5
3F4
330
D
100
AcDbEntity
 67
     1
  8
AM_HID
100
AcDbLine
 10
7.984336681809437
 20
4.277765165377461
 30
0.0
 11
8.036327830765243
 21
4.277765165377461
 31
0.0
  0
ELLIPSE
  5
3F5
330
D
100
AcDbEntity
 67
     1
  8
AM_VIS
100
AcDbEllipse
 10
7.833651139035917
 20
4.272765165377461
 30
0.0
 11
0.0
 21
0.005
 31
0.0
210
0.0
220
0.0
230
1.0
 40
0.8646616541353592
 41
-0.000000000000056
 42
1.570796326794909
  0
ELLIPSE
  5
3F6
330
D
100
AcDbEntity
 67
     1
  8
AM_VIS
100
AcDbEllipse
 10
7.940004522494567
 20
4.272765165377461
 30
0.0
 11
0.0
 21
-0.005
 31
0.0
210
0.0
220
0.0
230
1.0
 40
0.8646616541353511
 41
1.570796326794909
 42
3.141592653589917
  0
LINE
  5
3F7
330
D
100
AcDbEntity
 67
     1
  8
AM_VIS
100
AcDbLine
 10
7.940004522494567
 20
4.277765165377461
 30
0.0
 11
7.833651139035917
 21
4.277765165377461
 31
0.0
  0
LINE
  5
3F8
330
D
100
AcDbEntity
 67
     1
  8
AM_VIS
100
AcDbLine
 10
7.944327830765245
 20
4.272765165377461
 30
0.0
 11
7.944327830765245
 21
4.278165165377461
 31
0.0
  0
LINE
  5
3F9
330
D
100
AcDbEntity
 67
     1
  8
AM_VIS
100
AcDbLine
 10
7.829327830765239
 20
4.272765165377461
 30
0.0
 11
7.829327830765239
 21
4.278165165377461
 31
0.0
  0
LINE
  5
3FA
330
D
100
AcDbEntity
 67
     1
  8
AM_VIS
100
AcDbLine
 10
7.732327830765242
 20
4.278165165377461
 30
0.0
 11
7.732327830765242
 21
4.248765165377461
 31
0.0
  0
LINE
  5
3FB
330
D
100
AcDbEntity
 67
     1
  8
AM_VIS
100
AcDbLine
 10
7.829327830765245
 20
4.232765165377461
 30
0.0
 11
7.829327830765245
 21
4.248765165377461
 31
0.0
  0
LINE
  5
3FC
330
D
100
AcDbEntity
 67
     1
  8
AM_VIS
100
AcDbLine
 10
7.944327830765246
 20
4.248765165377461
 30
0.0
 11
7.944327830765246
 21
4.232765165377461
 31
0.0
  0
LINE
  5
3FD
330
D
100
AcDbEntity
 67
     1
  8
AM_VIS
100
AcDbLine
 10
8.041327830765244
 20
4.278165165377461
 30
0.0
 11
8.041327830765244
 21
4.248765165377461
 31
0.0
  0
ARC
  5
3FE
330
D
100
AcDbEntity
 67
     1
  8
AM_HID
100
AcDbCircle
 10
7.737327830765242
 20
4.272765165377461
 30
0.0
 40
0.005
100
AcDbArc
 50
89.99999999999657
 51
179.9999999999992
  0
LINE
  5
3FF
330
D
100
AcDbEntity
 67
     1
  8
AM_VIS
100
AcDbLine
 10
7.732327830765242
 20
4.248765165377461
 30
0.0
 11
7.732327830765242
 21
4.232765165377461
 31
0.0
  0
ARC
  5
400
330
D
100
AcDbEntity
 67
     1
  8
AM_HID
100
AcDbCircle
 10
7.737327830765242
 20
4.232765165377461
 30
0.0
 40
0.005
100
AcDbArc
 50
213.6969403841562
 51
269.9999999999978
  0
ARC
  5
401
330
D
100
AcDbEntity
 67
     1
  8
AM_VIS
100
AcDbCircle
 10
7.737327830765242
 20
4.232765165377461
 30
0.0
 40
0.005
100
AcDbArc
 50
180.0000000000002
 51
213.6969403841562
  0
ELLIPSE
  5
402
330
D
100
AcDbEntity
 67
     1
  8
AM_HID
100
AcDbEllipse
 10
7.940004522494568
 20
4.232765165377461
 30
0.0
 11
0.0
 21
0.005
 31
0.0
210
0.0
220
0.0
230
1.0
 40
0.8646616541353486
 41
3.14159265358967
 42
4.124266422832651
  0
ELLIPSE
  5
403
330
D
100
AcDbEntity
 67
     1
  8
AM_VIS
100
AcDbEllipse
 10
7.940004522494568
 20
4.232765165377461
 30
0.0
 11
0.0
 21
0.005
 31
0.0
210
0.0
220
0.0
230
1.0
 40
0.8646616541353486
 41
4.124266422832651
 42
4.712388980384677
  0
ELLIPSE
  5
404
330
D
100
AcDbEntity
 67
     1
  8
AM_VIS
100
AcDbEllipse
 10
7.833651139035922
 20
4.232765165377461
 30
0.0
 11
0.0
 21
-0.005
 31
0.0
210
0.0
220
0.0
230
1.0
 40
0.8646616541353624
 41
4.712388980384679
 42
5.300511537936726
  0
ELLIPSE
  5
405
330
D
100
AcDbEntity
 67
     1
  8
AM_HID
100
AcDbEllipse
 10
7.833651139035922
 20
4.232765165377461
 30
0.0
 11
0.0
 21
-0.005
 31
0.0
210
0.0
220
0.0
230
1.0
 40
0.8646616541353624
 41
5.300511537936726
 42
6.283185307179702
  0
LINE
  5
406
330
D
100
AcDbEntity
 67
     1
  8
AM_HID
100
AcDbLine
 10
7.833651139035922
 20
4.227765165377461
 30
0.0
 11
7.940004522494568
 21
4.227765165377461
 31
0.0
  0
ELLIPSE
  5
407
330
D
100
AcDbEntity
 67
     1
  8
AM_HID
100
AcDbEllipse
 10
7.833651139035922
 20
4.248765165377461
 30
0.0
 11
0.0
 21
-0.005
 31
0.0
210
0.0
220
0.0
230
1.0
 40
0.8646616541353633
 41
4.712388980384674
 42
6.2831853071796
  0
LINE
  5
408
330
D
100
AcDbEntity
 67
     1
  8
AM_HID
100
AcDbLine
 10
7.880933464387068
 20
4.243765165377461
 30
0.0
 11
7.833651139035917
 21
4.243765165377461
 31
0.0
  0
SPLINE
  5
409
330
D
100
AcDbEntity
 67
     1
  8
AM_HID
100
AcDbSpline
210
0.0
220
0.0
230
1.0
 70
     8
 71
     3
 72
    14
 73
    10
 74
     0
 42
0.0000000001
 43
0.0000000001
 40
0.008322015342173
 40
0.008322015342173
 40
0.008322015342173
 40
0.008322015342173
 40
0.0108383486000981
 40
0.0108383486000981
 40
0.0131131555432174
 40
0.0131131555432174
 40
0.0150716653566343
 40
0.0150716653566343
 40
0.0167760747934346
 40
0.0167760747934346
 40
0.0167760747934346
 40
0.0167760747934346
 10
7.880933464387074
 20
4.243765165377461
 30
0.0
 10
7.881482078710296
 20
4.243765165377461
 30
0.0
 10
7.882131280412254
 20
4.243932264009441
 30
0.0
 10
7.883114907017196
 20
4.244469791761232
 30
0.0
 10
7.883635613584297
 20
4.244910437987521
 30
0.0
 10
7.884337310612099
 20
4.245827096471268
 30
0.0
 10
7.884660734475764
 20
4.246434721157241
 30
0.0
 10
7.885007758788812
 20
4.247534391411546
 30
0.0
 10
7.885112640565892
 20
4.248197028898529
 30
0.0
 10
7.885112640565894
 20
4.248765165377461
 30
0.0
  0
LINE
  5
40A
330
D
100
AcDbEntity
 67
     1
  8
AM_HID
100
AcDbLine
 10
7.885112640565892
 20
4.248765165377461
 30
0.0
 11
7.885112640565892
 21
4.227765165377461
 31
0.0
  0
ARC
  5
40B
330
D
100
AcDbEntity
 67
     1
  8
AM_VIS
100
AcDbCircle
 10
8.036327830765243
 20
4.232765165377461
 30
0.0
 40
0.005
100
AcDbArc
 50
326.3030596158395
 51
0.0000000000000799
  0
ARC
  5
40C
330
D
100
AcDbEntity
 67
     1
  8
AM_HID
100
AcDbCircle
 10
8.036327830765243
 20
4.232765165377461
 30
0.0
 40
0.005
100
AcDbArc
 50
269.9999999999947
 51
326.3030596158395
  0
LINE
  5
40D
330
D
100
AcDbEntity
 67
     1
  8
AM_VIS
100
AcDbLine
 10
8.041327830765244
 20
4.232765165377461
 30
0.0
 11
8.041327830765244
 21
4.248765165377461
 31
0.0
  0
ARC
  5
40E
330
D
100
AcDbEntity
 67
     1
  8
AM_HID
100
AcDbCircle
 10
7.981762081492689
 20
4.248714629783872
 30
0.0
 40
0.0049508539016425
100
AcDbArc
 50
179.4151460397216
 51
268.6425111748531
  0
LINE
  5
40F
330
D
100
AcDbEntity
 67
     1
  8
AM_HID
100
AcDbLine
 10
7.976811485517538
 20
4.227765165377461
 30
0.0
 11
7.976811485517538
 21
4.229991165377468
 31
0.0
  0
LINE
  5
410
330
D
100
AcDbEntity
 67
     1
  8
AM_VIS
100
AcDbLine
 10
7.976811485517538
 20
4.229991165377468
 30
0.0
 11
7.976811485517538
 21
4.243765165377461
 31
0.0
  0
LINE
  5
411
330
D
100
AcDbEntity
 67
     1
  8
AM_HID
100
AcDbLine
 10
7.976811485517538
 20
4.243765165377461
 30
0.0
 11
7.976811485517538
 21
4.248765165377461
 31
0.0
  0
LINE
  5
412
330
D
100
AcDbEntity
 67
     1
  8
AM_HID
100
AcDbLine
 10
8.036327830765243
 20
4.227765165377461
 30
0.0
 11
7.976811485517538
 21
4.227765165377461
 31
0.0
  0
ARC
  5
413
330
D
100
AcDbEntity
 67
     1
  8
AM_HID
100
AcDbCircle
 10
7.791893580037802
 20
4.24871462978387
 30
0.0
 40
0.0049508539016393
100
AcDbArc
 50
271.3574888250988
 51
0.5848539603112535
  0
LINE
  5
414
330
D
100
AcDbEntity
 67
     1
  8
AM_HID
100
AcDbLine
 10
7.79684417601295
 20
4.248765165377461
 30
0.0
 11
7.79684417601295
 21
4.243765165377461
 31
0.0
  0
LINE
  5
415
330
D
100
AcDbEntity
 67
     1
  8
AM_VIS
100
AcDbLine
 10
7.79684417601295
 20
4.243765165377461
 30
0.0
 11
7.79684417601295
 21
4.229991165377468
 31
0.0
  0
LINE
  5
416
330
D
100
AcDbEntity
 67
     1
  8
AM_HID
100
AcDbLine
 10
7.79684417601295
 20
4.229991165377468
 30
0.0
 11
7.79684417601295
 21
4.227765165377461
 31
0.0
  0
LINE
  5
417
330
D
100
AcDbEntity
 67
     1
  8
AM_HID
100
AcDbLine
 10
7.888543020964598
 20
4.227765165377461
 30
0.0
 11
7.888543020964598
 21
4.248765165377461
 31
0.0
  0
SPLINE
  5
418
330
D
100
AcDbEntity
 67
     1
  8
AM_HID
100
AcDbSpline
210
0.0
220
0.0
230
1.0
 70
     8
 71
     3
 72
    14
 73
    10
 74
     0
 42
0.0000000001
 43
0.0000000001
 40
0.0167760747934346
 40
0.0167760747934346
 40
0.0167760747934346
 40
0.0167760747934346
 40
0.0184804842302349
 40
0.0184804842302349
 40
0.0204389940436518
 40
0.0204389940436518
 40
0.022713800986771
 40
0.022713800986771
 40
0.0252301342446961
 40
0.0252301342446961
 40
0.0252301342446961
 40
0.0252301342446961
 10
7.888543020964596
 20
4.248765165377461
 30
0.0
 10
7.888543020964598
 20
4.248197028898529
 30
0.0
 10
7.88864790274168
 20
4.247534391411546
 30
0.0
 10
7.888994927054727
 20
4.246434721157241
 30
0.0
 10
7.889318350918393
 20
4.245827096471268
 30
0.0
 10
7.890020047946195
 20
4.244910437987521
 30
0.0
 10
7.890540754513295
 20
4.244469791761232
 30
0.0
 10
7.891524381118236
 20
4.243932264009441
 30
0.0
 10
7.892173582820196
 20
4.243765165377461
 30
0.0
 10
7.892722197143417
 20
4.243765165377461
 30
0.0
  0
ARC
  5
419
330
D
100
AcDbEntity
 67
     1
  8
AM_VIS
100
AcDbCircle
 10
7.737327830765242
 20
4.248765165377461
 30
0.0
 40
0.005
100
AcDbArc
 50
180.0
 51
270.0000000000055
  0
LINE
  5
41A
330
D
100
AcDbEntity
 67
     1
  8
AM_VIS
100
AcDbLine
 10
7.737327830765242
 20
4.243765165377461
 30
0.0
 11
7.829327830765245
 21
4.243765165377461
 31
0.0
  0
LINE
  5
41B
330
D
100
AcDbEntity
 67
     1
  8
AM_HID
100
AcDbLine
 10
7.829327830765245
 20
4.243765165377461
 30
0.0
 11
7.833651139035917
 21
4.243765165377461
 31
0.0
  0
ELLIPSE
  5
41C
330
D
100
AcDbEntity
 67
     1
  8
AM_HID
100
AcDbEllipse
 10
7.940004522494568
 20
4.248765165377461
 30
0.0
 11
0.0
 21
0.005
 31
0.0
210
0.0
220
0.0
230
1.0
 40
0.8646616541353486
 41
3.141592653589571
 42
4.712388980384674
  0
LINE
  5
41D
330
D
100
AcDbEntity
 67
     1
  8
AM_HID
100
AcDbLine
 10
7.940004522494567
 20
4.243765165377461
 30
0.0
 11
7.944327830765246
 21
4.243765165377461
 31
0.0
  0
LINE
  5
41E
330
D
100
AcDbEntity
 67
     1
  8
AM_VIS
100
AcDbLine
 10
7.944327830765246
 20
4.243765165377461
 30
0.0
 11
8.036327830765243
 21
4.243765165377461
 31
0.0
  0
ARC
  5
41F
330
D
100
AcDbEntity
 67
     1
  8
AM_VIS
100
AcDbCircle
 10
8.036327830765243
 20
4.248765165377461
 30
0.0
 40
0.005
100
AcDbArc
 50
269.9999999999941
 51
0.0
  0
ARC
  5
420
330
D
100
AcDbEntity
 67
     1
  8
AM_HID
100
AcDbCircle
 10
7.91935488409463
 20
4.295526492177087
 30
0.0
 40
0.0310741043489041
100
AcDbArc
 50
214.8604556674047
 51
227.0951580050044
  0
ARC
  5
421
330
D
100
AcDbEntity
 67
     1
  8
AM_HID
100
AcDbCircle
 10
7.854300777436252
 20
4.295526492176739
 30
0.0
 40
0.0310741043483797
100
AcDbArc
 50
312.9048419948988
 51
325.1395443327048
  0
ARC
  5
422
330
D
100
AcDbEntity
 67
     1
  8
AM_HID
100
AcDbCircle
 10
7.981742039537742
 20
4.272092215590313
 30
0.0
 40
0.0056756367830233
100
AcDbArc
 50
91.76311633111229
 51
173.190526004021
  0
ARC
  5
423
330
D
100
AcDbEntity
 67
     1
  8
AM_HID
100
AcDbCircle
 10
7.791913621992745
 20
4.272092215590311
 30
0.0
 40
0.0056756367830259
100
AcDbArc
 50
6.80947399599782
 51
88.23688366883667
  0
LINE
  5
424
330
D
100
AcDbEntity
 67
     1
  8
AM_VIS
100
AcDbLine
 10
7.95146204803157
 20
4.293765165377461
 30
0.0
 11
7.939674526891142
 21
4.293765165377461
 31
0.0
  0
LINE
  5
425
330
D
100
AcDbEntity
 67
     1
  8
AM_VIS
100
AcDbLine
 10
8.025727830765243
 20
4.293765165377461
 30
0.0
 11
7.951462048031571
 21
4.293765165377461
 31
0.0
  0
LINE
  5
426
330
D
100
AcDbEntity
 67
     1
  8
AM_HID
100
AcDbLine
 10
7.78931897972105
 20
4.277765165377461
 30
0.0
 11
7.792088246175798
 21
4.277765165377461
 31
0.0
  0
LINE
  5
427
330
D
100
AcDbEntity
 67
     1
  8
AM_HID
100
AcDbLine
 10
7.737327830765242
 20
4.277765165377461
 30
0.0
 11
7.789318979721052
 21
4.277765165377461
 31
0.0
  0
ARC
  5
428
330
D
100
AcDbEntity
 67
     1
  8
AM_VIS
100
AcDbCircle
 10
8.025727830765243
 20
4.278165165377461
 30
0.0
 40
0.0156
100
AcDbArc
 50
359.9999999999997
 51
90.00000000000095
  0
ELLIPSE
  5
429
330
D
100
AcDbEntity
 67
     1
  8
AM_VIS
100
AcDbEllipse
 10
7.95146204803157
 20
4.278165165377461
 30
0.0
 11
0.0
 21
0.0156
 31
0.0
210
0.0
220
0.0
230
1.0
 40
0.4573216196363262
 41
-0.0000000000000429
 42
1.570796326794891
  0
LINE
  5
42A
330
D
100
AcDbEntity
 67
     1
  8
AM_VIS
100
AcDbLine
 10
7.822193613498914
 20
4.293765165377461
 30
0.0
 11
7.747927830765242
 21
4.293765165377461
 31
0.0
  0
ARC
  5
42B
330
D
100
AcDbEntity
 67
     1
  8
AM_VIS
100
AcDbCircle
 10
7.747927830765242
 20
4.278165165377461
 30
0.0
 40
0.0156
100
AcDbArc
 50
89.99999999999744
 51
179.9999999999996
  0
ELLIPSE
  5
42C
330
D
100
AcDbEntity
 67
     1
  8
AM_VIS
100
AcDbEllipse
 10
7.822193613498914
 20
4.278165165377461
 30
0.0
 11
0.0
 21
0.0156
 31
0.0
210
0.0
220
0.0
230
1.0
 40
0.4573216196363238
 41
4.712388980384693
 42
6.283185307179634
  0
LINE
  5
42D
330
D
100
AcDbEntity
 67
     1
  8
AM_VIS
100
AcDbLine
 10
7.833981134639348
 20
4.293765165377461
 30
0.0
 11
7.822193613498915
 21
4.293765165377461
 31
0.0
  0
LINE
  5
42E
330
D
100
AcDbEntity
 67
     1
  8
AM_HID
100
AcDbLine
 10
7.940004522494567
 20
4.243765165377461
 30
0.0
 11
7.892722197143417
 21
4.243765165377461
 31
0.0
  0
LINE
  5
42F
330
D
100
AcDbEntity
 67
     1
  8
AM_HID
100
AcDbLine
 10
7.79684417601295
 20
4.227765165377461
 30
0.0
 11
7.737327830765242
 21
4.227765165377461
 31
0.0
  0
LINE
  5
430
330
D
100
AcDbEntity
 67
     1
  8
AM_HID
100
AcDbLine
 10
7.976827830765245
 20
4.272765165377461
 30
0.0
 11
7.976827830765245
 21
4.227765165377461
 31
0.0
  0
LINE
  5
431
330
D
100
AcDbEntity
 67
     1
  8
AM_HID
100
AcDbLine
 10
7.796827830765244
 20
4.272765165377461
 30
0.0
 11
7.796827830765244
 21
4.227765165377461
 31
0.0
  0
ARC
  5
432
330
D
100
AcDbEntity
 67
     1
  8
AM_HID
100
AcDbCircle
 10
7.981827830765245
 20
4.272765165377461
 30
0.0
 40
0.005
100
AcDbArc
 50
90.00000000000005
 51
180.0
  0
ARC
  5
433
330
D
100
AcDbEntity
 67
     1
  8
AM_HID
100
AcDbCircle
 10
7.791827830765244
 20
4.272765165377461
 30
0.0
 40
0.005
100
AcDbArc
 50
0.0000000000000127
 51
90.00000000000005
  0
ARC
  5
434
330
D
100
AcDbEntity
 67
     1
  8
AM_VIS
100
AcDbCircle
 10
7.910489256151485
 20
4.2770759186978
 30
0.0
 40
0.0166928661949184
100
AcDbArc
 50
88.80682202634462
 51
176.2586646197155
  0
LINE
  5
435
330
D
100
AcDbEntity
 67
     1
  8
AM_VIS
100
AcDbLine
 10
7.893831965751414
 20
4.278165165377461
 30
0.0
 11
7.893831965751414
 21
4.277765165377461
 31
0.0
  0
LINE
  5
436
330
D
100
AcDbEntity
 67
     1
  8
AM_HID
100
AcDbLine
 10
7.893831965751414
 20
4.277765165377461
 30
0.0
 11
7.893831965751414
 21
4.277739947390514
 31
0.0
  0
ARC
  5
437
330
D
100
AcDbEntity
 67
     1
  8
AM_VIS
100
AcDbCircle
 10
7.863171134164677
 20
4.277081073344661
 30
0.0
 40
0.0166878118354914
100
AcDbArc
 50
3.724734600815478
 51
91.20977875311762
  0
LINE
  5
438
330
D
100
AcDbEntity
 67
     1
  8
AM_HID
100
AcDbLine
 10
7.879823695779071
 20
4.277739947390514
 30
0.0
 11
7.879823695779071
 21
4.277765165377461
 31
0.0
  0
LINE
  5
439
330
D
100
AcDbEntity
 67
     1
  8
AM_VIS
100
AcDbLine
 10
7.879823695779071
 20
4.277765165377461
 30
0.0
 11
7.879823695779071
 21
4.278165165377461
 31
0.0
  0
ARC
  5
43A
330
D
100
AcDbEntity
 67
     1
  8
AM_VIS
100
AcDbCircle
 10
7.886827830765245
 20
4.169106165377463
 30
0.0
 40
0.2209808117620166
100
AcDbArc
 50
94.35152041459579
 51
112.8631900597198
  0
LINE
  5
43B
330
D
100
AcDbEntity
 67
     1
  8
AM_HID
100
AcDbLine
 10
7.800969702955467
 20
4.372725666054583
 30
0.0
 11
7.870060830765246
 21
4.372725666054583
 31
0.0
  0
ARC
  5
43C
330
D
100
AcDbEntity
 67
     1
  8
AM_VIS
100
AcDbCircle
 10
7.886827830765245
 20
4.169106165377463
 30
0.0
 40
0.2209808117620166
100
AcDbArc
 50
67.13680994028019
 51
85.64847958540402
  0
LINE
  5
43D
330
D
100
AcDbEntity
 67
     1
  8
AM_HID
100
AcDbLine
 10
7.903594830765245
 20
4.372725666054583
 30
0.0
 11
7.972685958575022
 21
4.372725666054583
 31
0.0
  0
LINE
  5
43E
330
D
100
AcDbEntity
 67
     1
  8
AM_VIS
100
AcDbLine
 10
7.903594830765245
 20
4.372725666054582
 30
0.0
 11
7.903594830765245
 21
4.389449957842781
 31
0.0
  0
LINE
  5
43F
330
D
100
AcDbEntity
 67
     1
  8
AM_VIS
100
AcDbLine
 10
7.870060830765246
 20
4.372725666054583
 30
0.0
 11
7.903594830765245
 21
4.372725666054583
 31
0.0
  0
LINE
  5
440
330
D
100
AcDbEntity
 67
     1
  8
AM_VIS
100
AcDbLine
 10
7.972685958575022
 20
4.372725666054583
 30
0.0
 11
7.974307830765246
 21
4.372725666054583
 31
0.0
  0
LINE
  5
441
330
D
100
AcDbEntity
 67
     1
  8
AM_VIS
100
AcDbLine
 10
7.799347830765244
 20
4.372725666054583
 30
0.0
 11
7.800969702955467
 21
4.372725666054583
 31
0.0
  0
LINE
  5
442
330
D
100
AcDbEntity
 67
     1
  8
AM_VIS
100
AcDbLine
 10
7.870060830765244
 20
4.389449957842781
 30
0.0
 11
7.870060830765244
 21
4.372725666054582
 31
0.0
  0
LINE
  5
443
330
D
100
AcDbEntity
 67
     1
  8
AM_HID
100
AcDbLine
 10
7.956082830765245
 20
4.00632216537746
 30
0.0
 11
7.817572830765245
 21
4.00632216537746
 31
0.0
  0
LINE
  5
444
330
D
100
AcDbEntity
 67
     1
  8
AM_VIS
100
AcDbLine
 10
7.939674526891142
 20
4.293765165377461
 30
0.0
 11
7.833981134639348
 21
4.293765165377461
 31
0.0
  0
LINE
  5
445
330
D
100
AcDbEntity
 67
     1
  8
AM_HID
100
AcDbLine
 10
7.940482830765245
 20
3.990722165377461
 30
0.0
 11
7.833172830765245
 21
3.990722165377461
 31
0.0
  0
LINE
  5
446
330
D
100
AcDbEntity
 67
     1
  8
AM_HID
100
AcDbLine
 10
7.817572830765245
 20
4.00632216537746
 30
0.0
 11
7.817572830765245
 21
4.229991165377468
 31
0.0
  0
LINE
  5
447
330
D
100
AcDbEntity
 67
     1
  8
AM_VIS
100
AcDbLine
 10
7.817572830765245
 20
4.229991165377468
 30
0.0
 11
7.817572830765245
 21
4.243765165377461
 31
0.0
  0
LINE
  5
448
330
D
100
AcDbEntity
 67
     1
  8
AM_HID
100
AcDbLine
 10
7.817572830765245
 20
4.243765165377461
 30
0.0
 11
7.817572830765245
 21
4.293765165377461
 31
0.0
  0
LINE
  5
449
330
D
100
AcDbEntity
 67
     1
  8
AM_HID
100
AcDbLine
 10
7.956082830765245
 20
4.00632216537746
 30
0.0
 11
7.956082830765245
 21
4.229991165377468
 31
0.0
  0
LINE
  5
44A
330
D
100
AcDbEntity
 67
     1
  8
AM_VIS
100
AcDbLine
 10
7.956082830765245
 20
4.229991165377468
 30
0.0
 11
7.956082830765245
 21
4.243765165377461
 31
0.0
  0
LINE
  5
44B
330
D
100
AcDbEntity
 67
     1
  8
AM_HID
100
AcDbLine
 10
7.956082830765245
 20
4.243765165377461
 30
0.0
 11
7.956082830765245
 21
4.293765165377461
 31
0.0
  0
LINE
  5
44C
330
D
100
AcDbEntity
 67
     1
  8
AM_VIS
100
AcDbLine
 10
7.750869330765245
 20
4.293765165377461
 30
0.0
 11
7.750869330765245
 21
4.336829643262193
 31
0.0
  0
LINE
  5
44D
330
D
100
AcDbEntity
 67
     1
  8
AM_VIS
100
AcDbLine
 10
8.022786330765246
 20
4.293765165377461
 30
0.0
 11
8.022786330765246
 21
4.336829643262193
 31
0.0
  0
ARC
  5
44E
330
D
100
AcDbEntity
 67
     1
  8
AM_VIS
100
AcDbCircle
 10
8.008206330765244
 20
4.336829643262193
 30
0.0
 40
0.0145800000000007
100
AcDbArc
 50
0.0000000000000127
 51
54.10740889711825
  0
ARC
  5
44F
330
D
100
AcDbEntity
 67
     1
  8
AM_VIS
100
AcDbCircle
 10
7.765449330765244
 20
4.336829643262193
 30
0.0
 40
0.0145800000000007
100
AcDbArc
 50
125.8925911028817
 51
180.0
  0
ARC
  5
450
330
D
100
AcDbEntity
 67
     1
  8
AM_VIS
100
AcDbCircle
 10
7.886827830765245
 20
4.169106165377463
 30
0.0
 40
0.2216159999999996
100
AcDbArc
 50
54.10740889711782
 51
66.75043740941295
  0
ARC
  5
451
330
D
100
AcDbEntity
 67
     1
  8
AM_VIS
100
AcDbCircle
 10
7.886827830765245
 20
4.169106165377463
 30
0.0
 40
0.2216159999999996
100
AcDbArc
 50
113.249562590587
 51
125.8925911028822
  0
LINE
  5
452
330
D
100
AcDbEntity
 67
     1
  8
AM_HID
100
AcDbLine
 10
7.833172830765245
 20
3.990722165377461
 30
0.0
 11
7.817572830765245
 21
4.00632216537746
 31
0.0
  0
LINE
  5
453
330
D
100
AcDbEntity
 67
     1
  8
AM_HID
100
AcDbLine
 10
7.940482830765245
 20
3.990722165377461
 30
0.0
 11
7.956082830765245
 21
4.00632216537746
 31
0.0
  0
LINE
  5
454
330
D
100
AcDbEntity
 67
     1
  8
AM_HID
100
AcDbLine
 10
8.040827830765245
 20
4.21212216537746
 30
0.0
 11
7.732827830765245
 21
4.21212216537746
 31
0.0
  0
LINE
  5
455
330
D
100
AcDbEntity
 67
     1
  8
AM_HID
100
AcDbLine
 10
7.732827830765243
 20
4.144122165377461
 30
0.0
 11
7.732827830765243
 21
4.21212216537746
 31
0.0
  0
LINE
  5
456
330
D
100
AcDbEntity
 67
     1
  8
AM_HID
100
AcDbLine
 10
8.040827830765245
 20
4.144122165377461
 30
0.0
 11
7.732827830765245
 21
4.144122165377461
 31
0.0
  0
LINE
  5
457
330
D
100
AcDbEntity
 67
     1
  8
AM_HID
100
AcDbLine
 10
8.040827830765245
 20
4.144122165377461
 30
0.0
 11
8.040827830765245
 21
4.21212216537746
 31
0.0
  0
LINE
  5
458
330
D
100
AcDbEntity
 67
     1
  8
AM_HID
100
AcDbLine
 10
7.833327830765243
 20
4.144122165377461
 30
0.0
 11
7.833327830765243
 21
4.21212216537746
 31
0.0
  0
LINE
  5
459
330
D
100
AcDbEntity
 67
     1
  8
AM_HID
100
AcDbLine
 10
7.940327830765244
 20
4.144122165377461
 30
0.0
 11
7.940327830765244
 21
4.21212216537746
 31
0.0
  0
LINE
  5
45A
330
D
100
AcDbEntity
 67
     1
  8
AM_HID
100
AcDbLine
 10
8.102327830765245
 20
4.881076702207414
 30
0.0
 11
7.727327830765244
 21
4.881076702207414
 31
0.0
  0
LINE
  5
45B
330
D
100
AcDbEntity
 67
     1
  8
AM_HID
100
AcDbLine
 10
7.727327830765244
 20
4.849826702207414
 30
0.0
 11
8.102327830765245
 21
4.849826702207414
 31
0.0
  0
ELLIPSE
  5
45C
330
D
100
AcDbEntity
 67
     1
  8
AM_VIS
100
AcDbEllipse
 10
11.95925432577318
 20
3.97193346410236
 30
0.0
 11
-0.047
 21
0.0814063879557372
 31
0.0
210
0.0
220
0.0
230
1.0
 40
0.577350269189626
 41
5.497787143782097
 42
7.068583470577027
  0
LINE
  5
45D
330
D
100
AcDbEntity
 67
     1
  8
AM_VIS
100
AcDbLine
 10
11.99885230551964
 20
4.071546046975543
 30
0.0
 11
11.95925432577318
 21
4.048684142709566
 31
0.0
  0
ELLIPSE
  5
45E
330
D
100
AcDbEntity
 67
     1
  8
AM_VIS
100
AcDbEllipse
 10
11.99885230551963
 20
3.994795368368336
 30
0.0
 11
-0.047
 21
0.0814063879557372
 31
0.0
210
0.0
220
0.0
230
1.0
 40
0.577350269189626
 41
5.497787143782097
 42
6.283185307179554
  0
ELLIPSE
  5
45F
330
D
100
AcDbEntity
 67
     1
  8
AM_VIS
100
AcDbEllipse
 10
12.9200922332529
 20
3.417193439571353
 30
0.0
 11
-0.047
 21
0.0814063879557372
 31
0.0
210
0.0
220
0.0
230
1.0
 40
0.577350269189626
 41
3.92699081698724
 42
5.497787143782135
  0
LINE
  5
460
330
D
100
AcDbEntity
 67
     1
  8
AM_VIS
100
AcDbLine
 10
13.02615825043089
 20
3.401680004533722
 30
0.0
 11
12.98656027068444
 21
3.378818100267745
 31
0.0
  0
ELLIPSE
  5
461
330
D
100
AcDbEntity
 67
     1
  8
AM_VIS
100
AcDbEllipse
 10
12.95969021299934
 20
3.440055343837326
 30
0.0
 11
-0.047
 21
0.0814063879557372
 31
0.0
210
0.0
220
0.0
230
1.0
 40
0.577350269189626
 41
3.926990816987238
 42
5.497787143782132
  0
LINE
  5
462
330
D
100
AcDbEntity
 67
     1
  8
AM_VIS
100
AcDbLine
 10
12.95969021299934
 20
3.516806022444533
 30
0.0
 11
12.9200922332529
 21
3.493944118178556
 31
0.0
  0
ELLIPSE
  5
463
330
D
100
AcDbEntity
 67
     1
  8
AM_VIS
100
AcDbEllipse
 10
12.94187996094819
 20
2.760152430354988
 30
0.0
 11
-0.0315937500000036
 21
0.0547219802016279
 31
0.0
210
0.0
220
0.0
230
0.9999999999999998
 40
0.5773502691896259
 41
3.926990816987146
 42
5.323254218582481
  0
LINE
  5
464
330
D
100
AcDbEntity
 67
     1
  8
AM_VIS
100
AcDbLine
 10
12.98656027068443
 20
3.378818100267748
 30
0.0
 11
12.98656027068443
 21
2.734356241501298
 31
0.0
  0
LINE
  5
465
330
D
100
AcDbEntity
 67
     1
  8
AM_VIS
100
AcDbLine
 10
12.5897995956265
 20
3.684638661423506
 30
0.0
 11
12.9200922332529
 21
3.493944118178558
 31
0.0
  0
LINE
  5
466
330
D
100
AcDbEntity
 67
     1
  8
AM_VIS
100
AcDbLine
 10
12.5897995956265
 20
3.531545552499561
 30
0.0
 11
12.5897995956265
 21
3.684638661423506
 31
0.0
  0
ELLIPSE
  5
467
330
D
100
AcDbEntity
 67
     1
  8
AM_VIS
100
AcDbEllipse
 10
12.5943208875211
 20
3.497205504363852
 30
0.0
 11
-0.016
 21
0.027712812921102
 31
0.0
210
0.0
220
0.0
230
1.0
 40
0.5773502691896259
 41
-0.0000000000000084
 42
0.7853981633974282
  0
LINE
  5
468
330
D
100
AcDbEntity
 67
     1
  8
AM_VIS
100
AcDbLine
 10
12.57169347052314
 20
3.142561271618371
 30
0.0
 11
12.57169347052314
 21
3.510269449658694
 31
0.0
  0
LINE
  5
469
330
D
100
AcDbEntity
 67
     1
  8
AM_VIS
100
AcDbLine
 10
11.95925432577318
 20
4.048684142709566
 30
0.0
 11
12.28954791419908
 21
3.857989050520271
 31
0.0
  0
LINE
  5
46A
330
D
100
AcDbEntity
 67
     1
  8
AM_VIS
100
AcDbLine
 10
11.89278628834166
 20
3.387217207200988
 30
0.0
 11
11.89278628834166
 21
4.010308803405965
 31
0.0
  0
ELLIPSE
  5
46B
330
D
100
AcDbEntity
 67
     1
  8
AM_VIS
100
AcDbEllipse
 10
11.93746659807786
 20
3.34005075578583
 30
0.0
 11
-0.0315937500000033
 21
0.0547219802016275
 31
0.0
210
0.0
220
0.0
230
1.0
 40
0.5773502691896259
 41
5.672320068981385
 42
6.28318530717942
  0
LINE
  5
46C
330
D
100
AcDbEntity
 67
     1
  8
AM_VIS
100
AcDbLine
 10
11.94461735583445
 20
3.389766466193426
 30
0.0
 11
11.92970794371458
 21
3.395338790533578
 31
0.0
  0
ELLIPSE
  5
46D
330
D
100
AcDbEntity
 67
     1
  8
AM_VIS
100
AcDbEllipse
 10
12.80964067408182
 20
2.960810182475241
 30
0.0
 11
-0.0050550000000002
 21
0.0087555168322599
 31
0.0
210
0.0
220
0.0
230
1.0
 40
0.5773502691896259
 41
5.497787143781964
 42
6.283185307179181
  0
LINE
  5
46E
330
D
100
AcDbEntity
 67
     1
  8
AM_VIS
100
AcDbLine
 10
12.83286000519182
 20
2.955659275841654
 30
0.0
 11
12.80964067408182
 21
2.96906496290842
 31
0.0
  0
ELLIPSE
  5
46F
330
D
100
AcDbEntity
 67
     1
  8
AM_VIS
100
AcDbEllipse
 10
12.83286000519182
 20
2.947404495408478
 30
0.0
 11
-0.0050550000000006
 21
0.0087555168322604
 31
0.0
210
0.0
220
0.0
230
0.9999999999999998
 40
0.5773502691896259
 41
3.926990816986982
 42
5.497787143781965
  0
LINE
  5
470
330
D
100
AcDbEntity
 67
     1
  8
AM_VIS
100
AcDbLine
 10
12.89382009564282
 20
2.850073301946513
 30
0.0
 11
12.84000885474961
 21
2.943277105191886
 31
0.0
  0
LINE
  5
471
330
D
100
AcDbEntity
 67
     1
  8
AM_VIS
100
AcDbLine
 10
12.94963861531148
 20
2.806481542732344
 30
0.0
 11
12.89382009564282
 21
2.850073301946514
 31
0.0
  0
LINE
  5
472
330
D
100
AcDbEntity
 67
     1
  8
AM_VIS
100
AcDbLine
 10
12.29662893264157
 20
3.20275991917231
 30
0.0
 11
12.131584450787
 21
3.107471443145314
 31
0.0
  0
ELLIPSE
  5
473
330
D
100
AcDbEntity
 67
     1
  8
AM_VIS
100
AcDbEllipse
 10
12.12663470331869
 20
3.110329181178562
 30
0.0
 11
-0.0035
 21
0.0060621778264911
 31
0.0
210
0.0
220
0.0
230
1.0
 40
0.5773502691896258
 41
2.356194490192311
 42
3.926990816987208
  0
LINE
  5
474
330
D
100
AcDbEntity
 67
     1
  8
AM_VIS
100
AcDbLine
 10
12.15421186778498
 20
3.485572446554916
 30
0.0
 11
12.131584450787
 21
3.472508501260073
 31
0.0
  0
LINE
  5
475
330
D
100
AcDbEntity
 67
     1
  8
AM_VIS
100
AcDbLine
 10
12.131584450787
 20
3.472508501260072
 30
0.0
 11
12.131584450787
 21
3.107471443145313
 31
0.0
  0
ELLIPSE
  5
476
330
D
100
AcDbEntity
 67
     1
  8
AM_VIS
100
AcDbEllipse
 10
12.15421186778498
 20
3.459444555965229
 30
0.0
 11
-0.0160000000000017
 21
0.0277128129211011
 31
0.0
210
0.0
220
0.0
230
0.9999999999999998
 40
0.5773502691896259
 41
4.758730419433681
 42
7.068583470576862
  0
ELLIPSE
  5
477
330
D
100
AcDbEntity
 67
     1
  8
AM_VIS
100
AcDbEllipse
 10
12.21410669171429
 20
3.500751383949868
 30
0.0
 11
-0.046875
 21
0.0811898816047911
 31
0.0
210
0.0
220
0.0
230
0.9999999999999998
 40
0.5773502691896259
 41
1.617137765844121
 42
3.095251214540595
  0
ELLIPSE
  5
478
330
D
100
AcDbEntity
 67
     1
  8
AM_VIS
100
AcDbEllipse
 10
12.27400151564359
 20
3.390283970527923
 30
0.0
 11
-0.0160000000000017
 21
0.0277128129211011
 31
0.0
210
0.0
220
0.0
230
0.9999999999999998
 40
0.5773502691896259
 41
3.926990816987044
 42
6.236843868130204
  0
LINE
  5
479
330
D
100
AcDbEntity
 67
     1
  8
AM_VIS
100
AcDbLine
 10
12.29662893264157
 20
3.012182967118321
 30
0.0
 11
12.29662893264157
 21
3.377220025233079
 31
0.0
  0
ELLIPSE
  5
47A
330
D
100
AcDbEntity
 67
     1
  8
AM_VIS
100
AcDbEllipse
 10
12.30157868010986
 20
3.009325229085073
 30
0.0
 11
-0.0035
 21
0.0060621778264911
 31
0.0
210
0.0
220
0.0
230
1.0
 40
0.5773502691896258
 41
0.7853981633974004
 42
2.356194490192295
  0
LINE
  5
47B
330
D
100
AcDbEntity
 67
     1
  8
AM_VIS
100
AcDbLine
 10
12.34117665985632
 20
2.980747848752601
 30
0.0
 11
12.30157868010986
 21
3.003609753018578
 31
0.0
  0
LINE
  5
47C
330
D
100
AcDbEntity
 67
     1
  8
AM_VIS
100
AcDbLine
 10
12.36248196774479
 20
2.993048473997177
 30
0.0
 11
12.34612640732463
 21
2.983605586785848
 31
0.0
  0
ELLIPSE
  5
47D
330
D
100
AcDbEntity
 67
     1
  8
AM_VIS
100
AcDbEllipse
 10
12.34117665985632
 20
2.986463324819099
 30
0.0
 11
-0.0035
 21
0.0060621778264911
 31
0.0
210
0.0
220
0.0
230
1.0
 40
0.5773502691896258
 41
2.356194490192295
 42
3.926990816987192
  0
LINE
  5
47E
330
D
100
AcDbEntity
 67
     1
  8
AM_VIS
100
AcDbLine
 10
12.57169347052314
 20
3.510269449658696
 30
0.0
 11
12.34612640732463
 21
3.380038245000723
 31
0.0
  0
LINE
  5
47F
330
D
100
AcDbEntity
 67
     1
  8
AM_VIS
100
AcDbLine
 10
12.34612640732463
 20
3.380038245000723
 30
0.0
 11
12.34612640732463
 21
2.983605586785851
 31
0.0
  0
ELLIPSE
  5
480
330
D
100
AcDbEntity
 67
     1
  8
AM_VIS
100
AcDbEllipse
 10
12.3687538243226
 20
3.366974299705879
 30
0.0
 11
-0.0160000000000017
 21
0.0277128129211011
 31
0.0
210
0.0
220
0.0
230
0.9999999999999998
 40
0.5773502691896259
 41
-0.0000000000001497
 42
0.7853981633972871
  0
LINE
  5
481
330
D
100
AcDbEntity
 67
     1
  8
AM_VIS
100
AcDbLine
 10
12.5897995956265
 20
3.531545552499558
 30
0.0
 11
12.364232532428
 21
3.401314347841587
 31
0.0
  0
LINE
  5
482
330
D
100
AcDbEntity
 67
     1
  8
AM_VIS
100
AcDbLine
 10
12.36423253242801
 20
3.401314347841584
 30
0.0
 11
12.3527538243226
 21
3.394687112626981
 31
0.0
  0
LINE
  5
483
330
D
100
AcDbEntity
 67
     1
  8
AM_VIS
100
AcDbLine
 10
12.5897995956265
 20
3.684638661423506
 30
0.0
 11
12.364232532428
 21
3.554407456765535
 31
0.0
  0
LINE
  5
484
330
D
100
AcDbEntity
 67
     1
  8
AM_VIS
100
AcDbLine
 10
12.364232532428
 20
3.554407456765535
 30
0.0
 11
12.364232532428
 21
3.401314347841587
 31
0.0
  0
LINE
  5
485
330
D
100
AcDbEntity
 67
     1
  8
AM_VIS
100
AcDbLine
 10
12.57933731226022
 20
3.736402872073325
 30
0.0
 11
12.95969021299934
 21
3.516806022444534
 31
0.0
  0
LINE
  5
486
330
D
100
AcDbEntity
 67
     1
  8
AM_VIS
100
AcDbLine
 10
12.57933731226022
 20
3.736402872073328
 30
0.0
 11
12.31417226931525
 21
3.583309763149379
 31
0.0
  0
LINE
  5
487
330
D
100
AcDbEntity
 67
     1
  8
AM_VIS
100
AcDbLine
 10
12.31417226931527
 20
3.583309763149377
 30
0.0
 11
12.36423253242801
 21
3.554407456765533
 31
0.0
  0
LINE
  5
488
330
D
100
AcDbEntity
 67
     1
  8
AM_VIS
100
AcDbLine
 10
12.12663470331869
 20
3.104613705112068
 30
0.0
 11
12.08703672357224
 21
3.127475609378045
 31
0.0
  0
ELLIPSE
  5
489
330
D
100
AcDbEntity
 67
     1
  8
AM_VIS
100
AcDbEllipse
 10
12.08703672357224
 20
3.133191085444538
 30
0.0
 11
-0.0035
 21
0.0060621778264911
 31
0.0
210
0.0
220
0.0
230
1.0
 40
0.5773502691896258
 41
0.7853981633974163
 42
2.356194490192295
  0
LINE
  5
48A
330
D
100
AcDbEntity
 67
     1
  8
AM_VIS
100
AcDbLine
 10
12.08208697610395
 20
3.136048823477787
 30
0.0
 11
12.08208697610395
 21
3.532481481692662
 31
0.0
  0
ELLIPSE
  5
48B
330
D
100
AcDbEntity
 67
     1
  8
AM_VIS
100
AcDbEllipse
 10
12.05945955910598
 20
3.545545426987503
 30
0.0
 11
-0.0160000000000017
 21
0.0277128129211011
 31
0.0
210
0.0
220
0.0
230
0.9999999999999998
 40
0.5773502691896259
 41
3.926990816987048
 42
4.712388980384586
  0
LINE
  5
48C
330
D
100
AcDbEntity
 67
     1
  8
AM_VIS
100
AcDbLine
 10
12.07545955910598
 20
3.554783031294537
 30
0.0
 11
12.06398085100057
 21
3.57466473693835
 31
0.0
  0
LINE
  5
48D
330
D
100
AcDbEntity
 67
     1
  8
AM_VIS
100
AcDbLine
 10
12.06398085100057
 20
3.574664736938351
 30
0.0
 11
12.06398085100057
 21
3.727757845862299
 31
0.0
  0
LINE
  5
48E
330
D
100
AcDbEntity
 67
     1
  8
AM_VIS
100
AcDbLine
 10
12.28954791419908
 20
3.857989050520274
 30
0.0
 11
12.06398085100057
 21
3.727757845862301
 31
0.0
  0
LINE
  5
48F
330
D
100
AcDbEntity
 67
     1
  8
AM_VIS
100
AcDbLine
 10
12.06398085100057
 20
3.727757845862301
 30
0.0
 11
12.1140411141133
 21
3.698855539478457
 31
0.0
  0
LINE
  5
490
330
D
100
AcDbEntity
 67
     1
  8
AM_VIS
100
AcDbLine
 10
12.37920615705827
 20
3.851948648402404
 30
0.0
 11
12.1140411141133
 21
3.698855539478457
 31
0.0
  0
LINE
  5
491
330
D
100
AcDbEntity
 67
     1
  8
AM_VIS
100
AcDbLine
 10
12.37920615705827
 20
3.851948648402404
 30
0.0
 11
11.99885230551964
 21
4.071546046975544
 31
0.0
  0
ELLIPSE
  5
492
330
D
100
AcDbEntity
 67
     1
  8
AM_VIS
100
AcDbEllipse
 10
12.1140411141133
 20
3.690608924011086
 30
0.0
 11
-0.00505
 21
0.0087468565782228
 31
0.0
210
0.0
220
0.0
230
1.0
 40
0.5773502691896258
 41
3.926990816987263
 42
5.497787143782181
  0
LINE
  5
493
330
D
100
AcDbEntity
 67
     1
  8
AM_VIS
100
AcDbLine
 10
12.38634793554825
 20
3.83957872520135
 30
0.0
 11
12.12118289260329
 21
3.686485616277403
 31
0.0
  0
ELLIPSE
  5
494
330
D
100
AcDbEntity
 67
     1
  8
AM_VIS
100
AcDbEllipse
 10
12.37920615705827
 20
3.843702032935036
 30
0.0
 11
-0.0050500000000005
 21
0.0087468565782225
 31
0.0
210
0.0
220
0.0
230
0.9999999999999998
 40
0.5773502691896259
 41
3.926990816987114
 42
5.49778714378201
  0
LINE
  5
495
330
D
100
AcDbEntity
 67
     1
  8
AM_VIS
100
AcDbLine
 10
12.12118289260329
 20
3.686485616277403
 30
0.0
 11
12.12118289260329
 21
3.665295592725358
 31
0.0
  0
LINE
  5
496
330
D
100
AcDbEntity
 67
     1
  8
AM_VIS
100
AcDbLine
 10
12.38634793554825
 20
3.818388701649306
 30
0.0
 11
12.12118289260329
 21
3.665295592725358
 31
0.0
  0
LINE
  5
497
330
D
100
AcDbEntity
 67
     1
  8
AM_VIS
100
AcDbLine
 10
12.38634793554825
 20
3.818388701649306
 30
0.0
 11
12.38634793554825
 21
3.83957872520135
 31
0.0
  0
ELLIPSE
  5
498
330
D
100
AcDbEntity
 67
     1
  8
AM_VIS
100
AcDbEllipse
 10
12.1140411141133
 20
3.669418900459042
 30
0.0
 11
-0.0050500000000001
 21
0.0087468565782231
 31
0.0
210
0.0
220
0.0
230
1.0
 40
0.5773502691896258
 41
3.141592653589727
 42
3.926990816987065
  0
LINE
  5
499
330
D
100
AcDbEntity
 67
     1
  8
AM_VIS
100
AcDbLine
 10
12.38425615705827
 20
3.813765152804768
 30
0.0
 11
12.11909111411331
 21
3.660672043880818
 31
0.0
  0
ELLIPSE
  5
49A
330
D
100
AcDbEntity
 67
     1
  8
AM_VIS
100
AcDbEllipse
 10
12.37920615705827
 20
3.822512009382991
 30
0.0
 11
-0.0050500000000007
 21
0.0087468565782228
 31
0.0
210
0.0
220
0.0
230
0.9999999999999998
 40
0.5773502691896258
 41
3.141592653589569
 42
3.926990816986915
  0
LINE
  5
49B
330
D
100
AcDbEntity
 67
     1
  8
AM_VIS
100
AcDbLine
 10
12.11909111411331
 20
3.660672043880818
 30
0.0
 11
12.0997389389623
 21
3.649499060347972
 31
0.0
  0
LINE
  5
49C
330
D
100
AcDbEntity
 67
     1
  8
AM_VIS
100
AcDbLine
 10
12.0997389389623
 20
3.649499060347975
 30
0.0
 11
12.0997389389623
 21
3.624558108021064
 31
0.0
  0
LINE
  5
49D
330
D
100
AcDbEntity
 67
     1
  8
AM_VIS
100
AcDbLine
 10
12.09973893896228
 20
3.624558108021068
 30
0.0
 11
12.32847444446626
 21
3.492497602345118
 31
0.0
  0
LINE
  5
49E
330
D
100
AcDbEntity
 67
     1
  8
AM_VIS
100
AcDbLine
 10
12.32847444446627
 20
3.492497602345116
 30
0.0
 11
12.32847444446627
 21
3.517438554672023
 31
0.0
  0
LINE
  5
49F
330
D
100
AcDbEntity
 67
     1
  8
AM_VIS
100
AcDbLine
 10
12.32847444446627
 20
3.517438554672025
 30
0.0
 11
12.30912226931526
 21
3.550957505270556
 31
0.0
  0
ELLIPSE
  5
4A0
330
D
100
AcDbEntity
 67
     1
  8
AM_VIS
100
AcDbEllipse
 10
12.31417226931527
 20
3.553873124129961
 30
0.0
 11
-0.0050500000000002
 21
0.0087468565782232
 31
0.0
210
0.0
220
0.0
230
0.9999999999999998
 40
0.5773502691896259
 41
0.7853981633974704
 42
1.570796326794902
  0
LINE
  5
4A1
330
D
100
AcDbEntity
 67
     1
  8
AM_VIS
100
AcDbLine
 10
12.30703049082527
 20
3.557996431863649
 30
0.0
 11
12.30703049082527
 21
3.579186455415694
 31
0.0
  0
ELLIPSE
  5
4A2
330
D
100
AcDbEntity
 67
     1
  8
AM_VIS
100
AcDbEllipse
 10
12.31417226931525
 20
3.575063147682008
 30
0.0
 11
-0.00505
 21
0.0087468565782228
 31
0.0
210
0.0
220
0.0
230
1.0
 40
0.5773502691896258
 41
5.49778714378216
 42
7.068583470577056
  0
ELLIPSE
  5
4A3
330
D
100
AcDbEntity
 67
     1
  8
AM_VIS
100
AcDbEllipse
 10
12.57933731226022
 20
3.728156256605957
 30
0.0
 11
-0.0050500000000005
 21
0.0087468565782225
 31
0.0
210
0.0
220
0.0
230
0.9999999999999998
 40
0.5773502691896259
 41
5.49778714378201
 42
6.283185307179487
  0
LINE
  5
4A4
330
D
100
AcDbEntity
 67
     1
  8
AM_VIS
100
AcDbLine
 10
12.80964067408182
 20
2.969064962908418
 30
0.0
 11
12.58407361088331
 21
2.838833758250446
 31
0.0
  0
LINE
  5
4A5
330
D
100
AcDbEntity
 67
     1
  8
AM_VIS
100
AcDbLine
 10
12.58407361088331
 20
2.838833758250448
 30
0.0
 11
12.60729294199331
 21
2.825428071183683
 31
0.0
  0
LINE
  5
4A6
330
D
100
AcDbEntity
 67
     1
  8
AM_VIS
100
AcDbLine
 10
12.83286000519182
 20
2.955659275841654
 30
0.0
 11
12.60729294199331
 21
2.825428071183683
 31
0.0
  0
ELLIPSE
  5
4A7
330
D
100
AcDbEntity
 67
     1
  8
AM_VIS
100
AcDbEllipse
 10
12.58407361088331
 20
2.830578977817268
 30
0.0
 11
-0.0050549999999997
 21
0.0087555168322602
 31
0.0
210
0.0
220
0.0
230
1.0
 40
0.577350269189626
 41
5.497787143782136
 42
7.068583470577033
  0
LINE
  5
4A8
330
D
100
AcDbEntity
 67
     1
  8
AM_VIS
100
AcDbLine
 10
12.5769247613255
 20
2.783526729348143
 30
0.0
 11
12.5769247613255
 21
2.834706368033859
 31
0.0
  0
LINE
  5
4A9
330
D
100
AcDbEntity
 67
     1
  8
AM_VIS
100
AcDbLine
 10
12.3748339918413
 20
2.904694620705694
 30
0.0
 11
12.37094490454477
 21
2.902449255108144
 31
0.0
  0
LINE
  5
4AA
330
D
100
AcDbEntity
 67
     1
  8
AM_VIS
100
AcDbLine
 10
12.37094490454477
 20
2.902449255108147
 30
0.0
 11
12.5769247613255
 21
2.783526729348143
 31
0.0
  0
ELLIPSE
  5
4AB
330
D
100
AcDbEntity
 67
     1
  8
AM_VIS
100
AcDbEllipse
 10
12.37094490454477
 20
2.894202639640777
 30
0.0
 11
-0.0050500000000002
 21
0.0087468565782232
 31
0.0
210
0.0
220
0.0
230
0.9999999999999998
 40
0.5773502691896259
 41
5.497787143782169
 42
7.068583470577067
  0
LINE
  5
4AC
330
D
100
AcDbEntity
 67
     1
  8
AM_VIS
100
AcDbLine
 10
11.84982955138454
 20
3.296132226364147
 30
0.0
 11
11.82091949063575
 21
3.279440995008546
 31
0.0
  0
LINE
  5
4AD
330
D
100
AcDbEntity
 67
     1
  8
AM_VIS
100
AcDbLine
 10
11.82091949063575
 20
3.279440995008545
 30
0.0
 11
11.84414589281357
 21
3.266031225458877
 31
0.0
  0
LINE
  5
4AE
330
D
100
AcDbEntity
 67
     1
  8
AM_VIS
100
AcDbLine
 10
11.85949218333542
 20
3.274891410422734
 30
0.0
 11
11.84414589281357
 21
3.266031225458879
 31
0.0
  0
ELLIPSE
  5
4AF
330
D
100
AcDbEntity
 67
     1
  8
AM_VIS
100
AcDbEllipse
 10
11.82091949063575
 20
3.27118621457537
 30
0.0
 11
-0.0050549999999997
 21
0.0087555168322602
 31
0.0
210
0.0
220
0.0
230
1.0
 40
0.577350269189626
 41
5.497787143782136
 42
7.068583470577033
  0
LINE
  5
4B0
330
D
100
AcDbEntity
 67
     1
  8
AM_VIS
100
AcDbLine
 10
11.75995940018474
 20
3.244245670376836
 30
0.0
 11
11.81377064107794
 21
3.275313604791957
 31
0.0
  0
LINE
  5
4B1
330
D
100
AcDbEntity
 67
     1
  8
AM_VIS
100
AcDbLine
 10
12.36380312605477
 20
2.729094783528477
 30
0.0
 11
12.36380312605477
 21
2.898325947374463
 31
0.0
  0
LINE
  5
4B2
330
D
100
AcDbEntity
 67
     1
  8
AM_VIS
100
AcDbLine
 10
12.36380312605477
 20
2.844166422766998
 30
0.0
 11
12.2641481632191
 21
2.786630603147739
 31
0.0
  0
LINE
  5
4B3
330
D
100
AcDbEntity
 67
     1
  8
AM_VIS
100
AcDbLine
 10
12.26414816321909
 20
2.786630603147738
 30
0.0
 11
12.36380312605477
 21
2.729094783528478
 31
0.0
  0
LINE
  5
4B4
330
D
100
AcDbEntity
 67
     1
  8
AM_VIS
100
AcDbLine
 10
11.92970794371458
 20
3.395338790533578
 30
0.0
 11
11.70414088051608
 21
3.265107585875606
 31
0.0
  0
LINE
  5
4B5
330
D
100
AcDbEntity
 67
     1
  8
AM_VIS
100
AcDbLine
 10
11.70414088051608
 20
3.265107585875606
 30
0.0
 11
11.75995940018474
 21
3.244245670376832
 31
0.0
  0
ELLIPSE
  5
4B6
330
D
100
AcDbEntity
 67
     1
  8
AM_VIS
100
AcDbEllipse
 10
12.21410621631453
 20
2.815522334663866
 30
0.0
 11
-0.0353849999999998
 21
0.0612886178258244
 31
0.0
210
0.0
220
0.0
230
1.0
 40
0.5773502691896259
 41
3.926990816987252
 42
7.068583470577057
  0
ELLIPSE
  5
4B7
330
D
100
AcDbEntity
 67
     1
  8
AM_VIS
100
AcDbEllipse
 10
11.71189953487937
 20
3.209819551127858
 30
0.0
 11
-0.0315937500000001
 21
0.0547219802016294
 31
0.0
210
0.0
220
0.0
230
1.0
 40
0.5773502691896259
 41
5.672320068981571
 42
7.068583470577038
  0
LINE
  5
4B8
330
D
100
AcDbEntity
 67
     1
  8
AM_VIS
100
AcDbLine
 10
12.21275182398583
 20
2.987595478159081
 30
0.0
 11
12.06440930657429
 21
2.901949885799251
 31
0.0
  0
LINE
  5
4B9
330
D
100
AcDbEntity
 67
     1
  8
AM_VIS
100
AcDbLine
 10
12.06440930657429
 20
2.901949885799251
 30
0.0
 11
12.16406426940996
 21
2.844414066179993
 31
0.0
  0
LINE
  5
4BA
330
D
100
AcDbEntity
 67
     1
  8
AM_VIS
100
AcDbLine
 10
11.85517675860008
 20
3.204718864203848
 30
0.0
 11
11.85128767130355
 21
3.202473498606298
 31
0.0
  0
LINE
  5
4BB
330
D
100
AcDbEntity
 67
     1
  8
AM_VIS
100
AcDbLine
 10
11.85128767130356
 20
3.202473498606298
 30
0.0
 11
12.05726752808431
 21
3.083550972846292
 31
0.0
  0
LINE
  5
4BC
330
D
100
AcDbEntity
 67
     1
  8
AM_VIS
100
AcDbLine
 10
12.06115661538083
 20
3.085796338443842
 30
0.0
 11
12.0572675280843
 21
3.08355097284629
 31
0.0
  0
ELLIPSE
  5
4BD
330
D
100
AcDbEntity
 67
     1
  8
AM_VIS
100
AcDbEllipse
 10
12.0572675280843
 20
3.075304357378923
 30
0.0
 11
-0.0050500000000002
 21
0.0087468565782232
 31
0.0
210
0.0
220
0.0
230
0.9999999999999998
 40
0.5773502691896259
 41
3.926990816987263
 42
5.497787143782169
  0
LINE
  5
4BE
330
D
100
AcDbEntity
 67
     1
  8
AM_VIS
100
AcDbLine
 10
12.06829839387081
 20
3.073426415242789
 30
0.0
 11
12.06440930657428
 21
3.07118104964524
 31
0.0
  0
LINE
  5
4BF
330
D
100
AcDbEntity
 67
     1
  8
AM_VIS
100
AcDbLine
 10
12.06440930657429
 20
3.071181049645238
 30
0.0
 11
12.06440930657429
 21
2.901949885799253
 31
0.0
  0
ELLIPSE
  5
4C0
330
D
100
AcDbEntity
 67
     1
  8
AM_VIS
100
AcDbEllipse
 10
12.60729294199331
 20
2.817173290750506
 30
0.0
 11
-0.005055
 21
0.0087555168322607
 31
0.0
210
0.0
220
0.0
230
1.0
 40
0.5773502691896259
 41
3.926990816987153
 42
5.497787143782136
  0
LINE
  5
4C1
330
D
100
AcDbEntity
 67
     1
  8
AM_VIS
100
AcDbLine
 10
12.84000885474962
 20
2.94327710519189
 30
0.0
 11
12.6144417915511
 21
2.813045900533918
 31
0.0
  0
LINE
  5
4C2
330
D
100
AcDbEntity
 67
     1
  8
AM_VIS
100
AcDbLine
 10
12.6144417915511
 20
2.813045900533918
 30
0.0
 11
12.66825303244432
 21
2.719842097288541
 31
0.0
  0
LINE
  5
4C3
330
D
100
AcDbEntity
 67
     1
  8
AM_VIS
100
AcDbLine
 10
12.89382009564282
 20
2.850073301946513
 30
0.0
 11
12.66825303244432
 21
2.719842097288541
 31
0.0
  0
LINE
  5
4C4
330
D
100
AcDbEntity
 67
     1
  8
AM_VIS
100
AcDbLine
 10
12.66825303244432
 20
2.719842097288542
 30
0.0
 11
12.72407155211298
 21
2.676250338074373
 31
0.0
  0
LINE
  5
4C5
330
D
100
AcDbEntity
 67
     1
  8
AM_VIS
100
AcDbLine
 10
12.94963861531148
 20
2.806481542732344
 30
0.0
 11
12.72407155211298
 21
2.676250338074372
 31
0.0
  0
ELLIPSE
  5
4C6
330
D
100
AcDbEntity
 67
     1
  8
AM_VIS
100
AcDbEllipse
 10
12.71631289774968
 20
2.629921225697016
 30
0.0
 11
-0.0315937500000004
 21
0.0547219802016298
 31
0.0
210
0.0
220
0.0
230
1.0
 40
0.577350269189626
 41
3.926990816987233
 42
5.323254218582651
  0
LINE
  5
4C7
330
D
100
AcDbEntity
 67
     1
  8
AM_VIS
100
AcDbLine
 10
12.98656027068443
 20
2.734356241501299
 30
0.0
 11
12.76099320748592
 21
2.604125036843328
 31
0.0
  0
LINE
  5
4C8
330
D
100
AcDbEntity
 67
     1
  8
AM_VIS
100
AcDbLine
 10
12.76099320748592
 20
2.604125036843325
 30
0.0
 11
12.76099320748592
 21
2.255435482272654
 31
0.0
  0
LINE
  5
4C9
330
D
100
AcDbEntity
 67
     1
  8
AM_VIS
100
AcDbLine
 10
12.8038863048327
 20
2.280199823572195
 30
0.0
 11
12.76099320748592
 21
2.255435482272654
 31
0.0
  0
LINE
  5
4CA
330
D
100
AcDbEntity
 67
     1
  8
AM_VIS
100
AcDbLine
 10
13.02615825043088
 20
2.416075223423028
 30
0.0
 11
13.02615825043088
 21
3.401680004533728
 31
0.0
  0
ELLIPSE
  5
4CB
330
D
100
AcDbEntity
 67
     1
  8
AM_VIS
100
AcDbEllipse
 10
12.77886533138041
 20
2.245117006731183
 30
0.0
 11
-0.0126375000000012
 21
0.0218887920806507
 31
0.0
210
0.0
220
0.0
230
0.9999999999999998
 40
0.5773502691896259
 41
0.7853981633973003
 42
2.356194490192195
  0
LINE
  5
4CC
330
D
100
AcDbEntity
 67
     1
  8
AM_VIS
100
AcDbLine
 10
12.80388630483271
 20
2.238925921406301
 30
0.0
 11
12.77886533138041
 21
2.224480055648234
 31
0.0
  0
LINE
  5
4CD
330
D
100
AcDbEntity
 67
     1
  8
AM_VIS
100
AcDbLine
 10
12.77886533138041
 20
2.224480055648233
 30
0.0
 11
12.7860141809382
 21
2.220352665431641
 31
0.0
  0
LINE
  5
4CE
330
D
100
AcDbEntity
 67
     1
  8
AM_VIS
100
AcDbLine
 10
12.8038863048327
 20
2.230671140973115
 30
0.0
 11
12.7860141809382
 21
2.220352665431641
 31
0.0
  0
ELLIPSE
  5
4CF
330
D
100
AcDbEntity
 67
     1
  8
AM_VIS
100
AcDbEllipse
 10
12.7860141809382
 20
2.240989616514589
 30
0.0
 11
-0.0126375000000016
 21
0.0218887920806515
 31
0.0
210
0.0
220
0.0
230
1.0
 40
0.577350269189626
 41
2.35619449019216
 42
3.926990816987054
  0
LINE
  5
4D0
330
D
100
AcDbEntity
 67
     1
  8
AM_VIS
100
AcDbLine
 10
12.8038863048327
 20
2.230671140973115
 30
0.0
 11
12.8038863048327
 21
2.284327213788779
 31
0.0
  0
ELLIPSE
  5
4D1
330
D
100
AcDbEntity
 67
     1
  8
AM_VIS
100
AcDbEllipse
 10
12.81103515439049
 20
2.28019982357219
 30
0.0
 11
-0.0050549999999999
 21
0.0087555168322605
 31
0.0
210
0.0
220
0.0
230
1.0
 40
0.5773502691896259
 41
5.497787143782135
 42
7.068583470577027
  0
LINE
  5
4D2
330
D
100
AcDbEntity
 67
     1
  8
AM_VIS
100
AcDbLine
 10
13.07620019733544
 20
2.441547712929319
 30
0.0
 11
12.81103515439049
 21
2.288454604005369
 31
0.0
  0
ELLIPSE
  5
4D3
330
D
100
AcDbEntity
 67
     1
  8
AM_VIS
100
AcDbEllipse
 10
13.07620019733544
 20
2.433292932496138
 30
0.0
 11
-0.0050550000000004
 21
0.0087555168322602
 31
0.0
210
0.0
220
0.0
230
1.0
 40
0.5773502691896259
 41
5.497787143781965
 42
6.283185307179612
  0
LINE
  5
4D4
330
D
100
AcDbEntity
 67
     1
  8
AM_VIS
100
AcDbLine
 10
12.81103515439049
 20
2.28845460400537
 30
0.0
 11
12.83963055262168
 21
2.271945043139012
 31
0.0
  0
LINE
  5
4D5
330
D
100
AcDbEntity
 67
     1
  8
AM_VIS
100
AcDbLine
 10
13.10479559556664
 20
2.425038152062962
 30
0.0
 11
12.83963055262168
 21
2.271945043139012
 31
0.0
  0
LINE
  5
4D6
330
D
100
AcDbEntity
 67
     1
  8
AM_VIS
100
AcDbLine
 10
13.10479559556664
 20
2.425038152062962
 30
0.0
 11
13.07620019733544
 21
2.441547712929319
 31
0.0
  0
ELLIPSE
  5
4D7
330
D
100
AcDbEntity
 67
     1
  8
AM_VIS
100
AcDbEllipse
 10
12.83963055262168
 20
2.263690262705833
 30
0.0
 11
-0.0050549999999996
 21
0.00875551683226
 31
0.0
210
0.0
220
0.0
230
1.0
 40
0.577350269189626
 41
3.926990816987268
 42
5.497787143782162
  0
LINE
  5
4D8
330
D
100
AcDbEntity
 67
     1
  8
AM_VIS
100
AcDbLine
 10
13.11194444512443
 20
2.412655981413193
 30
0.0
 11
12.84677940217947
 21
2.259562872489244
 31
0.0
  0
ELLIPSE
  5
4D9
330
D
100
AcDbEntity
 67
     1
  8
AM_VIS
100
AcDbEllipse
 10
13.10479559556663
 20
2.416783371629779
 30
0.0
 11
-0.0050550000000001
 21
0.0087555168322597
 31
0.0
210
0.0
220
0.0
230
0.9999999999999998
 40
0.577350269189626
 41
3.926990816987098
 42
5.497787143781998
  0
LINE
  5
4DA
330
D
100
AcDbEntity
 67
     1
  8
AM_VIS
100
AcDbLine
 10
12.84677940217948
 20
2.259562872489244
 30
0.0
 11
12.84677940217948
 21
2.022943991420723
 31
0.0
  0
LINE
  5
4DB
330
D
100
AcDbEntity
 67
     1
  8
AM_VIS
100
AcDbLine
 10
13.11194444512443
 20
2.176037100344672
 30
0.0
 11
12.84677940217947
 21
2.022943991420723
 31
0.0
  0
LINE
  5
4DC
330
D
100
AcDbEntity
 67
     1
  8
AM_VIS
100
AcDbLine
 10
13.11194444512443
 20
2.176037100344672
 30
0.0
 11
13.11194444512443
 21
2.412655981413192
 31
0.0
  0
ELLIPSE
  5
4DD
330
D
100
AcDbEntity
 67
     1
  8
AM_VIS
100
AcDbEllipse
 10
12.80209025360848
 20
2.048745283378039
 30
0.0
 11
-0.0316000000000003
 21
0.054732805519177
 31
0.0
210
0.0
220
0.0
230
1.0
 40
0.5773502691896259
 41
2.356194490192338
 42
3.926990816987234
  0
ELLIPSE
  5
4DE
330
D
100
AcDbEntity
 67
     1
  8
AM_VIS
100
AcDbEllipse
 10
13.06725529655344
 20
2.201838392301988
 30
0.0
 11
-0.0316000000000036
 21
0.0547328055191752
 31
0.0
210
0.0
220
0.0
230
1.0
 40
0.5773502691896258
 41
3.141592653589651
 42
3.926990816987068
  0
LINE
  5
4DF
330
D
100
AcDbEntity
 67
     1
  8
AM_VIS
100
AcDbLine
 10
12.80209025360848
 20
1.997142699463408
 30
0.0
 11
12.73904195724927
 21
2.033543650338341
 31
0.0
  0
LINE
  5
4E0
330
D
100
AcDbEntity
 67
     1
  8
AM_VIS
100
AcDbLine
 10
12.73904195724927
 20
2.033543650338343
 30
0.0
 11
12.6529263251635
 21
2.255493797876019
 31
0.0
  0
ELLIPSE
  5
4E1
330
D
100
AcDbEntity
 67
     1
  8
AM_VIS
100
AcDbEllipse
 10
12.6591174104884
 20
2.256046763313706
 30
0.0
 11
-0.0050549999999993
 21
0.0087555168322595
 31
0.0
210
0.0
220
0.0
230
1.0
 40
0.5773502691896259
 41
5.58505360638204
 42
7.592182246175273
  0
LINE
  5
4E2
330
D
100
AcDbEntity
 67
     1
  8
AM_VIS
100
AcDbLine
 10
12.70380241102356
 20
2.290788480422736
 30
0.0
 11
12.6584943471954
 21
2.264629857575088
 31
0.0
  0
LINE
  5
4E3
330
D
100
AcDbEntity
 67
     1
  8
AM_VIS
100
AcDbLine
 10
12.6584943471954
 20
2.264629857575088
 30
0.0
 11
12.70380241102356
 21
2.243048400632682
 31
0.0
  0
LINE
  5
4E4
330
D
100
AcDbEntity
 67
     1
  8
AM_VIS
100
AcDbLine
 10
12.70380241102356
 20
2.243048400632681
 30
0.0
 11
12.70380241102356
 21
2.590579567859728
 31
0.0
  0
ELLIPSE
  5
4E5
330
D
100
AcDbEntity
 67
     1
  8
AM_VIS
100
AcDbEllipse
 10
12.68235586235017
 20
2.6029617385095
 30
0.0
 11
-0.0151650000000017
 21
0.0262665504967813
 31
0.0
210
0.0
220
0.0
230
1.0
 40
0.577350269189626
 41
3.926990816987075
 42
7.068583470577002
  0
LINE
  5
4E6
330
D
100
AcDbEntity
 67
     1
  8
AM_VIS
100
AcDbLine
 10
12.68235586235017
 20
2.627726079809038
 30
0.0
 11
12.66090931367678
 21
2.615343909159268
 31
0.0
  0
LINE
  5
4E7
330
D
100
AcDbEntity
 67
     1
  8
AM_VIS
100
AcDbLine
 10
12.66090931367678
 20
2.615343909159268
 30
0.0
 11
12.66090931367678
 21
2.546362195519594
 31
0.0
  0
LINE
  5
4E8
330
D
100
AcDbEntity
 67
     1
  8
AM_VIS
100
AcDbLine
 10
12.70380241102356
 20
2.57112653681913
 30
0.0
 11
12.66090931367678
 21
2.546362195519589
 31
0.0
  0
LINE
  5
4E9
330
D
100
AcDbEntity
 67
     1
  8
AM_VIS
100
AcDbLine
 10
12.66090931367678
 20
2.54636219551959
 30
0.0
 11
12.63969611024118
 21
2.558609644233501
 31
0.0
  0
ELLIPSE
  5
4EA
330
D
100
AcDbEntity
 67
     1
  8
AM_VIS
100
AcDbEllipse
 10
12.63969611024118
 20
2.482063089771526
 30
0.0
 11
-0.0468750000000049
 21
0.0811898816047883
 31
0.0
210
0.0
220
0.0
230
0.9999999999999998
 40
0.5773502691896259
 41
5.497787143781927
 42
8.639379797371757
  0
LINE
  5
4EB
330
D
100
AcDbEntity
 67
     1
  8
AM_VIS
100
AcDbLine
 10
12.70380241102356
 20
2.442528325323005
 30
0.0
 11
12.63969611024118
 21
2.405516535309553
 31
0.0
  0
LINE
  5
4EC
330
D
100
AcDbEntity
 67
     1
  8
AM_VIS
100
AcDbLine
 10
12.63969611024118
 20
2.405516535309553
 30
0.0
 11
12.66090931367678
 21
2.39326908659564
 31
0.0
  0
LINE
  5
4ED
330
D
100
AcDbEntity
 67
     1
  8
AM_VIS
100
AcDbLine
 10
12.70380241102356
 20
2.418033427895181
 30
0.0
 11
12.66090931367678
 21
2.39326908659564
 31
0.0
  0
LINE
  5
4EE
330
D
100
AcDbEntity
 67
     1
  8
AM_VIS
100
AcDbLine
 10
12.66090931367678
 20
2.393269086595641
 30
0.0
 11
12.66090931367678
 21
2.324287372955961
 31
0.0
  0
LINE
  5
4EF
330
D
100
AcDbEntity
 67
     1
  8
AM_VIS
100
AcDbLine
 10
12.70380241102356
 20
2.349051714255502
 30
0.0
 11
12.66090931367678
 21
2.324287372955961
 31
0.0
  0
ELLIPSE
  5
4F0
330
D
100
AcDbEntity
 67
     1
  8
AM_VIS
100
AcDbEllipse
 10
12.63856473939128
 20
2.337188018934622
 30
0.0
 11
-0.0157999999999998
 21
0.0273664027595879
 31
0.0
210
0.0
220
0.0
230
1.0
 40
0.5773502691896259
 41
2.356194490192354
 42
3.926990816987248
  0
LINE
  5
4F1
330
D
100
AcDbEntity
 67
     1
  8
AM_VIS
100
AcDbLine
 10
12.63856473939128
 20
2.311386726977305
 30
0.0
 11
12.55100017114305
 21
2.361942154026895
 31
0.0
  0
ELLIPSE
  5
4F2
330
D
100
AcDbEntity
 67
     1
  8
AM_VIS
100
AcDbEllipse
 10
12.55100017114305
 20
2.38774344598421
 30
0.0
 11
-0.0157999999999996
 21
0.0273664027595876
 31
0.0
210
0.0
220
0.0
230
1.0
 40
0.577350269189626
 41
0.7853981633974395
 42
2.356194490192335
  0
LINE
  5
4F3
330
D
100
AcDbEntity
 67
     1
  8
AM_VIS
100
AcDbLine
 10
12.52865559685756
 20
2.400644091962869
 30
0.0
 11
12.52865559685756
 21
2.535219058431378
 31
0.0
  0
ELLIPSE
  5
4F4
330
D
100
AcDbEntity
 67
     1
  8
AM_VIS
100
AcDbEllipse
 10
12.50037132561009
 20
2.551548990049933
 30
0.0
 11
-0.0200000000000021
 21
0.0346410161513764
 31
0.0
210
0.0
220
0.0
230
1.0
 40
0.5773502691896259
 41
3.926990816987057
 42
5.497787143781978
  0
LINE
  5
4F5
330
D
100
AcDbEntity
 67
     1
  8
AM_VIS
100
AcDbLine
 10
12.50037132561009
 20
2.584208853287043
 30
0.0
 11
11.92784110701897
 21
2.914759329109823
 31
0.0
  0
ELLIPSE
  5
4F6
330
D
100
AcDbEntity
 67
     1
  8
AM_VIS
100
AcDbEllipse
 10
11.92784110701897
 20
2.882099465872713
 30
0.0
 11
-0.0200000000000017
 21
0.0346410161513756
 31
0.0
210
0.0
220
0.0
230
0.9999999999999998
 40
0.577350269189626
 41
5.497787143781956
 42
7.068583470576847
  0
LINE
  5
4F7
330
D
100
AcDbEntity
 67
     1
  8
AM_VIS
100
AcDbLine
 10
11.92784110701897
 20
2.914759329109821
 30
0.0
 11
11.89955683577151
 21
2.898429397491268
 31
0.0
  0
LINE
  5
4F8
330
D
100
AcDbEntity
 67
     1
  8
AM_VIS
100
AcDbLine
 10
11.89955683577151
 20
2.89842939749127
 30
0.0
 11
11.89955683577151
 21
2.763854431022759
 31
0.0
  0
LINE
  5
4F9
330
D
100
AcDbEntity
 67
     1
  8
AM_VIS
100
AcDbLine
 10
12.04438644669414
 20
2.847471845875566
 30
0.0
 11
11.89955683577151
 21
2.763854431022756
 31
0.0
  0
ELLIPSE
  5
4FA
330
D
100
AcDbEntity
 67
     1
  8
AM_VIS
100
AcDbEllipse
 10
11.877212261486
 20
2.776755077001417
 30
0.0
 11
-0.0157999999999998
 21
0.0273664027595879
 31
0.0
210
0.0
220
0.0
230
1.0
 40
0.5773502691896259
 41
2.356194490192354
 42
3.926990816987252
  0
LINE
  5
4FB
330
D
100
AcDbEntity
 67
     1
  8
AM_VIS
100
AcDbLine
 10
11.877212261486
 20
2.7509537850441
 30
0.0
 11
11.78964769323777
 21
2.801509212093693
 31
0.0
  0
ELLIPSE
  5
4FC
330
D
100
AcDbEntity
 67
     1
  8
AM_VIS
100
AcDbEllipse
 10
11.78964769323777
 20
2.827310504051011
 30
0.0
 11
-0.0158000000000005
 21
0.0273664027595891
 31
0.0
210
0.0
220
0.0
230
0.9999999999999998
 40
0.5773502691896259
 41
0.785398163397516
 42
2.356194490192355
  0
LINE
  5
4FD
330
D
100
AcDbEntity
 67
     1
  8
AM_VIS
100
AcDbLine
 10
11.76730311895227
 20
2.840211150029665
 30
0.0
 11
11.76730311895227
 21
2.909192863669345
 31
0.0
  0
LINE
  5
4FE
330
D
100
AcDbEntity
 67
     1
  8
AM_VIS
100
AcDbLine
 10
11.85215593269466
 20
2.95818265852501
 30
0.0
 11
11.76730311895227
 21
2.909192863669346
 31
0.0
  0
LINE
  5
4FF
330
D
100
AcDbEntity
 67
     1
  8
AM_VIS
100
AcDbLine
 10
11.76730311895227
 20
2.909192863669348
 30
0.0
 11
11.78851632238788
 21
2.896945414955431
 31
0.0
  0
LINE
  5
500
330
D
100
AcDbEntity
 67
     1
  8
AM_VIS
100
AcDbLine
 10
11.85480758312412
 20
2.935218692186418
 30
0.0
 11
11.78851632238788
 21
2.89694541495543
 31
0.0
  0
ELLIPSE
  5
501
330
D
100
AcDbEntity
 67
     1
  8
AM_VIS
100
AcDbEllipse
 10
11.78851632238788
 20
2.973491969417403
 30
0.0
 11
-0.0468750000000049
 21
0.0811898816047883
 31
0.0
210
0.0
220
0.0
230
0.9999999999999998
 40
0.5773502691896259
 41
2.356194490192172
 42
5.497787143781963
  0
LINE
  5
502
330
D
100
AcDbEntity
 67
     1
  8
AM_VIS
100
AcDbLine
 10
11.78851632238788
 20
3.050038523879377
 30
0.0
 11
11.76730311895227
 21
3.062285972593293
 31
0.0
  0
LINE
  5
503
330
D
100
AcDbEntity
 67
     1
  8
AM_VIS
100
AcDbLine
 10
11.76730311895227
 20
3.062285972593294
 30
0.0
 11
11.76730311895227
 21
3.131267686232973
 31
0.0
  0
ELLIPSE
  5
504
330
D
100
AcDbEntity
 67
     1
  8
AM_VIS
100
AcDbEllipse
 10
11.7458565702789
 20
3.143649856882743
 30
0.0
 11
-0.0151650000000021
 21
0.0262665504967821
 31
0.0
210
0.0
220
0.0
230
0.9999999999999998
 40
0.577350269189626
 41
3.926990816987021
 42
7.068583470576946
  0
LINE
  5
505
330
D
100
AcDbEntity
 67
     1
  8
AM_VIS
100
AcDbLine
 10
11.7458565702789
 20
3.168414198182278
 30
0.0
 11
11.72441002160551
 21
3.156032027532508
 31
0.0
  0
LINE
  5
506
330
D
100
AcDbEntity
 67
     1
  8
AM_VIS
100
AcDbLine
 10
11.72441002160551
 20
3.156032027532508
 30
0.0
 11
11.72441002160551
 21
2.808500860305461
 31
0.0
  0
LINE
  5
507
330
D
100
AcDbEntity
 67
     1
  8
AM_VIS
100
AcDbLine
 10
11.76795610755449
 20
2.833642204750259
 30
0.0
 11
11.72441002160551
 21
2.808500860305461
 31
0.0
  0
LINE
  5
508
330
D
100
AcDbEntity
 67
     1
  8
AM_VIS
100
AcDbLine
 10
11.72441002160551
 20
2.808500860305461
 30
0.0
 11
11.76971808543366
 21
2.777765071552571
 31
0.0
  0
LINE
  5
509
330
D
100
AcDbEntity
 67
     1
  8
AM_VIS
100
AcDbLine
 10
11.80024591823536
 20
2.795390324038406
 30
0.0
 11
11.76971808543366
 21
2.777765071552574
 31
0.0
  0
ELLIPSE
  5
50A
330
D
100
AcDbEntity
 67
     1
  8
AM_VIS
100
AcDbEllipse
 10
11.76909502214066
 20
2.769901428811066
 30
0.0
 11
-0.0050549999999992
 21
0.0087555168322593
 31
0.0
210
0.0
220
0.0
230
1.0
 40
0.5773502691896259
 41
3.403392041388899
 42
5.410520681182292
  0
LINE
  5
50B
330
D
100
AcDbEntity
 67
     1
  8
AM_VIS
100
AcDbLine
 10
11.81651001107306
 20
2.78600024566043
 30
0.0
 11
11.77528610746555
 21
2.762199613815579
 31
0.0
  0
LINE
  5
50C
330
D
100
AcDbEntity
 67
     1
  8
AM_VIS
100
AcDbLine
 10
11.77528610746555
 20
2.762199613815579
 30
0.0
 11
11.68917047537979
 21
2.639687233010206
 31
0.0
  0
LINE
  5
50D
330
D
100
AcDbEntity
 67
     1
  8
AM_VIS
100
AcDbLine
 10
11.87968868238901
 20
2.74968297111251
 30
0.0
 11
11.68917047537977
 21
2.639687233010206
 31
0.0
  0
LINE
  5
50E
330
D
100
AcDbEntity
 67
     1
  8
AM_VIS
100
AcDbLine
 10
11.68917047537979
 20
2.639687233010207
 30
0.0
 11
11.62612217902058
 21
2.676088183885142
 31
0.0
  0
ELLIPSE
  5
50F
330
D
100
AcDbEntity
 67
     1
  8
AM_VIS
100
AcDbEllipse
 10
11.62612217902058
 20
2.72769076779977
 30
0.0
 11
-0.0316000000000001
 21
0.0547328055191766
 31
0.0
210
0.0
220
0.0
230
1.0
 40
0.5773502691896259
 41
0.7853981633974449
 42
2.356194490192344
  0
LINE
  5
510
330
D
100
AcDbEntity
 67
     1
  8
AM_VIS
100
AcDbLine
 10
11.58143303044959
 20
2.753492059757086
 30
0.0
 11
11.58143303044959
 21
2.990110940825609
 31
0.0
  0
ELLIPSE
  5
511
330
D
100
AcDbEntity
 67
     1
  8
AM_VIS
100
AcDbEllipse
 10
11.58858188000738
 20
2.98598355060902
 30
0.0
 11
-0.0050549999999994
 21
0.0087555168322596
 31
0.0
210
0.0
220
0.0
230
0.9999999999999998
 40
0.577350269189626
 41
5.497787143782169
 42
7.068583470577063
  0
LINE
  5
512
330
D
100
AcDbEntity
 67
     1
  8
AM_VIS
100
AcDbLine
 10
11.66721922514314
 20
3.039639623424681
 30
0.0
 11
11.58858188000739
 21
2.994238331042197
 31
0.0
  0
LINE
  5
513
330
D
100
AcDbEntity
 67
     1
  8
AM_VIS
100
AcDbLine
 10
11.58858188000738
 20
2.994238331042198
 30
0.0
 11
11.61717727823857
 21
2.977728770175839
 31
0.0
  0
LINE
  5
514
330
D
100
AcDbEntity
 67
     1
  8
AM_VIS
100
AcDbLine
 10
11.66721922514314
 20
3.006620501691966
 30
0.0
 11
11.61717727823857
 21
2.977728770175839
 31
0.0
  0
ELLIPSE
  5
515
330
D
100
AcDbEntity
 67
     1
  8
AM_VIS
100
AcDbEllipse
 10
11.61717727823857
 20
2.96947398974266
 30
0.0
 11
-0.0050549999999996
 21
0.00875551683226
 31
0.0
210
0.0
220
0.0
230
1.0
 40
0.577350269189626
 41
3.926990816987244
 42
5.497787143782136
  0
LINE
  5
516
330
D
100
AcDbEntity
 67
     1
  8
AM_VIS
100
AcDbLine
 10
11.66721922514314
 20
2.99011094082561
 30
0.0
 11
11.62432612779636
 21
2.965346599526071
 31
0.0
  0
LINE
  5
517
330
D
100
AcDbEntity
 67
     1
  8
AM_VIS
100
AcDbLine
 10
11.62432612779635
 20
2.965346599526071
 30
0.0
 11
11.62432612779635
 21
2.911690526710406
 31
0.0
  0
LINE
  5
518
330
D
100
AcDbEntity
 67
     1
  8
AM_VIS
100
AcDbLine
 10
11.66721922514314
 20
2.936454868009943
 30
0.0
 11
11.62432612779636
 21
2.911690526710406
 31
0.0
  0
ELLIPSE
  5
519
330
D
100
AcDbEntity
 67
     1
  8
AM_VIS
100
AcDbEllipse
 10
11.64219825169086
 20
2.901372051168931
 30
0.0
 11
-0.0126375000000016
 21
0.0218887920806515
 31
0.0
210
0.0
220
0.0
230
1.0
 40
0.577350269189626
 41
0.7853981633972646
 42
2.356194490192164
  0
LINE
  5
51A
330
D
100
AcDbEntity
 67
     1
  8
AM_VIS
100
AcDbLine
 10
11.66721922514314
 20
2.895180965844048
 30
0.0
 11
11.64219825169086
 21
2.880735100085986
 31
0.0
  0
LINE
  5
51B
330
D
100
AcDbEntity
 67
     1
  8
AM_VIS
100
AcDbLine
 10
11.64219825169086
 20
2.880735100085986
 30
0.0
 11
11.64934710124865
 21
2.876607709869396
 31
0.0
  0
LINE
  5
51C
330
D
100
AcDbEntity
 67
     1
  8
AM_VIS
100
AcDbLine
 10
11.66721922514314
 20
2.886926185410868
 30
0.0
 11
11.64934710124865
 21
2.876607709869396
 31
0.0
  0
ELLIPSE
  5
51D
330
D
100
AcDbEntity
 67
     1
  8
AM_VIS
100
AcDbEllipse
 10
11.64934710124865
 20
2.897244660952344
 30
0.0
 11
-0.0126375000000012
 21
0.0218887920806507
 31
0.0
210
0.0
220
0.0
230
0.9999999999999998
 40
0.5773502691896259
 41
2.356194490192164
 42
3.926990816987058
  0
LINE
  5
51E
330
D
100
AcDbEntity
 67
     1
  8
AM_VIS
100
AcDbLine
 10
11.66721922514314
 20
2.886926185410871
 30
0.0
 11
11.66721922514314
 21
3.235615739981546
 31
0.0
  0
ELLIPSE
  5
51F
330
D
100
AcDbEntity
 67
     1
  8
AM_VIS
100
AcDbEllipse
 10
11.84414589281357
 20
3.257784609991507
 30
0.0
 11
-0.0050499999999998
 21
0.0087468565782224
 31
0.0
210
0.0
220
0.0
230
1.0
 40
0.577350269189626
 41
3.926990816987185
 42
5.497787143782081
  0
LINE
  5
520
330
D
100
AcDbEntity
 67
     1
  8
AM_VIS
100
AcDbLine
 10
11.87377574031539
 20
3.266644794955363
 30
0.0
 11
11.85128767130355
 21
3.253661302257823
 31
0.0
  0
LINE
  5
521
330
D
100
AcDbEntity
 67
     1
  8
AM_VIS
100
AcDbLine
 10
11.85128767130355
 20
3.253661302257823
 30
0.0
 11
11.85128767130355
 21
3.202473498606298
 31
0.0
  0
LINE
  5
522
330
D
100
AcDbEntity
 67
     1
  8
AM_VIS
100
AcDbLine
 10
11.95185230551964
 20
4.076201756324072
 30
0.0
 11
11.91225432577318
 21
4.053339852058096
 31
0.0
  0
LINE
  5
523
330
D
100
AcDbEntity
 67
     1
  8
AM_VIS
100
AcDbLine
 10
12.29662893264157
 20
3.200392491470148
 30
0.0
 11
12.1301347033187
 21
3.104267003352069
 31
0.0
  0
LINE
  5
524
330
D
100
AcDbEntity
 67
     1
  8
AM_VIS
100
AcDbLine
 10
12.36248196774479
 20
2.990681046295013
 30
0.0
 11
12.34467665985633
 21
2.980401146992606
 31
0.0
  0
LINE
  5
525
330
D
100
AcDbEntity
 67
     1
  8
AM_VIS
100
AcDbLine
 10
12.57428731226021
 20
3.73690311318418
 30
0.0
 11
12.30912226931526
 21
3.583810004260231
 31
0.0
  0
LINE
  5
526
330
D
100
AcDbEntity
 67
     1
  8
AM_VIS
100
AcDbLine
 10
12.80458567408182
 20
2.969565699307501
 30
0.0
 11
12.57901861088331
 21
2.839334494649529
 31
0.0
  0
LINE
  5
527
330
D
100
AcDbEntity
 67
     1
  8
AM_VIS
100
AcDbLine
 10
12.36978399184128
 20
2.905194861816551
 30
0.0
 11
12.36589490454477
 21
2.902949496219001
 31
0.0
  0
LINE
  5
528
330
D
100
AcDbEntity
 67
     1
  8
AM_VIS
100
AcDbLine
 10
11.84982955138454
 20
3.299551468373981
 30
0.0
 11
11.81586449063575
 21
3.279941731407628
 31
0.0
  0
LINE
  5
529
330
D
100
AcDbEntity
 67
     1
  8
AM_VIS
100
AcDbLine
 10
12.29167873372609
 20
2.942027005574247
 30
0.0
 11
12.17872121631454
 21
2.876810952489691
 31
0.0
  0
LINE
  5
52A
330
D
100
AcDbEntity
 67
     1
  8
AM_VIS
100
AcDbLine
 10
11.90587284807788
 20
3.394772735987461
 30
0.0
 11
11.68030578487937
 21
3.26454153132949
 31
0.0
  0
LINE
  5
52B
330
D
100
AcDbEntity
 67
     1
  8
AM_VIS
100
AcDbLine
 10
13.07114519733544
 20
2.4420484493284
 30
0.0
 11
12.80598015439049
 21
2.288955340404453
 31
0.0
  0
LINE
  5
52C
330
D
100
AcDbEntity
 67
     1
  8
AM_VIS
100
AcDbLine
 10
13.09885529655343
 20
2.14710558678281
 30
0.0
 11
12.83369025360848
 21
1.99401247785886
 31
0.0
  0
LINE
  5
52D
330
D
100
AcDbEntity
 67
     1
  8
AM_VIS
100
AcDbLine
 10
12.70380241102356
 20
2.293519682844431
 30
0.0
 11
12.6540624104884
 21
2.264802280145966
 31
0.0
  0
LINE
  5
52E
330
D
100
AcDbEntity
 67
     1
  8
AM_VIS
100
AcDbLine
 10
12.70380241102356
 20
2.338364469200033
 30
0.0
 11
12.65436473939129
 21
2.30982161617503
 31
0.0
  0
LINE
  5
52F
330
D
100
AcDbEntity
 67
     1
  8
AM_VIS
100
AcDbLine
 10
12.05364187240864
 20
2.842128223347833
 30
0.0
 11
11.89301226148601
 21
2.749388674241828
 31
0.0
  0
LINE
  5
530
330
D
100
AcDbEntity
 67
     1
  8
AM_VIS
100
AcDbLine
 10
11.66721922514314
 20
3.043058865434514
 30
0.0
 11
11.58352688000739
 21
2.994739067441278
 31
0.0
  0
LINE
  5
531
330
D
100
AcDbEntity
 67
     1
  8
AM_VIS
100
AcDbLine
 10
12.64956732090652
 20
2.919228423145538
 30
0.0
 11
12.73088460074298
 21
2.966176976548883
 31
0.0
  0
ELLIPSE
  5
532
330
D
100
AcDbEntity
 67
     1
  8
AM_VIS
100
AcDbEllipse
 10
12.72429202624168
 20
2.966453234790551
 30
0.0
 11
0.0065867959762491
 21
-0.0004469094449675
 31
0.0
210
0.0
220
0.0
230
1.0
 40
0.617499058536575
 41
0.0418723853209404
 42
1.612668712115946
  0
LINE
  5
533
330
D
100
AcDbEntity
 67
     1
  8
AM_VIS
100
AcDbLine
 10
12.72429202624168
 20
2.970535717695189
 30
0.0
 11
12.64920332582326
 21
2.927183236295507
 31
0.0
  0
LINE
  5
534
330
D
100
AcDbEntity
 67
     1
  8
AM_VIS
100
AcDbLine
 10
12.73088460074298
 20
2.966176976548884
 30
0.0
 11
12.73088460074298
 21
2.970586058085895
 31
0.0
  0
LINE
  5
535
330
D
100
AcDbEntity
 67
     1
  8
AM_VIS
100
AcDbLine
 10
12.64956732090652
 20
2.919228423145533
 30
0.0
 11
12.64956732090652
 21
2.923637504682544
 31
0.0
  0
LINE
  5
536
330
D
100
AcDbEntity
 67
     1
  8
AM_VIS
100
AcDbLine
 10
12.58097796313143
 20
2.884037420507555
 30
0.0
 11
12.64956732090652
 21
2.923637504682547
 31
0.0
  0
LINE
  5
537
330
D
100
AcDbEntity
 67
     1
  8
AM_VIS
100
AcDbLine
 10
12.58097796313143
 20
2.884037420507553
 30
0.0
 11
12.58097796313143
 21
2.860032421028278
 31
0.0
  0
LINE
  5
538
330
D
100
AcDbEntity
 67
     1
  8
AM_VIS
100
AcDbLine
 10
12.64956732090652
 20
2.899632505203276
 30
0.0
 11
12.58097796313143
 21
2.860032421028281
 31
0.0
  0
LINE
  5
539
330
D
100
AcDbEntity
 67
     1
  8
AM_VIS
100
AcDbLine
 10
12.64956732090652
 20
2.886568559908429
 30
0.0
 11
12.64956732090652
 21
2.899632505203272
 31
0.0
  0
LINE
  5
53A
330
D
100
AcDbEntity
 67
     1
  8
AM_VIS
100
AcDbLine
 10
12.73088460074298
 20
2.933517113311774
 30
0.0
 11
12.64956732090652
 21
2.886568559908429
 31
0.0
  0
LINE
  5
53B
330
D
100
AcDbEntity
 67
     1
  8
AM_VIS
100
AcDbLine
 10
12.73088460074298
 20
2.946581058606617
 30
0.0
 11
12.73088460074298
 21
2.933517113311774
 31
0.0
  0
LINE
  5
53C
330
D
100
AcDbEntity
 67
     1
  8
AM_VIS
100
AcDbLine
 10
12.79947395851807
 20
2.986181142781611
 30
0.0
 11
12.73088460074298
 21
2.946581058606618
 31
0.0
  0
LINE
  5
53D
330
D
100
AcDbEntity
 67
     1
  8
AM_VIS
100
AcDbLine
 10
12.79947395851807
 20
3.010186142260888
 30
0.0
 11
12.79947395851807
 21
2.986181142781613
 31
0.0
  0
LINE
  5
53E
330
D
100
AcDbEntity
 67
     1
  8
AM_VIS
100
AcDbLine
 10
12.73088460074298
 20
2.970586058085896
 30
0.0
 11
12.79947395851807
 21
3.010186142260888
 31
0.0
  0
ELLIPSE
  5
53F
330
D
100
AcDbEntity
 67
     1
  8
AM_VIS
100
AcDbEllipse
 10
12.43766390002116
 20
2.966453234790551
 30
0.0
 11
-0.0065867959762491
 21
-0.0004469094449675
 31
0.0
210
0.0
220
0.0
230
1.0
 40
0.6174990585365726
 41
4.670516595063666
 42
6.241312921858693
  0
LINE
  5
540
330
D
100
AcDbEntity
 67
     1
  8
AM_VIS
100
AcDbLine
 10
12.43107132551988
 20
2.966176976548884
 30
0.0
 11
12.51238860535634
 21
2.919228423145538
 31
0.0
  0
LINE
  5
541
330
D
100
AcDbEntity
 67
     1
  8
AM_VIS
100
AcDbLine
 10
12.5127526004396
 20
2.927183236295508
 30
0.0
 11
12.43766390002116
 21
2.970535717695189
 31
0.0
  0
LINE
  5
542
330
D
100
AcDbEntity
 67
     1
  8
AM_VIS
100
AcDbLine
 10
12.51238860535634
 20
2.919228423145538
 30
0.0
 11
12.51238860535634
 21
2.923637504682547
 31
0.0
  0
LINE
  5
543
330
D
100
AcDbEntity
 67
     1
  8
AM_VIS
100
AcDbLine
 10
12.43107132551988
 20
2.970586058085896
 30
0.0
 11
12.43107132551988
 21
2.966176976548886
 31
0.0
  0
LINE
  5
544
330
D
100
AcDbEntity
 67
     1
  8
AM_VIS
100
AcDbLine
 10
12.36248196774479
 20
3.010186142260888
 30
0.0
 11
12.43107132551988
 21
2.970586058085893
 31
0.0
  0
LINE
  5
545
330
D
100
AcDbEntity
 67
     1
  8
AM_VIS
100
AcDbLine
 10
12.36248196774478
 20
2.986181142781614
 30
0.0
 11
12.36248196774478
 21
3.010186142260888
 31
0.0
  0
LINE
  5
546
330
D
100
AcDbEntity
 67
     1
  8
AM_VIS
100
AcDbLine
 10
12.43107132551988
 20
2.946581058606619
 30
0.0
 11
12.36248196774479
 21
2.986181142781613
 31
0.0
  0
LINE
  5
547
330
D
100
AcDbEntity
 67
     1
  8
AM_VIS
100
AcDbLine
 10
12.43107132551988
 20
2.933517113311774
 30
0.0
 11
12.43107132551988
 21
2.946581058606616
 31
0.0
  0
LINE
  5
548
330
D
100
AcDbEntity
 67
     1
  8
AM_VIS
100
AcDbLine
 10
12.51238860535633
 20
2.886568559908429
 30
0.0
 11
12.43107132551988
 21
2.933517113311774
 31
0.0
  0
LINE
  5
549
330
D
100
AcDbEntity
 67
     1
  8
AM_VIS
100
AcDbLine
 10
12.51238860535634
 20
2.899632505203272
 30
0.0
 11
12.51238860535634
 21
2.886568559908429
 31
0.0
  0
LINE
  5
54A
330
D
100
AcDbEntity
 67
     1
  8
AM_VIS
100
AcDbLine
 10
12.58097796313143
 20
2.860032421028279
 30
0.0
 11
12.51238860535634
 21
2.899632505203272
 31
0.0
  0
LINE
  5
54B
330
D
100
AcDbEntity
 67
     1
  8
AM_VIS
100
AcDbLine
 10
12.51238860535633
 20
2.923637504682551
 30
0.0
 11
12.58097796313143
 21
2.884037420507556
 31
0.0
  0
ELLIPSE
  5
54C
330
D
100
AcDbEntity
 67
     1
  8
AM_VIS
100
AcDbEllipse
 10
12.43766390002116
 20
2.933793371553443
 30
0.0
 11
-0.0065867959762491
 21
-0.0004469094449675
 31
0.0
210
0.0
220
0.0
230
1.0
 40
0.6174990585365727
 41
6.241312921858302
 42
7.026711085255783
  0
ELLIPSE
  5
54D
330
D
100
AcDbEntity
 67
     1
  8
AM_VIS
100
AcDbEllipse
 10
12.51286709866691
 20
2.890374784571399
 30
0.0
 11
0.0003275784777824
 21
0.0055815404538519
 31
0.0
210
0.0
220
0.0
230
0.9999999999999998
 40
0.0624883054187576
 41
2.324856738270975
 42
3.89565306506583
  0
ELLIPSE
  5
54E
330
D
100
AcDbEntity
 67
     1
  8
AM_VIS
100
AcDbEllipse
 10
12.72429202624168
 20
2.933793371553441
 30
0.0
 11
0.0065867959762491
 21
-0.0004469094449675
 31
0.0
210
0.0
220
0.0
230
1.0
 40
0.6174990585365762
 41
5.539659529103246
 42
6.325057692500809
  0
ELLIPSE
  5
54F
330
D
100
AcDbEntity
 67
     1
  8
AM_VIS
100
AcDbEllipse
 10
12.64908882759595
 20
2.890374784571401
 30
0.0
 11
0.0003275784777824
 21
-0.0055815404538519
 31
0.0
210
0.0
220
0.0
230
0.9999999999999998
 40
0.0624883054187491
 41
5.529124895701757
 42
7.099921222496782
  0
ELLIPSE
  5
550
330
D
100
AcDbEntity
 67
     1
  8
AM_VIS
100
AcDbEllipse
 10
12.64908882759595
 20
2.903438729866245
 30
0.0
 11
0.0003275784777824
 21
-0.0055815404538519
 31
0.0
210
0.0
220
0.0
230
0.9999999999999998
 40
0.0624883054187489
 41
0.0313377519237129
 42
0.8167359153217333
  0
LINE
  5
551
330
D
100
AcDbEntity
 67
     1
  8
AM_VIS
100
AcDbLine
 10
12.64775584742085
 20
2.896895630711427
 30
0.0
 11
12.64908882759595
 21
2.886292301666765
 31
0.0
  0
ELLIPSE
  5
552
330
D
100
AcDbEntity
 67
     1
  8
AM_VIS
100
AcDbEllipse
 10
12.36955303555665
 20
2.986181142781611
 30
0.0
 11
-0.0070710678118655
 21
0.0
 31
0.0
210
0.0
220
0.0
230
1.0
 40
0.577350269189626
 41
-0.0000000000002431
 42
0.7853981633972318
  0
LINE
  5
553
330
D
100
AcDbEntity
 67
     1
  8
AM_VIS
100
AcDbLine
 10
12.58097796313143
 20
2.858341401241022
 30
0.0
 11
12.58097796313143
 21
2.860032421028281
 31
0.0
  0
ELLIPSE
  5
554
330
D
100
AcDbEntity
 67
     1
  8
AM_VIS
100
AcDbEllipse
 10
12.51286709866691
 20
2.903438729866245
 30
0.0
 11
0.0003275784777824
 21
0.0055815404538519
 31
0.0
210
0.0
220
0.0
230
0.9999999999999998
 40
0.0624883054187575
 41
2.324856738266869
 42
3.110254901663256
  0
ELLIPSE
  5
555
330
D
100
AcDbEntity
 67
     1
  8
AM_VIS
100
AcDbEllipse
 10
12.79240289070621
 20
2.986181142781611
 30
0.0
 11
0.0070710678118655
 21
0.0
 31
0.0
210
0.0
220
0.0
230
1.0
 40
0.577350269189626
 41
5.497787143782181
 42
6.283185307179717
  0
LINE
  5
556
330
D
100
AcDbEntity
 67
     1
  8
AM_VIS
100
AcDbLine
 10
12.43107132551988
 20
2.970586058085893
 30
0.0
 11
12.47677839990494
 21
2.972501388128641
 31
0.0
  0
LINE
  5
557
330
D
100
AcDbEntity
 67
     1
  8
AM_VIS
100
AcDbLine
 10
12.47722753220106
 20
2.97219361014037
 30
0.0
 11
12.43766390002116
 21
2.970535717695188
 31
0.0
  0
LINE
  5
558
330
D
100
AcDbEntity
 67
     1
  8
AM_VIS
100
AcDbLine
 10
12.45503222451353
 20
2.993357829529152
 30
0.0
 11
12.43705753789891
 21
2.992604610082377
 31
0.0
  0
ELLIPSE
  5
559
330
D
100
AcDbEntity
 67
     1
  8
AM_VIS
100
AcDbEllipse
 10
12.43705753789891
 20
2.979867263419906
 30
0.0
 11
-0.0038612676758059
 21
-0.0157199962855455
 31
0.0
210
0.0
220
0.0
230
1.0
 40
0.2909939316482407
 41
3.842651064510556
 42
5.413447391305415
  0
LINE
  5
55A
330
D
100
AcDbEntity
 67
     1
  8
AM_VIS
100
AcDbLine
 10
12.43705753789892
 20
3.053242367764341
 30
0.0
 11
12.44501946313143
 21
3.052908727626549
 31
0.0
  0
LINE
  5
55B
330
D
100
AcDbEntity
 67
     1
  8
AM_VIS
100
AcDbLine
 10
12.38454369931781
 20
3.02292348892336
 30
0.0
 11
12.43705753789892
 21
3.053242367764342
 31
0.0
  0
LINE
  5
55C
330
D
100
AcDbEntity
 67
     1
  8
AM_VIS
100
AcDbLine
 10
12.43705753789891
 20
2.992604610082378
 30
0.0
 11
12.38454369931781
 21
3.022923488923361
 31
0.0
  0
LINE
  5
55D
330
D
100
AcDbEntity
 67
     1
  8
AM_VIS
100
AcDbLine
 10
12.71693646313144
 20
3.052908727626549
 30
0.0
 11
12.72489838836395
 21
3.053242367764341
 31
0.0
  0
ELLIPSE
  5
55E
330
D
100
AcDbEntity
 67
     1
  8
AM_VIS
100
AcDbEllipse
 10
12.72489838836393
 20
3.04050502110187
 30
0.0
 11
-0.0038612676758064
 21
-0.0157199962855454
 31
0.0
210
0.0
220
0.0
230
0.9999999999999998
 40
0.2909939316482411
 41
3.057252901113523
 42
3.842651064510926
  0
LINE
  5
55F
330
D
100
AcDbEntity
 67
     1
  8
AM_VIS
100
AcDbLine
 10
12.72489838836395
 20
2.992604610082378
 30
0.0
 11
12.70692370174933
 21
2.993357829529152
 31
0.0
  0
LINE
  5
560
330
D
100
AcDbEntity
 67
     1
  8
AM_VIS
100
AcDbLine
 10
12.77741222694506
 20
3.02292348892336
 30
0.0
 11
12.72489838836395
 21
2.992604610082377
 31
0.0
  0
LINE
  5
561
330
D
100
AcDbEntity
 67
     1
  8
AM_VIS
100
AcDbLine
 10
12.72489838836395
 20
3.053242367764343
 30
0.0
 11
12.77741222694505
 21
3.022923488923361
 31
0.0
  0
ELLIPSE
  5
562
330
D
100
AcDbEntity
 67
     1
  8
AM_VIS
100
AcDbEllipse
 10
12.52846412455032
 20
2.927093646011011
 30
0.0
 11
-0.0151461934677321
 21
-0.0075243603893424
 31
0.0
210
0.0
220
0.0
230
0.9999999999999996
 40
0.7158841592412513
 41
4.370699804293928
 42
5.941496131088906
  0
LINE
  5
563
330
D
100
AcDbEntity
 67
     1
  8
AM_VIS
100
AcDbLine
 10
12.52846412455032
 20
2.93983099267348
 30
0.0
 11
12.52976873890139
 21
2.950208682829031
 31
0.0
  0
ELLIPSE
  5
564
330
D
100
AcDbEntity
 67
     1
  8
AM_VIS
100
AcDbEllipse
 10
12.77741222694505
 20
3.010186142260888
 30
0.0
 11
0.0220617315730203
 21
0.0
 31
0.0
210
0.0
220
0.0
230
1.0
 40
0.577350269189626
 41
0.0000000000000464
 42
1.570796326794963
  0
LINE
  5
565
330
D
100
AcDbEntity
 67
     1
  8
AM_VIS
100
AcDbLine
 10
12.68517752635792
 20
2.972501388128641
 30
0.0
 11
12.73088460074298
 21
2.970586058085893
 31
0.0
  0
ELLIPSE
  5
566
330
D
100
AcDbEntity
 67
     1
  8
AM_VIS
100
AcDbEllipse
 10
12.72489838836395
 20
2.979867263419904
 30
0.0
 11
-0.0038612676758064
 21
0.0157199962855454
 31
0.0
210
0.0
220
0.0
230
0.9999999999999998
 40
0.2909939316482388
 41
4.011330569463274
 42
5.582126896258209
  0
LINE
  5
567
330
D
100
AcDbEntity
 67
     1
  8
AM_VIS
100
AcDbLine
 10
12.68472839406182
 20
2.972193610140371
 30
0.0
 11
12.72429202624168
 21
2.970535717695191
 31
0.0
  0
LINE
  5
568
330
D
100
AcDbEntity
 67
     1
  8
AM_VIS
100
AcDbLine
 10
12.63349180171253
 20
2.939830992673481
 30
0.0
 11
12.58097796313143
 21
2.9095121138325
 31
0.0
  0
LINE
  5
569
330
D
100
AcDbEntity
 67
     1
  8
AM_VIS
100
AcDbLine
 10
12.58097796313143
 20
2.884037420507555
 30
0.0
 11
12.58097796313143
 21
2.9095121138325
 31
0.0
  0
ELLIPSE
  5
56A
330
D
100
AcDbEntity
 67
     1
  8
AM_VIS
100
AcDbEllipse
 10
12.63349180171253
 20
2.927093646011008
 30
0.0
 11
0.015146193467732
 21
-0.0075243603893425
 31
0.0
210
0.0
220
0.0
230
1.0
 40
0.7158841592412517
 41
0.3416891760907235
 42
1.912485502885665
  0
LINE
  5
56B
330
D
100
AcDbEntity
 67
     1
  8
AM_VIS
100
AcDbLine
 10
12.58097796313143
 20
2.9095121138325
 30
0.0
 11
12.52846412455033
 21
2.93983099267348
 31
0.0
  0
LINE
  5
56C
330
D
100
AcDbEntity
 67
     1
  8
AM_VIS
100
AcDbLine
 10
12.63218718736147
 20
2.950208682829032
 30
0.0
 11
12.63349180171253
 21
2.939830992673481
 31
0.0
  0
ELLIPSE
  5
56D
330
D
100
AcDbEntity
 67
     1
  8
AM_VIS
100
AcDbEllipse
 10
12.38454369931781
 20
3.010186142260888
 30
0.0
 11
-0.0220617315730203
 21
0.0
 31
0.0
210
0.0
220
0.0
230
1.0
 40
0.577350269189626
 41
4.712388980384749
 42
6.283185307179619
  0
ELLIPSE
  5
56E
330
D
100
AcDbEntity
 67
     1
  8
AM_VIS
100
AcDbEllipse
 10
12.43705753789891
 20
3.04050502110187
 30
0.0
 11
0.0038612676758064
 21
-0.0157199962855454
 31
0.0
210
0.0
220
0.0
230
0.9999999999999998
 40
0.2909939316482389
 41
2.440534242668255
 42
3.225932406065633
  0
LINE
  5
56F
330
D
100
AcDbEntity
 67
     1
  8
AM_VIS
100
AcDbLine
 10
12.51420007884202
 20
2.896895630711427
 30
0.0
 11
12.51286709866691
 21
2.88629230166676
 31
0.0
  0
LINE
  5
570
330
D
100
AcDbEntity
 67
     1
  8
AM_VIS
100
AcDbLine
 10
12.51252875280225
 20
2.884796625955546
 30
0.0
 11
12.43300224588582
 21
2.930711276131453
 31
0.0
  0
LINE
  5
571
330
D
100
AcDbEntity
 67
     1
  8
AM_VIS
100
AcDbLine
 10
12.64942717346061
 20
2.884796625955548
 30
0.0
 11
12.72895368037703
 21
2.930711276131453
 31
0.0
  0
LINE
  5
572
330
D
100
AcDbEntity
 67
     1
  8
AM_VIS
100
AcDbLine
 10
12.43107132551988
 20
2.944890038819361
 30
0.0
 11
12.36455303555665
 21
2.983294391435665
 31
0.0
  0
LINE
  5
573
330
D
100
AcDbEntity
 67
     1
  8
AM_VIS
100
AcDbLine
 10
12.64942717346061
 20
2.897860571250392
 30
0.0
 11
12.58097796313143
 21
2.858341401241021
 31
0.0
  0
LINE
  5
574
330
D
100
AcDbEntity
 67
     1
  8
AM_VIS
100
AcDbLine
 10
12.58097796313143
 20
2.858341401241022
 30
0.0
 11
12.51252875280225
 21
2.897860571250391
 31
0.0
  0
LINE
  5
575
330
D
100
AcDbEntity
 67
     1
  8
AM_VIS
100
AcDbLine
 10
12.79740289070621
 20
2.983294391435665
 30
0.0
 11
12.73088460074298
 21
2.944890038819363
 31
0.0
  0
LINE
  5
576
330
D
100
AcDbEntity
 67
     1
  8
AM_VIS
100
AcDbLine
 10
12.72836058268027
 20
3.056263793130502
 30
0.0
 11
12.71693646313144
 21
3.055785071626704
 31
0.0
  0
LINE
  5
577
330
D
100
AcDbEntity
 67
     1
  8
AM_VIS
100
AcDbLine
 10
12.51611584172573
 20
2.953936487903838
 30
0.0
 11
12.51247219016093
 21
2.924952683652731
 31
0.0
  0
LINE
  5
578
330
D
100
AcDbEntity
 67
     1
  8
AM_VIS
100
AcDbLine
 10
12.72913127973078
 20
3.056074488530493
 30
0.0
 11
12.79301222694505
 21
3.019192806460248
 31
0.0
  0
LINE
  5
579
330
D
100
AcDbEntity
 67
     1
  8
AM_VIS
100
AcDbLine
 10
12.64948373610192
 20
2.924952683652731
 30
0.0
 11
12.64584008453713
 21
2.953936487903836
 31
0.0
  0
LINE
  5
57A
330
D
100
AcDbEntity
 67
     1
  8
AM_VIS
100
AcDbLine
 10
12.43282464653208
 20
3.056074488530493
 30
0.0
 11
12.36894369931781
 21
3.019192806460246
 31
0.0
  0
LINE
  5
57B
330
D
100
AcDbEntity
 67
     1
  8
AM_VIS
100
AcDbLine
 10
12.44501946313143
 20
3.055785071626703
 30
0.0
 11
12.43359534358259
 21
3.056263793130502
 31
0.0
  0
LINE
  5
57C
330
D
100
AcDbEntity
 67
     1
  8
AM_VIS
100
AcDbLine
 10
12.06832554677118
 20
3.180017431093856
 30
0.0
 11
12.08208697610395
 21
3.187962596023563
 31
0.0
  0
LINE
  5
57D
330
D
100
AcDbEntity
 67
     1
  8
AM_VIS
100
AcDbLine
 10
12.06832554677118
 20
3.180017431093854
 30
0.0
 11
12.06832554677118
 21
3.15601243161458
 31
0.0
  0
LINE
  5
57E
330
D
100
AcDbEntity
 67
     1
  8
AM_VIS
100
AcDbLine
 10
12.08208697610395
 20
3.163957596544287
 30
0.0
 11
12.06832554677118
 21
3.156012431614581
 31
0.0
  0
ELLIPSE
  5
57F
330
D
100
AcDbEntity
 67
     1
  8
AM_VIS
100
AcDbEllipse
 10
11.92501148366091
 20
3.262433245376852
 30
0.0
 11
-0.0065867959762491
 21
-0.0004469094449675
 31
0.0
210
0.0
220
0.0
230
1.0
 40
0.6174990585365726
 41
4.670516595063689
 42
6.241312921858716
  0
LINE
  5
580
330
D
100
AcDbEntity
 67
     1
  8
AM_VIS
100
AcDbLine
 10
11.91841890915963
 20
3.262156987135183
 30
0.0
 11
11.99973618899609
 21
3.215208433731836
 31
0.0
  0
LINE
  5
581
330
D
100
AcDbEntity
 67
     1
  8
AM_VIS
100
AcDbLine
 10
12.00010018407935
 20
3.223163246881806
 30
0.0
 11
11.92501148366091
 21
3.266515728281488
 31
0.0
  0
LINE
  5
582
330
D
100
AcDbEntity
 67
     1
  8
AM_VIS
100
AcDbLine
 10
11.99973618899609
 20
3.215208433731839
 30
0.0
 11
11.99973618899609
 21
3.21961751526885
 31
0.0
  0
LINE
  5
583
330
D
100
AcDbEntity
 67
     1
  8
AM_VIS
100
AcDbLine
 10
11.91841890915963
 20
3.266566068672196
 30
0.0
 11
11.91841890915963
 21
3.262156987135186
 31
0.0
  0
LINE
  5
584
330
D
100
AcDbEntity
 67
     1
  8
AM_VIS
100
AcDbLine
 10
11.84982955138454
 20
3.306166152847189
 30
0.0
 11
11.91841890915964
 21
3.266566068672196
 31
0.0
  0
LINE
  5
585
330
D
100
AcDbEntity
 67
     1
  8
AM_VIS
100
AcDbLine
 10
11.84982955138454
 20
3.282161153367915
 30
0.0
 11
11.84982955138454
 21
3.306166152847191
 31
0.0
  0
LINE
  5
586
330
D
100
AcDbEntity
 67
     1
  8
AM_VIS
100
AcDbLine
 10
11.91841890915963
 20
3.242561069192921
 30
0.0
 11
11.84982955138454
 21
3.282161153367915
 31
0.0
  0
LINE
  5
587
330
D
100
AcDbEntity
 67
     1
  8
AM_VIS
100
AcDbLine
 10
11.91841890915963
 20
3.229497123898076
 30
0.0
 11
11.91841890915963
 21
3.242561069192919
 31
0.0
  0
LINE
  5
588
330
D
100
AcDbEntity
 67
     1
  8
AM_VIS
100
AcDbLine
 10
11.99973618899609
 20
3.182548570494731
 30
0.0
 11
11.91841890915963
 21
3.229497123898076
 31
0.0
  0
LINE
  5
589
330
D
100
AcDbEntity
 67
     1
  8
AM_VIS
100
AcDbLine
 10
11.99973618899609
 20
3.195612515789573
 30
0.0
 11
11.99973618899609
 21
3.182548570494728
 31
0.0
  0
LINE
  5
58A
330
D
100
AcDbEntity
 67
     1
  8
AM_VIS
100
AcDbLine
 10
12.06832554677118
 20
3.156012431614581
 30
0.0
 11
11.99973618899609
 21
3.195612515789573
 31
0.0
  0
LINE
  5
58B
330
D
100
AcDbEntity
 67
     1
  8
AM_VIS
100
AcDbLine
 10
11.99973618899609
 20
3.219617515268848
 30
0.0
 11
12.06832554677118
 21
3.180017431093853
 31
0.0
  0
ELLIPSE
  5
58C
330
D
100
AcDbEntity
 67
     1
  8
AM_VIS
100
AcDbEllipse
 10
11.92501148366091
 20
3.229773382139745
 30
0.0
 11
-0.0065867959762491
 21
-0.0004469094449675
 31
0.0
210
0.0
220
0.0
230
1.0
 40
0.6174990585365727
 41
6.241312921858302
 42
7.026711085255783
  0
ELLIPSE
  5
58D
330
D
100
AcDbEntity
 67
     1
  8
AM_VIS
100
AcDbEllipse
 10
12.00021468230667
 20
3.186354795157701
 30
0.0
 11
0.0003275784777824
 21
0.0055815404538519
 31
0.0
210
0.0
220
0.0
230
0.9999999999999998
 40
0.0624883054187576
 41
2.324856738270999
 42
3.895653065065852
  0
ELLIPSE
  5
58E
330
D
100
AcDbEntity
 67
     1
  8
AM_VIS
100
AcDbEllipse
 10
11.8569006191964
 20
3.282161153367913
 30
0.0
 11
-0.0070710678118655
 21
0.0
 31
0.0
210
0.0
220
0.0
230
1.0
 40
0.577350269189626
 41
-0.0000000000001996
 42
0.78539816339727
  0
LINE
  5
58F
330
D
100
AcDbEntity
 67
     1
  8
AM_VIS
100
AcDbLine
 10
12.06832554677118
 20
3.154321411827321
 30
0.0
 11
12.06832554677118
 21
3.15601243161458
 31
0.0
  0
ELLIPSE
  5
590
330
D
100
AcDbEntity
 67
     1
  8
AM_VIS
100
AcDbEllipse
 10
12.00021468230667
 20
3.199418740452544
 30
0.0
 11
0.0003275784777824
 21
0.0055815404538519
 31
0.0
210
0.0
220
0.0
230
0.9999999999999998
 40
0.0624883054187575
 41
2.324856738266869
 42
3.110254901663256
  0
LINE
  5
591
330
D
100
AcDbEntity
 67
     1
  8
AM_VIS
100
AcDbLine
 10
11.91841890915963
 20
3.266566068672196
 30
0.0
 11
11.96412598354469
 21
3.268481398714944
 31
0.0
  0
LINE
  5
592
330
D
100
AcDbEntity
 67
     1
  8
AM_VIS
100
AcDbLine
 10
11.9645751158408
 20
3.268173620726671
 30
0.0
 11
11.92501148366091
 21
3.26651572828149
 31
0.0
  0
LINE
  5
593
330
D
100
AcDbEntity
 67
     1
  8
AM_VIS
100
AcDbLine
 10
11.94237980815328
 20
3.289337840115453
 30
0.0
 11
11.92440512153867
 21
3.288584620668678
 31
0.0
  0
ELLIPSE
  5
594
330
D
100
AcDbEntity
 67
     1
  8
AM_VIS
100
AcDbEllipse
 10
11.92440512153867
 20
3.275847274006208
 30
0.0
 11
-0.0038612676758059
 21
-0.0157199962855455
 31
0.0
210
0.0
220
0.0
230
1.0
 40
0.2909939316482407
 41
3.842651064510556
 42
5.413447391305415
  0
LINE
  5
595
330
D
100
AcDbEntity
 67
     1
  8
AM_VIS
100
AcDbLine
 10
11.92440512153867
 20
3.349222378350643
 30
0.0
 11
11.93236704677117
 21
3.348888738212851
 31
0.0
  0
LINE
  5
596
330
D
100
AcDbEntity
 67
     1
  8
AM_VIS
100
AcDbLine
 10
11.87189128295756
 20
3.31890349950966
 30
0.0
 11
11.92440512153867
 21
3.349222378350642
 31
0.0
  0
LINE
  5
597
330
D
100
AcDbEntity
 67
     1
  8
AM_VIS
100
AcDbLine
 10
11.92440512153867
 20
3.288584620668681
 30
0.0
 11
11.87189128295756
 21
3.318903499509663
 31
0.0
  0
ELLIPSE
  5
598
330
D
100
AcDbEntity
 67
     1
  8
AM_VIS
100
AcDbEllipse
 10
12.01581170819006
 20
3.223073656597311
 30
0.0
 11
-0.0151461934677321
 21
-0.0075243603893424
 31
0.0
210
0.0
220
0.0
230
0.9999999999999996
 40
0.7158841592412513
 41
4.370699804293928
 42
5.941496131088906
  0
LINE
  5
599
330
D
100
AcDbEntity
 67
     1
  8
AM_VIS
100
AcDbLine
 10
12.01581170819008
 20
3.23581100325978
 30
0.0
 11
12.01711632254114
 21
3.246188693415333
 31
0.0
  0
LINE
  5
59A
330
D
100
AcDbEntity
 67
     1
  8
AM_VIS
100
AcDbLine
 10
12.08208697610395
 20
3.213437289348508
 30
0.0
 11
12.06832554677118
 21
3.205492124418801
 31
0.0
  0
LINE
  5
59B
330
D
100
AcDbEntity
 67
     1
  8
AM_VIS
100
AcDbLine
 10
12.06832554677118
 20
3.180017431093856
 30
0.0
 11
12.06832554677118
 21
3.205492124418801
 31
0.0
  0
LINE
  5
59C
330
D
100
AcDbEntity
 67
     1
  8
AM_VIS
100
AcDbLine
 10
12.06832554677118
 20
3.205492124418801
 30
0.0
 11
12.01581170819008
 21
3.235811003259781
 31
0.0
  0
ELLIPSE
  5
59D
330
D
100
AcDbEntity
 67
     1
  8
AM_VIS
100
AcDbEllipse
 10
11.87189128295756
 20
3.306166152847189
 30
0.0
 11
-0.0220617315730203
 21
0.0
 31
0.0
210
0.0
220
0.0
230
1.0
 40
0.577350269189626
 41
4.712388980384749
 42
6.283185307179627
  0
ELLIPSE
  5
59E
330
D
100
AcDbEntity
 67
     1
  8
AM_VIS
100
AcDbEllipse
 10
11.92440512153867
 20
3.336485031688171
 30
0.0
 11
0.0038612676758064
 21
-0.0157199962855454
 31
0.0
210
0.0
220
0.0
230
0.9999999999999998
 40
0.2909939316482389
 41
2.440534242668255
 42
3.225932406065638
  0
LINE
  5
59F
330
D
100
AcDbEntity
 67
     1
  8
AM_VIS
100
AcDbLine
 10
12.00154766248177
 20
3.192875641297727
 30
0.0
 11
12.00021468230667
 21
3.18227231225306
 31
0.0
  0
LINE
  5
5A0
330
D
100
AcDbEntity
 67
     1
  8
AM_VIS
100
AcDbLine
 10
11.999876336442
 20
3.180776636541848
 30
0.0
 11
11.92034982952558
 21
3.226691286717754
 31
0.0
  0
LINE
  5
5A1
330
D
100
AcDbEntity
 67
     1
  8
AM_VIS
100
AcDbLine
 10
11.91841890915963
 20
3.240870049405661
 30
0.0
 11
11.8519006191964
 21
3.279274402021966
 31
0.0
  0
LINE
  5
5A2
330
D
100
AcDbEntity
 67
     1
  8
AM_VIS
100
AcDbLine
 10
12.08208697610394
 20
3.162266576757029
 30
0.0
 11
12.06832554677118
 21
3.154321411827323
 31
0.0
  0
LINE
  5
5A3
330
D
100
AcDbEntity
 67
     1
  8
AM_VIS
100
AcDbLine
 10
12.06832554677118
 20
3.154321411827321
 30
0.0
 11
11.99987633644201
 21
3.193840581836689
 31
0.0
  0
LINE
  5
5A4
330
D
100
AcDbEntity
 67
     1
  8
AM_VIS
100
AcDbLine
 10
12.00346342536549
 20
3.249916498490139
 30
0.0
 11
11.99981977380068
 21
3.220932694239033
 31
0.0
  0
LINE
  5
5A5
330
D
100
AcDbEntity
 67
     1
  8
AM_VIS
100
AcDbLine
 10
11.92017223017183
 20
3.352054499116793
 30
0.0
 11
11.85629128295756
 21
3.315172817046548
 31
0.0
  0
LINE
  5
5A6
330
D
100
AcDbEntity
 67
     1
  8
AM_VIS
100
AcDbLine
 10
11.93236704677119
 20
3.351765082213008
 30
0.0
 11
11.92094292722233
 21
3.352243803716806
 31
0.0
  0
ELLIPSE
  5
5A7
330
D
100
AcDbEntity
 67
     1
  8
AM_VIS
100
AcDbEllipse
 10
12.08018160617134
 20
3.210274753141583
 30
0.0
 11
0.1104904058810084
 21
0.1913749967348135
 31
0.0
210
0.0
220
0.0
230
0.9999999999999998
 40
0.577350269189626
 41
0.8613465220998913
 42
1.184436107448795
  0
ELLIPSE
  5
5A8
330
D
100
AcDbEntity
 67
     1
  8
AM_VIS
100
AcDbEllipse
 10
12.05646948737103
 20
3.223964951314
 30
0.0
 11
0.1104904058810198
 21
0.1913749967348068
 31
0.0
210
0.0
220
0.0
230
1.0
 40
0.577350269189626
 41
0.861346522100063
 42
1.184436107448967
  0
LINE
  5
5A9
330
D
100
AcDbEntity
 67
     1
  8
AM_VIS
100
AcDbLine
 10
11.99575862297675
 20
3.355168143526308
 30
0.0
 11
12.04461342797088
 21
3.38337447834087
 31
0.0
  0
LINE
  5
5AA
330
D
100
AcDbEntity
 67
     1
  8
AM_VIS
100
AcDbLine
 10
12.04461342797088
 20
3.397029805404373
 30
0.0
 11
12.04461342797088
 21
3.383374478340871
 31
0.0
  0
ELLIPSE
  5
5AB
330
D
100
AcDbEntity
 67
     1
  8
AM_VIS
100
AcDbEllipse
 10
12.05646948737103
 20
3.223964951314
 30
0.0
 11
0.1104904058810198
 21
0.1913749967348068
 31
0.0
210
0.0
220
0.0
230
1.0
 40
0.577350269189626
 41
0.6207101728361156
 42
0.7094498046951696
  0
LINE
  5
5AC
330
D
100
AcDbEntity
 67
     1
  8
AM_VIS
100
AcDbLine
 10
12.06832554677119
 20
3.397064676513283
 30
0.0
 11
12.06832554677119
 21
3.410720003576787
 31
0.0
  0
LINE
  5
5AD
330
D
100
AcDbEntity
 67
     1
  8
AM_VIS
100
AcDbLine
 10
12.06832554677119
 20
3.397064676513283
 30
0.0
 11
12.08208697610395
 21
3.405009841442988
 31
0.0
  0
ELLIPSE
  5
5AE
330
D
100
AcDbEntity
 67
     1
  8
AM_VIS
100
AcDbEllipse
 10
12.08018160617134
 20
3.223964951314
 30
0.0
 11
-0.1104904058810083
 21
0.1913749967348135
 31
0.0
210
0.0
220
0.0
230
1.0
 40
0.5773502691896259
 41
5.573735502484579
 42
5.896825087833493
  0
LINE
  5
5AF
330
D
100
AcDbEntity
 67
     1
  8
AM_VIS
100
AcDbLine
 10
12.01947074177706
 20
3.425271011327848
 30
0.0
 11
12.06832554677118
 21
3.397064676513286
 31
0.0
  0
ELLIPSE
  5
5B0
330
D
100
AcDbEntity
 67
     1
  8
AM_VIS
100
AcDbEllipse
 10
12.06832554677119
 20
3.38337447834087
 30
0.0
 11
0.087480000000001
 21
-0.0000000000000052
 31
0.0
210
0.0
220
0.0
230
1.0
 40
0.5773502691896258
 41
2.163334474092931
 42
2.549054506292066
  0
ELLIPSE
  5
5B1
330
D
100
AcDbEntity
 67
     1
  8
AM_VIS
100
AcDbEllipse
 10
12.06832554677119
 20
3.38337447834087
 30
0.0
 11
0.087480000000001
 21
-0.0000000000000052
 31
0.0
210
0.0
220
0.0
230
1.0
 40
0.5773502691896258
 41
3.734130800887859
 42
4.119850833086998
  0
ELLIPSE
  5
5B2
330
D
100
AcDbEntity
 67
     1
  8
AM_VIS
100
AcDbEllipse
 10
12.05646948737103
 20
3.210274753141583
 30
0.0
 11
-0.1104904058810197
 21
0.1913749967348069
 31
0.0
210
0.0
220
0.0
230
0.9999999999999998
 40
0.5773502691896259
 41
5.573735502484407
 42
5.896825087833319
  0
ELLIPSE
  5
5B3
330
D
100
AcDbEntity
 67
     1
  8
AM_VIS
100
AcDbEllipse
 10
12.05646948737103
 20
3.210274753141583
 30
0.0
 11
-0.1104904058810197
 21
0.1913749967348069
 31
0.0
210
0.0
220
0.0
230
0.9999999999999998
 40
0.5773502691896259
 41
5.333099153220454
 42
5.421838785079509
  0
ELLIPSE
  5
5B4
330
D
100
AcDbEntity
 67
     1
  8
AM_VIS
100
AcDbEllipse
 10
12.06832554677119
 20
3.318903499509658
 30
0.0
 11
0.1359585000000001
 21
0.0
 31
0.0
210
0.0
220
0.0
230
1.0
 40
0.5773502691896255
 41
3.141592653589778
 42
4.813780479257518
  0
ELLIPSE
  5
5B5
330
D
100
AcDbEntity
 67
     1
  8
AM_VIS
100
AcDbEllipse
 10
12.06832554677118
 20
3.354065498461983
 30
0.0
 11
0.1359585000000001
 21
0.0
 31
0.0
210
0.0
220
0.0
230
1.0
 40
0.5773502691896255
 41
3.141592653589786
 42
4.813780479257527
  0
ELLIPSE
  5
5B6
330
D
100
AcDbEntity
 67
     1
  8
AM_VIS
100
AcDbEllipse
 10
12.06832554677119
 20
3.363709558055937
 30
0.0
 11
0.1299262816901407
 21
0.0
 31
0.0
210
0.0
220
0.0
230
1.0
 40
0.5773502691896259
 41
1.785236471432563
 42
4.81850523532899
  0
LINE
  5
5B7
330
D
100
AcDbEntity
 67
     1
  8
AM_VIS
100
AcDbLine
 10
11.93236704677119
 20
3.318903499509662
 30
0.0
 11
11.93236704677119
 21
3.354065498461983
 31
0.0
  0
SPLINE
  5
5B8
330
D
100
AcDbEntity
 67
     1
  8
AM_VIS
100
AcDbSpline
210
-0.0000000000001822
220
0.0000000000002644
230
-1.0
 70
     8
 71
     1
 72
    13
 73
    11
 74
     0
 42
0.0000000001
 43
0.0000000001
 40
2.57063463483058
 40
2.57063463483058
 40
2.706270253046246
 40
2.841905871261911
 40
2.977541489477576
 40
3.113177107693243
 40
3.248812725908909
 40
3.384448344124573
 40
3.52008396234024
 40
3.655719580555904
 40
3.791355198771571
 40
3.926990816987236
 40
3.926990816987236
 10
12.04067717823442
 20
3.437004410970001
 30
-0.0000000000000036
 10
12.02368913082359
 20
3.434159425332328
 30
-0.0000000000000036
 10
12.00741086729013
 20
3.429985043267464
 30
-0.0000000000000018
 10
11.99209776846307
 20
3.424519771237013
 30
-0.0000000000000018
 10
11.97798965161726
 20
3.417805744712211
 30
-0.0000000000000018
 10
11.96531324600473
 20
3.409881759693939
 30
-0.0000000000000036
 10
11.95429299932573
 20
3.400778030107752
 30
-0.0000000000000018
 10
11.94517375320238
 20
3.390521651420526
 30
-0.0000000000000036
 10
11.93825040675852
 20
3.379171009750444
 30
-0.0000000000000053
 10
11.93387285506001
 20
3.366895420917363
 30
-0.0000000000000036
 10
11.93236704677117
 20
3.354065498461983
 30
-0.0000000000000071
  0
ARC
  5
5B9
330
D
100
AcDbEntity
 67
     1
  8
AM_VIS
100
AcDbCircle
 10
12.06832554677119
 20
3.217119852227793
 30
0.0
 40
0.2216159999999996
100
AcDbArc
 50
86.43988063837474
 51
97.16678070440492
  0
ELLIPSE
  5
5BA
330
D
100
AcDbEntity
 67
     1
  8
AM_VIS
100
AcDbEllipse
 10
12.59283402253159
 20
2.914294742555281
 30
0.0
 11
0.1104904058810084
 21
0.1913749967348135
 31
0.0
210
0.0
220
0.0
230
0.9999999999999998
 40
0.577350269189626
 41
0.8613465220998904
 42
1.184436107448795
  0
ELLIPSE
  5
5BB
330
D
100
AcDbEntity
 67
     1
  8
AM_VIS
100
AcDbEllipse
 10
12.59283402253159
 20
2.914294742555281
 30
0.0
 11
0.1104904058810084
 21
0.1913749967348135
 31
0.0
210
0.0
220
0.0
230
0.9999999999999998
 40
0.577350269189626
 41
0.3863602193460959
 42
0.7094498046949971
  0
LINE
  5
5BC
330
D
100
AcDbEntity
 67
     1
  8
AM_VIS
100
AcDbLine
 10
12.60469008193174
 20
3.101049794818069
 30
0.0
 11
12.60469008193174
 21
3.087394467754568
 31
0.0
  0
ELLIPSE
  5
5BD
330
D
100
AcDbEntity
 67
     1
  8
AM_VIS
100
AcDbEllipse
 10
12.56912190373127
 20
2.927984940727698
 30
0.0
 11
0.1104904058810198
 21
0.1913749967348068
 31
0.0
210
0.0
220
0.0
230
1.0
 40
0.577350269189626
 41
0.861346522100063
 42
1.184436107448967
  0
LINE
  5
5BE
330
D
100
AcDbEntity
 67
     1
  8
AM_VIS
100
AcDbLine
 10
12.50841103933701
 20
3.059188132940006
 30
0.0
 11
12.55726584433113
 21
3.087394467754569
 31
0.0
  0
LINE
  5
5BF
330
D
100
AcDbEntity
 67
     1
  8
AM_VIS
100
AcDbLine
 10
12.55726584433113
 20
3.101049794818071
 30
0.0
 11
12.55726584433113
 21
3.087394467754569
 31
0.0
  0
ELLIPSE
  5
5C0
330
D
100
AcDbEntity
 67
     1
  8
AM_VIS
100
AcDbEllipse
 10
12.56912190373127
 20
2.927984940727698
 30
0.0
 11
0.1104904058810198
 21
0.1913749967348068
 31
0.0
210
0.0
220
0.0
230
1.0
 40
0.577350269189626
 41
0.3863602193462687
 42
0.7094498046951696
  0
LINE
  5
5C1
330
D
100
AcDbEntity
 67
     1
  8
AM_VIS
100
AcDbLine
 10
12.58097796313143
 20
3.101084665926982
 30
0.0
 11
12.58097796313143
 21
3.114739992990484
 31
0.0
  0
LINE
  5
5C2
330
D
100
AcDbEntity
 67
     1
  8
AM_VIS
100
AcDbLine
 10
12.58097796313143
 20
3.101084665926982
 30
0.0
 11
12.62983276812555
 21
3.129291000741544
 31
0.0
  0
ELLIPSE
  5
5C3
330
D
100
AcDbEntity
 67
     1
  8
AM_VIS
100
AcDbEllipse
 10
12.59283402253159
 20
2.927984940727698
 30
0.0
 11
-0.1104904058810083
 21
0.1913749967348135
 31
0.0
210
0.0
220
0.0
230
1.0
 40
0.5773502691896259
 41
5.573735502484575
 42
5.896825087833487
  0
LINE
  5
5C4
330
D
100
AcDbEntity
 67
     1
  8
AM_VIS
100
AcDbLine
 10
12.53212315813731
 20
3.129291000741546
 30
0.0
 11
12.58097796313143
 21
3.101084665926983
 31
0.0
  0
LINE
  5
5C5
330
D
100
AcDbEntity
 67
     1
  8
AM_VIS
100
AcDbLine
 10
12.60469008193174
 20
3.087394467754569
 30
0.0
 11
12.65354488692586
 21
3.059188132940006
 31
0.0
  0
ELLIPSE
  5
5C6
330
D
100
AcDbEntity
 67
     1
  8
AM_VIS
100
AcDbEllipse
 10
12.59283402253159
 20
2.927984940727698
 30
0.0
 11
-0.1104904058810083
 21
0.1913749967348135
 31
0.0
210
0.0
220
0.0
230
1.0
 40
0.5773502691896259
 41
5.098749199730781
 42
5.421838785079676
  0
ELLIPSE
  5
5C7
330
D
100
AcDbEntity
 67
     1
  8
AM_VIS
100
AcDbEllipse
 10
12.58097796313143
 20
3.087394467754569
 30
0.0
 11
0.087480000000001
 21
-0.0000000000000052
 31
0.0
210
0.0
220
0.0
230
1.0
 40
0.5773502691896258
 41
5.304927127682746
 42
5.69064715988187
  0
ELLIPSE
  5
5C8
330
D
100
AcDbEntity
 67
     1
  8
AM_VIS
100
AcDbEllipse
 10
12.58097796313143
 20
3.087394467754569
 30
0.0
 11
0.087480000000001
 21
-0.0000000000000052
 31
0.0
210
0.0
220
0.0
230
1.0
 40
0.5773502691896258
 41
0.5925381472980252
 42
0.9782581794971624
  0
ELLIPSE
  5
5C9
330
D
100
AcDbEntity
 67
     1
  8
AM_VIS
100
AcDbEllipse
 10
12.58097796313143
 20
3.087394467754569
 30
0.0
 11
0.087480000000001
 21
-0.0000000000000052
 31
0.0
210
0.0
220
0.0
230
1.0
 40
0.5773502691896258
 41
2.163334474092931
 42
2.549054506292066
  0
ELLIPSE
  5
5CA
330
D
100
AcDbEntity
 67
     1
  8
AM_VIS
100
AcDbEllipse
 10
12.58097796313143
 20
3.087394467754569
 30
0.0
 11
0.087480000000001
 21
-0.0000000000000052
 31
0.0
210
0.0
220
0.0
230
1.0
 40
0.5773502691896258
 41
3.734130800887859
 42
4.119850833086998
  0
ELLIPSE
  5
5CB
330
D
100
AcDbEntity
 67
     1
  8
AM_VIS
100
AcDbEllipse
 10
12.56912190373127
 20
2.914294742555281
 30
0.0
 11
-0.1104904058810197
 21
0.1913749967348069
 31
0.0
210
0.0
220
0.0
230
0.9999999999999998
 40
0.5773502691896259
 41
5.573735502484407
 42
5.896825087833319
  0
ELLIPSE
  5
5CC
330
D
100
AcDbEntity
 67
     1
  8
AM_VIS
100
AcDbEllipse
 10
12.56912190373127
 20
2.914294742555281
 30
0.0
 11
-0.1104904058810197
 21
0.1913749967348069
 31
0.0
210
0.0
220
0.0
230
0.9999999999999998
 40
0.5773502691896259
 41
5.098749199730612
 42
5.421838785079509
  0
ELLIPSE
  5
5CD
330
D
100
AcDbEntity
 67
     1
  8
AM_VIS
100
AcDbEllipse
 10
12.58097796313143
 20
3.022923488923358
 30
0.0
 11
0.1359585000000001
 21
0.0
 31
0.0
210
0.0
220
0.0
230
1.0
 40
0.5773502691896255
 41
3.141592653589786
 42
6.283185307179581
  0
ELLIPSE
  5
5CE
330
D
100
AcDbEntity
 67
     1
  8
AM_VIS
100
AcDbEllipse
 10
12.58097796313143
 20
3.05808548787568
 30
0.0
 11
0.1359585000000001
 21
0.0
 31
0.0
210
0.0
220
0.0
230
1.0
 40
0.5773502691896255
 41
3.141592653589786
 42
6.283185307179588
  0
ELLIPSE
  5
5CF
330
D
100
AcDbEntity
 67
     1
  8
AM_VIS
100
AcDbEllipse
 10
12.58097796313143
 20
3.067729547469634
 30
0.0
 11
0.1299262816901407
 21
0.0
 31
0.0
210
0.0
220
0.0
230
1.0
 40
0.5773502691896259
 41
0.785398163397451
 42
1.35635618215752
  0
ELLIPSE
  5
5D0
330
D
100
AcDbEntity
 67
     1
  8
AM_VIS
100
AcDbEllipse
 10
12.58097796313143
 20
3.067729547469634
 30
0.0
 11
0.1299262816901407
 21
0.0
 31
0.0
210
0.0
220
0.0
230
1.0
 40
0.5773502691896259
 41
1.785236471432563
 42
7.068583470577063
  0
LINE
  5
5D1
330
D
100
AcDbEntity
 67
     1
  8
AM_VIS
100
AcDbLine
 10
12.44501946313143
 20
3.02292348892336
 30
0.0
 11
12.44501946313143
 21
3.05808548787568
 31
0.0
  0
LINE
  5
5D2
330
D
100
AcDbEntity
 67
     1
  8
AM_VIS
100
AcDbLine
 10
12.71693646313144
 20
3.022923488923358
 30
0.0
 11
12.71693646313144
 21
3.058085487875678
 31
0.0
  0
SPLINE
  5
5D3
330
D
100
AcDbEntity
 67
     1
  8
AM_VIS
100
AcDbSpline
210
0.0000000000000244
220
0.0000000000000376
230
-1.0
 70
     8
 71
     1
 72
    14
 73
    12
 74
     0
 42
0.0000000001
 43
0.0000000001
 40
0.7853981633974483
 40
0.7853981633974483
 40
0.9186485505907967
 40
1.051898937784145
 40
1.187534555999925
 40
1.323170174215706
 40
1.458805792431486
 40
1.594441410647266
 40
1.730077028863048
 40
1.865712647078829
 40
2.001348265294609
 40
2.13698388351039
 40
2.141754345555254
 40
2.141754345555254
 10
12.71693646313143
 20
3.058085487875683
 30
-0.0000000000000036
 10
12.71548272397822
 20
3.070693154002386
 30
-0.0000000000000053
 10
12.71125239909065
 20
3.082773434311033
 30
-0.0000000000000036
 10
12.7044124354729
 20
3.094160439646163
 30
-0.0000000000000053
 10
12.69536504903732
 20
3.104456661433131
 30
-0.0000000000000053
 10
12.68440729969332
 20
3.113601427363026
 30
-0.0000000000000036
 10
12.671785295646
 20
3.121567363124793
 30
-0.0000000000000036
 10
12.65772374360949
 20
3.128324563131033
 30
-0.0000000000000036
 10
12.64244904741444
 20
3.133834471372653
 30
-0.0000000000000018
 10
12.62620048544099
 20
3.138054948617003
 30
-0.0000000000000053
 10
12.60923290883432
 20
3.140947253715021
 30
-0.0000000000000071
 10
12.60862633166803
 20
3.141024400383717
 30
-0.0000000000000018
  0
SPLINE
  5
5D4
330
D
100
AcDbEntity
 67
     1
  8
AM_VIS
100
AcDbSpline
210
0.0000000000000933
220
-0.0000000000001353
230
1.0
 70
     8
 71
     1
 72
    13
 73
    11
 74
     0
 42
0.0000000001
 43
0.0000000001
 40
2.57063463483058
 40
2.57063463483058
 40
2.706270253046246
 40
2.841905871261911
 40
2.977541489477576
 40
3.113177107693243
 40
3.248812725908909
 40
3.384448344124573
 40
3.52008396234024
 40
3.655719580555904
 40
3.791355198771571
 40
3.926990816987236
 40
3.926990816987236
 10
12.55332959459467
 20
3.141024400383702
 30
0.0
 10
12.53634154718384
 20
3.138179414746026
 30
-0.0000000000000036
 10
12.52006328365038
 20
3.134005032681161
 30
-0.0000000000000036
 10
12.50475018482332
 20
3.128539760650711
 30
-0.0000000000000036
 10
12.49064206797751
 20
3.121825734125913
 30
-0.0000000000000036
 10
12.47796566236498
 20
3.113901749107637
 30
-0.0000000000000018
 10
12.46694541568598
 20
3.104798019521455
 30
-0.0000000000000071
 10
12.45782616956264
 20
3.094541640834228
 30
-0.0000000000000053
 10
12.45090282311877
 20
3.08319099916414
 30
-0.0000000000000036
 10
12.44652527142026
 20
3.070915410331061
 30
-0.0000000000000036
 10
12.44501946313143
 20
3.058085487875683
 30
-0.0000000000000036
  0
ARC
  5
5D5
330
D
100
AcDbEntity
 67
     1
  8
AM_VIS
100
AcDbCircle
 10
12.58097796313143
 20
2.921139841641491
 30
0.0
 40
0.2216159999999996
100
AcDbArc
 50
82.83321929559509
 51
97.16678070440492
  0
LINE
  5
5D6
330
D
100
AcDbEntity
 67
     1
  8
AM_VIS
100
AcDbLine
 10
12.57692476132552
 20
2.833488895726113
 30
0.0
 11
12.57638176905372
 21
2.833175398991823
 31
0.0
  0
LINE
  5
5D7
330
D
100
AcDbEntity
 67
     1
  8
AM_VIS
100
AcDbLine
 10
12.57638176905372
 20
2.788330957277531
 30
0.0
 11
12.57638176905372
 21
2.833175398991823
 31
0.0
  0
LINE
  5
5D8
330
D
100
AcDbEntity
 67
     1
  8
AM_VIS
100
AcDbLine
 10
12.57638176905372
 20
2.833175398991823
 30
0.0
 11
11.85517675860008
 21
3.249563305918138
 31
0.0
  0
LINE
  5
5D9
330
D
100
AcDbEntity
 67
     1
  8
AM_VIS
100
AcDbLine
 10
12.36402954226214
 20
2.900255246789875
 30
0.0
 11
12.06829839387081
 21
3.070995704921366
 31
0.0
  0
LINE
  5
5DA
330
D
100
AcDbEntity
 67
     1
  8
AM_VIS
100
AcDbLine
 10
12.77467435743852
 20
2.970172066635287
 30
0.0
 11
12.79015514527007
 21
2.961234229613481
 31
0.0
  0
LINE
  5
5DB
330
D
100
AcDbEntity
 67
     1
  8
AM_VIS
100
AcDbLine
 10
12.36540157050965
 20
3.802879452185466
 30
0.0
 11
12.52698162700874
 21
3.709591163070041
 31
0.0
  0
LINE
  5
5DC
330
D
100
AcDbEntity
 67
     1
  8
AM_VIS
100
AcDbLine
 10
12.32847444446627
 20
3.492497602345116
 30
0.0
 11
12.32847444446627
 21
3.518013120499106
 31
0.0
  0
LINE
  5
5DD
330
D
100
AcDbEntity
 67
     1
  8
AM_VIS
100
AcDbLine
 10
12.32847444446627
 20
3.518013120499106
 30
0.0
 11
12.0997112586168
 21
3.650089607429975
 31
0.0
  0
LINE
  5
5DE
330
D
100
AcDbEntity
 67
     1
  8
AM_VIS
100
AcDbLine
 10
12.0997112586168
 20
3.624574089275983
 30
0.0
 11
12.0997112586168
 21
3.650089607429973
 31
0.0
  0
LINE
  5
5DF
330
D
100
AcDbEntity
 67
     1
  8
AM_VIS
100
AcDbLine
 10
12.0997112586168
 20
3.624574089275983
 30
0.0
 11
12.32847444446627
 21
3.492497602345113
 31
0.0
  0
VIEWPORT
  5
5E9
330
D
100
AcDbEntity
 67
     1
  8
0
100
AcDbViewport
 10
8.306168070806462
 20
4.835853689184231
 30
0.0
 40
17.08722982126047
 41
13.10288358750803
 68
     1
 69
     1
 12
8.306168070806462
 22
4.835853689184231
 13
0.0
 23
0.0
 14
1.0
 24
1.0
 15
0.0
 25
0.0
 16
0.0
 26
0.0
 36
1.0
 17
0.0
 27
0.0
 37
0.0
 42
50.0
 43
0.0
 44
0.0
 45
13.10288358750803
 50
0.0
 51
0.0
 72
   100
 90
    32800
  1

281
     0
 71
     0
 74
     0
110
0.0
120
0.0
130
0.0
111
1.0
121
0.0
131
0.0
112
0.0
122
1.0
132
0.0
 79
     0
146
0.0
  0
ENDSEC
  0
SECTION
  2
OBJECTS
  0
DICTIONARY
  5
8
330
0
100
AcDbDictionary
281
     1
  3
ACAD_GROUP
350
21
  3
ACAD_LAYOUT
350
C
  3
ACAD_MLINESTYLE
350
22
  3
ACAD_PLOTSETTINGS
350
23
  3
ACAD_PLOTSTYLENAME
350
7
  3
AcDbVariableDictionary
350
5E1
  3
AcmDictionary
350
6A6
  3
AMG
350
5EB
  3
AMGSNAPSETTINGS
350
6E2
  3
DWGPROPS
350
6A9
  3
MAPISURF_MODULE
350
678
  0
DICTIONARY
  5
3
330
2
100
AcDbDictionary
280
     1
281
     1
  3
ACAD_INDEX
360
6E9
  0
DICTIONARY
  5
21
102
{ACAD_REACTORS
330
8
102
}
330
8
100
AcDbDictionary
281
     1
  0
DICTIONARY
  5
C
102
{ACAD_REACTORS
330
8
102
}
330
8
100
AcDbDictionary
281
     1
  3
Layout1
350
10
  3
Model
350
B
  0
DICTIONARY
  5
22
102
{ACAD_REACTORS
330
8
102
}
330
8
100
AcDbDictionary
281
     1
  3
STANDARD
350
25
  0
DICTIONARY
  5
23
102
{ACAD_REACTORS
330
8
102
}
330
8
100
AcDbDictionary
281
     1
  0
ACDBDICTIONARYWDFLT
  5
7
102
{ACAD_REACTORS
330
8
102
}
330
8
100
AcDbDictionary
281
     1
  3
Normal
350
6
100
AcDbDictionaryWithDefault
340
6
  0
DICTIONARY
  5
5E1
102
{ACAD_REACTORS
330
8
102
}
330
8
100
AcDbDictionary
281
     1
  3
DIMASSOC
350
5E3
  3
HIDETEXT
350
5E2
  3
INDEXCTL
350
6F4
  0
DICTIONARY
  5
6A6
102
{ACAD_REACTORS
330
8
102
}
330
8
100
AcDbDictionary
281
     1
  3
AcmBOMDATA
350
6A7
  3
AcmStdDictionary
350
6B5
  0
DICTIONARY
  5
5EB
102
{ACAD_REACTORS
330
8
102
}
330
8
100
AcDbDictionary
281
     1
  3
AcMgSettings
350
5EC
  3
AMGLAYCFG
350
6B7
  0
DICTIONARY
  5
6E2
102
{ACAD_REACTORS
330
8
102
}
330
8
100
AcDbDictionary
281
     1
  3
DIMENSION
350
6E7
  3
FEA
350
6E6
  3
HATCH (1)
350
6E3
  3
HATCH (2)
350
6E4
  3
SIMPLE WELD
350
6E8
  3
SYMBOLS
350
6E5
  0
XRECORD
  5
6A9
102
{ACAD_REACTORS
330
8
102
}
330
8
100
AcDbXrecord
280
     1
  1
DWGPROPS COOKIE
  2

  3

  4

  6

  7

  8

  9

300
AmdtFileType=84
301
=
302
=
303
=
304
=
305
=
306
=
307
=
308
=
309
=
 40
0.3744386111111111
 41
2447762.56942662
 42
2452255.444020173
  1

 90
        1
  0
DICTIONARY
  5
6E9
102
{ACAD_REACTORS
330
3
102
}
330
3
100
AcDbDictionary
281
     1
  3
*A1
350
6EA
  0
LAYOUT
  5
10
102
{ACAD_REACTORS
330
C
102
}
330
C
100
AcDbPlotSettings
  1

  2
\\NTSERVER_40\HP DesignJet 750C (D/A1) by HP
  4
User1287
  6

 40
4.995333194732666
 41
16.9333209991455
 42
4.995330810546875
 43
16.93331909179687
 44
431.71533203125
 45
279.2306518554687
 46
0.0
 47
0.0
 48
0.0
 49
0.0
140
0.0
141
0.0
142
1.0
143
1.0
 70
   688
 72
     0
 73
     0
 74
     5
  7

 75
     0
147
1.0
148
0.0
149
0.0
100
AcDbLayout
  1
Layout1
 70
     0
 71
     1
 10
-0.1966666612099475
 20
-0.6666661810687208
 11
16.79999995419359
 21
10.32666656914658
 12
0.0
 22
0.0
 32
0.0
 14
-0.191995661181636
 24
-0.6619640799652871
 34
-0.0000069581527042
 15
16.80900280282287
 25
10.33837355943718
 35
0.0000281391902106
146
0.0
 13
0.0
 23
0.0
 33
0.0
 16
1.0
 26
0.0
 36
0.0
 17
0.0
 27
1.0
 37
0.0
 76
     0
330
D
331
5E9
  0
LAYOUT
  5
B
102
{ACAD_REACTORS
330
C
102
}
330
C
100
AcDbPlotSettings
  1

  2
HP-Plotter
  4

  6

 40
0.0
 41
0.0
 42
0.0
 43
0.0
 44
0.0
 45
0.0
 46
0.0
 47
0.0
 48
0.0
 49
0.0
140
0.0
141
0.0
142
1.0
143
1.0
 70
  1712
 72
     0
 73
     0
 74
     0
  7

 75
     0
147
1.0
148
0.0
149
0.0
100
AcDbLayout
  1
Model
 70
     1
 71
     0
 10
0.0
 20
0.0
 11
12.0
 21
9.0
 12
0.0
 22
0.0
 32
0.0
 14
0.0
 24
0.0
 34
0.0
 15
0.0
 25
0.0
 35
0.0
146
0.0
 13
0.0
 23
0.0
 33
0.0
 16
1.0
 26
0.0
 36
0.0
 17
0.0
 27
1.0
 37
0.0
 76
     0
330
2
  0
MLINESTYLE
  5
25
102
{ACAD_REACTORS
330
22
102
}
330
22
100
AcDbMlineStyle
  2
STANDARD
 70
     0
  3

 62
   256
 51
90.0
 52
90.0
 71
     2
 49
0.5
 62
   256
  6
BYLAYER
 49
-0.5
 62
   256
  6
BYLAYER
  0
ACDBPLACEHOLDER
  5
6
102
{ACAD_REACTORS
330
7
102
}
330
7
  0
DICTIONARYVAR
  5
5E3
102
{ACAD_REACTORS
330
5E1
102
}
330
5E1
100
DictionaryVariables
280
     0
  1
1
  0
DICTIONARYVAR
  5
5E2
102
{ACAD_REACTORS
330
5E1
102
}
330
5E1
100
DictionaryVariables
280
     0
  1
1
  0
DICTIONARYVAR
  5
6F4
102
{ACAD_REACTORS
330
5E1
102
}
330
5E1
100
DictionaryVariables
280
     0
  1
1
  0
ACMDATADICTIONARY
  5
6A7
102
{ACAD_REACTORS
330
6A6
102
}
330
6A6
100
AcDbDictionary
281
     1
  3
*A1
350
6A8
100
AcmDataDictionary
  0
DICTIONARY
  5
6B5
102
{ACAD_REACTORS
330
6A6
102
}
330
6A6
100
AcDbDictionary
281
     1
  3
ANSI
350
6B6
  0
DICTIONARY
  5
5EC
102
{ACAD_REACTORS
330
5EB
102
}
330
5EB
100
AcDbDictionary
281
     1
  3
DWGSETTINGS
350
5ED
  3
TRANSSETTINGS
350
5F1
  0
ACAMGFILTERDAT
  5
6E7
102
{ACAD_REACTORS
330
6E2
102
}
330
6E2
100
AcAmgFilterDat
 70
    15
  1
DIMENSION,AMDT_*_DIM
  2
*
  3
*
  4
*
  5
*
290
     1
  0
ACAMGFILTERDAT
  5
6E6
102
{ACAD_REACTORS
330
6E2
102
}
330
6E2
100
AcAmgFilterDat
 70
    15
  1
*
  2
AM_FEA-AM_*
  3
*
  4
*
  5
*
290
     1
  0
ACAMGFILTERDAT
  5
6E3
102
{ACAD_REACTORS
330
6E2
102
}
330
6E2
100
AcAmgFilterDat
 70
    15
  1
HATCH
  2
*
  3
*
  4
*
  5
*
290
     1
  0
ACAMGFILTERDAT
  5
6E4
102
{ACAD_REACTORS
330
6E2
102
}
330
6E2
100
AcAmgFilterDat
 70
    15
  1
LINE
  2
8,8N,*-8,*-8N,AM_8,AM_8N,*-AM_8,*-AM_8N
  3
*
  4
*
  5
INSERT,STDPART2D
290
     1
  0
ACAMGFILTERDAT
  5
6E8
102
{ACAD_REACTORS
330
6E2
102
}
330
6E2
100
AcAmgFilterDat
 70
    15
  1
ARC
  2
AM_5
  3
*
  4
2
  5
INSERT
290
     0
  0
ACAMGFILTERDAT
  5
6E5
102
{ACAD_REACTORS
330
6E2
102
}
330
6E2
100
AcAmgFilterDat
 70
    15
  1
ACMFCFRAME,ACMDATUMTARGET,ACMDATUMID,ACMWELDSYM,ACMSURFSYM,ACMFEATID,ACMPARTREF,ACMBALLOON,AMDTEDGESYM,AMGSCREWCALCTABLE
  2
*
  3
*
  4
*
  5
*
290
     1
  0
LAYER_INDEX
  5
6EA
102
{ACAD_REACTORS
330
6E9
102
}
330
6E9
100
AcDbIndex
 40
2452558.636006944
100
AcDbLayerIndex
  8
0
360
6EB
 90
        0
  8
Defpoints
360
6EC
 90
        0
  8
AM_VIS
360
6ED
 90
        0
  8
AM_HID
360
6EE
 90
        0
  8
CENTER
360
6EF
 90
        0
  8
PHANTOM
360
6F0
 90
        0
  8
10
360
6F1
 90
        0
  8
DIMENSION
360
6F2
 90
        0
  8
STD10004-H38
360
6F3
 90
        0
  0
ACMDATAENTRYBLOCK
  5
6A8
102
{ACAD_REACTORS
330
6A7
102
}
330
6A7
100
AcmDataEntry
100
AcmDataEntryBlock
  0
IDBUFFER
  5
6EB
330
0
100
AcDbIdBuffer
  0
IDBUFFER
  5
6EC
330
0
100
AcDbIdBuffer
  0
IDBUFFER
  5
6ED
330
0
100
AcDbIdBuffer
  0
IDBUFFER
  5
6EE
330
0
100
AcDbIdBuffer
  0
IDBUFFER
  5
6EF
330
0
100
AcDbIdBuffer
  0
IDBUFFER
  5
6F0
330
0
100
AcDbIdBuffer
  0
IDBUFFER
  5
6F1
330
0
100
AcDbIdBuffer
  0
IDBUFFER
  5
6F2
330
0
100
AcDbIdBuffer
  0
IDBUFFER
  5
6F3
330
0
100
AcDbIdBuffer
  0
ENDSEC
  0
EOF
