  0
SECTION
  2
HEADER
  9
$ACADVER
  1
AC1015
  9
$ACADMAINTVER
 70
    13
  9
$DWGCODEPAGE
  3
ANSI_1252
  9
$INSBASE
 10
0.0
 20
0.0
 30
0.0
  9
$EXTMIN
 10
1.000000000000000E+20
 20
1.000000000000000E+20
 30
1.000000000000000E+20
  9
$EXTMAX
 10
-1.000000000000000E+20
 20
-1.000000000000000E+20
 30
-1.000000000000000E+20
  9
$LIMMIN
 10
0.0
 20
0.0
  9
$LIMMAX
 10
12.0
 20
9.0
  9
$ORTHOMODE
 70
     1
  9
$REGENMODE
 70
     1
  9
$FILLMODE
 70
     1
  9
$QTEXTMODE
 70
     0
  9
$MIRRTEXT
 70
     1
  9
$LTSCALE
 40
1.0
  9
$ATTMODE
 70
     1
  9
$TEXTSIZE
 40
0.2
  9
$TRACEWID
 40
0.05
  9
$TEXTSTYLE
  7
Standard
  9
$CLAYER
  8
DIMENSION
  9
$CELTYPE
  6
ByLayer
  9
$CECOLOR
 62
     1
  9
$CELTSCALE
 40
1.0
  9
$DISPSILH
 70
     0
  9
$DIMSCALE
 40
1.0
  9
$DIMASZ
 40
0.125
  9
$DIMEXO
 40
0.0625
  9
$DIMDLI
 40
0.38
  9
$DIMRND
 40
0.0
  9
$DIMDLE
 40
0.0
  9
$DIMEXE
 40
0.0625
  9
$DIMTP
 40
0.0
  9
$DIMTM
 40
0.0
  9
$DIMTXT
 40
0.125
  9
$DIMCEN
 40
0.09
  9
$DIMTSZ
 40
0.0
  9
$DIMTOL
 70
     0
  9
$DIMLIM
 70
     0
  9
$DIMTIH
 70
     1
  9
$DIMTOH
 70
     1
  9
$DIMSE1
 70
     0
  9
$DIMSE2
 70
     0
  9
$DIMTAD
 70
     0
  9
$DIMZIN
 70
     0
  9
$DIMBLK
  1

  9
$DIMASO
 70
     1
  9
$DIMSHO
 70
     1
  9
$DIMPOST
  1

  9
$DIMAPOST
  1

  9
$DIMALT
 70
     0
  9
$DIMALTD
 70
     2
  9
$DIMALTF
 40
25.4
  9
$DIMLFAC
 40
1.0
  9
$DIMTOFL
 70
     0
  9
$DIMTVP
 40
0.0
  9
$DIMTIX
 70
     0
  9
$DIMSOXD
 70
     0
  9
$DIMSAH
 70
     0
  9
$DIMBLK1
  1

  9
$DIMBLK2
  1

  9
$DIMSTYLE
  2
Standard
  9
$DIMCLRD
 70
     0
  9
$DIMCLRE
 70
     0
  9
$DIMCLRT
 70
     0
  9
$DIMTFAC
 40
1.0
  9
$DIMGAP
 40
0.09
  9
$DIMJUST
 70
     0
  9
$DIMSD1
 70
     0
  9
$DIMSD2
 70
     0
  9
$DIMTOLJ
 70
     1
  9
$DIMTZIN
 70
     0
  9
$DIMALTZ
 70
     0
  9
$DIMALTTZ
 70
     0
  9
$DIMUPT
 70
     1
  9
$DIMDEC
 70
     4
  9
$DIMTDEC
 70
     4
  9
$DIMALTU
 70
     2
  9
$DIMALTTD
 70
     2
  9
$DIMTXSTY
  7
Standard
  9
$DIMAUNIT
 70
     0
  9
$DIMADEC
 70
     0
  9
$DIMALTRND
 40
0.0
  9
$DIMAZIN
 70
     0
  9
$DIMDSEP
 70
    46
  9
$DIMATFIT
 70
     3
  9
$DIMFRAC
 70
     0
  9
$DIMLDRBLK
  1

  9
$DIMLUNIT
 70
     5
  9
$DIMLWD
 70
    -2
  9
$DIMLWE
 70
    -2
  9
$DIMTMOVE
 70
     0
  9
$LUNITS
 70
     2
  9
$LUPREC
 70
     4
  9
$SKETCHINC
 40
0.1
  9
$FILLETRAD
 40
0.5
  9
$AUNITS
 70
     0
  9
$AUPREC
 70
     0
  9
$MENU
  1
.
  9
$ELEVATION
 40
0.0
  9
$PELEVATION
 40
0.0
  9
$THICKNESS
 40
0.0
  9
$LIMCHECK
 70
     0
  9
$CHAMFERA
 40
0.5
  9
$CHAMFERB
 40
0.5
  9
$CHAMFERC
 40
1.0
  9
$CHAMFERD
 40
0.0
  9
$SKPOLY
 70
     0
  9
$TDCREATE
 40
2452195.581576782
  9
$TDUCREATE
 40
2452195.748243449
  9
$TDUPDATE
 40
2452773.607213356
  9
$TDUUPDATE
 40
2452773.773880023
  9
$TDINDWG
 40
0.0513288426
  9
$TDUSRTIMER
 40
0.0513286574
  9
$USRTIMER
 70
     1
  9
$ANGBASE
 50
0.0
  9
$ANGDIR
 70
     0
  9
$PDMODE
 70
     0
  9
$PDSIZE
 40
0.0
  9
$PLINEWID
 40
0.0
  9
$SPLFRAME
 70
     0
  9
$SPLINETYPE
 70
     6
  9
$SPLINESEGS
 70
     8
  9
$HANDSEED
  5
5A2
  9
$SURFTAB1
 70
     6
  9
$SURFTAB2
 70
     6
  9
$SURFTYPE
 70
     6
  9
$SURFU
 70
     6
  9
$SURFV
 70
     6
  9
$UCSBASE
  2

  9
$UCSNAME
  2

  9
$UCSORG
 10
0.0
 20
0.0
 30
0.0
  9
$UCSXDIR
 10
1.0
 20
0.0
 30
0.0
  9
$UCSYDIR
 10
0.0
 20
1.0
 30
0.0
  9
$UCSORTHOREF
  2

  9
$UCSORTHOVIEW
 70
     0
  9
$UCSORGTOP
 10
0.0
 20
0.0
 30
0.0
  9
$UCSORGBOTTOM
 10
0.0
 20
0.0
 30
0.0
  9
$UCSORGLEFT
 10
0.0
 20
0.0
 30
0.0
  9
$UCSORGRIGHT
 10
0.0
 20
0.0
 30
0.0
  9
$UCSORGFRONT
 10
0.0
 20
0.0
 30
0.0
  9
$UCSORGBACK
 10
0.0
 20
0.0
 30
0.0
  9
$PUCSBASE
  2

  9
$PUCSNAME
  2

  9
$PUCSORG
 10
0.0
 20
0.0
 30
0.0
  9
$PUCSXDIR
 10
1.0
 20
0.0
 30
0.0
  9
$PUCSYDIR
 10
0.0
 20
1.0
 30
0.0
  9
$PUCSORTHOREF
  2

  9
$PUCSORTHOVIEW
 70
     0
  9
$PUCSORGTOP
 10
0.0
 20
0.0
 30
0.0
  9
$PUCSORGBOTTOM
 10
0.0
 20
0.0
 30
0.0
  9
$PUCSORGLEFT
 10
0.0
 20
0.0
 30
0.0
  9
$PUCSORGRIGHT
 10
0.0
 20
0.0
 30
0.0
  9
$PUCSORGFRONT
 10
0.0
 20
0.0
 30
0.0
  9
$PUCSORGBACK
 10
0.0
 20
0.0
 30
0.0
  9
$USERI1
 70
     0
  9
$USERI2
 70
     0
  9
$USERI3
 70
     0
  9
$USERI4
 70
     0
  9
$USERI5
 70
     0
  9
$USERR1
 40
0.0
  9
$USERR2
 40
0.0
  9
$USERR3
 40
0.0
  9
$USERR4
 40
0.0
  9
$USERR5
 40
0.0
  9
$WORLDVIEW
 70
     1
  9
$SHADEDGE
 70
     3
  9
$SHADEDIF
 70
    70
  9
$TILEMODE
 70
     0
  9
$MAXACTVP
 70
    64
  9
$PINSBASE
 10
0.0
 20
0.0
 30
0.0
  9
$PLIMCHECK
 70
     0
  9
$PEXTMIN
 10
-0.1983424068507986
 20
-0.6680902797270783
 30
-0.0000210579213153
  9
$PEXTMAX
 10
16.80373285179405
 20
10.33325253469017
 30
0.0000140989677222
  9
$PLIMMIN
 10
-0.1966666612099475
 20
-0.6666661810687208
  9
$PLIMMAX
 10
16.79999995419359
 20
10.32666656914658
  9
$UNITMODE
 70
     0
  9
$VISRETAIN
 70
     1
  9
$PLINEGEN
 70
     0
  9
$PSLTSCALE
 70
     1
  9
$TREEDEPTH
 70
  3020
  9
$CMLSTYLE
  2
Standard
  9
$CMLJUST
 70
     0
  9
$CMLSCALE
 40
1.0
  9
$PROXYGRAPHICS
 70
     1
  9
$MEASUREMENT
 70
     0
  9
$CELWEIGHT
370
    -1
  9
$ENDCAPS
280
     0
  9
$JOINSTYLE
280
     0
  9
$LWDISPLAY
290
     0
  9
$INSUNITS
 70
     1
  9
$HYPERLINKBASE
  1

  9
$STYLESHEET
  1

  9
$XEDIT
290
     1
  9
$CEPSNTYPE
380
     0
  9
$PSTYLEMODE
290
     1
  9
$FINGERPRINTGUID
  2
{632330F7-BF36-11D5-A04B-005004B2D6C8}
  9
$VERSIONGUID
  2
{67927D89-6FC0-47F5-BB65-914F51D87E2E}
  9
$EXTNAMES
290
     1
  9
$PSVPSCALE
 40
0.0
  9
$OLESTARTUP
290
     0
  0
ENDSEC
  0
SECTION
  2
CLASSES
  0
CLASS
  1
ACDBDICTIONARYWDFLT
  2
AcDbDictionaryWithDefault
  3
AutoCAD 2000
 90
        0
280
     0
281
     0
  0
CLASS
  1
ACDBPLACEHOLDER
  2
AcDbPlaceHolder
  3
AutoCAD 2000
 90
        0
280
     0
281
     0
  0
CLASS
  1
LAYOUT
  2
AcDbLayout
  3
AutoCAD 2000
 90
        0
280
     0
281
     0
  0
CLASS
  1
ACME_DOCUMENT
  2
AcMeDbDoc
  3
AcMeServices
 90
        0
280
     0
281
     0
  0
CLASS
  1
ACMESCOPE
  2
AcMeScope
  3
AcMeServices
 90
        0
280
     0
281
     0
  0
CLASS
  1
ACMECOMMANDHISTORY
  2
AcMeCommandHistory
  3
AcMeServices
 90
        0
280
     0
281
     0
  0
CLASS
  1
DICTIONARYVAR
  2
AcDbDictionaryVar
  3
AutoCAD 2000
 90
        0
280
     0
281
     0
  0
CLASS
  1
ACIMSYSVARMAN
  2
AcImSysVarManager
  3
AcMeServices
 90
        0
280
     0
281
     0
  0
CLASS
  1
ACIMREALSYSVAR
  2
AcImRealSysVar
  3
AcMeServices
 90
        0
280
     0
281
     0
  0
CLASS
  1
ACIMINTSYSVAR
  2
AcImIntSysVar
  3
AcMeServices
 90
        0
280
     0
281
     0
  0
CLASS
  1
ACMEDRAWINGMAN
  2
AcMeDrawingMan
  3
AcMeServices
 90
        0
280
     0
281
     0
  0
CLASS
  1
ACMEVIEW
  2
AcMeView
  3
AcMeServices
 90
        0
280
     0
281
     0
  0
CLASS
  1
ACDBENTITYCACHE
  2
AcMeEntityCache
  3
AcMeServices
 90
        0
280
     0
281
     0
  0
CLASS
  1
GSMANAGER
  2
AcMeGSManager
  3
AcMeServices
 90
        0
280
     0
281
     0
  0
CLASS
  1
AMDTINTERNALREACTOR
  2
AmdtInternalReactor
  3
AcMeServices
 90
        0
280
     0
281
     0
  0
CLASS
  1
ACMESTATEMGR
  2
AcMeStateMgr
  3
AcMeServices
 90
        0
280
     0
281
     0
  0
CLASS
  1
ACGREFMASTER
  2
AcGrefMaster
  3
AcAttribServices
 90
        0
280
     0
281
     0
  0
CLASS
  1
AM_DRAWING_MGR
  2
AcDmDwgMgr
  3
AcMechDwgViewMgmt
 90
        0
280
     0
281
     0
  0
CLASS
  1
AM_DWG_DOCUMENT
  2
AcDmDwgDocument
  3
AcMechDwgViewMgmt
 90
        0
280
     0
281
     0
  0
CLASS
  1
AM_DWG_SHEET
  2
AcDmSheet
  3
AcMechDwgViewMgmt
 90
        0
280
     0
281
     0
  0
CLASS
  1
AM_VIEWDIMPARMAP
  2
AcDmViewDimParMap
  3
AcMechDwgViewMgmt
 90
        0
280
     0
281
     0
  0
CLASS
  1
AM_DWGMGR_NAME
  2
AcDmDwgMgrName
  3
AcMechDwgViewMgmt
 90
        0
280
     0
281
     0
  0
CLASS
  1
ACME_DATABASE
  2
AcMeDbDatabase
  3
AcMeServices
 90
        0
280
     0
281
     0
  0
CLASS
  1
ACRFINSADJUSTERMGR
  2
AcRfInsAdjusterMgr
  3
AcMeServices
 90
        0
280
     0
281
     0
  0
CLASS
  1
ACGREFACADMASTER
  2
AcGrefacadMaster
  3
AcGrefServices
 90
        0
280
     0
281
     0
  0
CLASS
  1
AMDTMENUSTATEMGR
  2
AmdtMenuStateMgr
  3
McadcomServices
 90
        0
280
     0
281
     0
  0
CLASS
  1
AMDTMCOMMENUSTATE
  2
AmdtMcomMenuState
  3
McadcomServices
 90
        0
280
     0
281
     0
  0
CLASS
  1
ASAPP
  2
AcAsAppObject
  3
AutoSurfServices
 90
        0
280
     0
281
     0
  0
CLASS
  1
IM_STATIC_MAN
  2
AcImStaticVarManager
  3
AcMeServices
 90
        0
280
     0
281
     0
  0
CLASS
  1
ACIMSTRSYSVAR
  2
AcImStrSysVar
  3
AcMeServices
 90
        0
280
     0
281
     0
  0
CLASS
  1
ACIMDBLSTATICVAR
  2
AcImDblStaticVar
  3
AcMeServices
 90
        0
280
     0
281
     0
  0
CLASS
  1
ACIMSTRSTATICVAR
  2
AcImStrStaticVar
  3
AcMeServices
 90
        0
280
     0
281
     0
  0
CLASS
  1
ACIMINTSTATICVAR
  2
AcImIntStaticVar
  3
AcMeServices
 90
        0
280
     0
281
     0
  0
CLASS
  1
ACADGREFMODULE
  2
AcAdGrefModule
  3
AdGrefServices
 90
        0
280
     0
281
     0
  0
CLASS
  1
AMIMASTER
  2
AmiMaster
  3
AmiServices
 90
        0
280
     0
281
     0
  0
CLASS
  1
ACASGREFMASTER
  2
AcAsGrefMaster
  3
AutoSurfResolverServices
 90
        0
280
     0
281
     0
  0
CLASS
  1
MAPIAMMOUDLE
  2
MApiAmModule
  3
MApiAmServices
 90
        0
280
     0
281
     0
  0
CLASS
  1
AMDTDMMENUSTATE
  2
AmdtDmMenuState
  3
AcMechDwgViewMgmt
 90
        0
280
     0
281
     0
  0
CLASS
  1
AMDTADMENUSTATE
  2
AmdtAdMenuState
  3
DesignerServices
 90
        0
280
     0
281
     0
  0
CLASS
  1
ADAPPL
  2
AcAdAppl
  3
DesignerServices
 90
        0
280
     0
281
     0
  0
CLASS
  1
DEPMGR
  2
AcAdDepMgr
  3
DesignerServices
 90
        0
280
     0
281
     0
  0
CLASS
  1
PARAMMGR
  2
AcAdParamMgr
  3
DesignerServices
 90
        0
280
     0
281
     0
  0
CLASS
  1
PARAMSCOPE
  2
AcAdParamScope
  3
DesignerServices
 90
        0
280
     0
281
     0
  0
CLASS
  1
NAMEDAPPL
  2
AcAdNamedAppl
  3
DesignerServices
 90
        0
280
     0
281
     0
  0
CLASS
  1
ADHNTMPLT
  2
AdHoleNoteTemplateMgr
  3
DesignerServices
 90
    32768
280
     0
281
     0
  0
CLASS
  1
AM_HNTEMPLATE_MGR_NAME
  2
AdHoleNoteTemplateMgrName
  3
DesignerServices
 90
    32768
280
     0
281
     0
  0
CLASS
  1
AMDTAMMENUSTATE
  2
AmdtAmMenuState
  3
DesignerAssemblies
 90
        0
280
     0
281
     0
  0
CLASS
  1
ACAMPROJECT
  2
AcAmProject
  3
DesignerAssemblies
 90
        0
280
     0
281
     0
  0
CLASS
  1
ACAMGRCOMPDEF
  2
AcAmGrCompDef
  3
DesignerAssemblies
 90
        0
280
     0
281
     0
  0
CLASS
  1
ACCMCONTEXT
  2
AcCmContext
  3
DesignerAssemblies
 90
        0
280
     0
281
     0
  0
CLASS
  1
ACAMCOMPDEF
  2
AcAmCompDef
  3
DesignerAssemblies
 90
        0
280
     0
281
     0
  0
CLASS
  1
ACAMCOMPDEFMGR
  2
AcAmCompDefMgr
  3
DesignerAssemblies
 90
        0
280
     0
281
     0
  0
CLASS
  1
AMCONTEXTMGR
  2
AcAmContextMgr
  3
DesignerAssemblies
 90
        0
280
     0
281
     0
  0
CLASS
  1
ACAMCONTEXTMODELER
  2
AcAmContextModeler
  3
DesignerAssemblies
 90
        0
280
     0
281
     0
  0
CLASS
  1
MAPIADMODULE
  2
MApiAdModule
  3
MApiAdServices
 90
        0
280
     0
281
     0
  0
CLASS
  1
ACMDATADICTIONARY
  2
AcmDataDictionary
  3
"AcmSymBB|Product Description: AutoCAD Mechanical 2000|Company: Autodesk"
 90
        0
280
     0
281
     0
  0
CLASS
  1
ACMDATAENTRYBLOCK
  2
AcmDataEntryBlock
  3
"AcmSymBB|Product Description: AutoCAD Mechanical 2000|Company: Autodesk"
 90
        0
280
     0
281
     0
  0
CLASS
  1
AMDTBROWSERDBTAB
  2
AmdtBrowserDbTab
  3
McadcomServices
 90
        0
280
     0
281
     0
  0
CLASS
  1
CBROWSERAPPOBJECT
  2
CBrowserAppObject
  3
McadcomServices
 90
        0
280
     0
281
     0
  0
CLASS
  1
DM_PLACEHOLDER
  2
AcDmSelsetPlaceholder
  3
AcMechDwgViewMgmt
 90
        0
280
     0
281
     0
  0
CLASS
  1
CATALOGSTATE
  2
AcAmCatalogState
  3
DesignerAssemblies
 90
        0
280
     0
281
     0
  0
CLASS
  1
ACAMGRCOMPDEFSET
  2
AcAmGrCompDefSet
  3
DesignerAssemblies
 90
        0
280
     0
281
     0
  0
CLASS
  1
AMGOBJPROPCFG
  2
AmgObjPropCfg
  3
"AmgLay|Product Description: AutoCAD Mechanical 2000|Company: Autodesk"
 90
        1
280
     0
281
     0
  0
CLASS
  1
ACAMEXTERNALCOMPDEF
  2
AcAmExternalCompDef
  3
DesignerAssemblies
 90
    32768
280
     0
281
     0
  0
CLASS
  1
ACCMBODY
  2
AcCmBody
  3
DesignerAssemblies
 90
    32768
280
     0
281
     0
  0
CLASS
  1
ACAMCOMPENT
  2
AcAmCompEnt
  3
DesignerAssemblies
 90
    32768
280
     0
281
     1
  0
CLASS
  1
ACAMCOMPFEEDBACK
  2
AcAmCompFeedback
  3
DesignerAssemblies
 90
    32768
280
     0
281
     0
  0
CLASS
  1
ACAMCOMP
  2
AcAmComp
  3
DesignerAssemblies
 90
    32768
280
     0
281
     0
  0
CLASS
  1
ACAMCOMPENTCLONE
  2
AcAmCompEntClone
  3
DesignerAssemblies
 90
    32768
280
     0
281
     1
  0
CLASS
  1
ACAMCLONEREACTOR
  2
AcAmGrCompCloneReactor
  3
DesignerAssemblies
 90
    32768
280
     0
281
     0
  0
CLASS
  1
LAYER_INDEX
  2
AcDbLayerIndex
  3
AutoCAD 2000
 90
        0
280
     0
281
     0
  0
CLASS
  1
IDBUFFER
  2
AcDbIdBuffer
  3
AutoCAD 2000
 90
        0
280
     0
281
     0
  0
CLASS
  1
ACRFATTGENMGR
  2
AcRfAttGeneralMgr
  3
AcAttribServices
 90
    32768
280
     0
281
     0
  0
CLASS
  1
ACAMGRBLOCKRECORD
  2
AcAmGrBlockRecord
  3
DesignerAssemblies
 90
    32768
280
     0
281
     0
  0
CLASS
  1
ACAMVIEWREACTOR
  2
AcAmViewReactor
  3
DesignerAssemblies
 90
    32768
280
     0
281
     0
  0
CLASS
  1
AMVIEW
  2
AcAmView
  3
DesignerAssemblies
 90
    32768
280
     0
281
     0
  0
CLASS
  1
ACAMVIEWCONTEXT
  2
AcAmViewContext
  3
DesignerAssemblies
 90
    32768
280
     0
281
     0
  0
CLASS
  1
ACAMCOMPVIEWREACTOR
  2
AcAmGrCompViewReactor
  3
DesignerAssemblies
 90
    32768
280
     0
281
     0
  0
CLASS
  1
ACAMCOMPENTVIEW
  2
AcAmCompEntView
  3
DesignerAssemblies
 90
    32768
280
     0
281
     1
  0
CLASS
  1
ACAMTRANSTWEAK
  2
AcAmTransTweak
  3
DesignerAssemblies
 90
    32768
280
     0
281
     0
  0
CLASS
  1
ACAMVIEWENTITYFILTER
  2
AcAmViewEntityFilter
  3
DesignerAssemblies
 90
    32768
280
     0
281
     0
  0
CLASS
  1
FACEID
  2
AcAdFaceId
  3
DesignerServices
 90
    32768
280
     0
281
     0
  0
CLASS
  1
DEPEDGESECONDARYDEPID
  2
AcAdDepEdgeSecondaryDepId
  3
DesignerServices
 90
    32768
280
     0
281
     0
  0
CLASS
  1
ACADPARTPLANARFACERES
  2
AcAdPartPlanarFaceRes
  3
AdGrefServices
 90
    32768
280
     0
281
     0
  0
CLASS
  1
ACRFINSADJ
  2
AcRfInsAdjuster
  3
AcMeServices
 90
    32768
280
     0
281
     0
  0
CLASS
  1
AM_GREF_PLANE
  2
AcDmGrefPlnDef
  3
AcMechDwgViewMgmt
 90
    32768
280
     0
281
     0
  0
CLASS
  1
EDGEID
  2
AcAdEdgeId
  3
DesignerServices
 90
    32768
280
     0
281
     0
  0
CLASS
  1
ACADPARTLINEDGRES
  2
AcAdPartLinEdgRes
  3
AdGrefServices
 90
    32768
280
     0
281
     0
  0
CLASS
  1
AM_GREF_AXIS
  2
AcDmGrefAxisDef
  3
AcMechDwgViewMgmt
 90
    32768
280
     0
281
     0
  0
CLASS
  1
AM_BASE_VIEW_ORIENT
  2
AcDmBaseViewOr
  3
AcMechDwgViewMgmt
 90
    32768
280
     0
281
     0
  0
CLASS
  1
ACMELINEARARROW
  2
AcImLinearArrowDisplay
  3
AcMeServices
 90
    32768
280
     0
281
     1
  0
CLASS
  1
AM_DWG_VIEWPORT
  2
AcDmViewport
  3
AcMechDwgViewMgmt
 90
    32768
280
     0
281
     0
  0
CLASS
  1
AM_VIEW_DISPLAY
  2
AcDmDwgViewDisplay
  3
AcMechDwgViewMgmt
 90
    32768
280
     0
281
     0
  0
CLASS
  1
AM_CLDFLTS
  2
AcDmClDflts
  3
AcMechDwgViewMgmt
 90
    32768
280
     0
281
     0
  0
CLASS
  1
AM_BASE_VIEW
  2
AcDmBaseView
  3
AcMechDwgViewMgmt
 90
    32768
280
     0
281
     0
  0
CLASS
  1
AM_ISO_VIEW_ORIENT
  2
AcDmIsoViewOr
  3
AcMechDwgViewMgmt
 90
    32768
280
     0
281
     0
  0
CLASS
  1
AM_ISO_VIEW
  2
AcDmIsoView
  3
AcMechDwgViewMgmt
 90
    32768
280
     0
281
     0
  0
CLASS
  1
ACDMVWEDLINE
  2
AcDmViewEdgeLine
  3
AcMechDwgViewMgmt
 90
    32768
280
     0
281
     1
  0
CLASS
  1
ACDMVWEDARC
  2
AcDmViewEdgeArc
  3
AcMechDwgViewMgmt
 90
    32768
280
     0
281
     1
  0
CLASS
  1
ACDMVWEDCIRC
  2
AcDmViewEdgeCircle
  3
AcMechDwgViewMgmt
 90
    32768
280
     0
281
     1
  0
CLASS
  1
AM_ADLINCTRLINE
  2
AcAdLineCl
  3
DesignerServices
 90
    32768
280
     0
281
     0
  0
CLASS
  1
AM_ADCIRCTRLINE
  2
AcAdBullsEyeCl
  3
DesignerServices
 90
    32768
280
     0
281
     0
  0
CLASS
  1
ACDMVIEWGEOM
  2
AcDmViewGeometry
  3
AcMechDwgViewMgmt
 90
    32768
280
     0
281
     1
  0
CLASS
  1
ACMBOM
  2
AcmBom
  3
"AcmSymBB|Product Description: AutoCAD Mechanical 2000|Company: Autodesk"
 90
    32768
280
     0
281
     0
  0
CLASS
  1
ACMBOMROW
  2
AcmBomRow
  3
"AcmSymBB|Product Description: AutoCAD Mechanical 2000|Company: Autodesk"
 90
    32768
280
     0
281
     0
  0
CLASS
  1
ACMSTANDARDANSI
  2
AcmStandardANSI
  3
"Amdt_StdImp|Product Description: AutoCAD Mechanical 2000|Company: Autodesk"
 90
        0
280
     0
281
     0
  0
CLASS
  1
ACMSURFSTANDARDANSI
  2
AcmSurfTextStdANSI
  3
"Amdt_StdImp|Product Description: AutoCAD Mechanical 2000|Company: Autodesk"
 90
        0
280
     0
281
     0
  0
CLASS
  1
ACMFCFSTANDARDANSI
  2
AcmFCFStdANSI
  3
"Amdt_StdImp|Product Description: AutoCAD Mechanical 2000|Company: Autodesk"
 90
        0
280
     0
281
     0
  0
CLASS
  1
ACMWELDSTANDARDANSI
  2
AcmWeldingStdANSI
  3
"Amdt_StdImp|Product Description: AutoCAD Mechanical 2000|Company: Autodesk"
 90
        0
280
     0
281
     0
  0
CLASS
  1
ACMIDSTANDARDANSI
  2
AcmIdStdANSI
  3
"Amdt_StdImp|Product Description: AutoCAD Mechanical 2000|Company: Autodesk"
 90
        0
280
     0
281
     0
  0
CLASS
  1
ACMDATUMSTANDARDANSI
  2
AcmDatumStdANSI
  3
"Amdt_StdImp|Product Description: AutoCAD Mechanical 2000|Company: Autodesk"
 90
        0
280
     0
281
     0
  0
CLASS
  1
ACMBOMSTANDARDANSI
  2
AcmBOMStdANSI
  3
"Amdt_StdImp|Product Description: AutoCAD Mechanical 2000|Company: Autodesk"
 90
        0
280
     0
281
     0
  0
CLASS
  1
ACMPICKOBJ
  2
AcmPickEnt
  3
"AcmSymBB|Product Description: AutoCAD Mechanical 2000|Company: Autodesk"
 90
    32768
280
     0
281
     1
  0
CLASS
  1
ACMBALLOON
  2
AcmBalloon
  3
"AcmSymBB|Product Description: AutoCAD Mechanical 2000|Company: Autodesk"
 90
    33791
280
     0
281
     1
  0
CLASS
  1
AM_VWNOTEADAPTER
  2
AcDmViewAnnotAdapter
  3
AcMechDwgViewMgmt
 90
    32768
280
     0
281
     0
  0
CLASS
  1
AMGSETTINGSOBJ
  2
AmgSettingsObj
  3
"AcadM|Product Description: AutoCAD Mechanical 2000|Company: Autodesk"
 90
        0
280
     0
281
     0
  0
CLASS
  1
AMDTMAPISURFMOUDULE
  2
AmdtMApiSurfModule
  3
MApiSurfServices
 90
        0
280
     0
281
     0
  0
CLASS
  1
ACDMPARTVIEWDATA
  2
AcDmPartViewData
  3
AcMechDwgViewMgmt
 90
    32768
280
     0
281
     0
  0
CLASS
  1
ACDMDISPLAYATTRIBS
  2
AcDmDisplayAttribs
  3
AcMechDwgViewMgmt
 90
    32768
280
     0
281
     0
  0
CLASS
  1
ACDMBODYINSTANCEDATA
  2
AcDmBodyInstanceData
  3
AcMechDwgViewMgmt
 90
    32768
280
     0
281
     0
  0
CLASS
  1
AMDTFORMULAUPDATEDISPATCHER
  2
AmdtFormulaUpdateDispatcher
  3
AcMeServices
 90
    32768
280
     0
281
     0
  0
CLASS
  1
ACAMGTITLESTD
  2
AcAmgTitleStd
  3
"TITLEAPP"
 90
        0
280
     0
281
     0
  0
CLASS
  1
ACMDETAILSTANDARDANSI
  2
AmdtDetailSymStdANSI
  3
"Amdt_StdImp|Product Description: AutoCAD Mechanical 2000|Company: Autodesk"
 90
        0
280
     0
281
     0
  0
CLASS
  1
ACMSECTIONSTANDARDANSI
  2
AmdtSectionSymStdANSI
  3
"Amdt_StdImp|Product Description: AutoCAD Mechanical 2000|Company: Autodesk"
 90
        0
280
     0
281
     0
  0
CLASS
  1
ACMCENTERLINESTANDARDANSI
  2
AmdtCenterLineStdANSI
  3
"Amdt_StdImp|Product Description: AutoCAD Mechanical 2000|Company: Autodesk"
 90
        0
280
     0
281
     0
  0
CLASS
  1
ACMTHREADLINESTANDARDANSI
  2
AmdtThreadLineStdANSI
  3
"Amdt_StdImp|Product Description: AutoCAD Mechanical 2000|Company: Autodesk"
 90
        0
280
     0
281
     0
  0
CLASS
  1
ACMNOTESTANDARDANSI
  2
AmdtNoteStdANSI
  3
"Amdt_StdImp|Product Description: AutoCAD Mechanical 2000|Company: Autodesk"
 90
        0
280
     0
281
     0
  0
CLASS
  1
ACAMGLAYSTD
  2
AcAmgLayStd
  3
"AcAmgLayStd|Product Description: AutoCAD Mechanical 2000|Company: Autodesk"
 90
        0
280
     0
281
     0
  0
CLASS
  1
ACAMGDIMSTD
  2
AcAmgDimStd
  3
"AcAmgDimStd|Product Description: AutoCAD Mechanical 2000|Company: Autodesk"
 90
        0
280
     0
281
     0
  0
CLASS
  1
ACAMGHOLECHARTSTDANSI
  2
AcAmgHoleChartStdANSI
  3
ACMSYMBB_MODULE_NAME
 90
        0
280
     0
281
     0
  0
CLASS
  1
ACAMGFILTERDAT
  2
AcAmgFilterDat
  3
"AcadM|Product Description: AutoCAD Mechanical 2000|Company: Autodesk"
 90
        0
280
     0
281
     0
  0
CLASS
  1
ACMEPLINE
  2
AcImPlineDisplay
  3
AcMeServices
 90
    32768
280
     0
281
     1
  0
CLASS
  1
AM_VIEW_SELECT_FILTER
  2
AcDmSelectViewEntFilter
  3
AcMechDwgViewMgmt
 90
    32768
280
     0
281
     0
  0
CLASS
  1
AM_ORTHO_VIEW_ORIENT
  2
AcDmOrthoViewOr
  3
AcMechDwgViewMgmt
 90
    32768
280
     0
281
     0
  0
CLASS
  1
AM_ORTHO_VIEW
  2
AcDmOrthoView
  3
AcMechDwgViewMgmt
 90
    32768
280
     0
281
     0
  0
ENDSEC
  0
SECTION
  2
TABLES
  0
TABLE
  2
VPORT
  5
1A
330
0
100
AcDbSymbolTable
 70
     1
  0
VPORT
  5
1B
330
1A
100
AcDbSymbolTableRecord
100
AcDbViewportTableRecord
  2
*Active
 70
     0
 10
0.0
 20
0.0
 11
1.0
 21
1.0
 12
0.0
 22
0.0
 13
0.0
 23
0.0
 14
0.5
 24
0.5
 15
0.5
 25
0.5
 16
0.0
 26
0.0
 36
1.0
 17
0.0
 27
0.0
 37
0.0
 40
2.000000000000000E+20
 41
1.0
 42
50.0
 43
0.0
 44
0.0
 50
0.0
 51
0.0
 71
     0
 72
   100
 73
     1
 74
     3
 75
     0
 76
     0
 77
     0
 78
     0
281
     0
 65
     0
110
0.0
120
0.0
130
0.0
111
1.0
121
0.0
131
0.0
112
0.0
122
1.0
132
0.0
 79
     0
146
0.0
  0
ENDTAB
  0
TABLE
  2
LTYPE
  5
15
330
0
100
AcDbSymbolTable
 70
    19
  0
LTYPE
  5
16
330
15
100
AcDbSymbolTableRecord
100
AcDbLinetypeTableRecord
  2
ByBlock
 70
     0
  3

 72
    65
 73
     0
 40
0.0
  0
LTYPE
  5
17
330
15
100
AcDbSymbolTableRecord
100
AcDbLinetypeTableRecord
  2
ByLayer
 70
     0
  3

 72
    65
 73
     0
 40
0.0
  0
LTYPE
  5
9
330
15
100
AcDbSymbolTableRecord
100
AcDbLinetypeTableRecord
  2
Continuous
 70
     0
  3
Solid line
 72
    65
 73
     0
 40
0.0
  0
LTYPE
  5
16A
330
15
100
AcDbSymbolTableRecord
100
AcDbLinetypeTableRecord
  2
HIDDEN
 70
     0
  3
Hidden __ __ __ __ __ __ __ __ __ __ __ __ __ _
 72
    65
 73
     2
 40
0.375
 49
0.25
 74
     0
 49
-0.125
 74
     0
  0
LTYPE
  5
166
330
15
100
AcDbSymbolTableRecord
100
AcDbLinetypeTableRecord
  2
CENTER2
 70
     0
  3
Center (.5x) ___ _ ___ _ ___ _ ___ _ ___ _ ___
 72
    65
 73
     4
 40
1.125
 49
0.75
 74
     0
 49
-0.125
 74
     0
 49
0.125
 74
     0
 49
-0.125
 74
     0
  0
LTYPE
  5
51
330
15
100
AcDbSymbolTableRecord
100
AcDbLinetypeTableRecord
  2
PHANTOM
 70
     0
  3
Phantom ______  __  __  ______  __  __  ______
 72
    65
 73
     6
 40
2.5
 49
1.25
 74
     0
 49
-0.25
 74
     0
 49
0.25
 74
     0
 49
-0.25
 74
     0
 49
0.25
 74
     0
 49
-0.25
 74
     0
  0
LTYPE
  5
4C3
330
15
100
AcDbSymbolTableRecord
100
AcDbLinetypeTableRecord
  2
PHANTOM2
 70
     0
  3
Phantom (.5x) ___ _ _ ___ _ _ ___ _ _ ___ _ _
 72
    65
 73
     6
 40
1.25
 49
0.625
 74
     0
 49
-0.125
 74
     0
 49
0.125
 74
     0
 49
-0.125
 74
     0
 49
0.125
 74
     0
 49
-0.125
 74
     0
  0
LTYPE
  5
4C4
330
15
100
AcDbSymbolTableRecord
100
AcDbLinetypeTableRecord
  2
CENTER
 70
     0
  3
Center ____ _ ____ _ ____ _ ____ _ ____ _ ____
 72
    65
 73
     4
 40
2.0
 49
1.25
 74
     0
 49
-0.25
 74
     0
 49
0.25
 74
     0
 49
-0.25
 74
     0
  0
LTYPE
  5
526
330
15
100
AcDbSymbolTableRecord
100
AcDbLinetypeTableRecord
  2
ASULTYPE
 70
     0
  3
Solid line
 72
    65
 73
     2
 40
3.0
 49
2.5
 74
     0
 49
0.5
 74
     0
  0
LTYPE
  5
527
330
15
100
AcDbSymbolTableRecord
100
AcDbLinetypeTableRecord
  2
ASVLTYPE
 70
     0
  3
__ __ __ __ __ __ __ __ __ __ __ __ __ __ __ __ __ __ __ __ __
 72
    65
 73
     2
 40
0.75
 49
0.5
 74
     0
 49
-0.25
 74
     0
  0
LTYPE
  5
56B
330
15
100
AcDbSymbolTableRecord
100
AcDbLinetypeTableRecord
  2
AM_ISO02W050
 70
     0
  3
__ __ __ __ __ __ __ __ __ __ __ __ __ __ __
 72
    65
 73
     2
 40
7.5
 49
6.0
 74
     0
 49
-1.5
 74
     0
  0
LTYPE
  5
56C
330
15
100
AcDbSymbolTableRecord
100
AcDbLinetypeTableRecord
  2
AM_ISO08W050
 70
     0
  3
____ . ____ . ____ . ____ . ____ . ____ . ____
 72
    65
 73
     4
 40
18.0
 49
12.0
 74
     0
 49
-1.5
 74
     0
 49
3.0
 74
     0
 49
-1.5
 74
     0
  0
LTYPE
  5
56D
330
15
100
AcDbSymbolTableRecord
100
AcDbLinetypeTableRecord
  2
AM_ISO09W050
 70
     0
  3
_____ . . _____ . . _____ . . ____ .. ____
 72
    65
 73
     6
 40
22.5
 49
12.0
 74
     0
 49
-1.5
 74
     0
 49
3.0
 74
     0
 49
-1.5
 74
     0
 49
3.0
 74
     0
 49
-1.5
 74
     0
  0
LTYPE
  5
56E
330
15
100
AcDbSymbolTableRecord
100
AcDbLinetypeTableRecord
  2
Amconstr
 70
     0
  3
_______________________
 72
    65
 73
     2
 40
9999.0
 49
9999.0
 74
     0
 49
0.0
 74
     0
  0
LTYPE
  5
56F
330
15
100
AcDbSymbolTableRecord
100
AcDbLinetypeTableRecord
  2
AM_ISO08W050x2
 70
     0
  3
__ . __ . __ . __ . __ . __
 72
    65
 73
     4
 40
9.0
 49
6.0
 74
     0
 49
-0.75
 74
     0
 49
1.5
 74
     0
 49
-0.75
 74
     0
  0
LTYPE
  5
570
330
15
100
AcDbSymbolTableRecord
100
AcDbLinetypeTableRecord
  2
AM_ISO02W050x2
 70
     0
  3
 _ _ _ _ _ _ _ _ _ _ _ _
 72
    65
 73
     2
 40
3.75
 49
3.0
 74
     0
 49
-0.75
 74
     0
  0
LTYPE
  5
573
330
15
100
AcDbSymbolTableRecord
100
AcDbLinetypeTableRecord
  2
Amzigzag
 70
     0
  3
/\/-/\/-/\/-/\/-/\/-/\/
 72
    65
 73
     2
 40
11.00009999999999
 49
0.0001
 74
     4
 75
   135
340
572
 46
0.04
 50
0.0
 44
0.0
 45
0.0
 49
-11.0
 74
     0
  0
LTYPE
  5
574
330
15
100
AcDbSymbolTableRecord
100
AcDbLinetypeTableRecord
  2
HIDDEN2
 70
     0
  3
Hidden (.5x) _ _ _ _ _ _ _ _ _ _ _ _ _ _ _ _ _
 72
    65
 73
     2
 40
0.1875
 49
0.125
 74
     0
 49
-0.0625
 74
     0
  0
LTYPE
  5
575
330
15
100
AcDbSymbolTableRecord
100
AcDbLinetypeTableRecord
  2
Amzigzag2
 70
     0
  3
/\/-/\/-/\/-/\/-/\/-/\/
 72
    65
 73
     2
 40
0.4401
 49
0.0001
 74
     4
 75
   135
340
572
 46
0.0016
 50
0.0
 44
0.0
 45
0.0
 49
-0.4400000000000001
 74
     0
  0
LTYPE
  5
583
330
15
100
AcDbSymbolTableRecord
100
AcDbLinetypeTableRecord
  2
ACANSTGB
 70
     0
  3
__ . . __ . .
 72
    65
 73
     6
 40
0.35433070866
 49
0.15748031496
 74
     0
 49
-0.03937007874
 74
     0
 49
0.03937007874
 74
     0
 49
-0.03937007874
 74
     0
 49
0.03937007874
 74
     0
 49
-0.03937007874
 74
     0
  0
LTYPE
  5
584
330
15
100
AcDbSymbolTableRecord
100
AcDbLinetypeTableRecord
  2
ACANSTGL
 70
     0
  3
_ _ _ _ _
 72
    65
 73
     2
 40
0.11811023622
 49
0.07874015748
 74
     0
 49
-0.03937007874
 74
     0
  0
ENDTAB
  0
TABLE
  2
LAYER
  5
11
330
0
100
AcDbSymbolTable
 70
     8
  0
LAYER
  5
5
330
11
100
AcDbSymbolTableRecord
100
AcDbLayerTableRecord
  2
0
 70
     0
 62
     7
  6
Continuous
370
    -3
390
6
  0
LAYER
  5
11A
330
11
100
AcDbSymbolTableRecord
100
AcDbLayerTableRecord
  2
Defpoints
 70
     0
 62
    -7
  6
Continuous
290
     0
370
    -3
390
6
  0
LAYER
  5
178
330
11
100
AcDbSymbolTableRecord
100
AcDbLayerTableRecord
  2
AM_VIS
 70
     0
 62
     7
  6
Continuous
370
    30
390
6
  0
LAYER
  5
169
330
11
100
AcDbSymbolTableRecord
100
AcDbLayerTableRecord
  2
AM_HID
 70
     0
 62
    -7
  6
HIDDEN
370
    15
390
6
  0
LAYER
  5
53
330
11
100
AcDbSymbolTableRecord
100
AcDbLayerTableRecord
  2
CENTER
 70
     0
 62
     5
  6
Continuous
370
    -3
390
6
  0
LAYER
  5
50
330
11
100
AcDbSymbolTableRecord
100
AcDbLayerTableRecord
  2
PHANTOM
 70
     0
 62
     2
  6
PHANTOM
370
    -3
390
6
  0
LAYER
  5
58
330
11
100
AcDbSymbolTableRecord
100
AcDbLayerTableRecord
  2
10
 70
     0
 62
     7
  6
Continuous
370
    -3
390
6
  0
LAYER
  5
24
330
11
100
AcDbSymbolTableRecord
100
AcDbLayerTableRecord
  2
DIMENSION
 70
     0
 62
     1
  6
Continuous
370
    -3
390
6
  0
ENDTAB
  0
TABLE
  2
STYLE
  5
12
330
0
100
AcDbSymbolTable
 70
     4
  0
STYLE
  5
13
330
12
100
AcDbSymbolTableRecord
100
AcDbTextStyleTableRecord
  2
Standard
 70
     0
 40
0.0
 41
1.0
 50
0.0
 71
     0
 42
0.2
  3
simplex.shx
  4

  0
STYLE
  5
572
330
12
100
AcDbSymbolTableRecord
100
AcDbTextStyleTableRecord
  2

 70
     1
 40
0.0
 41
1.0
 50
0.0
 71
     0
 42
0.2
  3
ltypeshp.shx
  4

  0
STYLE
  5
576
330
12
100
AcDbSymbolTableRecord
100
AcDbTextStyleTableRecord
  2
ACANSTS
 70
     0
 40
1.0
 41
1.0
 50
0.0
 71
     0
 42
0.2
  3
romans.shx
  4

  0
STYLE
  5
582
330
12
100
AcDbSymbolTableRecord
100
AcDbTextStyleTableRecord
  2
ACANSGDT
 70
     0
 40
0.0
 41
1.0
 50
0.0
 71
     0
 42
0.2
  3
amgdtans.shx
  4

  0
ENDTAB
  0
TABLE
  2
VIEW
  5
18
330
0
100
AcDbSymbolTable
 70
     0
  0
ENDTAB
  0
TABLE
  2
UCS
  5
19
330
0
100
AcDbSymbolTable
 70
     0
  0
ENDTAB
  0
TABLE
  2
APPID
  5
1C
330
0
100
AcDbSymbolTable
 70
    13
  0
APPID
  5
1D
330
1C
100
AcDbSymbolTableRecord
100
AcDbRegAppTableRecord
  2
ACAD
 70
     0
  0
APPID
  5
4A1
330
1C
100
AcDbSymbolTableRecord
100
AcDbRegAppTableRecord
  2
GENIUS_GENDIM_13
 70
     0
  0
APPID
  5
4A2
330
1C
100
AcDbSymbolTableRecord
100
AcDbRegAppTableRecord
  2
GENIUS_GENDTOL_13
 70
     0
  0
APPID
  5
4A3
330
1C
100
AcDbSymbolTableRecord
100
AcDbRegAppTableRecord
  2
GENIUS_GE3DTOL_13
 70
     0
  0
APPID
  5
4A6
330
1C
100
AcDbSymbolTableRecord
100
AcDbRegAppTableRecord
  2
MCAD_NO_VIS
 70
     0
  0
APPID
  5
4A7
330
1C
100
AcDbSymbolTableRecord
100
AcDbRegAppTableRecord
  2
ACAD_TEMP_GRAPHIC
 70
     0
  0
APPID
  5
4D9
330
1C
100
AcDbSymbolTableRecord
100
AcDbRegAppTableRecord
  2
AD_DRAW
 70
     0
  0
APPID
  5
4DC
330
1C
100
AcDbSymbolTableRecord
100
AcDbRegAppTableRecord
  2
ACATTRIBSERVICES
 70
     0
  0
APPID
  5
528
330
1C
100
AcDbSymbolTableRecord
100
AcDbRegAppTableRecord
  2
ASURF_PCURVE_APPNAME
 70
     0
  0
APPID
  5
52D
330
1C
100
AcDbSymbolTableRecord
100
AcDbRegAppTableRecord
  2
AMG_3D2D_5.0
 70
     0
  0
APPID
  5
558
330
1C
100
AcDbSymbolTableRecord
100
AcDbRegAppTableRecord
  2
DESIGNERASSEMBLIES
 70
     0
  0
APPID
  5
560
330
1C
100
AcDbSymbolTableRecord
100
AcDbRegAppTableRecord
  2
ACADM_DIM_EDIT
 70
     0
  0
APPID
  5
561
330
1C
100
AcDbSymbolTableRecord
100
AcDbRegAppTableRecord
  2
AMDT_DM_ADJ
 70
     0
  0
ENDTAB
  0
TABLE
  2
DIMSTYLE
  5
1E
330
0
100
AcDbSymbolTable
 70
     7
100
AcDbDimStyleTable
 71
     1
340
1F
  0
DIMSTYLE
105
1F
102
{ACAD_REACTORS
330
110
330
11F
330
12D
330
13B
330
149
330
157
102
}
330
1E
100
AcDbSymbolTableRecord
100
AcDbDimStyleTableRecord
  2
Standard
 70
     0
 41
0.125
 44
0.0625
140
0.125
277
     5
288
     1
340
13
  0
DIMSTYLE
105
588
330
1E
100
AcDbSymbolTableRecord
100
AcDbDimStyleTableRecord
  2
AM_ANSI
 70
     0
  4
mm
 41
0.1
 42
0.05
 43
0.5
 44
0.1
 47
0.1
 48
0.1
 78
     7
 79
     2
140
0.12
141
0.0
146
0.71
147
0.06
176
   256
177
   256
178
     2
274
     4
284
     7
340
13
371
    -1
372
    -1
  0
DIMSTYLE
105
589
330
1E
100
AcDbSymbolTableRecord
100
AcDbDimStyleTableRecord
  2
AM_ANSI$3
 70
     0
  4
mm
 41
0.1
 42
0.05
 43
0.5
 44
0.1
 47
0.1
 48
0.1
 78
     7
 79
     2
140
0.12
141
0.0
146
0.71
147
0.06
176
   256
177
   256
178
     2
274
     4
284
     7
288
     1
289
     0
340
13
371
    -1
372
    -1
  0
DIMSTYLE
105
58A
330
1E
100
AcDbSymbolTableRecord
100
AcDbDimStyleTableRecord
  2
AM_ANSI$4
 70
     0
  4
mm
 41
0.1
 42
0.05
 43
0.5
 44
0.1
 47
0.1
 48
0.1
 78
     7
 79
     2
140
0.12
141
0.0
146
0.71
147
0.06
176
   256
177
   256
178
     2
274
     4
284
     7
288
     1
289
     0
340
13
371
    -1
372
    -1
  0
DIMSTYLE
105
58B
330
1E
100
AcDbSymbolTableRecord
100
AcDbDimStyleTableRecord
  2
AM_ANSI$7
 70
     0
  4
mm
 41
0.1
 42
0.05
 43
0.5
 44
0.1
 47
0.1
 48
0.1
 78
     7
 79
     2
140
0.24
141
0.0
146
0.71
147
0.06
176
   256
177
   256
178
     2
274
     4
284
     7
340
13
371
    -1
372
    -1
  0
DIMSTYLE
105
58C
330
1E
100
AcDbSymbolTableRecord
100
AcDbDimStyleTableRecord
  2
AM_ANSI$SF
 70
     0
  4
mm
 41
0.1
 42
0.05
 43
0.5
 44
0.1
 47
0.1
 48
0.1
 75
     1
 76
     1
 78
     7
 79
     2
140
0.12
141
0.0
146
0.71
147
0.06
176
   256
177
   256
178
     2
274
     4
284
     7
340
13
371
    -1
372
    -1
  0
DIMSTYLE
105
591
330
1E
100
AcDbSymbolTableRecord
100
AcDbDimStyleTableRecord
  2
AM_ANSI$SH
 70
     0
  4
mm
 41
0.1
 42
0.05
 43
0.5
 44
0.1
 47
0.1
 48
0.1
 75
     1
 76
     1
 78
     7
 79
     2
140
0.12
141
0.0
146
0.71
147
0.06
173
     1
176
   256
177
   256
178
     2
274
     4
284
     7
340
13
343
58D
371
    -1
372
    -1
  0
ENDTAB
  0
TABLE
  2
BLOCK_RECORD
  5
1
330
0
100
AcDbSymbolTable
 70
    18
  0
BLOCK_RECORD
  5
2
102
{ACAD_XDICTIONARY
360
3
102
}
330
1
100
AcDbSymbolTableRecord
100
AcDbBlockTableRecord
  2
*Model_Space
340
B
  0
BLOCK_RECORD
  5
D
330
1
100
AcDbSymbolTableRecord
100
AcDbBlockTableRecord
  2
*Paper_Space
340
10
  0
BLOCK_RECORD
  5
28
330
1
100
AcDbSymbolTableRecord
100
AcDbBlockTableRecord
  2
*U0
340
0
102
{BLKREFS
331
27
102
}
  0
BLOCK_RECORD
  5
2D
330
1
100
AcDbSymbolTableRecord
100
AcDbBlockTableRecord
  2
*U1
340
0
102
{BLKREFS
331
2C
102
}
  0
BLOCK_RECORD
  5
32
330
1
100
AcDbSymbolTableRecord
100
AcDbBlockTableRecord
  2
*U2
340
0
102
{BLKREFS
331
31
102
}
  0
BLOCK_RECORD
  5
37
330
1
100
AcDbSymbolTableRecord
100
AcDbBlockTableRecord
  2
*U3
340
0
102
{BLKREFS
331
36
102
}
  0
BLOCK_RECORD
  5
61
330
1
100
AcDbSymbolTableRecord
100
AcDbBlockTableRecord
  2
A$C708B5813
340
0
102
{BLKREFS
331
D1
331
60
102
}
  0
BLOCK_RECORD
  5
3C
330
1
100
AcDbSymbolTableRecord
100
AcDbBlockTableRecord
  2
*U5
340
0
102
{BLKREFS
331
3B
102
}
  0
BLOCK_RECORD
  5
41
330
1
100
AcDbSymbolTableRecord
100
AcDbBlockTableRecord
  2
*U6
340
0
102
{BLKREFS
331
40
102
}
  0
BLOCK_RECORD
  5
46
330
1
100
AcDbSymbolTableRecord
100
AcDbBlockTableRecord
  2
*U7
340
0
102
{BLKREFS
331
45
102
}
  0
BLOCK_RECORD
  5
4B
330
1
100
AcDbSymbolTableRecord
100
AcDbBlockTableRecord
  2
*U8
340
0
102
{BLKREFS
331
4A
102
}
  0
BLOCK_RECORD
  5
D0
330
1
100
AcDbSymbolTableRecord
100
AcDbBlockTableRecord
  2
A$C2BF30918
340
0
102
{BLKREFS
331
CF
102
}
  0
BLOCK_RECORD
  5
111
330
1
100
AcDbSymbolTableRecord
100
AcDbBlockTableRecord
  2
*D10
340
0
  0
BLOCK_RECORD
  5
120
330
1
100
AcDbSymbolTableRecord
100
AcDbBlockTableRecord
  2
*D11
340
0
  0
BLOCK_RECORD
  5
12E
330
1
100
AcDbSymbolTableRecord
100
AcDbBlockTableRecord
  2
*D12
340
0
  0
BLOCK_RECORD
  5
13C
330
1
100
AcDbSymbolTableRecord
100
AcDbBlockTableRecord
  2
*D13
340
0
  0
BLOCK_RECORD
  5
14A
330
1
100
AcDbSymbolTableRecord
100
AcDbBlockTableRecord
  2
*D14
340
0
  0
BLOCK_RECORD
  5
158
330
1
100
AcDbSymbolTableRecord
100
AcDbBlockTableRecord
  2
*D15
340
0
  0
BLOCK_RECORD
  5
54F
330
1
100
AcDbSymbolTableRecord
100
AcDbBlockTableRecord
  2
*U16
340
0
  0
BLOCK_RECORD
  5
58D
330
1
100
AcDbSymbolTableRecord
100
AcDbBlockTableRecord
  2
GENAXEH
340
0
  0
ENDTAB
  0
ENDSEC
  0
SECTION
  2
BLOCKS
  0
BLOCK
  5
4
330
2
100
AcDbEntity
  8
0
100
AcDbBlockBegin
  2
*Model_Space
 70
     0
 10
0.0
 20
0.0
 30
0.0
  3
*Model_Space
  1

  0
ENDBLK
  5
A
330
2
100
AcDbEntity
  8
0
100
AcDbBlockEnd
  0
BLOCK
  5
E
330
D
100
AcDbEntity
 67
     1
  8
0
100
AcDbBlockBegin
  2
*Paper_Space
 70
     0
 10
0.0
 20
0.0
 30
0.0
  3
*Paper_Space
  1

  0
ENDBLK
  5
F
330
D
100
AcDbEntity
 67
     1
  8
0
100
AcDbBlockEnd
  0
BLOCK
  5
2A
330
28
100
AcDbEntity
  8
0
  6
ByBlock
 62
     2
100
AcDbBlockBegin
  2
*U0
 70
     1
 10
0.0
 20
0.0
 30
0.0
  3
*U0
  1

  0
TEXT
  5
29
330
28
100
AcDbEntity
  8
0
  6
ByBlock
 62
     2
100
AcDbText
 10
15.253
 20
1.7495
 30
0.0
 40
0.094
  1
 
 41
0.8842105263157966
 72
     5
 11
15.3282
 21
1.7495
 31
0.0
100
AcDbText
  0
ENDBLK
  5
2B
330
28
100
AcDbEntity
  8
0
100
AcDbBlockEnd
  0
BLOCK
  5
2F
330
2D
100
AcDbEntity
  8
0
  6
ByBlock
 62
     2
100
AcDbBlockBegin
  2
*U1
 70
     1
 10
0.0
 20
0.0
 30
0.0
  3
*U1
  1

  0
TEXT
  5
2E
330
2D
100
AcDbEntity
  8
0
  6
ByBlock
 62
     2
100
AcDbText
 10
15.253
 20
1.436999999999999
 30
0.0
 40
0.094
  1
 
 41
0.8842105263157966
 72
     5
 11
15.3282
 21
1.436999999999999
 31
0.0
100
AcDbText
  0
ENDBLK
  5
30
330
2D
100
AcDbEntity
  8
0
100
AcDbBlockEnd
  0
BLOCK
  5
34
330
32
100
AcDbEntity
  8
0
  6
ByBlock
 62
     2
100
AcDbBlockBegin
  2
*U2
 70
     1
 10
0.0
 20
0.0
 30
0.0
  3
*U2
  1

  0
TEXT
  5
33
330
32
100
AcDbEntity
  8
0
  6
ByBlock
 62
     2
100
AcDbText
 10
15.253
 20
1.1245
 30
0.0
 40
0.094
  1
 
 41
0.8842105263157966
 72
     5
 11
15.3282
 21
1.1245
 31
0.0
100
AcDbText
  0
ENDBLK
  5
35
330
32
100
AcDbEntity
  8
0
100
AcDbBlockEnd
  0
BLOCK
  5
39
330
37
100
AcDbEntity
  8
0
  6
ByBlock
 62
     2
100
AcDbBlockBegin
  2
*U3
 70
     1
 10
0.0
 20
0.0
 30
0.0
  3
*U3
  1

  0
TEXT
  5
38
330
37
100
AcDbEntity
  8
0
  6
ByBlock
 62
     2
100
AcDbText
 10
15.253
 20
0.812
 30
0.0
 40
0.094
  1
 
 41
0.8842105263157966
 72
     5
 11
15.3282
 21
0.812
 31
0.0
100
AcDbText
  0
ENDBLK
  5
3A
330
37
100
AcDbEntity
  8
0
100
AcDbBlockEnd
  0
BLOCK
  5
A2
330
61
100
AcDbEntity
  8
0
100
AcDbBlockBegin
  2
A$C708B5813
 70
     0
 10
0.0
 20
0.0
 30
0.0
  3
A$C708B5813
  1

  0
LINE
  5
62
330
61
100
AcDbEntity
  8
10
100
AcDbLine
 10
0.2399999692803618
 20
0.2640315084226485
 30
0.0
 11
0.2436013672279564
 21
0.2661107764971518
 31
0.0
  0
CIRCLE
  5
63
330
61
100
AcDbEntity
  8
10
100
AcDbCircle
 10
0.2399999692803618
 20
0.2640315084226485
 30
0.0
 40
0.0041585361490064
  0
ARC
  5
64
330
61
100
AcDbEntity
  8
10
100
AcDbCircle
 10
0.2399999692803512
 20
0.2871255191902322
 30
0.0
 40
0.01
100
AcDbArc
 50
239.9999999999999
 51
300.0000000000007
  0
ARC
  5
65
330
61
100
AcDbEntity
  8
10
100
AcDbCircle
 10
0.2399999692803618
 20
0.529612632249878
 30
0.0
 40
0.01
100
AcDbArc
 50
60.00000000000078
 51
119.9999999999996
  0
ARC
  5
66
330
61
100
AcDbEntity
  8
10
100
AcDbCircle
 10
0.2399999692511088
 20
0.3949160812035983
 30
0.0
 40
0.01
100
AcDbArc
 50
239.9999999674644
 51
300.0000000465846
  0
ARC
  5
67
330
61
100
AcDbEntity
  8
10
100
AcDbCircle
 10
0.2393667475655192
 20
0.4214564796978131
 30
0.0
 40
0.01
100
AcDbArc
 50
60.0
 51
119.9999999818938
  0
LINE
  5
68
330
61
100
AcDbEntity
  8
10
100
AcDbLine
 10
0.0249999692803549
 20
0.3997088216822098
 30
0.0
 11
0.2349999692803522
 21
0.2784652651523878
 31
0.0
  0
LINE
  5
69
330
61
100
AcDbEntity
  8
10
100
AcDbLine
 10
-0.0000000307196402
 20
0.3737280595686747
 30
0.0
 11
-0.0000000307196366
 21
0.1312409465090325
 31
0.0
  0
LINE
  5
6A
330
61
100
AcDbEntity
  8
10
100
AcDbLine
 10
0.0149999692803604
 20
0.3823883136065191
 30
0.0
 11
0.2249999692803613
 21
0.2611447570767011
 31
0.0
  0
LINE
  5
6B
330
61
100
AcDbEntity
  8
10
100
AcDbLine
 10
0.2399999692803618
 20
0.2640315084226485
 30
0.0
 11
0.2399999692803618
 21
0.2598729722736421
 31
0.0
  0
LINE
  5
6C
330
61
100
AcDbEntity
  8
10
100
AcDbLine
 10
0.2363985713327672
 20
0.2661107764971531
 30
0.0
 11
0.2399999692803618
 21
0.2640315084226485
 31
0.0
  0
LINE
  5
6D
330
61
100
AcDbEntity
  8
10
100
AcDbLine
 10
0.2299999692803709
 20
0.1139204384333419
 30
0.0
 11
0.1356921705519909
 21
0.168369071415853
 31
0.0
  0
LINE
  5
6E
330
61
100
AcDbEntity
  8
10
100
AcDbLine
 10
0.2299999692803674
 20
0.1370144492009269
 30
0.0
 11
0.1366506043749744
 21
0.1909097301577374
 31
0.0
  0
LINE
  5
6F
330
61
100
AcDbEntity
  8
10
100
AcDbLine
 10
0.2299999692803709
 20
0.113920438433345
 30
0.0
 11
0.2299999692803674
 21
0.0099973899792092
 31
0.0
  0
LINE
  5
70
330
61
100
AcDbEntity
  8
10
100
AcDbLine
 10
0.2299999692803638
 20
0.2524845030388567
 30
0.0
 11
0.2299999692803674
 21
0.1370144492009304
 31
0.0
  0
ARC
  5
71
330
61
100
AcDbEntity
  8
10
100
AcDbCircle
 10
0.1266506043749622
 20
0.1726410827766105
 30
0.0
 40
0.01
100
AcDbArc
 50
239.9999999999995
 51
334.709932108123
  0
LINE
  5
72
330
61
100
AcDbEntity
  8
10
100
AcDbLine
 10
0.1366506043749744
 20
0.1909097301577414
 30
0.0
 11
0.1366506043749673
 21
0.1985892220820524
 31
0.0
  0
LINE
  5
73
330
61
100
AcDbEntity
  8
10
100
AcDbLine
 10
0.1216506043749632
 20
0.1639808287387661
 30
0.0
 11
0.0983493341857553
 21
0.177433823354967
 31
0.0
  0
ARC
  5
74
330
61
100
AcDbEntity
  8
10
100
AcDbCircle
 10
0.1266506043749658
 20
0.1985892220820524
 30
0.0
 40
0.01
100
AcDbArc
 50
0.0
 51
59.99999999999917
  0
LINE
  5
75
330
61
100
AcDbEntity
  8
10
100
AcDbLine
 10
0.1316506043749648
 20
0.2072494761198969
 30
0.0
 11
0.1083493341857533
 21
0.2207024707360996
 31
0.0
  0
ARC
  5
76
330
61
100
AcDbEntity
  8
10
100
AcDbCircle
 10
0.1033493341857543
 20
0.1860940773928115
 30
0.0
 40
0.01
100
AcDbArc
 50
180.0
 51
239.9999999999999
  0
LINE
  5
77
330
61
100
AcDbEntity
  8
10
100
AcDbLine
 10
0.0933493341857528
 20
0.1860940773928115
 30
0.0
 11
0.0933493341857528
 21
0.2120422166982552
 31
0.0
  0
ARC
  5
78
330
61
100
AcDbEntity
  8
10
100
AcDbCircle
 10
0.1033493341857543
 20
0.2120422166982552
 30
0.0
 40
0.01
100
AcDbArc
 50
60.0
 51
180.0
  0
ARC
  5
79
330
61
100
AcDbEntity
  8
10
100
AcDbCircle
 10
0.009999969280365
 20
0.1312409465090325
 30
0.0
 40
0.01
100
AcDbArc
 50
180.0000000000006
 51
240.0000000000003
  0
LINE
  5
7A
330
61
100
AcDbEntity
  8
10
100
AcDbLine
 10
0.0049999692803659
 20
0.1225806924711881
 30
0.0
 11
0.2149999692803668
 21
0.0013371359413648
 31
0.0
  0
ARC
  5
7B
330
61
100
AcDbEntity
  8
10
100
AcDbCircle
 10
0.2199999692803658
 20
0.0099973899792092
 30
0.0
 40
0.01
100
AcDbArc
 50
239.9999999999999
 51
0.0
  0
ARC
  5
7C
330
61
100
AcDbEntity
  8
10
100
AcDbCircle
 10
0.2199999692803622
 20
0.2524845030388567
 30
0.0
 40
0.01
100
AcDbArc
 50
0.0000000000007124
 51
60.00000000000078
  0
LINE
  5
7D
330
61
100
AcDbEntity
  8
10
100
AcDbLine
 10
0.0249999692803549
 20
0.4170293297578988
 30
0.0
 11
0.2349999692803628
 21
0.5382728862877224
 31
0.0
  0
ARC
  5
7E
330
61
100
AcDbEntity
  8
10
100
AcDbCircle
 10
0.0299999692803539
 20
0.4083690757200542
 30
0.0
 40
0.01
100
AcDbArc
 50
119.9999999999997
 51
240.0000000000002
  0
LINE
  5
7F
330
61
100
AcDbEntity
  8
10
100
AcDbLine
 10
0.2349999692461928
 20
0.3862558271685934
 30
0.0
 11
0.2116986990911549
 21
0.3997088217818918
 31
0.0
  0
LINE
  5
80
330
61
100
AcDbEntity
  8
10
100
AcDbLine
 10
0.2116986990911549
 20
0.4170293298575807
 30
0.0
 11
0.2343667475682558
 21
0.4301167337372376
 31
0.0
  0
ARC
  5
81
330
61
100
AcDbEntity
  8
10
100
AcDbCircle
 10
0.2166986990911539
 20
0.4083690758197364
 30
0.0
 40
0.01
100
AcDbArc
 50
119.9999999999999
 51
239.9999999999999
  0
ARC
  5
82
330
61
100
AcDbEntity
  8
10
100
AcDbCircle
 10
0.0099999692803614
 20
0.3737280595686747
 30
0.0
 40
0.01
100
AcDbArc
 50
60.00000000000071
 51
180.0
  0
LINE
  5
83
330
61
100
AcDbEntity
  8
10
100
AcDbLine
 10
0.2449999692803502
 20
0.2784652651523878
 30
0.0
 11
0.4549999692803617
 21
0.399708821682216
 31
0.0
  0
LINE
  5
84
330
61
100
AcDbEntity
  8
10
100
AcDbLine
 10
0.2599999692803685
 20
0.2640315084226534
 30
0.0
 11
0.4499999692803557
 21
0.3737280595686805
 31
0.0
  0
ARC
  5
85
330
61
100
AcDbEntity
  8
10
100
AcDbCircle
 10
0.4599999692803573
 20
0.3564075514929916
 30
0.0
 40
0.02
100
AcDbArc
 50
0.0000000000006997
 51
119.9999999999999
  0
LINE
  5
86
330
61
100
AcDbEntity
  8
10
100
AcDbLine
 10
0.3853226110081884
 20
0.1920490020623578
 30
0.0
 11
0.4799999692803604
 21
0.2467110003469632
 31
0.0
  0
LINE
  5
87
330
61
100
AcDbEntity
  8
10
100
AcDbLine
 10
0.3860173827363553
 20
0.2155441394742277
 30
0.0
 11
0.4799999692803567
 21
0.269805011114542
 31
0.0
  0
ARC
  5
88
330
61
100
AcDbEntity
  8
10
100
AcDbCircle
 10
0.3766506043749799
 20
0.2120422166982596
 30
0.0
 40
0.01
100
AcDbArc
 50
20.49907611913283
 51
120.000000000006
  0
LINE
  5
89
330
61
100
AcDbEntity
  8
10
100
AcDbLine
 10
0.3853226110081849
 20
0.192049002062356
 30
0.0
 11
0.3853226110081813
 21
0.1857245431213443
 31
0.0
  0
LINE
  5
8A
330
61
100
AcDbEntity
  8
10
100
AcDbLine
 10
0.4799999692803604
 20
0.2467110003469597
 30
0.0
 11
0.4799999692803639
 21
0.1370144492009322
 31
0.0
  0
LINE
  5
8B
330
61
100
AcDbEntity
  8
10
100
AcDbLine
 10
0.4799999692803567
 20
0.3564075514929921
 30
0.0
 11
0.4799999692803567
 21
0.2698050111145451
 31
0.0
  0
ARC
  5
8C
330
61
100
AcDbEntity
  8
10
100
AcDbCircle
 10
0.3533493341857579
 20
0.1722355030579732
 30
0.0
 40
0.01
100
AcDbArc
 50
180.0
 51
301.5450923819967
  0
LINE
  5
8D
330
61
100
AcDbEntity
  8
10
100
AcDbLine
 10
0.3805543054044094
 20
0.1772022562366846
 30
0.0
 11
0.358581028581991
 21
0.1637132161733139
 31
0.0
  0
LINE
  5
8E
330
61
100
AcDbEntity
  8
10
100
AcDbLine
 10
0.3433493341857599
 20
0.1793627247739491
 30
0.0
 11
0.3433493341857563
 21
0.1722355030579732
 31
0.0
  0
ARC
  5
8F
330
61
100
AcDbEntity
  8
10
100
AcDbCircle
 10
0.3753226110081798
 20
0.1857245431213443
 30
0.0
 40
0.01
100
AcDbArc
 50
301.5450923819923
 51
0.0
  0
LINE
  5
90
330
61
100
AcDbEntity
  8
10
100
AcDbLine
 10
0.3483493341857553
 20
0.2072494761198902
 30
0.0
 11
0.3716506043749774
 21
0.2207024707361036
 31
0.0
  0
ARC
  5
91
330
61
100
AcDbEntity
  8
10
100
AcDbCircle
 10
0.3533493341857579
 20
0.1985892220820467
 30
0.0
 40
0.01
100
AcDbArc
 50
120.000000000009
 51
180.0
  0
LINE
  5
92
330
61
100
AcDbEntity
  8
10
100
AcDbLine
 10
0.3433493341857599
 20
0.1793627247739509
 30
0.0
 11
0.3433493341857563
 21
0.1985892220820467
 31
0.0
  0
ARC
  5
93
330
61
100
AcDbEntity
  8
10
100
AcDbCircle
 10
0.2699999692803701
 20
0.2467110003469646
 30
0.0
 40
0.02
100
AcDbArc
 50
120.0000000000001
 51
180.0000000000026
  0
LINE
  5
94
330
61
100
AcDbEntity
  8
10
100
AcDbLine
 10
0.2499999692803705
 20
0.2467110003469637
 30
0.0
 11
0.2499999692803705
 21
0.0273178980548985
 31
0.0
  0
ARC
  5
95
330
61
100
AcDbEntity
  8
10
100
AcDbCircle
 10
0.2699999692803701
 20
0.0273178980548989
 30
0.0
 40
0.02
100
AcDbArc
 50
180.0000000000014
 51
300.0000000000003
  0
LINE
  5
96
330
61
100
AcDbEntity
  8
10
100
AcDbLine
 10
0.2799999692803716
 20
0.0099973899792101
 30
0.0
 11
0.4699999692803658
 21
0.1196939411252429
 31
0.0
  0
ARC
  5
97
330
61
100
AcDbEntity
  8
10
100
AcDbCircle
 10
0.4599999692803644
 20
0.1370144492009317
 30
0.0
 40
0.02
100
AcDbArc
 50
300.0000000000003
 51
0.0000000000017175
  0
ARC
  5
98
330
61
100
AcDbEntity
  8
10
100
AcDbCircle
 10
0.2699999692803594
 20
0.2467110003469637
 30
0.0
 40
0.02
100
AcDbArc
 50
120.0000000000008
 51
180.0000000000006
  0
ARC
  5
99
330
61
100
AcDbEntity
  8
10
100
AcDbCircle
 10
0.4499999692803627
 20
0.4083690757200606
 30
0.0
 40
0.01
100
AcDbArc
 50
300.0000000000008
 51
60.00000000000074
  0
LINE
  5
9A
330
61
100
AcDbEntity
  8
10
100
AcDbLine
 10
0.3599999691803148
 20
0.4718776053886781
 30
0.0
 11
0.4549999692803617
 21
0.417029329757905
 31
0.0
  0
LINE
  5
9B
330
61
100
AcDbEntity
  8
10
100
AcDbLine
 10
0.2449999692803608
 20
0.5382728862877224
 30
0.0
 11
0.3399999691803188
 21
0.4834246107724695
 31
0.0
  0
LINE
  5
9C
330
61
100
AcDbEntity
  8
10
100
AcDbLine
 10
0.2660173827513717
 20
0.4176167338147875
 30
0.0
 11
0.3599999691803148
 21
0.4718776053886781
 31
0.0
  0
LINE
  5
9D
330
61
100
AcDbEntity
  8
10
100
AcDbLine
 10
0.2460173826459275
 20
0.429163739137699
 30
0.0
 11
0.3399999691803188
 21
0.4834246107724695
 31
0.0
  0
LINE
  5
9E
330
61
100
AcDbEntity
  8
10
100
AcDbLine
 10
0.2460173826459311
 20
0.4291637391376977
 30
0.0
 11
0.2443667475655182
 21
0.4301167337356575
 31
0.0
  0
LINE
  5
9F
330
61
100
AcDbEntity
  8
10
100
AcDbLine
 10
0.267668017831781
 20
0.4166637392168293
 30
0.0
 11
0.2660173827513788
 21
0.417616733814787
 31
0.0
  0
LINE
  5
A0
330
61
100
AcDbEntity
  8
10
100
AcDbLine
 10
0.2449999692581493
 20
0.3862558271698191
 30
0.0
 11
0.2676680178317312
 21
0.3993432311411684
 31
0.0
  0
ARC
  5
A1
330
61
100
AcDbEntity
  8
10
100
AcDbCircle
 10
0.2626680178317322
 20
0.408003485179013
 30
0.0
 40
0.01
100
AcDbArc
 50
299.9999999999999
 51
59.99999999968121
  0
ENDBLK
  5
A3
330
61
100
AcDbEntity
  8
0
100
AcDbBlockEnd
  0
BLOCK
  5
3E
330
3C
100
AcDbEntity
  8
0
  6
ByBlock
 62
     2
100
AcDbBlockBegin
  2
*U5
 70
     1
 10
0.0
 20
0.0
 30
0.0
  3
*U5
  1

  0
TEXT
  5
3D
330
3C
100
AcDbEntity
  8
0
  6
ByBlock
 62
     2
100
AcDbText
 10
15.253
 20
1.7495
 30
0.0
 40
0.094
  1
 
 41
0.8842105263157966
 72
     5
 11
15.3282
 21
1.7495
 31
0.0
100
AcDbText
  0
ENDBLK
  5
3F
330
3C
100
AcDbEntity
  8
0
100
AcDbBlockEnd
  0
BLOCK
  5
43
330
41
100
AcDbEntity
  8
0
  6
ByBlock
 62
     2
100
AcDbBlockBegin
  2
*U6
 70
     1
 10
0.0
 20
0.0
 30
0.0
  3
*U6
  1

  0
TEXT
  5
42
330
41
100
AcDbEntity
  8
0
  6
ByBlock
 62
     2
100
AcDbText
 10
15.253
 20
1.436999999999999
 30
0.0
 40
0.094
  1
 
 41
0.8842105263157966
 72
     5
 11
15.3282
 21
1.436999999999999
 31
0.0
100
AcDbText
  0
ENDBLK
  5
44
330
41
100
AcDbEntity
  8
0
100
AcDbBlockEnd
  0
BLOCK
  5
48
330
46
100
AcDbEntity
  8
0
  6
ByBlock
 62
     2
100
AcDbBlockBegin
  2
*U7
 70
     1
 10
0.0
 20
0.0
 30
0.0
  3
*U7
  1

  0
TEXT
  5
47
330
46
100
AcDbEntity
  8
0
  6
ByBlock
 62
     2
100
AcDbText
 10
15.253
 20
1.1245
 30
0.0
 40
0.094
  1
 
 41
0.8842105263157966
 72
     5
 11
15.3282
 21
1.1245
 31
0.0
100
AcDbText
  0
ENDBLK
  5
49
330
46
100
AcDbEntity
  8
0
100
AcDbBlockEnd
  0
BLOCK
  5
4D
330
4B
100
AcDbEntity
  8
0
  6
ByBlock
 62
     2
100
AcDbBlockBegin
  2
*U8
 70
     1
 10
0.0
 20
0.0
 30
0.0
  3
*U8
  1

  0
TEXT
  5
4C
330
4B
100
AcDbEntity
  8
0
  6
ByBlock
 62
     2
100
AcDbText
 10
15.253
 20
0.812
 30
0.0
 40
0.094
  1
 
 41
0.8842105263157966
 72
     5
 11
15.3282
 21
0.812
 31
0.0
100
AcDbText
  0
ENDBLK
  5
4E
330
4B
100
AcDbEntity
  8
0
100
AcDbBlockEnd
  0
BLOCK
  5
D2
330
D0
100
AcDbEntity
  8
0
100
AcDbBlockBegin
  2
A$C2BF30918
 70
     0
 10
0.0
 20
0.0
 30
0.0
  3
A$C2BF30918
  1

  0
INSERT
  5
D1
330
D0
100
AcDbEntity
  8
10
100
AcDbBlockReference
  2
A$C708B5813
 10
0.0000000098500248
 20
-0.0001119937962062
 30
0.0
 41
0.75
 42
0.75
 43
0.75
  0
ENDBLK
  5
D3
330
D0
100
AcDbEntity
  8
0
100
AcDbBlockEnd
  0
BLOCK
  5
11D
330
111
100
AcDbEntity
  8
0
 62
     1
100
AcDbBlockBegin
  2
*D10
 70
     1
 10
0.0
 20
0.0
 30
0.0
  3
*D10
  1

  0
LINE
  5
112
330
111
100
AcDbEntity
  8
DIMENSION
 62
     0
370
    -2
100
AcDbLine
 10
5.093899840668152
 20
7.767571546370398
 30
0.0
 11
5.093899840668152
 21
9.152731142593507
 31
0.0
  0
LINE
  5
113
330
111
100
AcDbEntity
  8
DIMENSION
 62
     0
370
    -2
100
AcDbLine
 10
1.893899840668154
 20
7.767571546370398
 30
0.0
 11
1.893899840668154
 21
9.152731142593507
 31
0.0
  0
LINE
  5
114
330
111
100
AcDbEntity
  8
DIMENSION
 62
     0
370
    -2
100
AcDbLine
 10
4.968899840668152
 20
9.090231142593507
 30
0.0
 11
3.579804931880481
 21
9.090231142593507
 31
0.0
  0
LINE
  5
115
330
111
100
AcDbEntity
  8
DIMENSION
 62
     0
370
    -2
100
AcDbLine
 10
2.018899840668154
 20
9.090231142593507
 30
0.0
 11
3.108138265213816
 21
9.090231142593507
 31
0.0
  0
SOLID
  5
116
330
111
100
AcDbEntity
  8
DIMENSION
 62
     0
100
AcDbTrace
 10
4.968899840668152
 20
9.111064475926843
 30
0.0
 11
4.968899840668152
 21
9.069397809260175
 31
0.0
 12
5.093899840668152
 22
9.090231142593507
 32
0.0
 13
5.093899840668152
 23
9.090231142593507
 33
0.0
  0
SOLID
  5
117
330
111
100
AcDbEntity
  8
DIMENSION
 62
     0
100
AcDbTrace
 10
2.018899840668154
 20
9.111064475926843
 30
0.0
 11
2.018899840668154
 21
9.069397809260175
 31
0.0
 12
1.893899840668154
 22
9.090231142593507
 32
0.0
 13
1.893899840668154
 23
9.090231142593507
 33
0.0
  0
MTEXT
  5
118
330
111
100
AcDbEntity
  8
DIMENSION
 62
     0
100
AcDbMText
 10
3.343971598547148
 20
9.090231142593507
 30
0.0
 40
0.125
 41
0.0
 71
     5
 72
     1
  1
\A1;3{\H1.000000x;\S3/16;}
 73
     1
 44
1.0
  0
POINT
  5
119
330
111
100
AcDbEntity
  8
Defpoints
 62
     0
100
AcDbPoint
 10
5.093899840668152
 20
7.705071546370398
 30
0.0
  0
POINT
  5
11B
330
111
100
AcDbEntity
  8
Defpoints
 62
     0
100
AcDbPoint
 10
1.893899840668154
 20
7.705071546370398
 30
0.0
  0
POINT
  5
11C
330
111
100
AcDbEntity
  8
Defpoints
 62
     0
100
AcDbPoint
 10
1.893899840668154
 20
9.090231142593507
 30
0.0
  0
ENDBLK
  5
11E
330
111
100
AcDbEntity
  8
0
 62
     1
100
AcDbBlockEnd
  0
BLOCK
  5
12B
330
120
100
AcDbEntity
  8
0
 62
     1
100
AcDbBlockBegin
  2
*D11
 70
     1
 10
0.0
 20
0.0
 30
0.0
  3
*D11
  1

  0
LINE
  5
121
330
120
100
AcDbEntity
  8
DIMENSION
 62
     0
370
    -2
100
AcDbLine
 10
4.974899840668149
 20
7.442571546370363
 30
0.0
 11
4.974899840668149
 21
8.647418881015866
 31
0.0
  0
LINE
  5
122
330
120
100
AcDbEntity
  8
DIMENSION
 62
     0
370
    -2
100
AcDbLine
 10
2.012899840668149
 20
7.442571546370363
 30
0.0
 11
2.012899840668149
 21
8.647418881015866
 31
0.0
  0
LINE
  5
123
330
120
100
AcDbEntity
  8
DIMENSION
 62
     0
370
    -2
100
AcDbLine
 10
4.849899840668149
 20
8.584918881015866
 30
0.0
 11
3.625797388477574
 21
8.584918881015866
 31
0.0
  0
LINE
  5
124
330
120
100
AcDbEntity
  8
DIMENSION
 62
     0
370
    -2
100
AcDbLine
 10
2.137899840668149
 20
8.584918881015866
 30
0.0
 11
3.148178340858526
 21
8.584918881015866
 31
0.0
  0
SOLID
  5
125
330
120
100
AcDbEntity
  8
DIMENSION
 62
     0
100
AcDbTrace
 10
4.849899840668149
 20
8.6057522143492
 30
0.0
 11
4.849899840668149
 21
8.564085547682532
 31
0.0
 12
4.974899840668149
 22
8.584918881015866
 32
0.0
 13
4.974899840668149
 23
8.584918881015866
 33
0.0
  0
SOLID
  5
126
330
120
100
AcDbEntity
  8
DIMENSION
 62
     0
100
AcDbTrace
 10
2.137899840668149
 20
8.6057522143492
 30
0.0
 11
2.137899840668149
 21
8.564085547682532
 31
0.0
 12
2.012899840668149
 22
8.584918881015866
 32
0.0
 13
2.012899840668149
 23
8.584918881015866
 33
0.0
  0
MTEXT
  5
127
330
120
100
AcDbEntity
  8
DIMENSION
 62
     0
100
AcDbMText
 10
3.38698786466805
 20
8.584918881015866
 30
0.0
 40
0.125
 41
0.0
 71
     5
 72
     1
  1
\A1;2{\H1.000000x;\S15/16;}
 73
     1
 44
1.0
  0
POINT
  5
128
330
120
100
AcDbEntity
  8
Defpoints
 62
     0
100
AcDbPoint
 10
4.974899840668149
 20
7.380071546370363
 30
0.0
  0
POINT
  5
129
330
120
100
AcDbEntity
  8
Defpoints
 62
     0
100
AcDbPoint
 10
2.012899840668149
 20
7.380071546370363
 30
0.0
  0
POINT
  5
12A
330
120
100
AcDbEntity
  8
Defpoints
 62
     0
100
AcDbPoint
 10
2.012899840668149
 20
8.584918881015866
 30
0.0
  0
ENDBLK
  5
12C
330
120
100
AcDbEntity
  8
0
 62
     1
100
AcDbBlockEnd
  0
BLOCK
  5
139
330
12E
100
AcDbEntity
  8
0
 62
     1
100
AcDbBlockBegin
  2
*D12
 70
     1
 10
0.0
 20
0.0
 30
0.0
  3
*D12
  1

  0
LINE
  5
12F
330
12E
100
AcDbEntity
  8
DIMENSION
 62
     0
370
    -2
100
AcDbLine
 10
1.956399840668153
 20
7.830071546370398
 30
0.0
 11
1.066135006748851
 21
7.830071546370398
 31
0.0
  0
LINE
  5
130
330
12E
100
AcDbEntity
  8
DIMENSION
 62
     0
370
    -2
100
AcDbLine
 10
1.956399840668153
 20
6.930071546370401
 30
0.0
 11
1.066135006748851
 21
6.930071546370401
 31
0.0
  0
LINE
  5
131
330
12E
100
AcDbEntity
  8
DIMENSION
 62
     0
370
    -2
100
AcDbLine
 10
1.128635006748851
 20
7.705071546370398
 30
0.0
 11
1.128635006748851
 21
7.61660383300199
 31
0.0
  0
LINE
  5
132
330
12E
100
AcDbEntity
  8
DIMENSION
 62
     0
370
    -2
100
AcDbLine
 10
1.128635006748851
 20
7.055071546370401
 30
0.0
 11
1.128635006748851
 21
7.144937166335322
 31
0.0
  0
SOLID
  5
133
330
12E
100
AcDbEntity
  8
DIMENSION
 62
     0
100
AcDbTrace
 10
1.107801673415518
 20
7.705071546370398
 30
0.0
 11
1.149468340082185
 21
7.705071546370398
 31
0.0
 12
1.128635006748851
 22
7.830071546370398
 32
0.0
 13
1.128635006748851
 23
7.830071546370398
 33
0.0
  0
SOLID
  5
134
330
12E
100
AcDbEntity
  8
DIMENSION
 62
     0
100
AcDbTrace
 10
1.107801673415518
 20
7.055071546370401
 30
0.0
 11
1.149468340082185
 21
7.055071546370401
 31
0.0
 12
1.128635006748851
 22
6.930071546370401
 32
0.0
 13
1.128635006748851
 23
6.930071546370401
 33
0.0
  0
MTEXT
  5
135
330
12E
100
AcDbEntity
  8
DIMENSION
 62
     0
100
AcDbMText
 10
1.12863500674885
 20
7.380770499668656
 30
0.0
 40
0.125
 41
0.0
 71
     5
 72
     1
  1
\A1;{\H1.000000x;\S7/8;}
 73
     1
 44
1.0
  0
POINT
  5
136
330
12E
100
AcDbEntity
  8
Defpoints
 62
     0
100
AcDbPoint
 10
2.018899840668153
 20
7.830071546370398
 30
0.0
  0
POINT
  5
137
330
12E
100
AcDbEntity
  8
Defpoints
 62
     0
100
AcDbPoint
 10
2.018899840668153
 20
6.9300715463704
 30
0.0
  0
POINT
  5
138
330
12E
100
AcDbEntity
  8
Defpoints
 62
     0
100
AcDbPoint
 10
1.128635006748851
 20
6.930071546370401
 30
0.0
  0
ENDBLK
  5
13A
330
12E
100
AcDbEntity
  8
0
 62
     1
100
AcDbBlockEnd
  0
BLOCK
  5
147
330
13C
100
AcDbEntity
  8
0
 62
     1
100
AcDbBlockBegin
  2
*D13
 70
     1
 10
0.0
 20
0.0
 30
0.0
  3
*D13
  1

  0
LINE
  5
13D
330
13C
100
AcDbEntity
  8
DIMENSION
 62
     0
370
    -2
100
AcDbLine
 10
2.489399840668149
 20
7.082571546370338
 30
0.0
 11
2.489399840668149
 21
6.30764597651337
 31
0.0
  0
LINE
  5
13E
330
13C
100
AcDbEntity
  8
DIMENSION
 62
     0
370
    -2
100
AcDbLine
 10
4.498399840668167
 20
7.082571546370324
 30
0.0
 11
4.498399840668167
 21
6.30764597651337
 31
0.0
  0
LINE
  5
13F
330
13C
100
AcDbEntity
  8
DIMENSION
 62
     0
370
    -2
100
AcDbLine
 10
2.614399840668149
 20
6.37014597651337
 30
0.0
 11
2.94206825113831
 21
6.37014597651337
 31
0.0
  0
LINE
  5
140
330
13C
100
AcDbEntity
  8
DIMENSION
 62
     0
370
    -2
100
AcDbLine
 10
4.373399840668167
 20
6.37014597651337
 30
0.0
 11
4.068496822566881
 21
6.37014597651337
 31
0.0
  0
SOLID
  5
141
330
13C
100
AcDbEntity
  8
DIMENSION
 62
     0
100
AcDbTrace
 10
2.614399840668149
 20
6.390979309846701
 30
0.0
 11
2.614399840668149
 21
6.349312643180036
 31
0.0
 12
2.489399840668149
 22
6.37014597651337
 32
0.0
 13
2.489399840668149
 23
6.37014597651337
 33
0.0
  0
SOLID
  5
142
330
13C
100
AcDbEntity
  8
DIMENSION
 62
     0
100
AcDbTrace
 10
4.373399840668167
 20
6.390979309846701
 30
0.0
 11
4.373399840668167
 21
6.349312643180036
 31
0.0
 12
4.498399840668167
 22
6.37014597651337
 32
0.0
 13
4.498399840668167
 23
6.37014597651337
 33
0.0
  0
MTEXT
  5
143
330
13C
100
AcDbEntity
  8
DIMENSION
 62
     0
100
AcDbMText
 10
3.505282536852596
 20
6.37014597651337
 30
0.0
 40
0.125
 41
0.0
 71
     5
 72
     1
  1
\A1;2\POPERATOR\PSPACING
 73
     1
 44
1.0
  0
POINT
  5
144
330
13C
100
AcDbEntity
  8
Defpoints
 62
     0
100
AcDbPoint
 10
2.489399840668149
 20
7.145071546370338
 30
0.0
  0
POINT
  5
145
330
13C
100
AcDbEntity
  8
Defpoints
 62
     0
100
AcDbPoint
 10
4.498399840668167
 20
7.145071546370324
 30
0.0
  0
POINT
  5
146
330
13C
100
AcDbEntity
  8
Defpoints
 62
     0
100
AcDbPoint
 10
4.498399840668167
 20
6.37014597651337
 30
0.0
  0
ENDBLK
  5
148
330
13C
100
AcDbEntity
  8
0
 62
     1
100
AcDbBlockEnd
  0
BLOCK
  5
155
330
14A
100
AcDbEntity
  8
0
 62
     1
100
AcDbBlockBegin
  2
*D14
 70
     1
 10
0.0
 20
0.0
 30
0.0
  3
*D14
  1

  0
LINE
  5
14B
330
14A
100
AcDbEntity
  8
DIMENSION
 62
     0
370
    -2
100
AcDbLine
 10
10.08954643901277
 20
7.892571546370339
 30
0.0
 11
10.08954643901277
 21
8.327967414342936
 31
0.0
  0
LINE
  5
14C
330
14A
100
AcDbEntity
  8
DIMENSION
 62
     0
370
    -2
100
AcDbLine
 10
9.217546439012775
 20
7.892571546370398
 30
0.0
 11
9.217546439012775
 21
8.327967414342936
 31
0.0
  0
LINE
  5
14D
330
14A
100
AcDbEntity
  8
DIMENSION
 62
     0
370
    -2
100
AcDbLine
 10
9.964546439012773
 20
8.265467414342936
 30
0.0
 11
9.779456072083439
 21
8.265467414342936
 31
0.0
  0
LINE
  5
14E
330
14A
100
AcDbEntity
  8
DIMENSION
 62
     0
370
    -2
100
AcDbLine
 10
9.342546439012775
 20
8.265467414342936
 30
0.0
 11
9.516122738750107
 21
8.265467414342936
 31
0.0
  0
SOLID
  5
14F
330
14A
100
AcDbEntity
  8
DIMENSION
 62
     0
100
AcDbTrace
 10
9.964546439012773
 20
8.28630074767627
 30
0.0
 11
9.964546439012773
 21
8.244634081009602
 31
0.0
 12
10.08954643901277
 22
8.265467414342936
 32
0.0
 13
10.08954643901277
 23
8.265467414342936
 33
0.0
  0
SOLID
  5
150
330
14A
100
AcDbEntity
  8
DIMENSION
 62
     0
100
AcDbTrace
 10
9.342546439012775
 20
8.28630074767627
 30
0.0
 11
9.342546439012775
 21
8.244634081009602
 31
0.0
 12
9.217546439012775
 22
8.265467414342936
 32
0.0
 13
9.217546439012775
 23
8.265467414342936
 33
0.0
  0
MTEXT
  5
151
330
14A
100
AcDbEntity
  8
DIMENSION
 62
     0
100
AcDbMText
 10
9.647789405416773
 20
8.265467414342936
 30
0.0
 40
0.125
 41
0.0
 71
     5
 72
     1
  1
\A1;{\H1.000000x;\S7/8;}
 73
     1
 44
1.0
  0
POINT
  5
152
330
14A
100
AcDbEntity
  8
Defpoints
 62
     0
100
AcDbPoint
 10
10.08954643901277
 20
7.830071546370339
 30
0.0
  0
POINT
  5
153
330
14A
100
AcDbEntity
  8
Defpoints
 62
     0
100
AcDbPoint
 10
9.217546439012775
 20
7.830071546370398
 30
0.0
  0
POINT
  5
154
330
14A
100
AcDbEntity
  8
Defpoints
 62
     0
100
AcDbPoint
 10
9.217546439012775
 20
8.265467414342936
 30
0.0
  0
ENDBLK
  5
156
330
14A
100
AcDbEntity
  8
0
 62
     1
100
AcDbBlockEnd
  0
BLOCK
  5
163
330
158
100
AcDbEntity
  8
0
 62
     1
100
AcDbBlockBegin
  2
*D15
 70
     1
 10
0.0
 20
0.0
 30
0.0
  3
*D15
  1

  0
LINE
  5
159
330
158
100
AcDbEntity
  8
DIMENSION
 62
     0
370
    -2
100
AcDbLine
 10
10.08954643901277
 20
7.885175685828961
 30
0.0
 11
10.08954643901277
 21
8.778862413846043
 31
0.0
  0
LINE
  5
15A
330
158
100
AcDbEntity
  8
DIMENSION
 62
     0
370
    -2
100
AcDbLine
 10
8.889938241642747
 20
7.754936548137606
 30
0.0
 11
8.889938241642747
 21
8.778862413846043
 31
0.0
  0
LINE
  5
15B
330
158
100
AcDbEntity
  8
DIMENSION
 62
     0
370
    -2
100
AcDbLine
 10
9.964546439012773
 20
8.716362413846043
 30
0.0
 11
9.689579408960019
 21
8.716362413846043
 31
0.0
  0
LINE
  5
15C
330
158
100
AcDbEntity
  8
DIMENSION
 62
     0
370
    -2
100
AcDbLine
 10
9.014938241642747
 20
8.716362413846043
 30
0.0
 11
9.241722266102875
 21
8.716362413846043
 31
0.0
  0
SOLID
  5
15D
330
158
100
AcDbEntity
  8
DIMENSION
 62
     0
100
AcDbTrace
 10
9.964546439012773
 20
8.737195747179374
 30
0.0
 11
9.964546439012773
 21
8.695529080512708
 31
0.0
 12
10.08954643901277
 22
8.716362413846043
 32
0.0
 13
10.08954643901277
 23
8.716362413846043
 33
0.0
  0
SOLID
  5
15E
330
158
100
AcDbEntity
  8
DIMENSION
 62
     0
100
AcDbTrace
 10
9.014938241642747
 20
8.737195747179374
 30
0.0
 11
9.014938241642747
 21
8.695529080512708
 31
0.0
 12
8.889938241642747
 22
8.716362413846043
 32
0.0
 13
8.889938241642747
 23
8.716362413846043
 33
0.0
  0
MTEXT
  5
15F
330
158
100
AcDbEntity
  8
DIMENSION
 62
     0
100
AcDbMText
 10
9.465650837531446
 20
8.716362413846043
 30
0.0
 40
0.125
 41
0.0
 71
     5
 72
     1
  1
\A1;1{\H1.000000x;\S3/16;}
 73
     1
 44
1.0
  0
POINT
  5
160
330
158
100
AcDbEntity
  8
Defpoints
 62
     0
100
AcDbPoint
 10
10.08954643901277
 20
7.822675685828961
 30
0.0
  0
POINT
  5
161
330
158
100
AcDbEntity
  8
Defpoints
 62
     0
100
AcDbPoint
 10
8.889938241642747
 20
7.692436548137606
 30
0.0
  0
POINT
  5
162
330
158
100
AcDbEntity
  8
Defpoints
 62
     0
100
AcDbPoint
 10
8.889938241642747
 20
8.716362413846043
 30
0.0
  0
ENDBLK
  5
164
330
158
100
AcDbEntity
  8
0
 62
     1
100
AcDbBlockEnd
  0
BLOCK
  5
550
330
54F
100
AcDbEntity
  8
0
 62
     1
100
AcDbBlockBegin
  2
*U16
 70
     1
 10
0.0
 20
0.0
 30
0.0
  3
*U16
  1

  0
ENDBLK
  5
551
330
54F
100
AcDbEntity
  8
0
 62
     1
100
AcDbBlockEnd
  0
BLOCK
  5
58F
330
58D
100
AcDbEntity
  8
0
 62
     1
100
AcDbBlockBegin
  2
GENAXEH
 70
     0
 10
0.0
 20
0.0
 30
0.0
  3
GENAXEH
  1

  0
LINE
  5
58E
330
58D
100
AcDbEntity
  8
0
100
AcDbLine
 10
-1.0
 20
0.0
 30
0.0
 11
1.0
 21
0.0
 31
0.0
  0
ENDBLK
  5
590
330
58D
100
AcDbEntity
  8
0
 62
     1
100
AcDbBlockEnd
  0
ENDSEC
  0
SECTION
  2
ENTITIES
  0
INSERT
  5
27
330
D
100
AcDbEntity
 67
     1
  8
0
 62
     2
100
AcDbBlockReference
  2
*U0
 10
-0.1098048566932128
 20
-0.4174189237427585
 30
0.0
  0
INSERT
  5
2C
330
D
100
AcDbEntity
 67
     1
  8
0
 62
     2
100
AcDbBlockReference
  2
*U1
 10
-0.1098048566932128
 20
-0.4174189237427585
 30
0.0
  0
INSERT
  5
31
330
D
100
AcDbEntity
 67
     1
  8
0
 62
     2
100
AcDbBlockReference
  2
*U2
 10
-0.1098048566932128
 20
-0.4174189237427585
 30
0.0
  0
INSERT
  5
36
330
D
100
AcDbEntity
 67
     1
  8
0
 62
     2
100
AcDbBlockReference
  2
*U3
 10
-0.1098048566932128
 20
-0.4174189237427585
 30
0.0
  0
INSERT
  5
3B
330
D
100
AcDbEntity
 67
     1
  8
0
 62
     2
100
AcDbBlockReference
  2
*U5
 10
-0.4902673466432966
 20
13.69754352754958
 30
0.0
  0
INSERT
  5
40
330
D
100
AcDbEntity
 67
     1
  8
0
 62
     2
100
AcDbBlockReference
  2
*U6
 10
-0.4902673466432966
 20
13.69754352754958
 30
0.0
  0
INSERT
  5
45
330
D
100
AcDbEntity
 67
     1
  8
0
 62
     2
100
AcDbBlockReference
  2
*U7
 10
-0.4902673466432966
 20
13.69754352754958
 30
0.0
  0
INSERT
  5
4A
330
D
100
AcDbEntity
 67
     1
  8
0
 62
     2
100
AcDbBlockReference
  2
*U8
 10
-0.4902673466432966
 20
13.69754352754958
 30
0.0
  0
MTEXT
  5
4F
330
D
100
AcDbEntity
 67
     1
  8
PHANTOM
 62
     7
100
AcDbMText
 10
23.21387895364477
 20
15.48567540902483
 30
0.0
 40
0.18
 41
0.0
 71
     4
 72
     5
  1

 73
     1
 44
1.0
  0
MTEXT
  5
52
330
D
100
AcDbEntity
 67
     1
  8
CENTER
 62
     7
100
AcDbMText
 10
14.55077655999674
 20
4.802922148264868
 30
0.0
 40
0.18
 41
0.0
 71
     4
 72
     5
  1

 73
     1
 44
1.0
  0
MTEXT
  5
54
330
D
100
AcDbEntity
 67
     1
  8
PHANTOM
 62
     7
100
AcDbMText
 10
31.37482750179689
 20
12.1123618655817
 30
0.0
 40
0.18
 41
0.0
 71
     6
 72
     5
  1

 73
     1
 44
1.0
  0
MTEXT
  5
55
330
D
100
AcDbEntity
 67
     1
  8
PHANTOM
 62
     7
100
AcDbMText
 10
33.59366920858867
 20
17.42006613154694
 30
0.0
 40
0.18
 41
0.0
 71
     4
 72
     5
  1

 73
     1
 44
1.0
  0
MTEXT
  5
56
330
D
100
AcDbEntity
 67
     1
  8
PHANTOM
 62
     7
100
AcDbMText
 10
34.00937524984262
 20
17.02989161050054
 30
0.0
 40
0.18
 41
0.0
 71
     4
 72
     5
  1

 73
     1
 44
1.0
  0
LINE
  5
57
330
D
100
AcDbEntity
 67
     1
  8
10
100
AcDbLine
 10
16.80269514330678
 20
10.33258107625724
 30
0.0
 11
16.80269514330678
 21
10.08258107625724
 31
0.0
  0
LINE
  5
59
330
D
100
AcDbEntity
 67
     1
  8
10
100
AcDbLine
 10
-0.1973048566932093
 20
-0.6674189237427584
 30
0.0
 11
0.0526951433067907
 21
-0.6674189237427588
 31
0.0
  0
LINE
  5
5A
330
D
100
AcDbEntity
 67
     1
  8
10
100
AcDbLine
 10
-0.1973048566932093
 20
10.33258107625724
 30
0.0
 11
0.0526951433067907
 21
10.33258107625724
 31
0.0
  0
LINE
  5
5B
330
D
100
AcDbEntity
 67
     1
  8
10
100
AcDbLine
 10
-0.1973048566932093
 20
10.33258107625724
 30
0.0
 11
-0.1973048566932057
 21
10.08258107625724
 31
0.0
  0
LINE
  5
5C
330
D
100
AcDbEntity
 67
     1
  8
10
100
AcDbLine
 10
16.80269514330678
 20
-0.4174189237427566
 30
0.0
 11
16.80269514330678
 21
-0.6674189237427563
 31
0.0
  0
LINE
  5
5D
330
D
100
AcDbEntity
 67
     1
  8
10
100
AcDbLine
 10
16.55269514330678
 20
-0.6674189237427563
 30
0.0
 11
16.80269514330678
 21
-0.6674189237427563
 31
0.0
  0
LINE
  5
5E
330
D
100
AcDbEntity
 67
     1
  8
10
100
AcDbLine
 10
16.55269514330678
 20
10.33258107625724
 30
0.0
 11
16.8026951433068
 21
10.33258107625724
 31
0.0
  0
LINE
  5
5F
330
D
100
AcDbEntity
 67
     1
  8
10
100
AcDbLine
 10
-0.1973048566932057
 20
-0.4174189237427585
 30
0.0
 11
-0.1973048566932093
 21
-0.6674189237427584
 31
0.0
  0
INSERT
  5
60
330
D
100
AcDbEntity
 67
     1
  8
10
100
AcDbBlockReference
  2
A$C708B5813
 10
6.586850025714698
 20
-0.3726344124184915
 30
0.0000000075
 41
0.75
 42
0.75
 43
0.7500000000000001
  0
MTEXT
  5
A4
330
D
100
AcDbEntity
 67
     1
  8
10
 62
     7
100
AcDbMText
 10
11.47899972558136
 20
0.0534892594117931
 30
0.0
 40
0.1
 41
6.799999999999999
 71
     1
 72
     5
  1
P.O. BOX 496\P664 STATE STREET\PBEAVER, PA 15009
 73
     1
 44
1.0
  0
MTEXT
  5
A5
330
D
100
AcDbEntity
 67
     1
  8
10
 62
     7
100
AcDbMText
 10
14.96683179014955
 20
-0.0014779311496214
 30
0.0
 40
0.09
 41
4.5
 71
     1
 72
     5
  1
\LDRAWING NO.
 73
     1
 44
1.0
  0
MTEXT
  5
A6
330
D
100
AcDbEntity
 67
     1
  8
10
 62
     7
100
AcDbMText
 10
15.12855643874407
 20
-0.1734047135548011
 30
0.0
 40
0.125
 41
1.8464
 71
     1
 72
     5
  1
WC100193
 73
     1
 44
1.0
  0
LINE
  5
A7
330
D
100
AcDbEntity
 67
     1
  8
10
100
AcDbLine
 10
14.90878554080729
 20
-0.4098465826366732
 30
0.0
 11
14.90878554080729
 21
0.090153417363327
 31
0.0
  0
MTEXT
  5
A8
330
D
100
AcDbEntity
 67
     1
  8
10
 62
     7
100
AcDbMText
 10
13.66451116001532
 20
1.411701368718185
 30
0.0
 40
0.11
 41
2.799999999999998
 71
     1
 72
     5
  1
22MM PRODUCT LINE\PROTARY MECHANICAL INTERLOCK\P(MAINTAINED OPERATORS)\PDATA SHEET
 73
     1
 44
1.0
  0
LINE
  5
A9
330
D
100
AcDbEntity
 67
     1
  8
10
100
AcDbLine
 10
8.806601377641916
 20
0.5391244799318926
 30
0.0
 11
13.5526951276419
 21
0.5391244799318926
 31
0.0
  0
TEXT
  5
AA
330
D
100
AcDbEntity
 67
     1
  8
10
 62
     7
100
AcDbText
 10
8.929538710823571
 20
0.1501806860154566
 30
0.0
 40
0.094921875
  1
REV
100
AcDbText
  0
TEXT
  5
AB
330
D
100
AcDbEntity
 67
     1
  8
10
 62
     7
100
AcDbText
 10
10.41802801887827
 20
0.1550180893091966
 30
0.0
 40
0.094921875
  1
DESCRIPTION
100
AcDbText
  0
TEXT
  5
AC
330
D
100
AcDbEntity
 67
     1
  8
10
 62
     7
100
AcDbText
 10
12.5405627534506
 20
0.1520915454915954
 30
0.0
 40
0.094921875
  1
DATE
100
AcDbText
  0
TEXT
  5
AD
330
D
100
AcDbEntity
 67
     1
  8
10
 62
     7
100
AcDbText
 10
13.25462895119255
 20
0.15692908767031
 30
0.0
 40
0.094921875
  1
BY
100
AcDbText
  0
LINE
  5
AE
330
D
100
AcDbEntity
 67
     1
  8
10
100
AcDbLine
 10
8.806601377641916
 20
0.3413705736818926
 30
0.0
 11
13.5526951276419
 21
0.3413705736818926
 31
0.0
  0
LINE
  5
AF
330
D
100
AcDbEntity
 67
     1
  8
10
100
AcDbLine
 10
9.281210752641912
 20
0.5391244799318926
 30
0.0
 11
9.281210752641881
 21
0.0825810762572432
 31
0.0
  0
LINE
  5
B0
330
D
100
AcDbEntity
 67
     1
  8
10
100
AcDbLine
 10
13.07808575264191
 20
0.5391244799318926
 30
0.0
 11
13.07808575264191
 21
0.0825810762572433
 31
0.0
  0
LINE
  5
B1
330
D
100
AcDbEntity
 67
     1
  8
10
100
AcDbLine
 10
12.36617169014192
 20
0.5391244799318926
 30
0.0
 11
12.36617169014195
 21
0.0825810762572433
 31
0.0
  0
MTEXT
  5
B2
330
D
100
AcDbEntity
 67
     1
  8
10
 62
     7
100
AcDbMText
 10
13.60089623667743
 20
-0.0104227656791367
 30
0.0
 40
0.09
 41
4.5
 71
     1
 72
     5
  1
\LSCALE:
 73
     1
 44
1.0
  0
TEXT
  5
B3
330
D
100
AcDbEntity
 67
     1
  8
10
 62
     7
100
AcDbText
 10
8.923085901903391
 20
0.3801897852344779
 30
0.0
 40
0.094921875
  1
XXX
100
AcDbText
  0
TEXT
  5
B4
330
D
100
AcDbEntity
 67
     1
  8
10
 62
     7
100
AcDbText
 10
10.41157520995809
 20
0.3850271885282197
 30
0.0
 40
0.094921875
  1
XXXXXXXXXXX
100
AcDbText
  0
TEXT
  5
B5
330
D
100
AcDbEntity
 67
     1
  8
10
 62
     7
100
AcDbText
 10
12.53410994453043
 20
0.3821006447106185
 30
0.0
 40
0.094921875
  1
XXXX
100
AcDbText
  0
TEXT
  5
B6
330
D
100
AcDbEntity
 67
     1
  8
10
 62
     7
100
AcDbText
 10
13.19809606131497
 20
0.3869381868893313
 30
0.0
 40
0.094921875
  1
XXX
100
AcDbText
  0
LINE
  5
B7
330
D
100
AcDbEntity
 67
     1
  8
10
100
AcDbLine
 10
0.0526951433067907
 20
-0.4174189237427579
 30
0.0
 11
16.55269514330678
 21
-0.4174189237427682
 31
0.0
  0
LINE
  5
B8
330
D
100
AcDbEntity
 67
     1
  8
10
100
AcDbLine
 10
8.806601377641902
 20
0.5391244799318926
 30
0.0
 11
8.806601377641882
 21
0.0825810762572432
 31
0.0
  0
LINE
  5
B9
330
D
100
AcDbEntity
 67
     1
  8
10
100
AcDbLine
 10
13.55269513968151
 20
1.559143576257243
 30
0.0
 11
13.55269510361971
 21
0.0825810762572528
 31
0.0
  0
LINE
  5
BA
330
D
100
AcDbEntity
 67
     1
  8
10
100
AcDbLine
 10
16.55269514330678
 20
10.08258107625724
 30
0.0
 11
16.55269514330678
 21
-0.4174189237427682
 31
0.0
  0
CIRCLE
  5
BB
330
D
100
AcDbEntity
 67
     1
  8
10
 62
     1
100
AcDbCircle
 10
0.0526951433067872
 20
-0.4174189237427585
 30
0.00000001
 40
0.1415883773737505
  0
LINE
  5
BC
330
D
100
AcDbEntity
 67
     1
  8
10
100
AcDbLine
 10
0.0526951433067978
 20
10.08258107625724
 30
0.0
 11
16.55269514330678
 21
10.08258107625724
 31
0.0
  0
LINE
  5
BD
330
D
100
AcDbEntity
 67
     1
  8
10
100
AcDbLine
 10
0.0526951433067978
 20
10.08258107625724
 30
0.0
 11
0.0526951433067907
 21
-0.4174189237427576
 31
0.0
  0
LINE
  5
BE
330
D
100
AcDbEntity
 67
     1
  8
10
100
AcDbLine
 10
13.62269514330677
 20
1.518518660478656
 30
0.0
 11
16.48269514330677
 21
1.518518660478657
 31
0.0
  0
LINE
  5
BF
330
D
100
AcDbEntity
 67
     1
  8
10
100
AcDbLine
 10
16.50269514330678
 20
1.498518660478656
 30
0.0
 11
16.50269514330678
 21
0.6025810762572436
 31
0.0
  0
LINE
  5
C0
330
D
100
AcDbEntity
 67
     1
  8
10
100
AcDbLine
 10
13.60269514330678
 20
1.498518660478656
 30
0.0
 11
13.60269514330678
 21
0.6025810762572436
 31
0.0
  0
LINE
  5
C1
330
D
100
AcDbEntity
 67
     1
  8
10
100
AcDbLine
 10
13.62269514330677
 20
0.5825810762572436
 30
0.0
 11
16.48269514330678
 21
0.5825810762572436
 31
0.0
  0
LINE
  5
C2
330
D
100
AcDbEntity
 67
     1
  8
10
100
AcDbLine
 10
13.55269511460997
 20
0.5391244266355308
 30
0.0
 11
16.55269514330678
 21
0.5391244266355308
 31
0.0
  0
MTEXT
  5
C3
330
D
100
AcDbEntity
 67
     1
  8
10
 62
     7
100
AcDbMText
 10
13.84610947216351
 20
-0.1863558742370817
 30
0.0
 40
0.125
 41
1.8464
 71
     1
 72
     5
  1
1:1
 73
     1
 44
1.0
  0
MTEXT
  5
C4
330
D
100
AcDbEntity
 67
     1
  8
10
 62
     7
100
AcDbMText
 10
13.61651394475509
 20
0.452795505008366
 30
0.0
 40
0.09
 41
4.5
 71
     1
 72
     5
  1
\LDRAWN BY:
 73
     1
 44
1.0
  0
MTEXT
  5
C5
330
D
100
AcDbEntity
 67
     1
  8
10
 62
     7
100
AcDbMText
 10
14.04207600540109
 20
0.2768623964504204
 30
0.0
 40
0.125
 41
1.8464
 71
     1
 72
     5
  1
RCG
 73
     1
 44
1.0
  0
MTEXT
  5
C6
330
D
100
AcDbEntity
 67
     1
  8
10
 62
     7
100
AcDbMText
 10
14.98046295928513
 20
0.4684096185682824
 30
0.0
 40
0.09
 41
4.5
 71
     1
 72
     5
  1
\LDATE:
 73
     1
 44
1.0
  0
MTEXT
  5
C7
330
D
100
AcDbEntity
 67
     1
  8
10
 62
     7
100
AcDbMText
 10
15.31341344067341
 20
0.2924765100103368
 30
0.0
 40
0.125
 41
1.8464
 71
     1
 72
     5
  1
10-12-01
 73
     1
 44
1.0
  0
LINE
  5
C8
330
D
100
AcDbEntity
 67
     1
  8
10
100
AcDbLine
 10
14.90878554080729
 20
0.0825810762572434
 30
0.0
 11
14.90878554080729
 21
0.5325810762572436
 31
0.0000000000000001
  0
LINE
  5
C9
330
D
100
AcDbEntity
 67
     1
  8
10
100
AcDbLine
 10
13.62269514330677
 20
1.518518660478656
 30
0.0
 11
13.60269514330677
 21
1.498518660478656
 31
0.0
  0
LINE
  5
CA
330
D
100
AcDbEntity
 67
     1
  8
10
100
AcDbLine
 10
16.48269514330677
 20
1.518518660478656
 30
0.0
 11
16.50269514330677
 21
1.498518660478656
 31
0.0
  0
LINE
  5
CB
330
D
100
AcDbEntity
 67
     1
  8
10
100
AcDbLine
 10
16.50269514330678
 20
0.6025810762572436
 30
0.0
 11
16.48269514330678
 21
0.5825810762572436
 31
0.0
  0
LINE
  5
CC
330
D
100
AcDbEntity
 67
     1
  8
10
100
AcDbLine
 10
13.62269514330677
 20
0.5825810762572436
 30
0.0
 11
13.60269514330678
 21
0.6025810762572436
 31
0.0
  0
LINE
  5
CD
330
D
100
AcDbEntity
 67
     1
  8
10
100
AcDbLine
 10
13.55269510361971
 20
0.0825810762572434
 30
0.0
 11
13.55269510361971
 21
-0.4174189237427665
 31
0.0
  0
MTEXT
  5
CE
330
D
100
AcDbEntity
 67
     1
  8
10
 62
     7
100
AcDbMText
 10
7.103840080361512
 20
-0.069988255470915
 30
0.0
 40
0.2
 41
4.7621
 71
     1
 72
     5
  1
CONTROL CONCEPTS CORP.
 73
     1
 44
1.0
  0
INSERT
  5
CF
330
D
100
AcDbEntity
 67
     1
  8
DIMENSION
100
AcDbBlockReference
  2
A$C2BF30918
 10
13.08146461290691
 20
-0.3725224186222853
 30
0.0000000075
  0
LINE
  5
D4
330
D
100
AcDbEntity
 67
     1
  8
10
100
AcDbLine
 10
6.552695094072946
 20
0.0825810762572448
 30
0.0
 11
6.552695094072946
 21
-0.4174189237427619
 31
0.0
  0
LINE
  5
D5
330
D
100
AcDbEntity
 67
     1
  8
10
100
AcDbLine
 10
6.552695094072946
 20
-0.1674189237427583
 30
0.0
 11
0.0526951433067909
 21
-0.1674189237427539
 31
0.0
  0
LINE
  5
D6
330
D
100
AcDbEntity
 67
     1
  8
10
100
AcDbLine
 10
5.252695094072945
 20
0.0825810762572448
 30
0.0
 11
5.252695094072945
 21
-0.4174189237427619
 31
0.0
  0
LINE
  5
D7
330
D
100
AcDbEntity
 67
     1
  8
10
100
AcDbLine
 10
3.952695094072947
 20
0.0825810762572448
 30
0.0
 11
3.952695094072947
 21
-0.4174189237427619
 31
0.0
  0
LINE
  5
D8
330
D
100
AcDbEntity
 67
     1
  8
10
100
AcDbLine
 10
2.652695094072946
 20
0.0825810762572448
 30
0.0
 11
2.652695094072946
 21
-0.4174189237427619
 31
0.0
  0
LINE
  5
D9
330
D
100
AcDbEntity
 67
     1
  8
10
100
AcDbLine
 10
1.352695094072946
 20
0.0825810762572448
 30
0.0
 11
1.352695094072946
 21
-0.4174189237427619
 31
0.0
  0
LINE
  5
DA
330
D
100
AcDbEntity
 67
     1
  8
10
100
AcDbLine
 10
8.806601364609965
 20
1.330139838450081
 30
0.0
 11
13.55269511460995
 21
1.330139838450081
 31
0.0
  0
TEXT
  5
DB
330
D
100
AcDbEntity
 67
     1
  8
10
 62
     7
100
AcDbText
 10
8.923085888871442
 20
1.368959050002666
 30
0.0
 40
0.094921875
  1
XXX
100
AcDbText
  0
LINE
  5
DC
330
D
100
AcDbEntity
 67
     1
  8
10
100
AcDbLine
 10
8.806601364609957
 20
1.559143576257243
 30
0.0
 11
8.806601364609942
 21
1.330139838450081
 31
0.0
  0
LINE
  5
DD
330
D
100
AcDbEntity
 67
     1
  8
10
100
AcDbLine
 10
9.281210739609962
 20
1.559143576257243
 30
0.0
 11
9.281210739609953
 21
1.330139838450081
 31
0.0
  0
TEXT
  5
DE
330
D
100
AcDbEntity
 67
     1
  8
10
 62
     7
100
AcDbText
 10
10.41157519692615
 20
1.373796453296409
 30
0.0
 40
0.094921875
  1
XXXXXXXXXXX
100
AcDbText
  0
LINE
  5
DF
330
D
100
AcDbEntity
 67
     1
  8
10
100
AcDbLine
 10
12.36617167710997
 20
1.559143576257243
 30
0.0
 11
12.36617167710999
 21
1.330139838450081
 31
0.0
  0
LINE
  5
E0
330
D
100
AcDbEntity
 67
     1
  8
10
100
AcDbLine
 10
13.07808573960996
 20
1.559143576257243
 30
0.0
 11
13.07808573960996
 21
1.330139838450081
 31
0.0
  0
TEXT
  5
E1
330
D
100
AcDbEntity
 67
     1
  8
10
 62
     7
100
AcDbText
 10
12.53410993149848
 20
1.370869909478807
 30
0.0
 40
0.094921875
  1
XXXX
100
AcDbText
  0
TEXT
  5
E2
330
D
100
AcDbEntity
 67
     1
  8
10
 62
     7
100
AcDbText
 10
13.19809604828302
 20
1.375707451657519
 30
0.0
 40
0.094921875
  1
XXX
100
AcDbText
  0
LINE
  5
E3
330
D
100
AcDbEntity
 67
     1
  8
10
100
AcDbLine
 10
8.806601364609965
 20
1.132385985496442
 30
0.0
 11
13.55269511460995
 21
1.132385985496442
 31
0.0
  0
LINE
  5
E4
330
D
100
AcDbEntity
 67
     1
  8
10
100
AcDbLine
 10
8.806601364609965
 20
1.330139891746442
 30
0.0
 11
13.55269511460995
 21
1.330139891746442
 31
0.0
  0
TEXT
  5
E5
330
D
100
AcDbEntity
 67
     1
  8
10
 62
     7
100
AcDbText
 10
8.923085888871442
 20
1.171205197049028
 30
0.0
 40
0.094921875
  1
XXX
100
AcDbText
  0
LINE
  5
E6
330
D
100
AcDbEntity
 67
     1
  8
10
100
AcDbLine
 10
8.806601364609957
 20
1.33013989174644
 30
0.0
 11
8.806601364609942
 21
1.132385985496442
 31
0.0
  0
LINE
  5
E7
330
D
100
AcDbEntity
 67
     1
  8
10
100
AcDbLine
 10
9.281210739609962
 20
1.33013989174644
 30
0.0
 11
9.281210739609953
 21
1.132385985496442
 31
0.0
  0
TEXT
  5
E8
330
D
100
AcDbEntity
 67
     1
  8
10
 62
     7
100
AcDbText
 10
10.41157519692615
 20
1.176042600342769
 30
0.0
 40
0.094921875
  1
XXXXXXXXXXX
100
AcDbText
  0
LINE
  5
E9
330
D
100
AcDbEntity
 67
     1
  8
10
100
AcDbLine
 10
12.36617167710997
 20
1.330139891746442
 30
0.0
 11
12.36617167710999
 21
1.132385985496442
 31
0.0
  0
LINE
  5
EA
330
D
100
AcDbEntity
 67
     1
  8
10
100
AcDbLine
 10
13.07808573960996
 20
1.330139891746442
 30
0.0
 11
13.07808573960996
 21
1.132385985496442
 31
0.0
  0
TEXT
  5
EB
330
D
100
AcDbEntity
 67
     1
  8
10
 62
     7
100
AcDbText
 10
12.53410993149848
 20
1.173116056525167
 30
0.0
 40
0.094921875
  1
XXXX
100
AcDbText
  0
TEXT
  5
EC
330
D
100
AcDbEntity
 67
     1
  8
10
 62
     7
100
AcDbText
 10
13.19809604828302
 20
1.17795359870388
 30
0.0
 40
0.094921875
  1
XXX
100
AcDbText
  0
LINE
  5
ED
330
D
100
AcDbEntity
 67
     1
  8
10
100
AcDbLine
 10
8.806601371125939
 20
0.7368782795891701
 30
0.0
 11
13.55269512112593
 21
0.7368782795891701
 31
0.0
  0
LINE
  5
EE
330
D
100
AcDbEntity
 67
     1
  8
10
100
AcDbLine
 10
8.806601371125939
 20
0.93463218583917
 30
0.0
 11
13.55269512112593
 21
0.93463218583917
 31
0.0
  0
TEXT
  5
EF
330
D
100
AcDbEntity
 67
     1
  8
10
 62
     7
100
AcDbText
 10
8.923085895387416
 20
0.7756974911417564
 30
0.0
 40
0.094921875
  1
XXX
100
AcDbText
  0
LINE
  5
F0
330
D
100
AcDbEntity
 67
     1
  8
10
100
AcDbLine
 10
8.806601371125928
 20
0.9346321858391696
 30
0.0
 11
8.806601371125916
 21
0.7368782795891701
 31
0.0
  0
LINE
  5
F1
330
D
100
AcDbEntity
 67
     1
  8
10
100
AcDbLine
 10
9.281210746125935
 20
0.9346321858391696
 30
0.0
 11
9.281210746125923
 21
0.7368782795891701
 31
0.0
  0
TEXT
  5
F2
330
D
100
AcDbEntity
 67
     1
  8
10
 62
     7
100
AcDbText
 10
10.41157520344213
 20
0.7805348944354984
 30
0.0
 40
0.094921875
  1
XXXXXXXXXXX
100
AcDbText
  0
LINE
  5
F3
330
D
100
AcDbEntity
 67
     1
  8
10
100
AcDbLine
 10
12.36617168362594
 20
0.93463218583917
 30
0.0
 11
12.36617168362596
 21
0.7368782795891701
 31
0.0
  0
LINE
  5
F4
330
D
100
AcDbEntity
 67
     1
  8
10
100
AcDbLine
 10
13.07808574612592
 20
0.93463218583917
 30
0.0
 11
13.07808574612592
 21
0.7368782795891701
 31
0.0
  0
TEXT
  5
F5
330
D
100
AcDbEntity
 67
     1
  8
10
 62
     7
100
AcDbText
 10
12.53410993801445
 20
0.7776083506178964
 30
0.0
 40
0.094921875
  1
XXXX
100
AcDbText
  0
TEXT
  5
F6
330
D
100
AcDbEntity
 67
     1
  8
10
 62
     7
100
AcDbText
 10
13.19809605479899
 20
0.7824458927966094
 30
0.0
 40
0.094921875
  1
XXX
100
AcDbText
  0
LINE
  5
F7
330
D
100
AcDbEntity
 67
     1
  8
10
100
AcDbLine
 10
8.806601371125939
 20
0.9346321325428071
 30
0.0
 11
13.55269512112593
 21
0.9346321325428071
 31
0.0
  0
LINE
  5
F8
330
D
100
AcDbEntity
 67
     1
  8
10
100
AcDbLine
 10
8.806601371125939
 20
1.132386038792807
 30
0.0
 11
13.55269512112593
 21
1.132386038792807
 31
0.0
  0
TEXT
  5
F9
330
D
100
AcDbEntity
 67
     1
  8
10
 62
     7
100
AcDbText
 10
8.923085895387416
 20
0.9734513440953932
 30
0.0
 40
0.094921875
  1
XXX
100
AcDbText
  0
LINE
  5
FA
330
D
100
AcDbEntity
 67
     1
  8
10
100
AcDbLine
 10
8.806601371125928
 20
1.132386038792805
 30
0.0
 11
8.806601371125916
 21
0.9346321325428071
 31
0.0
  0
LINE
  5
FB
330
D
100
AcDbEntity
 67
     1
  8
10
100
AcDbLine
 10
9.281210746125935
 20
1.132386038792805
 30
0.0
 11
9.281210746125923
 21
0.9346321325428071
 31
0.0
  0
TEXT
  5
FC
330
D
100
AcDbEntity
 67
     1
  8
10
 62
     7
100
AcDbText
 10
10.41157520344213
 20
0.9782887473891356
 30
0.0
 40
0.094921875
  1
XXXXXXXXXXX
100
AcDbText
  0
LINE
  5
FD
330
D
100
AcDbEntity
 67
     1
  8
10
100
AcDbLine
 10
12.36617168362594
 20
1.132386038792807
 30
0.0
 11
12.36617168362596
 21
0.9346321325428071
 31
0.0
  0
LINE
  5
FE
330
D
100
AcDbEntity
 67
     1
  8
10
100
AcDbLine
 10
13.07808574612592
 20
1.132386038792807
 30
0.0
 11
13.07808574612592
 21
0.9346321325428071
 31
0.0
  0
TEXT
  5
FF
330
D
100
AcDbEntity
 67
     1
  8
10
 62
     7
100
AcDbText
 10
12.53410993801445
 20
0.9753622035715332
 30
0.0
 40
0.094921875
  1
XXXX
100
AcDbText
  0
TEXT
  5
100
330
D
100
AcDbEntity
 67
     1
  8
10
 62
     7
100
AcDbText
 10
13.19809605479899
 20
0.9801997457502464
 30
0.0
 40
0.094921875
  1
XXX
100
AcDbText
  0
LINE
  5
101
330
D
100
AcDbEntity
 67
     1
  8
10
100
AcDbLine
 10
8.806601371125939
 20
0.5391244266355308
 30
0.0
 11
13.55269512112593
 21
0.5391244266355311
 31
0.0
  0
LINE
  5
102
330
D
100
AcDbEntity
 67
     1
  8
10
100
AcDbLine
 10
8.806601371125939
 20
0.7368783328855311
 30
0.0
 11
13.55269512112593
 21
0.7368783328855311
 31
0.0
  0
TEXT
  5
103
330
D
100
AcDbEntity
 67
     1
  8
10
 62
     7
100
AcDbText
 10
8.923085895387416
 20
0.5779436381881174
 30
0.0
 40
0.094921875
  1
XXX
100
AcDbText
  0
LINE
  5
104
330
D
100
AcDbEntity
 67
     1
  8
10
100
AcDbLine
 10
8.806601371125928
 20
0.7368783328855307
 30
0.0
 11
8.806601371125916
 21
0.5391244266355308
 31
0.0
  0
LINE
  5
105
330
D
100
AcDbEntity
 67
     1
  8
10
100
AcDbLine
 10
9.281210746125935
 20
0.7368783328855307
 30
0.0
 11
9.281210746125923
 21
0.5391244266355308
 31
0.0
  0
TEXT
  5
106
330
D
100
AcDbEntity
 67
     1
  8
10
 62
     7
100
AcDbText
 10
10.41157520344213
 20
0.5827810414818594
 30
0.0
 40
0.094921875
  1
XXXXXXXXXXX
100
AcDbText
  0
LINE
  5
107
330
D
100
AcDbEntity
 67
     1
  8
10
100
AcDbLine
 10
12.36617168362594
 20
0.7368783328855311
 30
0.0
 11
12.36617168362596
 21
0.5391244266355308
 31
0.0
  0
LINE
  5
108
330
D
100
AcDbEntity
 67
     1
  8
10
100
AcDbLine
 10
13.07808574612592
 20
0.7368783328855311
 30
0.0
 11
13.07808574612592
 21
0.5391244266355311
 31
0.0
  0
TEXT
  5
109
330
D
100
AcDbEntity
 67
     1
  8
10
 62
     7
100
AcDbText
 10
12.53410993801445
 20
0.5798544976642575
 30
0.0
 40
0.094921875
  1
XXXX
100
AcDbText
  0
TEXT
  5
10A
330
D
100
AcDbEntity
 67
     1
  8
10
 62
     7
100
AcDbText
 10
13.19809605479899
 20
0.5846920398429707
 30
0.0
 40
0.094921875
  1
XXX
100
AcDbText
  0
LINE
  5
10B
330
D
100
AcDbEntity
 67
     1
  8
10
100
AcDbLine
 10
8.806601364609955
 20
1.559143576257243
 30
0.0
 11
16.55269514330678
 21
1.559143576257243
 31
0.0
  0
LINE
  5
10C
330
D
100
AcDbEntity
 67
     1
  8
10
100
AcDbLine
 10
0.0526951433067904
 20
0.0825810762572417
 30
0.0
 11
16.55269514330678
 21
0.0825810762572417
 31
0.0
  0
POINT
  5
10D
330
D
100
AcDbEntity
 67
     1
  8
0
 62
     1
 60
     1
100
AcDbPoint
 10
0.0
 20
0.0
 30
0.0
  0
POINT
  5
10E
330
D
100
AcDbEntity
 67
     1
  8
0
 62
     1
 60
     1
100
AcDbPoint
 10
0.0
 20
0.0
 30
0.0
  0
POINT
  5
10F
330
D
100
AcDbEntity
 67
     1
  8
0
 62
     1
 60
     1
100
AcDbPoint
 10
0.0
 20
0.0
 30
0.0
  0
DIMENSION
  5
110
330
D
100
AcDbEntity
 67
     1
  8
DIMENSION
 62
     1
100
AcDbDimension
  2
*D10
 10
1.893899840668154
 20
9.090231142593507
 30
0.0
 11
3.343971598547148
 21
9.090231142593507
 31
0.0
 70
   128
 71
     5
 42
3.199999999999995
  3
Standard
100
AcDbAlignedDimension
 13
5.093899840668152
 23
7.705071546370398
 33
0.0
 14
1.893899840668154
 24
7.705071546370398
 34
0.0
100
AcDbRotatedDimension
  0
DIMENSION
  5
11F
330
D
100
AcDbEntity
 67
     1
  8
DIMENSION
 62
     1
100
AcDbDimension
  2
*D11
 10
2.012899840668149
 20
8.584918881015866
 30
0.0
 11
3.38698786466805
 21
8.584918881015866
 31
0.0
 70
   128
 71
     5
 42
2.961999999999999
  3
Standard
100
AcDbAlignedDimension
 13
4.974899840668149
 23
7.380071546370363
 33
0.0
 14
2.012899840668149
 24
7.380071546370363
 34
0.0
100
AcDbRotatedDimension
  0
DIMENSION
  5
12D
330
D
100
AcDbEntity
 67
     1
  8
DIMENSION
 62
     1
100
AcDbDimension
  2
*D12
 10
1.128635006748851
 20
6.930071546370401
 30
0.0
 11
1.12863500674885
 21
7.380770499668656
 31
0.0
 70
   128
 71
     5
 42
0.8999999999999984
  3
Standard
100
AcDbAlignedDimension
 13
2.018899840668153
 23
7.830071546370398
 33
0.0
 14
2.018899840668153
 24
6.9300715463704
 34
0.0
 50
90.0
100
AcDbRotatedDimension
  0
DIMENSION
  5
13B
330
D
100
AcDbEntity
 67
     1
  8
DIMENSION
 62
     1
100
AcDbDimension
  2
*D13
 10
4.498399840668167
 20
6.37014597651337
 30
0.0
 11
3.505282536852596
 21
6.37014597651337
 31
0.0
 70
   128
  1
<>\POPERATOR\PSPACING
 71
     5
 42
2.009000000000016
  3
Standard
100
AcDbAlignedDimension
 13
2.489399840668149
 23
7.145071546370338
 33
0.0
 14
4.498399840668167
 24
7.145071546370324
 34
0.0
100
AcDbRotatedDimension
  0
DIMENSION
  5
149
330
D
100
AcDbEntity
 67
     1
  8
DIMENSION
 62
     1
100
AcDbDimension
  2
*D14
 10
9.217546439012775
 20
8.265467414342936
 30
0.0
 11
9.647789405416773
 21
8.265467414342936
 31
0.0
 70
   128
 71
     5
 42
0.8719999999999981
  3
Standard
100
AcDbAlignedDimension
 13
10.08954643901277
 23
7.830071546370339
 33
0.0
 14
9.217546439012775
 24
7.830071546370398
 34
0.0
100
AcDbRotatedDimension
  0
DIMENSION
  5
157
330
D
100
AcDbEntity
 67
     1
  8
DIMENSION
 62
     1
100
AcDbDimension
  2
*D15
 10
8.889938241642747
 20
8.716362413846043
 30
0.0
 11
9.465650837531446
 21
8.716362413846043
 31
0.0
 70
   128
 71
     5
 42
1.199608197370024
  3
Standard
100
AcDbAlignedDimension
 13
10.08954643901277
 23
7.822675685828961
 33
0.0
 14
8.889938241642747
 24
7.692436548137606
 34
0.0
100
AcDbRotatedDimension
  0
LINE
  5
165
330
D
100
AcDbEntity
 67
     1
  8
DIMENSION
  6
CENTER2
 62
     5
100
AcDbLine
 10
3.49389984066815
 20
6.8050715463704
 30
0.0
 11
3.49389984066815
 21
7.955071546370398
 31
0.0
  0
LINE
  5
167
330
D
100
AcDbEntity
 67
     1
  8
DIMENSION
  6
CENTER2
 62
     5
100
AcDbLine
 10
5.218899840668152
 20
7.380071546370402
 30
0.0
 11
1.768899840668154
 21
7.380071546370398
 31
0.0
  0
LINE
  5
168
330
D
100
AcDbEntity
 67
     1
  8
AM_HID
100
AcDbLine
 10
1.987899840668149
 20
7.355071546370365
 30
0.0
 11
1.96289984066815
 21
7.355071546370365
 31
0.0
  0
LINE
  5
16B
330
D
100
AcDbEntity
 67
     1
  8
AM_HID
100
AcDbLine
 10
1.987899840668149
 20
7.355071546370365
 30
0.0
 11
1.987899840668149
 21
7.330071546370365
 31
0.0
  0
LINE
  5
16C
330
D
100
AcDbEntity
 67
     1
  8
AM_HID
100
AcDbLine
 10
2.037899840668149
 20
7.330071546370365
 30
0.0
 11
1.987899840668149
 21
7.330071546370365
 31
0.0
  0
LINE
  5
16D
330
D
100
AcDbEntity
 67
     1
  8
AM_HID
100
AcDbLine
 10
2.03789984066815
 20
7.355071546370365
 30
0.0
 11
2.03789984066815
 21
7.330071546370365
 31
0.0
  0
LINE
  5
16E
330
D
100
AcDbEntity
 67
     1
  8
AM_HID
100
AcDbLine
 10
2.06289984066815
 20
7.355071546370365
 30
0.0
 11
2.03789984066815
 21
7.355071546370365
 31
0.0
  0
LINE
  5
16F
330
D
100
AcDbEntity
 67
     1
  8
AM_HID
100
AcDbLine
 10
2.06289984066815
 20
7.355071546370365
 30
0.0
 11
2.06289984066815
 21
7.405071546370365
 31
0.0
  0
LINE
  5
170
330
D
100
AcDbEntity
 67
     1
  8
AM_HID
100
AcDbLine
 10
1.987899840668149
 20
7.405071546370365
 30
0.0
 11
1.96289984066815
 21
7.405071546370365
 31
0.0
  0
LINE
  5
171
330
D
100
AcDbEntity
 67
     1
  8
AM_HID
100
AcDbLine
 10
2.06289984066815
 20
7.405071546370365
 30
0.0
 11
2.03789984066815
 21
7.405071546370365
 31
0.0
  0
LINE
  5
172
330
D
100
AcDbEntity
 67
     1
  8
AM_HID
100
AcDbLine
 10
1.96289984066815
 20
7.355071546370365
 30
0.0
 11
1.96289984066815
 21
7.405071546370365
 31
0.0
  0
LINE
  5
173
330
D
100
AcDbEntity
 67
     1
  8
AM_HID
100
AcDbLine
 10
2.03789984066815
 20
7.430071546370365
 30
0.0
 11
2.03789984066815
 21
7.405071546370365
 31
0.0
  0
LINE
  5
174
330
D
100
AcDbEntity
 67
     1
  8
AM_HID
100
AcDbLine
 10
1.987899840668149
 20
7.430071546370363
 30
0.0
 11
1.987899840668149
 21
7.405071546370365
 31
0.0
  0
LINE
  5
175
330
D
100
AcDbEntity
 67
     1
  8
AM_HID
100
AcDbLine
 10
2.03789984066815
 20
7.430071546370365
 30
0.0
 11
1.987899840668149
 21
7.430071546370365
 31
0.0
  0
CIRCLE
  5
176
330
D
100
AcDbEntity
 67
     1
  8
AM_HID
100
AcDbCircle
 10
2.012899840668149
 20
7.380071546370363
 30
0.0
 40
0.1100000000000003
  0
CIRCLE
  5
177
330
D
100
AcDbEntity
 67
     1
  8
AM_VIS
100
AcDbCircle
 10
2.012899840668149
 20
7.380071546370365
 30
0.0
 40
0.0600000000000005
  0
LINE
  5
179
330
D
100
AcDbEntity
 67
     1
  8
AM_HID
100
AcDbLine
 10
4.949899840668153
 20
7.355071546370365
 30
0.0
 11
4.924899840668152
 21
7.355071546370365
 31
0.0
  0
LINE
  5
17A
330
D
100
AcDbEntity
 67
     1
  8
AM_HID
100
AcDbLine
 10
4.949899840668153
 20
7.355071546370365
 30
0.0
 11
4.949899840668153
 21
7.330071546370365
 31
0.0
  0
LINE
  5
17B
330
D
100
AcDbEntity
 67
     1
  8
AM_HID
100
AcDbLine
 10
4.999899840668152
 20
7.330071546370365
 30
0.0
 11
4.949899840668153
 21
7.330071546370365
 31
0.0
  0
LINE
  5
17C
330
D
100
AcDbEntity
 67
     1
  8
AM_HID
100
AcDbLine
 10
4.999899840668152
 20
7.355071546370365
 30
0.0
 11
4.999899840668152
 21
7.330071546370365
 31
0.0
  0
LINE
  5
17D
330
D
100
AcDbEntity
 67
     1
  8
AM_HID
100
AcDbLine
 10
5.024899840668152
 20
7.355071546370365
 30
0.0
 11
4.999899840668152
 21
7.355071546370365
 31
0.0
  0
LINE
  5
17E
330
D
100
AcDbEntity
 67
     1
  8
AM_HID
100
AcDbLine
 10
5.024899840668152
 20
7.355071546370365
 30
0.0
 11
5.024899840668152
 21
7.405071546370365
 31
0.0
  0
LINE
  5
17F
330
D
100
AcDbEntity
 67
     1
  8
AM_HID
100
AcDbLine
 10
4.949899840668153
 20
7.405071546370365
 30
0.0
 11
4.924899840668152
 21
7.405071546370365
 31
0.0
  0
LINE
  5
180
330
D
100
AcDbEntity
 67
     1
  8
AM_HID
100
AcDbLine
 10
5.024899840668152
 20
7.405071546370365
 30
0.0
 11
4.999899840668152
 21
7.405071546370365
 31
0.0
  0
LINE
  5
181
330
D
100
AcDbEntity
 67
     1
  8
AM_HID
100
AcDbLine
 10
4.924899840668152
 20
7.355071546370365
 30
0.0
 11
4.924899840668152
 21
7.405071546370365
 31
0.0
  0
LINE
  5
182
330
D
100
AcDbEntity
 67
     1
  8
AM_HID
100
AcDbLine
 10
4.999899840668152
 20
7.430071546370365
 30
0.0
 11
4.999899840668152
 21
7.405071546370365
 31
0.0
  0
LINE
  5
183
330
D
100
AcDbEntity
 67
     1
  8
AM_HID
100
AcDbLine
 10
4.949899840668153
 20
7.430071546370365
 30
0.0
 11
4.949899840668153
 21
7.405071546370365
 31
0.0
  0
LINE
  5
184
330
D
100
AcDbEntity
 67
     1
  8
AM_HID
100
AcDbLine
 10
4.999899840668152
 20
7.430071546370365
 30
0.0
 11
4.949899840668153
 21
7.430071546370365
 31
0.0
  0
CIRCLE
  5
185
330
D
100
AcDbEntity
 67
     1
  8
AM_HID
100
AcDbCircle
 10
4.974899840668151
 20
7.380071546370365
 30
0.0
 40
0.1100000000000003
  0
CIRCLE
  5
186
330
D
100
AcDbEntity
 67
     1
  8
AM_VIS
100
AcDbCircle
 10
4.974899840668151
 20
7.380071546370365
 30
0.0
 40
0.0600000000000005
  0
LINE
  5
187
330
D
100
AcDbEntity
 67
     1
  8
AM_HID
100
AcDbLine
 10
2.556399840668146
 20
7.245071546370277
 30
0.0
 11
2.610399840668038
 21
7.245071546370277
 31
0.0
  0
LINE
  5
188
330
D
100
AcDbEntity
 67
     1
  8
AM_HID
100
AcDbLine
 10
2.556399840668146
 20
7.245071546370277
 30
0.0
 11
2.556399840668146
 21
7.515071546370279
 31
0.0
  0
LINE
  5
189
330
D
100
AcDbEntity
 67
     1
  8
AM_HID
100
AcDbLine
 10
2.610399840668038
 20
7.515071546370279
 30
0.0
 11
2.556399840668146
 21
7.515071546370279
 31
0.0
  0
LINE
  5
18A
330
D
100
AcDbEntity
 67
     1
  8
AM_HID
100
AcDbLine
 10
2.610399840668038
 20
7.515071546370279
 30
0.0
 11
2.610399840668038
 21
7.245071546370278
 31
0.0
  0
LINE
  5
18B
330
D
100
AcDbEntity
 67
     1
  8
AM_HID
100
AcDbLine
 10
2.264399840668146
 20
7.068071546370331
 30
0.0
 11
2.264399840668146
 21
7.692071546370332
 31
0.0
  0
LINE
  5
18C
330
D
100
AcDbEntity
 67
     1
  8
AM_HID
100
AcDbLine
 10
2.327399840668145
 20
7.755071546370332
 30
0.0
 11
2.631399840668145
 21
7.755071546370332
 31
0.0
  0
LINE
  5
18D
330
D
100
AcDbEntity
 67
     1
  8
AM_HID
100
AcDbLine
 10
2.694399840668147
 20
7.692071546370332
 30
0.0
 11
2.694399840668147
 21
7.515071546370279
 31
0.0
  0
LINE
  5
18E
330
D
100
AcDbEntity
 67
     1
  8
AM_HID
100
AcDbLine
 10
2.694399840668144
 20
7.515071546370279
 30
0.0
 11
2.610399840668038
 21
7.515071546370279
 31
0.0
  0
LINE
  5
18F
330
D
100
AcDbEntity
 67
     1
  8
AM_HID
100
AcDbLine
 10
2.610399840668038
 20
7.245071546370277
 30
0.0
 11
2.694399840668149
 21
7.245071546370277
 31
0.0
  0
LINE
  5
190
330
D
100
AcDbEntity
 67
     1
  8
AM_HID
100
AcDbLine
 10
2.694399840668147
 20
7.245071546370277
 30
0.0
 11
2.694399840668147
 21
7.068071546370331
 31
0.0
  0
LINE
  5
191
330
D
100
AcDbEntity
 67
     1
  8
AM_HID
100
AcDbLine
 10
2.631399840668145
 20
7.005071546370332
 30
0.0
 11
2.327399840668147
 21
7.005071546370332
 31
0.0
  0
CIRCLE
  5
192
330
D
100
AcDbEntity
 67
     1
  8
AM_HID
100
AcDbCircle
 10
2.489399840668138
 20
7.615071546370332
 30
0.0
 40
0.115
  0
CIRCLE
  5
193
330
D
100
AcDbEntity
 67
     1
  8
AM_HID
100
AcDbCircle
 10
2.489399840668138
 20
7.615071546370332
 30
0.0
 40
0.0700000000000003
  0
CIRCLE
  5
194
330
D
100
AcDbEntity
 67
     1
  8
AM_HID
100
AcDbCircle
 10
2.489399840668138
 20
7.145071546370223
 30
0.0
 40
0.115
  0
CIRCLE
  5
195
330
D
100
AcDbEntity
 67
     1
  8
AM_HID
100
AcDbCircle
 10
2.489399840668138
 20
7.145071546370331
 30
0.0
 40
0.0700000000000003
  0
CIRCLE
  5
196
330
D
100
AcDbEntity
 67
     1
  8
AM_VIS
100
AcDbCircle
 10
2.489399840668126
 20
7.615071546370337
 30
0.0
 40
0.078
  0
CIRCLE
  5
197
330
D
100
AcDbEntity
 67
     1
  8
AM_VIS
100
AcDbCircle
 10
2.489399840668149
 20
7.145071546370338
 30
0.0
 40
0.078
  0
ARC
  5
198
330
D
100
AcDbEntity
 67
     1
  8
AM_HID
100
AcDbCircle
 10
2.327399840668147
 20
7.068071546370331
 30
0.0
 40
0.063
100
AcDbArc
 50
180.0
 51
270.0
  0
ARC
  5
199
330
D
100
AcDbEntity
 67
     1
  8
AM_HID
100
AcDbCircle
 10
2.327399840668145
 20
7.692071546370332
 30
0.0
 40
0.063
100
AcDbArc
 50
90.00000000000005
 51
180.0
  0
ARC
  5
19A
330
D
100
AcDbEntity
 67
     1
  8
AM_HID
100
AcDbCircle
 10
2.631399840668145
 20
7.692071546370332
 30
0.0
 40
0.063
100
AcDbArc
 50
0.0000000000000127
 51
90.00000000000005
  0
ARC
  5
19B
330
D
100
AcDbEntity
 67
     1
  8
AM_HID
100
AcDbCircle
 10
2.631399840668147
 20
7.068071546370331
 30
0.0
 40
0.063
100
AcDbArc
 50
270.0
 51
0.0000000000000127
  0
LINE
  5
19C
330
D
100
AcDbEntity
 67
     1
  8
AM_HID
100
AcDbLine
 10
4.431399840668148
 20
7.515071546370386
 30
0.0
 11
4.377399840668257
 21
7.515071546370386
 31
0.0
  0
LINE
  5
19D
330
D
100
AcDbEntity
 67
     1
  8
AM_HID
100
AcDbLine
 10
4.43139984066815
 20
7.515071546370386
 30
0.0
 11
4.43139984066815
 21
7.245071546370382
 31
0.0
  0
LINE
  5
19E
330
D
100
AcDbEntity
 67
     1
  8
AM_HID
100
AcDbLine
 10
4.377399840668257
 20
7.245071546370382
 30
0.0
 11
4.431399840668148
 21
7.245071546370382
 31
0.0
  0
LINE
  5
19F
330
D
100
AcDbEntity
 67
     1
  8
AM_HID
100
AcDbLine
 10
4.377399840668257
 20
7.245071546370382
 30
0.0
 11
4.377399840668257
 21
7.515071546370382
 31
0.0
  0
LINE
  5
1A0
330
D
100
AcDbEntity
 67
     1
  8
AM_HID
100
AcDbLine
 10
4.723399840668148
 20
7.692071546370329
 30
0.0
 11
4.723399840668148
 21
7.06807154637033
 31
0.0
  0
LINE
  5
1A1
330
D
100
AcDbEntity
 67
     1
  8
AM_HID
100
AcDbLine
 10
4.660399840668148
 20
7.005071546370329
 30
0.0
 11
4.356399840668149
 21
7.005071546370329
 31
0.0
  0
LINE
  5
1A2
330
D
100
AcDbEntity
 67
     1
  8
AM_HID
100
AcDbLine
 10
4.293399840668149
 20
7.06807154637033
 30
0.0
 11
4.293399840668149
 21
7.245071546370382
 31
0.0
  0
LINE
  5
1A3
330
D
100
AcDbEntity
 67
     1
  8
AM_HID
100
AcDbLine
 10
4.293399840668149
 20
7.245071546370382
 30
0.0
 11
4.377399840668257
 21
7.245071546370382
 31
0.0
  0
LINE
  5
1A4
330
D
100
AcDbEntity
 67
     1
  8
AM_HID
100
AcDbLine
 10
4.377399840668257
 20
7.515071546370386
 30
0.0
 11
4.293399840668149
 21
7.515071546370386
 31
0.0
  0
LINE
  5
1A5
330
D
100
AcDbEntity
 67
     1
  8
AM_HID
100
AcDbLine
 10
4.293399840668149
 20
7.515071546370386
 30
0.0
 11
4.293399840668149
 21
7.692071546370329
 31
0.0
  0
LINE
  5
1A6
330
D
100
AcDbEntity
 67
     1
  8
AM_HID
100
AcDbLine
 10
4.356399840668149
 20
7.755071546370328
 30
0.0
 11
4.660399840668148
 21
7.755071546370328
 31
0.0
  0
CIRCLE
  5
1A7
330
D
100
AcDbEntity
 67
     1
  8
AM_HID
100
AcDbCircle
 10
4.498399840668158
 20
7.14507154637033
 30
0.0
 40
0.115
  0
CIRCLE
  5
1A8
330
D
100
AcDbEntity
 67
     1
  8
AM_HID
100
AcDbCircle
 10
4.498399840668158
 20
7.14507154637033
 30
0.0
 40
0.0700000000000003
  0
CIRCLE
  5
1A9
330
D
100
AcDbEntity
 67
     1
  8
AM_HID
100
AcDbCircle
 10
4.498399840668158
 20
7.615071546370438
 30
0.0
 40
0.115
  0
CIRCLE
  5
1AA
330
D
100
AcDbEntity
 67
     1
  8
AM_HID
100
AcDbCircle
 10
4.498399840668158
 20
7.615071546370329
 30
0.0
 40
0.0700000000000003
  0
CIRCLE
  5
1AB
330
D
100
AcDbEntity
 67
     1
  8
AM_VIS
100
AcDbCircle
 10
4.498399840668168
 20
7.145071546370324
 30
0.0
 40
0.078
  0
CIRCLE
  5
1AC
330
D
100
AcDbEntity
 67
     1
  8
AM_VIS
100
AcDbCircle
 10
4.498399840668146
 20
7.615071546370325
 30
0.0
 40
0.078
  0
ARC
  5
1AD
330
D
100
AcDbEntity
 67
     1
  8
AM_HID
100
AcDbCircle
 10
4.660399840668148
 20
7.692071546370329
 30
0.0
 40
0.063
100
AcDbArc
 50
0.0000000000000127
 51
90.00000000000005
  0
ARC
  5
1AE
330
D
100
AcDbEntity
 67
     1
  8
AM_HID
100
AcDbCircle
 10
4.660399840668148
 20
7.06807154637033
 30
0.0
 40
0.063
100
AcDbArc
 50
270.0
 51
0.0000000000000127
  0
ARC
  5
1AF
330
D
100
AcDbEntity
 67
     1
  8
AM_HID
100
AcDbCircle
 10
4.356399840668149
 20
7.06807154637033
 30
0.0
 40
0.063
100
AcDbArc
 50
180.0
 51
270.0
  0
ARC
  5
1B0
330
D
100
AcDbEntity
 67
     1
  8
AM_HID
100
AcDbCircle
 10
4.356399840668149
 20
7.692071546370329
 30
0.0
 40
0.063
100
AcDbArc
 50
90.00000000000005
 51
180.0
  0
LINE
  5
1B1
330
D
100
AcDbEntity
 67
     1
  8
AM_HID
100
AcDbLine
 10
3.361399840668152
 20
7.052071546370382
 30
0.0
 11
3.626399840668153
 21
7.052071546370382
 31
0.0
  0
LINE
  5
1B2
330
D
100
AcDbEntity
 67
     1
  8
AM_HID
100
AcDbLine
 10
3.298899840668156
 20
7.645571546370382
 30
0.0
 11
3.298899840668156
 21
7.114571546370382
 31
0.0
  0
LINE
  5
1B3
330
D
100
AcDbEntity
 67
     1
  8
AM_HID
100
AcDbLine
 10
3.688899840668153
 20
7.114571546370382
 30
0.0
 11
3.688899840668153
 21
7.645571546370382
 31
0.0
  0
LINE
  5
1B4
330
D
100
AcDbEntity
 67
     1
  8
AM_HID
100
AcDbLine
 10
3.626399840668153
 20
7.708071546370382
 30
0.0
 11
3.361399840668156
 21
7.708071546370382
 31
0.0
  0
LINE
  5
1B5
330
D
100
AcDbEntity
 67
     1
  8
AM_VIS
100
AcDbLine
 10
1.893899840668153
 20
7.705071546370398
 30
0.0
 11
1.893899840668153
 21
7.0550715463704
 31
0.0
  0
LINE
  5
1B6
330
D
100
AcDbEntity
 67
     1
  8
AM_VIS
100
AcDbLine
 10
2.01889984066815
 20
6.9300715463704
 30
0.0
 11
4.96889984066815
 21
6.9300715463704
 31
0.0
  0
LINE
  5
1B7
330
D
100
AcDbEntity
 67
     1
  8
AM_VIS
100
AcDbLine
 10
5.093899840668153
 20
7.055071546370406
 30
0.0
 11
5.093899840668153
 21
7.705071546370398
 31
0.0
  0
LINE
  5
1B8
330
D
100
AcDbEntity
 67
     1
  8
AM_VIS
100
AcDbLine
 10
4.968899840668148
 20
7.830071546370398
 30
0.0
 11
2.018899840668151
 21
7.830071546370398
 31
0.0
  0
LINE
  5
1B9
330
D
100
AcDbEntity
 67
     1
  8
AM_VIS
100
AcDbLine
 10
1.948092433684077
 20
7.325071546370367
 30
0.0
 11
1.988920683051579
 21
7.325071546370367
 31
0.0
  0
LINE
  5
1BA
330
D
100
AcDbEntity
 67
     1
  8
AM_HID
100
AcDbLine
 10
1.988920683051579
 20
7.325071546370367
 30
0.0
 11
2.036878998284722
 21
7.325071546370367
 31
0.0
  0
LINE
  5
1BB
330
D
100
AcDbEntity
 67
     1
  8
AM_VIS
100
AcDbLine
 10
2.036878998284722
 20
7.325071546370367
 30
0.0
 11
2.077707247652235
 21
7.325071546370367
 31
0.0
  0
LINE
  5
1BC
330
D
100
AcDbEntity
 67
     1
  8
AM_VIS
100
AcDbLine
 10
2.077707247652235
 20
7.435071546370366
 30
0.0
 11
2.036878998284708
 21
7.435071546370366
 31
0.0
  0
LINE
  5
1BD
330
D
100
AcDbEntity
 67
     1
  8
AM_HID
100
AcDbLine
 10
2.036878998284708
 20
7.435071546370366
 30
0.0
 11
1.988920683051591
 21
7.435071546370366
 31
0.0
  0
LINE
  5
1BE
330
D
100
AcDbEntity
 67
     1
  8
AM_VIS
100
AcDbLine
 10
1.988920683051591
 20
7.435071546370366
 30
0.0
 11
1.948092433684077
 21
7.435071546370366
 31
0.0
  0
LINE
  5
1BF
330
D
100
AcDbEntity
 67
     1
  8
AM_VIS
100
AcDbLine
 10
4.910092433684077
 20
7.325071546370367
 30
0.0
 11
4.950920683051578
 21
7.325071546370367
 31
0.0
  0
LINE
  5
1C0
330
D
100
AcDbEntity
 67
     1
  8
AM_HID
100
AcDbLine
 10
4.950920683051578
 20
7.325071546370367
 30
0.0
 11
4.998878998284722
 21
7.325071546370367
 31
0.0
  0
LINE
  5
1C1
330
D
100
AcDbEntity
 67
     1
  8
AM_VIS
100
AcDbLine
 10
4.998878998284722
 20
7.325071546370367
 30
0.0
 11
5.039707247652236
 21
7.325071546370367
 31
0.0
  0
LINE
  5
1C2
330
D
100
AcDbEntity
 67
     1
  8
AM_VIS
100
AcDbLine
 10
5.039707247652236
 20
7.435071546370366
 30
0.0
 11
4.99887899828471
 21
7.435071546370366
 31
0.0
  0
LINE
  5
1C3
330
D
100
AcDbEntity
 67
     1
  8
AM_HID
100
AcDbLine
 10
4.99887899828471
 20
7.435071546370366
 30
0.0
 11
4.950920683051591
 21
7.435071546370366
 31
0.0
  0
LINE
  5
1C4
330
D
100
AcDbEntity
 67
     1
  8
AM_VIS
100
AcDbLine
 10
4.950920683051591
 20
7.435071546370366
 30
0.0
 11
4.910092433684077
 21
7.435071546370366
 31
0.0
  0
CIRCLE
  5
1C5
330
D
100
AcDbEntity
 67
     1
  8
AM_VIS
100
AcDbCircle
 10
4.498899840668152
 20
7.615071546370399
 30
0.0
 40
0.0830000000000003
  0
CIRCLE
  5
1C6
330
D
100
AcDbEntity
 67
     1
  8
AM_VIS
100
AcDbCircle
 10
4.498899840668152
 20
7.145071546370401
 30
0.0
 40
0.083
  0
CIRCLE
  5
1C7
330
D
100
AcDbEntity
 67
     1
  8
AM_VIS
100
AcDbCircle
 10
2.48889984066815
 20
7.615071546370399
 30
0.0
 40
0.083
  0
CIRCLE
  5
1C8
330
D
100
AcDbEntity
 67
     1
  8
AM_VIS
100
AcDbCircle
 10
2.48889984066815
 20
7.145071546370401
 30
0.0
 40
0.083
  0
CIRCLE
  5
1C9
330
D
100
AcDbEntity
 67
     1
  8
AM_HID
100
AcDbCircle
 10
4.193899840668152
 20
7.580071546370398
 30
0.0
 40
0.0549999999999997
  0
CIRCLE
  5
1CA
330
D
100
AcDbEntity
 67
     1
  8
AM_HID
100
AcDbCircle
 10
4.193899840668152
 20
7.180071546370398
 30
0.0
 40
0.0549999999999997
  0
CIRCLE
  5
1CB
330
D
100
AcDbEntity
 67
     1
  8
AM_HID
100
AcDbCircle
 10
2.793899840668154
 20
7.580071546370398
 30
0.0
 40
0.0549999999999997
  0
CIRCLE
  5
1CC
330
D
100
AcDbEntity
 67
     1
  8
AM_HID
100
AcDbCircle
 10
2.793899840668154
 20
7.180071546370398
 30
0.0
 40
0.0549999999999997
  0
CIRCLE
  5
1CD
330
D
100
AcDbEntity
 67
     1
  8
AM_HID
100
AcDbCircle
 10
4.193899840668152
 20
7.580071546370398
 30
0.0
 40
0.0780000000000003
  0
CIRCLE
  5
1CE
330
D
100
AcDbEntity
 67
     1
  8
AM_HID
100
AcDbCircle
 10
4.193899840668152
 20
7.180071546370398
 30
0.0
 40
0.0780000000000003
  0
CIRCLE
  5
1CF
330
D
100
AcDbEntity
 67
     1
  8
AM_HID
100
AcDbCircle
 10
2.793899840668154
 20
7.580071546370398
 30
0.0
 40
0.0780000000000003
  0
CIRCLE
  5
1D0
330
D
100
AcDbEntity
 67
     1
  8
AM_HID
100
AcDbCircle
 10
2.793899840668154
 20
7.180071546370398
 30
0.0
 40
0.0780000000000003
  0
ARC
  5
1D1
330
D
100
AcDbEntity
 67
     1
  8
AM_HID
100
AcDbCircle
 10
3.626399840668153
 20
7.114571546370382
 30
0.0
 40
0.0625
100
AcDbArc
 50
270.0
 51
0.0000000000000127
  0
ARC
  5
1D2
330
D
100
AcDbEntity
 67
     1
  8
AM_HID
100
AcDbCircle
 10
3.361399840668152
 20
7.114571546370382
 30
0.0
 40
0.0625
100
AcDbArc
 50
180.0
 51
270.0
  0
ARC
  5
1D3
330
D
100
AcDbEntity
 67
     1
  8
AM_HID
100
AcDbCircle
 10
3.626399840668153
 20
7.645571546370382
 30
0.0
 40
0.0625
100
AcDbArc
 50
0.0000000000000127
 51
90.00000000000005
  0
ARC
  5
1D4
330
D
100
AcDbEntity
 67
     1
  8
AM_HID
100
AcDbCircle
 10
3.361399840668156
 20
7.645571546370382
 30
0.0
 40
0.0625
100
AcDbArc
 50
90.00000000000005
 51
180.0
  0
ARC
  5
1D5
330
D
100
AcDbEntity
 67
     1
  8
AM_VIS
100
AcDbCircle
 10
2.018899840668153
 20
7.705071546370398
 30
0.0
 40
0.125
100
AcDbArc
 50
90.00000000000005
 51
180.0
  0
ARC
  5
1D6
330
D
100
AcDbEntity
 67
     1
  8
AM_VIS
100
AcDbCircle
 10
2.01889984066815
 20
7.0550715463704
 30
0.0
 40
0.125
100
AcDbArc
 50
180.0
 51
270.0
  0
ARC
  5
1D7
330
D
100
AcDbEntity
 67
     1
  8
AM_VIS
100
AcDbCircle
 10
4.968899840668153
 20
7.0550715463704
 30
0.0
 40
0.125
100
AcDbArc
 50
270.0
 51
0.0000000000000127
  0
ARC
  5
1D8
330
D
100
AcDbEntity
 67
     1
  8
AM_VIS
100
AcDbCircle
 10
4.968899840668148
 20
7.705071546370398
 30
0.0
 40
0.125
100
AcDbArc
 50
0.0000000000000127
 51
90.00000000000005
  0
ARC
  5
1D9
330
D
100
AcDbEntity
 67
     1
  8
AM_VIS
100
AcDbCircle
 10
2.012899840668154
 20
7.380071546370366
 30
0.0
 40
0.085
100
AcDbArc
 50
139.679784930029
 51
220.3202150699703
  0
ARC
  5
1DA
330
D
100
AcDbEntity
 67
     1
  8
AM_VIS
100
AcDbCircle
 10
2.012899840668154
 20
7.380071546370366
 30
0.0
 40
0.085
100
AcDbArc
 50
319.6797849300308
 51
40.32021506997042
  0
ARC
  5
1DB
330
D
100
AcDbEntity
 67
     1
  8
AM_VIS
100
AcDbCircle
 10
4.974899840668157
 20
7.380071546370366
 30
0.0
 40
0.085
100
AcDbArc
 50
139.6797849300299
 51
220.3202150699691
  0
ARC
  5
1DC
330
D
100
AcDbEntity
 67
     1
  8
AM_VIS
100
AcDbCircle
 10
4.974899840668157
 20
7.380071546370366
 30
0.0
 40
0.085
100
AcDbArc
 50
319.6797849300299
 51
40.32021506997089
  0
LINE
  5
1DD
330
D
100
AcDbEntity
 67
     1
  8
AM_HID
100
AcDbLine
 10
3.298899840668148
 20
7.474071546370334
 30
0.0
 11
3.298899840668148
 21
7.708071546370334
 31
0.0
  0
LINE
  5
1DE
330
D
100
AcDbEntity
 67
     1
  8
AM_HID
100
AcDbLine
 10
3.298899840668148
 20
7.052071546370333
 30
0.0
 11
3.298899840668148
 21
7.286071546370333
 31
0.0
  0
LINE
  5
1DF
330
D
100
AcDbEntity
 67
     1
  8
AM_HID
100
AcDbLine
 10
3.688899840668149
 20
7.708071546370333
 30
0.0
 11
3.688899840668149
 21
7.474071546370334
 31
0.0
  0
LINE
  5
1E0
330
D
100
AcDbEntity
 67
     1
  8
AM_HID
100
AcDbLine
 10
3.688899840668149
 20
7.286071546370331
 30
0.0
 11
3.688899840668149
 21
7.052071546370331
 31
0.0
  0
LINE
  5
1E1
330
D
100
AcDbEntity
 67
     1
  8
AM_HID
100
AcDbLine
 10
3.298899840668148
 20
7.708071546370333
 30
0.0
 11
3.688899840668149
 21
7.708071546370333
 31
0.0
  0
LINE
  5
1E2
330
D
100
AcDbEntity
 67
     1
  8
AM_HID
100
AcDbLine
 10
3.688899840668149
 20
7.052071546370333
 30
0.0
 11
3.298899840668148
 21
7.052071546370333
 31
0.0
  0
LINE
  5
1E3
330
D
100
AcDbEntity
 67
     1
  8
AM_HID
100
AcDbLine
 10
3.298899840668148
 20
7.286071546370333
 30
0.0
 11
2.728899840668144
 21
7.286071546370333
 31
0.0
  0
LINE
  5
1E4
330
D
100
AcDbEntity
 67
     1
  8
AM_HID
100
AcDbLine
 10
2.728899840668144
 20
7.286071546370334
 30
0.0
 11
2.698899840668147
 21
7.256071546370336
 31
0.0
  0
LINE
  5
1E5
330
D
100
AcDbEntity
 67
     1
  8
AM_HID
100
AcDbLine
 10
2.698899840668144
 20
7.256071546370337
 30
0.0
 11
2.698899840668144
 21
7.020071546370336
 31
0.0
  0
LINE
  5
1E6
330
D
100
AcDbEntity
 67
     1
  8
AM_HID
100
AcDbLine
 10
2.698899840668144
 20
7.020071546370336
 30
0.0
 11
2.668899840668144
 21
6.990071546370334
 31
0.0
  0
LINE
  5
1E7
330
D
100
AcDbEntity
 67
     1
  8
AM_HID
100
AcDbLine
 10
2.668899840668144
 20
6.990071546370333
 30
0.0
 11
2.289899840668143
 21
6.990071546370333
 31
0.0
  0
LINE
  5
1E8
330
D
100
AcDbEntity
 67
     1
  8
AM_HID
100
AcDbLine
 10
2.289899840668143
 20
6.990071546370333
 30
0.0
 11
2.259899840668146
 21
7.020071546370327
 31
0.0
  0
LINE
  5
1E9
330
D
100
AcDbEntity
 67
     1
  8
AM_HID
100
AcDbLine
 10
2.259899840668146
 20
7.020071546370327
 30
0.0
 11
2.259899840668146
 21
7.740071546370328
 31
0.0
  0
LINE
  5
1EA
330
D
100
AcDbEntity
 67
     1
  8
AM_HID
100
AcDbLine
 10
2.259899840668145
 20
7.740071546370329
 30
0.0
 11
2.289899840668147
 21
7.770071546370333
 31
0.0
  0
LINE
  5
1EB
330
D
100
AcDbEntity
 67
     1
  8
AM_HID
100
AcDbLine
 10
2.289899840668149
 20
7.770071546370331
 30
0.0
 11
2.668899840668144
 21
7.770071546370331
 31
0.0
  0
LINE
  5
1EC
330
D
100
AcDbEntity
 67
     1
  8
AM_HID
100
AcDbLine
 10
2.668899840668144
 20
7.770071546370333
 30
0.0
 11
2.698899840668144
 21
7.740071546370334
 31
0.0
  0
LINE
  5
1ED
330
D
100
AcDbEntity
 67
     1
  8
AM_HID
100
AcDbLine
 10
2.698899840668147
 20
7.740071546370334
 30
0.0
 11
2.698899840668147
 21
7.504071546370338
 31
0.0
  0
LINE
  5
1EE
330
D
100
AcDbEntity
 67
     1
  8
AM_HID
100
AcDbLine
 10
2.698899840668144
 20
7.504071546370338
 30
0.0
 11
2.72889984066815
 21
7.474071546370334
 31
0.0
  0
LINE
  5
1EF
330
D
100
AcDbEntity
 67
     1
  8
AM_HID
100
AcDbLine
 10
2.72889984066815
 20
7.474071546370334
 30
0.0
 11
3.29889984066815
 21
7.474071546370334
 31
0.0
  0
LINE
  5
1F0
330
D
100
AcDbEntity
 67
     1
  8
AM_HID
100
AcDbLine
 10
3.688899840668149
 20
7.474071546370334
 30
0.0
 11
4.258899840668147
 21
7.474071546370334
 31
0.0
  0
LINE
  5
1F1
330
D
100
AcDbEntity
 67
     1
  8
AM_HID
100
AcDbLine
 10
4.258899840668148
 20
7.474071546370333
 30
0.0
 11
4.288899840668149
 21
7.504071546370333
 31
0.0
  0
LINE
  5
1F2
330
D
100
AcDbEntity
 67
     1
  8
AM_HID
100
AcDbLine
 10
4.288899840668148
 20
7.504071546370331
 30
0.0
 11
4.288899840668148
 21
7.740071546370334
 31
0.0
  0
LINE
  5
1F3
330
D
100
AcDbEntity
 67
     1
  8
AM_HID
100
AcDbLine
 10
4.288899840668148
 20
7.740071546370336
 30
0.0
 11
4.318899840668146
 21
7.770071546370333
 31
0.0
  0
LINE
  5
1F4
330
D
100
AcDbEntity
 67
     1
  8
AM_HID
100
AcDbLine
 10
4.318899840668146
 20
7.770071546370331
 30
0.0
 11
4.697899840668146
 21
7.770071546370331
 31
0.0
  0
LINE
  5
1F5
330
D
100
AcDbEntity
 67
     1
  8
AM_HID
100
AcDbLine
 10
4.697899840668146
 20
7.770071546370331
 30
0.0
 11
4.727899840668146
 21
7.740071546370333
 31
0.0
  0
LINE
  5
1F6
330
D
100
AcDbEntity
 67
     1
  8
AM_HID
100
AcDbLine
 10
4.727899840668146
 20
7.740071546370334
 30
0.0
 11
4.727899840668146
 21
7.020071546370336
 31
0.0
  0
LINE
  5
1F7
330
D
100
AcDbEntity
 67
     1
  8
AM_HID
100
AcDbLine
 10
4.727899840668146
 20
7.020071546370334
 30
0.0
 11
4.697899840668146
 21
6.990071546370333
 31
0.0
  0
LINE
  5
1F8
330
D
100
AcDbEntity
 67
     1
  8
AM_HID
100
AcDbLine
 10
4.697899840668146
 20
6.990071546370333
 30
0.0
 11
4.318899840668146
 21
6.990071546370333
 31
0.0
  0
LINE
  5
1F9
330
D
100
AcDbEntity
 67
     1
  8
AM_HID
100
AcDbLine
 10
4.318899840668144
 20
6.990071546370333
 30
0.0
 11
4.288899840668148
 21
7.02007154637033
 31
0.0
  0
LINE
  5
1FA
330
D
100
AcDbEntity
 67
     1
  8
AM_HID
100
AcDbLine
 10
4.288899840668148
 20
7.02007154637033
 30
0.0
 11
4.288899840668148
 21
7.256071546370334
 31
0.0
  0
LINE
  5
1FB
330
D
100
AcDbEntity
 67
     1
  8
AM_HID
100
AcDbLine
 10
4.288899840668148
 20
7.256071546370334
 30
0.0
 11
4.258899840668147
 21
7.286071546370331
 31
0.0
  0
LINE
  5
1FC
330
D
100
AcDbEntity
 67
     1
  8
AM_HID
100
AcDbLine
 10
4.258899840668147
 20
7.286071546370333
 30
0.0
 11
3.688899840668149
 21
7.286071546370333
 31
0.0
  0
LINE
  5
1FD
330
D
100
AcDbEntity
 67
     1
  8
AM_HID
100
AcDbLine
 10
3.751899840668153
 20
7.786071546370338
 30
0.0
 11
3.235899840668151
 21
7.786071546370338
 31
0.0
  0
LINE
  5
1FE
330
D
100
AcDbEntity
 67
     1
  8
AM_HID
100
AcDbLine
 10
3.220899840668153
 20
7.771071546370338
 30
0.0
 11
3.220899840668153
 21
7.552071546370346
 31
0.0
  0
LINE
  5
1FF
330
D
100
AcDbEntity
 67
     1
  8
AM_HID
100
AcDbLine
 10
3.220899840668153
 20
7.552071546370346
 30
0.0
 11
2.918899840668298
 21
7.552071546370346
 31
0.0
  0
LINE
  5
200
330
D
100
AcDbEntity
 67
     1
  8
AM_HID
100
AcDbLine
 10
2.918899840668298
 20
7.552071546370346
 30
0.0
 11
2.918899840668298
 21
7.580071546370339
 31
0.0
  0
LINE
  5
201
330
D
100
AcDbEntity
 67
     1
  8
AM_HID
100
AcDbLine
 10
2.793899840668298
 20
7.705071546370338
 30
0.0
 11
2.776899840668147
 21
7.705071546370338
 31
0.0
  0
LINE
  5
202
330
D
100
AcDbEntity
 67
     1
  8
AM_HID
100
AcDbLine
 10
2.181899840668148
 20
7.705071546370339
 30
0.0
 11
2.181899840668148
 21
7.055071546370339
 31
0.0
  0
LINE
  5
203
330
D
100
AcDbEntity
 67
     1
  8
AM_HID
100
AcDbLine
 10
2.776899840668156
 20
7.055071546370347
 30
0.0
 11
2.793899840668299
 21
7.055071546370347
 31
0.0
  0
LINE
  5
204
330
D
100
AcDbEntity
 67
     1
  8
AM_HID
100
AcDbLine
 10
2.918899840668299
 20
7.180071546370347
 30
0.0
 11
2.918899840668299
 21
7.208071546370343
 31
0.0
  0
LINE
  5
205
330
D
100
AcDbEntity
 67
     1
  8
AM_HID
100
AcDbLine
 10
2.918899840668298
 20
7.208071546370343
 30
0.0
 11
3.220899840668153
 21
7.208071546370343
 31
0.0
  0
LINE
  5
206
330
D
100
AcDbEntity
 67
     1
  8
AM_HID
100
AcDbLine
 10
3.220899840668153
 20
7.208071546370343
 30
0.0
 11
3.220899840668153
 21
6.989071546370332
 31
0.0
  0
LINE
  5
207
330
D
100
AcDbEntity
 67
     1
  8
AM_HID
100
AcDbLine
 10
3.235899840668153
 20
6.974071546370333
 30
0.0
 11
3.751899840668154
 21
6.974071546370333
 31
0.0
  0
LINE
  5
208
330
D
100
AcDbEntity
 67
     1
  8
AM_HID
100
AcDbLine
 10
3.766899840668155
 20
6.989071546370332
 30
0.0
 11
3.766899840668155
 21
7.208071546370343
 31
0.0
  0
LINE
  5
209
330
D
100
AcDbEntity
 67
     1
  8
AM_HID
100
AcDbLine
 10
3.766899840668155
 20
7.208071546370343
 30
0.0
 11
4.068899840668147
 21
7.208071546370343
 31
0.0
  0
LINE
  5
20A
330
D
100
AcDbEntity
 67
     1
  8
AM_HID
100
AcDbLine
 10
4.068899840668147
 20
7.208071546370333
 30
0.0
 11
4.068899840668147
 21
7.180071546370339
 31
0.0
  0
LINE
  5
20B
330
D
100
AcDbEntity
 67
     1
  8
AM_HID
100
AcDbLine
 10
4.193899840668082
 20
7.055071546370347
 30
0.0
 11
4.210899840668143
 21
7.055071546370347
 31
0.0
  0
LINE
  5
20C
330
D
100
AcDbEntity
 67
     1
  8
AM_HID
100
AcDbLine
 10
4.805899840668145
 20
7.055071546370338
 30
0.0
 11
4.805899840668145
 21
7.705071546370339
 31
0.0
  0
LINE
  5
20D
330
D
100
AcDbEntity
 67
     1
  8
AM_HID
100
AcDbLine
 10
4.210899840668147
 20
7.705071546370339
 30
0.0
 11
4.193899840668081
 21
7.705071546370339
 31
0.0
  0
LINE
  5
20E
330
D
100
AcDbEntity
 67
     1
  8
AM_HID
100
AcDbLine
 10
4.068899840668082
 20
7.580071546370339
 30
0.0
 11
4.068899840668082
 21
7.552071546370338
 31
0.0
  0
LINE
  5
20F
330
D
100
AcDbEntity
 67
     1
  8
AM_HID
100
AcDbLine
 10
4.068899840668147
 20
7.552071546370338
 30
0.0
 11
3.766899840668153
 21
7.552071546370338
 31
0.0
  0
LINE
  5
210
330
D
100
AcDbEntity
 67
     1
  8
AM_HID
100
AcDbLine
 10
3.766899840668155
 20
7.552071546370347
 30
0.0
 11
3.766899840668155
 21
7.771071546370338
 31
0.0
  0
LINE
  5
211
330
D
100
AcDbEntity
 67
     1
  8
AM_HID
100
AcDbLine
 10
3.688899840668149
 20
7.474071546370334
 30
0.0
 11
3.298899840668148
 21
7.474071546370334
 31
0.0
  0
LINE
  5
212
330
D
100
AcDbEntity
 67
     1
  8
AM_HID
100
AcDbLine
 10
3.298899840668148
 20
7.286071546370333
 30
0.0
 11
3.688899840668149
 21
7.286071546370333
 31
0.0
  0
CIRCLE
  5
213
330
D
100
AcDbEntity
 67
     1
  8
AM_HID
100
AcDbCircle
 10
2.793899840668149
 20
7.580071546370334
 30
0.0
 40
0.0625
  0
CIRCLE
  5
214
330
D
100
AcDbEntity
 67
     1
  8
AM_HID
100
AcDbCircle
 10
2.793899840668149
 20
7.180071546370334
 30
0.0
 40
0.0625
  0
CIRCLE
  5
215
330
D
100
AcDbEntity
 67
     1
  8
AM_HID
100
AcDbCircle
 10
4.193899840668147
 20
7.580071546370334
 30
0.0
 40
0.0625
  0
CIRCLE
  5
216
330
D
100
AcDbEntity
 67
     1
  8
AM_HID
100
AcDbCircle
 10
4.193899840668147
 20
7.180071546370334
 30
0.0
 40
0.0625
  0
ARC
  5
217
330
D
100
AcDbEntity
 67
     1
  8
AM_HID
100
AcDbCircle
 10
3.235899840668154
 20
7.771071546370338
 30
0.0
 40
0.0149999999999997
100
AcDbArc
 50
90.00000000000005
 51
180.0
  0
ARC
  5
218
330
D
100
AcDbEntity
 67
     1
  8
AM_HID
100
AcDbCircle
 10
2.793899840668299
 20
7.580071546370339
 30
0.0
 40
0.125
100
AcDbArc
 50
0.0000000000000127
 51
90.00000000000005
  0
ARC
  5
219
330
D
100
AcDbEntity
 67
     1
  8
AM_HID
100
AcDbCircle
 10
2.651899840668147
 20
7.705071546370339
 30
0.0
 40
0.125
100
AcDbArc
 50
0.0000000000000127
 51
90.00000000000005
  0
ARC
  5
21A
330
D
100
AcDbEntity
 67
     1
  8
AM_HID
100
AcDbCircle
 10
2.306899840668148
 20
7.705071546370339
 30
0.0
 40
0.125
100
AcDbArc
 50
90.00000000000005
 51
180.0
  0
ARC
  5
21B
330
D
100
AcDbEntity
 67
     1
  8
AM_HID
100
AcDbCircle
 10
2.306899840668148
 20
7.055071546370339
 30
0.0
 40
0.125
100
AcDbArc
 50
180.0
 51
270.0
  0
ARC
  5
21C
330
D
100
AcDbEntity
 67
     1
  8
AM_HID
100
AcDbCircle
 10
2.651899840668154
 20
7.055071546370339
 30
0.0
 40
0.125
100
AcDbArc
 50
270.0
 51
0.0000000000000127
  0
ARC
  5
21D
330
D
100
AcDbEntity
 67
     1
  8
AM_HID
100
AcDbCircle
 10
2.793899840668299
 20
7.180071546370347
 30
0.0
 40
0.125
100
AcDbArc
 50
270.0
 51
0.0000000000000127
  0
ARC
  5
21E
330
D
100
AcDbEntity
 67
     1
  8
AM_HID
100
AcDbCircle
 10
3.235899840668153
 20
6.989071546370332
 30
0.0
 40
0.0149999999999997
100
AcDbArc
 50
180.0
 51
270.0
  0
ARC
  5
21F
330
D
100
AcDbEntity
 67
     1
  8
AM_HID
100
AcDbCircle
 10
3.751899840668153
 20
6.989071546370332
 30
0.0
 40
0.0149999999999997
100
AcDbArc
 50
270.0
 51
0.0000000000000127
  0
ARC
  5
220
330
D
100
AcDbEntity
 67
     1
  8
AM_HID
100
AcDbCircle
 10
4.193899840668147
 20
7.180071546370339
 30
0.0
 40
0.125
100
AcDbArc
 50
180.0
 51
270.0
  0
ARC
  5
221
330
D
100
AcDbEntity
 67
     1
  8
AM_HID
100
AcDbCircle
 10
4.335899840668142
 20
7.055071546370339
 30
0.0
 40
0.125
100
AcDbArc
 50
180.0
 51
270.0
  0
ARC
  5
222
330
D
100
AcDbEntity
 67
     1
  8
AM_HID
100
AcDbCircle
 10
4.680899840668145
 20
7.055071546370339
 30
0.0
 40
0.125
100
AcDbArc
 50
270.0
 51
0.0000000000000127
  0
ARC
  5
223
330
D
100
AcDbEntity
 67
     1
  8
AM_HID
100
AcDbCircle
 10
4.680899840668145
 20
7.705071546370339
 30
0.0
 40
0.125
100
AcDbArc
 50
0.0000000000000127
 51
90.00000000000005
  0
ARC
  5
224
330
D
100
AcDbEntity
 67
     1
  8
AM_HID
100
AcDbCircle
 10
4.335899840668147
 20
7.705071546370339
 30
0.0
 40
0.125
100
AcDbArc
 50
90.00000000000005
 51
180.0
  0
ARC
  5
225
330
D
100
AcDbEntity
 67
     1
  8
AM_HID
100
AcDbCircle
 10
4.193899840668082
 20
7.580071546370339
 30
0.0
 40
0.125
100
AcDbArc
 50
90.00000000000005
 51
180.0
  0
ARC
  5
226
330
D
100
AcDbEntity
 67
     1
  8
AM_HID
100
AcDbCircle
 10
3.751899840668154
 20
7.771071546370335
 30
0.0
 40
0.0149999999999997
100
AcDbArc
 50
0.0000000000000127
 51
90.00000000000005
  0
LINE
  5
227
330
D
100
AcDbEntity
 67
     1
  8
AM_HID
100
AcDbLine
 10
3.540103212399316
 20
7.315071546370332
 30
0.0
 11
3.540103212399316
 21
7.445071546370332
 31
0.0
  0
LINE
  5
228
330
D
100
AcDbEntity
 67
     1
  8
AM_HID
100
AcDbLine
 10
3.540103212399395
 20
7.315071546370332
 30
0.0
 11
4.245720760123143
 21
7.315071546370332
 31
0.0
  0
LINE
  5
229
330
D
100
AcDbEntity
 67
     1
  8
AM_HID
100
AcDbLine
 10
4.245720760123143
 20
7.445071546370332
 30
0.0
 11
4.245720760123143
 21
7.315071546370332
 31
0.0
  0
LINE
  5
22A
330
D
100
AcDbEntity
 67
     1
  8
AM_HID
100
AcDbLine
 10
4.245720760123141
 20
7.445071546370332
 30
0.0
 11
3.540103212399393
 21
7.44507154637033
 31
0.0
  0
LINE
  5
22B
330
D
100
AcDbEntity
 67
     1
  8
AM_HID
100
AcDbLine
 10
4.571145404992219
 20
7.315071546370332
 30
0.0
 11
4.571145404992219
 21
7.445071546370332
 31
0.0
  0
LINE
  5
22C
330
D
100
AcDbEntity
 67
     1
  8
AM_HID
100
AcDbLine
 10
4.571145404992219
 20
7.315071546370332
 30
0.0
 11
4.571176065789281
 21
7.315071546370332
 31
0.0
  0
LINE
  5
22D
330
D
100
AcDbEntity
 67
     1
  8
AM_HID
100
AcDbLine
 10
4.571176065789281
 20
7.445071546370332
 30
0.0
 11
4.571176065789281
 21
7.315071546370332
 31
0.0
  0
LINE
  5
22E
330
D
100
AcDbEntity
 67
     1
  8
AM_HID
100
AcDbLine
 10
4.571176065789281
 20
7.445071546370332
 30
0.0
 11
4.571145404992219
 21
7.445071546370332
 31
0.0
  0
LINE
  5
22F
330
D
100
AcDbEntity
 67
     1
  8
AM_HID
100
AcDbLine
 10
4.416688634489865
 20
7.445071546370332
 30
0.0
 11
4.245720760123143
 21
7.445071546370332
 31
0.0
  0
LINE
  5
230
330
D
100
AcDbEntity
 67
     1
  8
AM_HID
100
AcDbLine
 10
4.41680988988698
 20
7.445071546370332
 30
0.0
 11
4.416688634489865
 21
7.445071546370332
 31
0.0
  0
LINE
  5
231
330
D
100
AcDbEntity
 67
     1
  8
AM_HID
100
AcDbLine
 10
2.580683966366974
 20
7.44507154637033
 30
0.0
 11
2.580499946115008
 21
7.44507154637033
 31
0.0
  0
LINE
  5
232
330
D
100
AcDbEntity
 67
     1
  8
AM_HID
100
AcDbLine
 10
2.751428637732121
 20
7.44507154637033
 30
0.0
 11
2.580683966366976
 21
7.44507154637033
 31
0.0
  0
LINE
  5
233
330
D
100
AcDbEntity
 67
     1
  8
AM_HID
100
AcDbLine
 10
3.416181746185991
 20
7.445071546370332
 30
0.0
 11
2.751428637732121
 21
7.445071546370332
 31
0.0
  0
LINE
  5
234
330
D
100
AcDbEntity
 67
     1
  8
AM_HID
100
AcDbLine
 10
2.580499946115008
 20
7.31507154637033
 30
0.0
 11
2.580499946115008
 21
7.44507154637033
 31
0.0
  0
LINE
  5
235
330
D
100
AcDbEntity
 67
     1
  8
AM_HID
100
AcDbLine
 10
2.580499946115008
 20
7.31507154637033
 30
0.0
 11
2.580683966366974
 21
7.31507154637033
 31
0.0
  0
LINE
  5
236
330
D
100
AcDbEntity
 67
     1
  8
AM_HID
100
AcDbLine
 10
2.580683966366974
 20
7.44507154637033
 30
0.0
 11
2.580683966366974
 21
7.31507154637033
 31
0.0
  0
LINE
  5
237
330
D
100
AcDbEntity
 67
     1
  8
AM_HID
100
AcDbLine
 10
3.416181746186003
 20
7.445071546370332
 30
0.0
 11
3.416181746186003
 21
7.315071546370332
 31
0.0
  0
LINE
  5
238
330
D
100
AcDbEntity
 67
     1
  8
AM_HID
100
AcDbLine
 10
2.751428637732121
 20
7.31507154637033
 30
0.0
 11
2.751428637732121
 21
7.44507154637033
 31
0.0
  0
LINE
  5
239
330
D
100
AcDbEntity
 67
     1
  8
AM_HID
100
AcDbLine
 10
2.751428637732121
 20
7.31507154637033
 30
0.0
 11
3.416181746185991
 21
7.31507154637033
 31
0.0
  0
LINE
  5
23A
330
D
100
AcDbEntity
 67
     1
  8
AM_HID
100
AcDbLine
 10
4.245720760123143
 20
7.315071546370332
 30
0.0
 11
4.416688634489865
 21
7.315071546370332
 31
0.0
  0
LINE
  5
23B
330
D
100
AcDbEntity
 67
     1
  8
AM_HID
100
AcDbLine
 10
4.416688634489863
 20
7.445071546370332
 30
0.0
 11
4.416688634489863
 21
7.315071546370332
 31
0.0
  0
LINE
  5
23C
330
D
100
AcDbEntity
 67
     1
  8
AM_HID
100
AcDbLine
 10
4.41680988988698
 20
7.445071546370332
 30
0.0
 11
4.41680988988698
 21
7.315071546370332
 31
0.0
  0
LINE
  5
23D
330
D
100
AcDbEntity
 67
     1
  8
AM_HID
100
AcDbLine
 10
4.416688634489865
 20
7.315071546370332
 30
0.0
 11
4.41680988988698
 21
7.315071546370332
 31
0.0
  0
LINE
  5
23E
330
D
100
AcDbEntity
 67
     1
  8
AM_HID
100
AcDbLine
 10
2.475259592549289
 20
7.44507154637033
 30
0.0
 11
2.475259592549289
 21
7.31507154637033
 31
0.0
  0
LINE
  5
23F
330
D
100
AcDbEntity
 67
     1
  8
AM_HID
100
AcDbLine
 10
2.580683966366976
 20
7.31507154637033
 30
0.0
 11
2.751428637732121
 21
7.31507154637033
 31
0.0
  0
LINE
  5
240
330
D
100
AcDbEntity
 67
     1
  8
AM_HID
100
AcDbLine
 10
2.366462711142654
 20
7.255071546370331
 30
0.0
 11
2.366462711142654
 21
7.505071546370331
 31
0.0
  0
LINE
  5
241
330
D
100
AcDbEntity
 67
     1
  8
AM_HID
100
AcDbLine
 10
2.616462711142651
 20
7.255071546370331
 30
0.0
 11
2.616462711142651
 21
7.31507154637033
 31
0.0
  0
LINE
  5
242
330
D
100
AcDbEntity
 67
     1
  8
AM_HID
100
AcDbLine
 10
2.616462711142651
 20
7.44507154637033
 30
0.0
 11
2.616462711142651
 21
7.505071546370331
 31
0.0
  0
LINE
  5
243
330
D
100
AcDbEntity
 67
     1
  8
AM_HID
100
AcDbLine
 10
4.394621613892553
 20
7.255071546370332
 30
0.0
 11
4.394621613892553
 21
7.315071546370332
 31
0.0
  0
LINE
  5
244
330
D
100
AcDbEntity
 67
     1
  8
AM_HID
100
AcDbLine
 10
4.394621613892553
 20
7.445071546370332
 30
0.0
 11
4.394621613892553
 21
7.505071546370332
 31
0.0
  0
LINE
  5
245
330
D
100
AcDbEntity
 67
     1
  8
AM_HID
100
AcDbLine
 10
4.644621613892553
 20
7.255071546370332
 30
0.0
 11
4.644621613892553
 21
7.505071546370332
 31
0.0
  0
LINE
  5
246
330
D
100
AcDbEntity
 67
     1
  8
AM_HID
100
AcDbLine
 10
3.306399840668154
 20
7.070071546370332
 30
0.0
 11
3.306399840668154
 21
7.315071546370332
 31
0.0
  0
LINE
  5
247
330
D
100
AcDbEntity
 67
     1
  8
AM_HID
100
AcDbLine
 10
3.306399840668154
 20
7.445071546370332
 30
0.0
 11
3.306399840668154
 21
7.690071546370332
 31
0.0
  0
LINE
  5
248
330
D
100
AcDbEntity
 67
     1
  8
AM_HID
100
AcDbLine
 10
3.681399840668154
 20
7.070071546370332
 30
0.0
 11
3.681399840668154
 21
7.315071546370332
 31
0.0
  0
LINE
  5
249
330
D
100
AcDbEntity
 67
     1
  8
AM_HID
100
AcDbLine
 10
3.681399840668154
 20
7.445071546370332
 30
0.0
 11
3.681399840668154
 21
7.690071546370332
 31
0.0
  0
LINE
  5
24A
330
D
100
AcDbEntity
 67
     1
  8
AM_HID
100
AcDbLine
 10
3.540103212399393
 20
7.445071546370332
 30
0.0
 11
3.416181746185991
 21
7.445071546370332
 31
0.0
  0
LINE
  5
24B
330
D
100
AcDbEntity
 67
     1
  8
AM_HID
100
AcDbLine
 10
4.571145404992219
 20
7.445071546370332
 30
0.0
 11
4.416809889886978
 21
7.445071546370332
 31
0.0
  0
LINE
  5
24C
330
D
100
AcDbEntity
 67
     1
  8
AM_HID
100
AcDbLine
 10
2.580499946115008
 20
7.44507154637033
 30
0.0
 11
2.475259592549289
 21
7.44507154637033
 31
0.0
  0
LINE
  5
24D
330
D
100
AcDbEntity
 67
     1
  8
AM_HID
100
AcDbLine
 10
3.416181746185991
 20
7.315071546370332
 30
0.0
 11
3.540103212399393
 21
7.315071546370332
 31
0.0
  0
LINE
  5
24E
330
D
100
AcDbEntity
 67
     1
  8
AM_HID
100
AcDbLine
 10
2.475259592549289
 20
7.31507154637033
 30
0.0
 11
2.580499946115008
 21
7.31507154637033
 31
0.0
  0
LINE
  5
24F
330
D
100
AcDbEntity
 67
     1
  8
AM_HID
100
AcDbLine
 10
4.416809889886978
 20
7.315071546370332
 30
0.0
 11
4.571145404992219
 21
7.315071546370332
 31
0.0
  0
LINE
  5
250
330
D
100
AcDbEntity
 67
     1
  8
AM_HID
100
AcDbLine
 10
2.616462711142651
 20
7.255071546370331
 30
0.0
 11
2.366462711142651
 21
7.255071546370331
 31
0.0
  0
LINE
  5
251
330
D
100
AcDbEntity
 67
     1
  8
AM_HID
100
AcDbLine
 10
2.366462711142651
 20
7.505071546370331
 30
0.0
 11
2.616462711142651
 21
7.505071546370331
 31
0.0
  0
LINE
  5
252
330
D
100
AcDbEntity
 67
     1
  8
AM_HID
100
AcDbLine
 10
4.644621613892554
 20
7.255071546370332
 30
0.0
 11
4.394621613892555
 21
7.255071546370332
 31
0.0
  0
LINE
  5
253
330
D
100
AcDbEntity
 67
     1
  8
AM_HID
100
AcDbLine
 10
4.394621613892555
 20
7.505071546370332
 30
0.0
 11
4.644621613892554
 21
7.505071546370332
 31
0.0
  0
LINE
  5
254
330
D
100
AcDbEntity
 67
     1
  8
AM_HID
100
AcDbLine
 10
3.681399840668154
 20
7.070071546370332
 30
0.0
 11
3.306399840668154
 21
7.070071546370332
 31
0.0
  0
LINE
  5
255
330
D
100
AcDbEntity
 67
     1
  8
AM_HID
100
AcDbLine
 10
3.306399840668154
 20
7.69007154637033
 30
0.0
 11
3.681399840668154
 21
7.690071546370332
 31
0.0
  0
LINE
  5
256
330
D
100
AcDbEntity
 67
     1
  8
AM_HID
100
AcDbLine
 10
1.96289984066815
 20
3.322983583499
 30
0.0
 11
1.96289984066815
 21
3.282364616429955
 31
0.0
  0
LINE
  5
257
330
D
100
AcDbEntity
 67
     1
  8
AM_HID
100
AcDbLine
 10
1.987899840668149
 20
3.322983583499
 30
0.0
 11
1.96289984066815
 21
3.322983583499
 31
0.0
  0
LINE
  5
258
330
D
100
AcDbEntity
 67
     1
  8
AM_HID
100
AcDbLine
 10
1.987899840668149
 20
3.322983583499
 30
0.0
 11
1.987899840668149
 21
3.282364616429955
 31
0.0
  0
LINE
  5
259
330
D
100
AcDbEntity
 67
     1
  8
AM_HID
100
AcDbLine
 10
2.037899840668149
 20
3.322983583499
 30
0.0
 11
1.987899840668149
 21
3.322983583499
 31
0.0
  0
LINE
  5
25A
330
D
100
AcDbEntity
 67
     1
  8
AM_HID
100
AcDbLine
 10
2.037899840668149
 20
3.322983583499
 30
0.0
 11
2.037899840668149
 21
3.282364616429955
 31
0.0
  0
LINE
  5
25B
330
D
100
AcDbEntity
 67
     1
  8
AM_HID
100
AcDbLine
 10
2.06289984066815
 20
3.322983583499
 30
0.0
 11
2.03789984066815
 21
3.322983583499
 31
0.0
  0
LINE
  5
25C
330
D
100
AcDbEntity
 67
     1
  8
AM_HID
100
AcDbLine
 10
2.06289984066815
 20
3.282364616429953
 30
0.0
 11
2.06289984066815
 21
3.322983583498998
 31
0.0
  0
LINE
  5
25D
330
D
100
AcDbEntity
 67
     1
  8
AM_VIS
100
AcDbLine
 10
2.122899840668146
 20
3.352983583499002
 30
0.0
 11
2.122899840668146
 21
3.312983583499002
 31
0.0
  0
LINE
  5
25E
330
D
100
AcDbEntity
 67
     1
  8
AM_VIS
100
AcDbLine
 10
1.902899840668148
 20
3.352983583499002
 30
0.0
 11
1.902899840668148
 21
3.312983583499002
 31
0.0
  0
LINE
  5
25F
330
D
100
AcDbEntity
 67
     1
  8
AM_VIS
100
AcDbLine
 10
2.012899840668147
 20
4.332983583498998
 30
0.0
 11
2.072899840668148
 21
4.192665046438608
 31
0.0
  0
LINE
  5
260
330
D
100
AcDbEntity
 67
     1
  8
AM_VIS
100
AcDbLine
 10
2.012899840668147
 20
4.332983583498998
 30
0.0
 11
1.952899840668146
 21
4.192665046438608
 31
0.0
  0
LINE
  5
261
330
D
100
AcDbEntity
 67
     1
  8
AM_VIS
100
AcDbLine
 10
2.072899840668148
 20
4.192665046438608
 30
0.0
 11
2.072899840668148
 21
3.512983583499001
 31
0.0
  0
LINE
  5
262
330
D
100
AcDbEntity
 67
     1
  8
AM_HID
100
AcDbLine
 10
2.072899840668148
 20
3.512983583499001
 30
0.0
 11
2.072899840668148
 21
3.352983583499002
 31
0.0
  0
LINE
  5
263
330
D
100
AcDbEntity
 67
     1
  8
AM_VIS
100
AcDbLine
 10
1.952899840668146
 20
4.192665046438608
 30
0.0
 11
1.952899840668146
 21
3.512983583499001
 31
0.0
  0
LINE
  5
264
330
D
100
AcDbEntity
 67
     1
  8
AM_HID
100
AcDbLine
 10
1.952899840668146
 20
3.512983583499001
 30
0.0
 11
1.952899840668146
 21
3.352983583499002
 31
0.0
  0
ARC
  5
265
330
D
100
AcDbEntity
 67
     1
  8
AM_VIS
100
AcDbCircle
 10
2.012899840668149
 20
3.444233583499003
 30
0.0
 40
0.1694153549711503
100
AcDbArc
 50
252.8345091284097
 51
261.5140826901714
  0
LINE
  5
266
330
D
100
AcDbEntity
 67
     1
  8
AM_VIS
100
AcDbLine
 10
1.987899840668149
 20
3.282364616429955
 30
0.0
 11
1.987899840668149
 21
3.276672960141365
 31
0.0
  0
ARC
  5
267
330
D
100
AcDbEntity
 67
     1
  8
AM_VIS
100
AcDbCircle
 10
2.012899840668149
 20
3.444233583499003
 30
0.0
 40
0.163788163491752
100
AcDbArc
 50
261.220271774418
 51
278.7797282255825
  0
LINE
  5
268
330
D
100
AcDbEntity
 67
     1
  8
AM_VIS
100
AcDbLine
 10
2.03789984066815
 20
3.276672960141365
 30
0.0
 11
2.03789984066815
 21
3.282364616429955
 31
0.0
  0
ARC
  5
269
330
D
100
AcDbEntity
 67
     1
  8
AM_VIS
100
AcDbCircle
 10
2.012899840668149
 20
3.444233583499003
 30
0.0
 40
0.1694153549711503
100
AcDbArc
 50
278.4859173098297
 51
287.1654908715908
  0
LINE
  5
26A
330
D
100
AcDbEntity
 67
     1
  8
AM_VIS
100
AcDbLine
 10
2.06289984066815
 20
3.280445420007251
 30
0.0
 11
2.06289984066815
 21
3.282364616429955
 31
0.0
  0
LINE
  5
26B
330
D
100
AcDbEntity
 67
     1
  8
AM_VIS
100
AcDbLine
 10
1.96289984066815
 20
3.282364616429955
 30
0.0
 11
1.96289984066815
 21
3.280445420007251
 31
0.0
  0
LINE
  5
26C
330
D
100
AcDbEntity
 67
     1
  8
AM_VIS
100
AcDbLine
 10
1.902899840668149
 20
3.312983583499002
 30
0.0
 11
2.122899840668148
 21
3.312983583499002
 31
0.0
  0
LINE
  5
26D
330
D
100
AcDbEntity
 67
     1
  8
AM_VIS
100
AcDbLine
 10
1.952899840668148
 20
4.19266504643861
 30
0.0
 11
2.072899840668149
 21
4.19266504643861
 31
0.0
  0
ARC
  5
26E
330
D
100
AcDbEntity
 67
     1
  8
AM_VIS
100
AcDbCircle
 10
2.012899840668149
 20
3.444233583499003
 30
0.0
 40
0.1712500000000025
100
AcDbArc
 50
286.9759820182648
 51
309.9662130437998
  0
ARC
  5
26F
330
D
100
AcDbEntity
 67
     1
  8
AM_VIS
100
AcDbCircle
 10
2.012899840668149
 20
3.444233583499003
 30
0.0
 40
0.1712500000000025
100
AcDbArc
 50
230.0337869561999
 51
253.0240179817361
  0
LINE
  5
270
330
D
100
AcDbEntity
 67
     1
  8
AM_HID
100
AcDbLine
 10
4.924899840668152
 20
3.322983583499001
 30
0.0
 11
4.924899840668152
 21
3.282364616429957
 31
0.0
  0
LINE
  5
271
330
D
100
AcDbEntity
 67
     1
  8
AM_HID
100
AcDbLine
 10
4.949899840668153
 20
3.322983583499001
 30
0.0
 11
4.924899840668152
 21
3.322983583499001
 31
0.0
  0
LINE
  5
272
330
D
100
AcDbEntity
 67
     1
  8
AM_HID
100
AcDbLine
 10
4.949899840668153
 20
3.322983583499001
 30
0.0
 11
4.949899840668153
 21
3.282364616429957
 31
0.0
  0
LINE
  5
273
330
D
100
AcDbEntity
 67
     1
  8
AM_HID
100
AcDbLine
 10
4.999899840668152
 20
3.322983583499001
 30
0.0
 11
4.949899840668153
 21
3.322983583499001
 31
0.0
  0
LINE
  5
274
330
D
100
AcDbEntity
 67
     1
  8
AM_HID
100
AcDbLine
 10
4.999899840668152
 20
3.322983583499001
 30
0.0
 11
4.999899840668152
 21
3.282364616429957
 31
0.0
  0
LINE
  5
275
330
D
100
AcDbEntity
 67
     1
  8
AM_HID
100
AcDbLine
 10
5.024899840668152
 20
3.322983583499001
 30
0.0
 11
4.999899840668152
 21
3.322983583499001
 31
0.0
  0
LINE
  5
276
330
D
100
AcDbEntity
 67
     1
  8
AM_HID
100
AcDbLine
 10
5.024899840668152
 20
3.282364616429957
 30
0.0
 11
5.024899840668152
 21
3.322983583499001
 31
0.0
  0
LINE
  5
277
330
D
100
AcDbEntity
 67
     1
  8
AM_VIS
100
AcDbLine
 10
5.084899840668151
 20
3.352983583499002
 30
0.0
 11
5.084899840668151
 21
3.312983583499003
 31
0.0
  0
LINE
  5
278
330
D
100
AcDbEntity
 67
     1
  8
AM_VIS
100
AcDbLine
 10
4.86489984066815
 20
3.352983583499002
 30
0.0
 11
4.86489984066815
 21
3.312983583499003
 31
0.0
  0
LINE
  5
279
330
D
100
AcDbEntity
 67
     1
  8
AM_VIS
100
AcDbLine
 10
4.974899840668151
 20
4.332983583499001
 30
0.0
 11
5.034899840668152
 21
4.192665046438611
 31
0.0
  0
LINE
  5
27A
330
D
100
AcDbEntity
 67
     1
  8
AM_VIS
100
AcDbLine
 10
4.974899840668151
 20
4.332983583499001
 30
0.0
 11
4.914899840668151
 21
4.192665046438613
 31
0.0
  0
LINE
  5
27B
330
D
100
AcDbEntity
 67
     1
  8
AM_VIS
100
AcDbLine
 10
5.03489984066815
 20
4.192665046438613
 30
0.0
 11
5.03489984066815
 21
3.512983583499003
 31
0.0
  0
LINE
  5
27C
330
D
100
AcDbEntity
 67
     1
  8
AM_HID
100
AcDbLine
 10
5.03489984066815
 20
3.512983583499001
 30
0.0
 11
5.03489984066815
 21
3.352983583499002
 31
0.0
  0
LINE
  5
27D
330
D
100
AcDbEntity
 67
     1
  8
AM_VIS
100
AcDbLine
 10
4.914899840668148
 20
4.192665046438613
 30
0.0
 11
4.914899840668148
 21
3.512983583499003
 31
0.0
  0
LINE
  5
27E
330
D
100
AcDbEntity
 67
     1
  8
AM_HID
100
AcDbLine
 10
4.914899840668148
 20
3.512983583499001
 30
0.0
 11
4.914899840668148
 21
3.352983583499002
 31
0.0
  0
ARC
  5
27F
330
D
100
AcDbEntity
 67
     1
  8
AM_VIS
100
AcDbCircle
 10
4.974899840668151
 20
3.444233583499006
 30
0.0
 40
0.1694153549711503
100
AcDbArc
 50
252.8345091284097
 51
261.5140826901714
  0
LINE
  5
280
330
D
100
AcDbEntity
 67
     1
  8
AM_VIS
100
AcDbLine
 10
4.949899840668153
 20
3.282364616429957
 30
0.0
 11
4.949899840668153
 21
3.276672960141365
 31
0.0
  0
ARC
  5
281
330
D
100
AcDbEntity
 67
     1
  8
AM_VIS
100
AcDbCircle
 10
4.974899840668151
 20
3.444233583499006
 30
0.0
 40
0.163788163491752
100
AcDbArc
 50
261.220271774418
 51
278.7797282255825
  0
LINE
  5
282
330
D
100
AcDbEntity
 67
     1
  8
AM_VIS
100
AcDbLine
 10
4.999899840668152
 20
3.276672960141365
 30
0.0
 11
4.999899840668152
 21
3.282364616429957
 31
0.0
  0
ARC
  5
283
330
D
100
AcDbEntity
 67
     1
  8
AM_VIS
100
AcDbCircle
 10
4.974899840668151
 20
3.444233583499006
 30
0.0
 40
0.1694153549711503
100
AcDbArc
 50
278.4859173098297
 51
287.1654908715908
  0
LINE
  5
284
330
D
100
AcDbEntity
 67
     1
  8
AM_VIS
100
AcDbLine
 10
5.024899840668152
 20
3.280445420007253
 30
0.0
 11
5.024899840668152
 21
3.282364616429957
 31
0.0
  0
LINE
  5
285
330
D
100
AcDbEntity
 67
     1
  8
AM_VIS
100
AcDbLine
 10
4.924899840668152
 20
3.282364616429957
 30
0.0
 11
4.924899840668152
 21
3.280445420007253
 31
0.0
  0
LINE
  5
286
330
D
100
AcDbEntity
 67
     1
  8
AM_VIS
100
AcDbLine
 10
4.864899840668151
 20
3.312983583499003
 30
0.0
 11
5.084899840668152
 21
3.312983583499003
 31
0.0
  0
LINE
  5
287
330
D
100
AcDbEntity
 67
     1
  8
AM_VIS
100
AcDbLine
 10
4.914899840668151
 20
4.192665046438613
 30
0.0
 11
5.034899840668152
 21
4.192665046438613
 31
0.0
  0
ARC
  5
288
330
D
100
AcDbEntity
 67
     1
  8
AM_VIS
100
AcDbCircle
 10
4.974899840668151
 20
3.444233583499006
 30
0.0
 40
0.1712500000000025
100
AcDbArc
 50
286.9759820182648
 51
309.9662130438001
  0
ARC
  5
289
330
D
100
AcDbEntity
 67
     1
  8
AM_VIS
100
AcDbCircle
 10
4.974899840668151
 20
3.444233583499006
 30
0.0
 40
0.1712500000000025
100
AcDbArc
 50
230.0337869562005
 51
253.0240179817357
  0
LINE
  5
28A
330
D
100
AcDbEntity
 67
     1
  8
AM_HID
100
AcDbLine
 10
2.556399840668146
 20
3.1144346289256
 30
0.0
 11
2.610399840668038
 21
3.251434628925598
 31
0.0
  0
LINE
  5
28B
330
D
100
AcDbEntity
 67
     1
  8
AM_HID
100
AcDbLine
 10
2.264399840668146
 20
3.1144346289256
 30
0.0
 11
2.264399840668146
 21
3.251434628925601
 31
0.0
  0
LINE
  5
28C
330
D
100
AcDbEntity
 67
     1
  8
AM_HID
100
AcDbLine
 10
2.694399840668149
 20
3.1144346289256
 30
0.0
 11
2.694399840668149
 21
3.251434628925601
 31
0.0
  0
LINE
  5
28D
330
D
100
AcDbEntity
 67
     1
  8
AM_HID
100
AcDbLine
 10
2.631399840668145
 20
3.251434628925601
 30
0.0
 11
2.327399840668147
 21
3.251434628925601
 31
0.0
  0
LINE
  5
28E
330
D
100
AcDbEntity
 67
     1
  8
AM_HID
100
AcDbLine
 10
2.327399840668147
 20
3.1144346289256
 30
0.0
 11
2.631399840668145
 21
3.1144346289256
 31
0.0
  0
LINE
  5
28F
330
D
100
AcDbEntity
 67
     1
  8
AM_HID
100
AcDbLine
 10
2.374399840668138
 20
3.1144346289256
 30
0.0
 11
2.374399840668138
 21
3.1844346289256
 31
0.0
  0
LINE
  5
290
330
D
100
AcDbEntity
 67
     1
  8
AM_HID
100
AcDbLine
 10
2.604399840668138
 20
3.1144346289256
 30
0.0
 11
2.604399840668138
 21
3.1844346289256
 31
0.0
  0
LINE
  5
291
330
D
100
AcDbEntity
 67
     1
  8
AM_HID
100
AcDbLine
 10
2.411399840668149
 20
3.251434628925601
 30
0.0
 11
2.411399840668149
 21
3.512983583499003
 31
0.0
  0
LINE
  5
292
330
D
100
AcDbEntity
 67
     1
  8
AM_VIS
100
AcDbLine
 10
2.411399840668149
 20
3.512983583499003
 30
0.0
 11
2.411399840668149
 21
3.6714346289256
 31
0.0
  0
LINE
  5
293
330
D
100
AcDbEntity
 67
     1
  8
AM_HID
100
AcDbLine
 10
2.567399840668147
 20
3.251434628925601
 30
0.0
 11
2.567399840668147
 21
3.512983583499003
 31
0.0
  0
LINE
  5
294
330
D
100
AcDbEntity
 67
     1
  8
AM_VIS
100
AcDbLine
 10
2.567399840668147
 20
3.512983583499003
 30
0.0
 11
2.567399840668147
 21
3.6714346289256
 31
0.0
  0
LINE
  5
295
330
D
100
AcDbEntity
 67
     1
  8
AM_HID
100
AcDbLine
 10
2.559399840668138
 20
3.1844346289256
 30
0.0
 11
2.559399840668138
 21
2.814434628925601
 31
0.0
  0
LINE
  5
296
330
D
100
AcDbEntity
 67
     1
  8
AM_HID
100
AcDbLine
 10
2.419399840668138
 20
3.1844346289256
 30
0.0
 11
2.419399840668138
 21
2.814434628925601
 31
0.0
  0
LINE
  5
297
330
D
100
AcDbEntity
 67
     1
  8
AM_HID
100
AcDbLine
 10
2.374399840668138
 20
3.1844346289256
 30
0.0
 11
2.489399840668138
 21
3.1844346289256
 31
0.0
  0
LINE
  5
298
330
D
100
AcDbEntity
 67
     1
  8
AM_HID
100
AcDbLine
 10
2.489399840668138
 20
3.1844346289256
 30
0.0
 11
2.604399840668138
 21
3.1844346289256
 31
0.0
  0
LINE
  5
299
330
D
100
AcDbEntity
 67
     1
  8
AM_VIS
100
AcDbLine
 10
2.411399840668149
 20
3.671434628925601
 30
0.0
 11
2.489399840668149
 21
3.671434628925601
 31
0.0
  0
LINE
  5
29A
330
D
100
AcDbEntity
 67
     1
  8
AM_VIS
100
AcDbLine
 10
2.489399840668149
 20
3.671434628925601
 30
0.0
 11
2.567399840668147
 21
3.671434628925601
 31
0.0
  0
LINE
  5
29B
330
D
100
AcDbEntity
 67
     1
  8
AM_HID
100
AcDbLine
 10
2.264399840668146
 20
3.251434628925601
 30
0.0
 11
2.327399840668147
 21
3.251434628925601
 31
0.0
  0
LINE
  5
29C
330
D
100
AcDbEntity
 67
     1
  8
AM_HID
100
AcDbLine
 10
2.327399840668147
 20
3.1144346289256
 30
0.0
 11
2.264399840668146
 21
3.1144346289256
 31
0.0
  0
LINE
  5
29D
330
D
100
AcDbEntity
 67
     1
  8
AM_HID
100
AcDbLine
 10
2.631399840668147
 20
3.251434628925601
 30
0.0
 11
2.694399840668149
 21
3.251434628925601
 31
0.0
  0
LINE
  5
29E
330
D
100
AcDbEntity
 67
     1
  8
AM_HID
100
AcDbLine
 10
2.694399840668149
 20
3.1144346289256
 30
0.0
 11
2.631399840668147
 21
3.1144346289256
 31
0.0
  0
LINE
  5
29F
330
D
100
AcDbEntity
 67
     1
  8
AM_HID
100
AcDbLine
 10
2.559399840668138
 20
2.814434628925601
 30
0.0
 11
2.489399840668138
 21
2.814434628925601
 31
0.0
  0
LINE
  5
2A0
330
D
100
AcDbEntity
 67
     1
  8
AM_HID
100
AcDbLine
 10
2.489399840668138
 20
2.814434628925601
 30
0.0
 11
2.419399840668138
 21
2.814434628925601
 31
0.0
  0
LINE
  5
2A1
330
D
100
AcDbEntity
 67
     1
  8
AM_HID
100
AcDbLine
 10
4.377399840668257
 20
3.420591780869028
 30
0.0
 11
4.431399840668148
 21
3.283591780869028
 31
0.0
  0
LINE
  5
2A2
330
D
100
AcDbEntity
 67
     1
  8
AM_HID
100
AcDbLine
 10
4.723399840668148
 20
3.283591780869028
 30
0.0
 11
4.723399840668148
 21
3.420591780869028
 31
0.0
  0
LINE
  5
2A3
330
D
100
AcDbEntity
 67
     1
  8
AM_HID
100
AcDbLine
 10
4.660399840668148
 20
3.420591780869028
 30
0.0
 11
4.356399840668149
 21
3.420591780869028
 31
0.0
  0
LINE
  5
2A4
330
D
100
AcDbEntity
 67
     1
  8
AM_HID
100
AcDbLine
 10
4.356399840668149
 20
3.283591780869028
 30
0.0
 11
4.660399840668148
 21
3.283591780869028
 31
0.0
  0
LINE
  5
2A5
330
D
100
AcDbEntity
 67
     1
  8
AM_HID
100
AcDbLine
 10
4.293399840668149
 20
3.283591780869028
 30
0.0
 11
4.293399840668149
 21
3.420591780869028
 31
0.0
  0
LINE
  5
2A6
330
D
100
AcDbEntity
 67
     1
  8
AM_HID
100
AcDbLine
 10
4.383399840668158
 20
3.283591780869028
 30
0.0
 11
4.383399840668158
 21
3.353591780869028
 31
0.0
  0
LINE
  5
2A7
330
D
100
AcDbEntity
 67
     1
  8
AM_HID
100
AcDbLine
 10
4.613399840668157
 20
3.283591780869028
 30
0.0
 11
4.613399840668157
 21
3.353591780869028
 31
0.0
  0
LINE
  5
2A8
330
D
100
AcDbEntity
 67
     1
  8
AM_HID
100
AcDbLine
 10
4.420399840668166
 20
3.420591780869028
 30
0.0
 11
4.420399840668166
 21
3.512983583499001
 31
0.0
  0
LINE
  5
2A9
330
D
100
AcDbEntity
 67
     1
  8
AM_VIS
100
AcDbLine
 10
4.420399840668166
 20
3.512983583499001
 30
0.0
 11
4.420399840668166
 21
3.840591780869028
 31
0.0
  0
LINE
  5
2AA
330
D
100
AcDbEntity
 67
     1
  8
AM_HID
100
AcDbLine
 10
4.576399840668168
 20
3.420591780869028
 30
0.0
 11
4.576399840668168
 21
3.512983583499001
 31
0.0
  0
LINE
  5
2AB
330
D
100
AcDbEntity
 67
     1
  8
AM_VIS
100
AcDbLine
 10
4.576399840668168
 20
3.512983583499001
 30
0.0
 11
4.576399840668168
 21
3.840591780869028
 31
0.0
  0
LINE
  5
2AC
330
D
100
AcDbEntity
 67
     1
  8
AM_HID
100
AcDbLine
 10
4.568399840668157
 20
3.353591780869028
 30
0.0
 11
4.568399840668157
 21
2.983591780869031
 31
0.0
  0
LINE
  5
2AD
330
D
100
AcDbEntity
 67
     1
  8
AM_HID
100
AcDbLine
 10
4.428399840668157
 20
3.353591780869028
 30
0.0
 11
4.428399840668157
 21
2.983591780869031
 31
0.0
  0
LINE
  5
2AE
330
D
100
AcDbEntity
 67
     1
  8
AM_HID
100
AcDbLine
 10
4.383399840668158
 20
3.353591780869028
 30
0.0
 11
4.613399840668157
 21
3.353591780869028
 31
0.0
  0
LINE
  5
2AF
330
D
100
AcDbEntity
 67
     1
  8
AM_VIS
100
AcDbLine
 10
4.420399840668166
 20
3.840591780869029
 30
0.0
 11
4.576399840668168
 21
3.840591780869029
 31
0.0
  0
LINE
  5
2B0
330
D
100
AcDbEntity
 67
     1
  8
AM_HID
100
AcDbLine
 10
4.660399840668148
 20
3.420591780869028
 30
0.0
 11
4.723399840668148
 21
3.420591780869028
 31
0.0
  0
LINE
  5
2B1
330
D
100
AcDbEntity
 67
     1
  8
AM_HID
100
AcDbLine
 10
4.723399840668148
 20
3.283591780869028
 30
0.0
 11
4.660399840668148
 21
3.283591780869028
 31
0.0
  0
LINE
  5
2B2
330
D
100
AcDbEntity
 67
     1
  8
AM_HID
100
AcDbLine
 10
4.293399840668149
 20
3.420591780869028
 30
0.0
 11
4.356399840668149
 21
3.420591780869028
 31
0.0
  0
LINE
  5
2B3
330
D
100
AcDbEntity
 67
     1
  8
AM_HID
100
AcDbLine
 10
4.356399840668149
 20
3.283591780869028
 30
0.0
 11
4.293399840668149
 21
3.283591780869028
 31
0.0
  0
LINE
  5
2B4
330
D
100
AcDbEntity
 67
     1
  8
AM_HID
100
AcDbLine
 10
4.568399840668159
 20
2.983591780869029
 30
0.0
 11
4.428399840668157
 21
2.983591780869029
 31
0.0
  0
LINE
  5
2B5
330
D
100
AcDbEntity
 67
     1
  8
AM_HID
100
AcDbLine
 10
3.361399840668152
 20
3.405983583499001
 30
0.0
 11
3.626399840668153
 21
3.405983583499001
 31
0.0
  0
LINE
  5
2B6
330
D
100
AcDbEntity
 67
     1
  8
AM_VIS
100
AcDbLine
 10
1.89389984066815
 20
3.512983583499003
 30
0.0
 11
1.89389984066815
 21
3.452983583499003
 31
0.0
  0
LINE
  5
2B7
330
D
100
AcDbEntity
 67
     1
  8
AM_VIS
100
AcDbLine
 10
2.01889984066815
 20
3.452983583499003
 30
0.0
 11
4.96889984066815
 21
3.452983583499003
 31
0.0
  0
LINE
  5
2B8
330
D
100
AcDbEntity
 67
     1
  8
AM_VIS
100
AcDbLine
 10
2.01889984066815
 20
3.512983583499001
 30
0.0
 11
4.96889984066815
 21
3.512983583499001
 31
0.0
  0
LINE
  5
2B9
330
D
100
AcDbEntity
 67
     1
  8
AM_VIS
100
AcDbLine
 10
5.093899840668153
 20
3.512983583499001
 30
0.0
 11
5.093899840668153
 21
3.452983583499001
 31
0.0
  0
LINE
  5
2BA
330
D
100
AcDbEntity
 67
     1
  8
AM_HID
100
AcDbLine
 10
1.948092433684076
 20
3.512983583499003
 30
0.0
 11
1.948092433684076
 21
3.452983583499003
 31
0.0
  0
LINE
  5
2BB
330
D
100
AcDbEntity
 67
     1
  8
AM_HID
100
AcDbLine
 10
2.077707247652234
 20
3.512983583499001
 30
0.0
 11
2.077707247652234
 21
3.452983583499001
 31
0.0
  0
LINE
  5
2BC
330
D
100
AcDbEntity
 67
     1
  8
AM_HID
100
AcDbLine
 10
4.910092433684077
 20
3.512983583499001
 30
0.0
 11
4.910092433684077
 21
3.452983583499001
 31
0.0
  0
LINE
  5
2BD
330
D
100
AcDbEntity
 67
     1
  8
AM_HID
100
AcDbLine
 10
5.039707247652236
 20
3.512983583499001
 30
0.0
 11
5.039707247652236
 21
3.452983583499001
 31
0.0
  0
LINE
  5
2BE
330
D
100
AcDbEntity
 67
     1
  8
AM_HID
100
AcDbLine
 10
4.581899840668152
 20
3.512983583499001
 30
0.0
 11
4.581899840668152
 21
3.452983583499003
 31
0.0
  0
LINE
  5
2BF
330
D
100
AcDbEntity
 67
     1
  8
AM_HID
100
AcDbLine
 10
4.415899840668152
 20
3.512983583499001
 30
0.0
 11
4.415899840668152
 21
3.452983583499003
 31
0.0
  0
LINE
  5
2C0
330
D
100
AcDbEntity
 67
     1
  8
AM_HID
100
AcDbLine
 10
2.571899840668153
 20
3.512983583499003
 30
0.0
 11
2.571899840668153
 21
3.452983583499003
 31
0.0
  0
LINE
  5
2C1
330
D
100
AcDbEntity
 67
     1
  8
AM_HID
100
AcDbLine
 10
2.405899840668153
 20
3.512983583499003
 30
0.0
 11
2.405899840668153
 21
3.452983583499003
 31
0.0
  0
LINE
  5
2C2
330
D
100
AcDbEntity
 67
     1
  8
AM_HID
100
AcDbLine
 10
4.248899840668153
 20
3.372983583499002
 30
0.0
 11
4.248899840668153
 21
3.292983583499002
 31
0.0
  0
LINE
  5
2C3
330
D
100
AcDbEntity
 67
     1
  8
AM_HID
100
AcDbLine
 10
4.138899840668154
 20
3.372983583499001
 30
0.0
 11
4.138899840668154
 21
3.292983583499002
 31
0.0
  0
LINE
  5
2C4
330
D
100
AcDbEntity
 67
     1
  8
AM_HID
100
AcDbLine
 10
2.848899840668153
 20
3.372983583499002
 30
0.0
 11
2.848899840668153
 21
3.292983583499002
 31
0.0
  0
LINE
  5
2C5
330
D
100
AcDbEntity
 67
     1
  8
AM_HID
100
AcDbLine
 10
2.738899840668155
 20
3.372983583499001
 30
0.0
 11
2.738899840668155
 21
3.292983583499002
 31
0.0
  0
LINE
  5
2C6
330
D
100
AcDbEntity
 67
     1
  8
AM_HID
100
AcDbLine
 10
4.271899840668154
 20
3.452983583499003
 30
0.0
 11
4.271899840668154
 21
3.372983583499001
 31
0.0
  0
LINE
  5
2C7
330
D
100
AcDbEntity
 67
     1
  8
AM_HID
100
AcDbLine
 10
4.115899840668153
 20
3.452983583499003
 30
0.0
 11
4.115899840668153
 21
3.372983583499002
 31
0.0
  0
LINE
  5
2C8
330
D
100
AcDbEntity
 67
     1
  8
AM_HID
100
AcDbLine
 10
2.871899840668153
 20
3.452983583499003
 30
0.0
 11
2.871899840668153
 21
3.372983583499001
 31
0.0
  0
LINE
  5
2C9
330
D
100
AcDbEntity
 67
     1
  8
AM_HID
100
AcDbLine
 10
2.715899840668154
 20
3.452983583499003
 30
0.0
 11
2.715899840668154
 21
3.372983583499002
 31
0.0
  0
LINE
  5
2CA
330
D
100
AcDbEntity
 67
     1
  8
AM_HID
100
AcDbLine
 10
1.927899840668154
 20
3.512983583499001
 30
0.0
 11
1.927899840668154
 21
3.452983583499003
 31
0.0
  0
LINE
  5
2CB
330
D
100
AcDbEntity
 67
     1
  8
AM_HID
100
AcDbLine
 10
2.097899840668156
 20
3.512983583499001
 30
0.0
 11
2.097899840668156
 21
3.452983583499003
 31
0.0
  0
LINE
  5
2CC
330
D
100
AcDbEntity
 67
     1
  8
AM_HID
100
AcDbLine
 10
4.889899840668157
 20
3.512983583499001
 30
0.0
 11
4.889899840668157
 21
3.452983583499003
 31
0.0
  0
LINE
  5
2CD
330
D
100
AcDbEntity
 67
     1
  8
AM_HID
100
AcDbLine
 10
5.059899840668157
 20
3.512983583499001
 30
0.0
 11
5.059899840668157
 21
3.452983583499003
 31
0.0
  0
LINE
  5
2CE
330
D
100
AcDbEntity
 67
     1
  8
AM_HID
100
AcDbLine
 10
4.248899840668153
 20
3.292983583499002
 30
0.0
 11
4.138899840668154
 21
3.292983583499002
 31
0.0
  0
LINE
  5
2CF
330
D
100
AcDbEntity
 67
     1
  8
AM_HID
100
AcDbLine
 10
2.848899840668153
 20
3.292983583499002
 30
0.0
 11
2.738899840668155
 21
3.292983583499002
 31
0.0
  0
LINE
  5
2D0
330
D
100
AcDbEntity
 67
     1
  8
AM_HID
100
AcDbLine
 10
4.271899840668154
 20
3.372983583499002
 30
0.0
 11
4.115899840668153
 21
3.372983583499002
 31
0.0
  0
LINE
  5
2D1
330
D
100
AcDbEntity
 67
     1
  8
AM_HID
100
AcDbLine
 10
2.871899840668153
 20
3.372983583499002
 30
0.0
 11
2.715899840668154
 21
3.372983583499002
 31
0.0
  0
LINE
  5
2D2
330
D
100
AcDbEntity
 67
     1
  8
AM_HID
100
AcDbLine
 10
3.688899840668153
 20
3.405983583499001
 30
0.0
 11
3.626399840668153
 21
3.405983583499001
 31
0.0
  0
LINE
  5
2D3
330
D
100
AcDbEntity
 67
     1
  8
AM_HID
100
AcDbLine
 10
3.361399840668152
 20
3.405983583499001
 30
0.0
 11
3.298899840668152
 21
3.405983583499001
 31
0.0
  0
LINE
  5
2D4
330
D
100
AcDbEntity
 67
     1
  8
AM_VIS
100
AcDbLine
 10
2.01889984066815
 20
3.452983583499003
 30
0.0
 11
1.89389984066815
 21
3.452983583499003
 31
0.0
  0
LINE
  5
2D5
330
D
100
AcDbEntity
 67
     1
  8
AM_VIS
100
AcDbLine
 10
2.01889984066815
 20
3.512983583499003
 30
0.0
 11
1.89389984066815
 21
3.512983583499003
 31
0.0
  0
LINE
  5
2D6
330
D
100
AcDbEntity
 67
     1
  8
AM_VIS
100
AcDbLine
 10
5.093899840668153
 20
3.452983583499003
 30
0.0
 11
4.968899840668153
 21
3.452983583499003
 31
0.0
  0
LINE
  5
2D7
330
D
100
AcDbEntity
 67
     1
  8
AM_VIS
100
AcDbLine
 10
5.093899840668153
 20
3.512983583499001
 30
0.0
 11
4.968899840668153
 21
3.512983583499001
 31
0.0
  0
LINE
  5
2D8
330
D
100
AcDbEntity
 67
     1
  8
AM_HID
100
AcDbLine
 10
3.29889984066815
 20
3.202983583499003
 30
0.0
 11
3.29889984066815
 21
3.452983583499003
 31
0.0
  0
LINE
  5
2D9
330
D
100
AcDbEntity
 67
     1
  8
AM_HID
100
AcDbLine
 10
3.688899840668149
 20
3.452983583499004
 30
0.0
 11
3.688899840668149
 21
3.202983583499004
 31
0.0
  0
LINE
  5
2DA
330
D
100
AcDbEntity
 67
     1
  8
AM_VIS
100
AcDbLine
 10
4.968899840668143
 20
3.452983583499004
 30
0.0
 11
2.018899840668145
 21
3.452983583499003
 31
0.0
  0
LINE
  5
2DB
330
D
100
AcDbEntity
 67
     1
  8
AM_HID
100
AcDbLine
 10
2.698899840668144
 20
3.452983583499004
 30
0.0
 11
2.698899840668144
 21
2.702983583499004
 31
0.0
  0
LINE
  5
2DC
330
D
100
AcDbEntity
 67
     1
  8
AM_HID
100
AcDbLine
 10
2.698899840668147
 20
2.702983583499003
 30
0.0
 11
2.728899840668145
 21
2.702983583499003
 31
0.0
  0
LINE
  5
2DD
330
D
100
AcDbEntity
 67
     1
  8
AM_HID
100
AcDbLine
 10
2.728899840668145
 20
3.452983583499004
 30
0.0
 11
2.728899840668145
 21
2.702983583499004
 31
0.0
  0
LINE
  5
2DE
330
D
100
AcDbEntity
 67
     1
  8
AM_HID
100
AcDbLine
 10
4.258899840668147
 20
3.452983583499004
 30
0.0
 11
4.258899840668147
 21
2.702983583499004
 31
0.0
  0
LINE
  5
2DF
330
D
100
AcDbEntity
 67
     1
  8
AM_HID
100
AcDbLine
 10
2.728899840668145
 20
2.702983583499004
 30
0.0
 11
4.258899840668148
 21
2.702983583499004
 31
0.0
  0
LINE
  5
2E0
330
D
100
AcDbEntity
 67
     1
  8
AM_HID
100
AcDbLine
 10
4.258899840668147
 20
2.702983583499004
 30
0.0
 11
4.288899840668149
 21
2.702983583499004
 31
0.0
  0
LINE
  5
2E1
330
D
100
AcDbEntity
 67
     1
  8
AM_HID
100
AcDbLine
 10
4.288899840668148
 20
3.452983583499004
 30
0.0
 11
4.288899840668148
 21
2.702983583499004
 31
0.0
  0
LINE
  5
2E2
330
D
100
AcDbEntity
 67
     1
  8
AM_HID
100
AcDbLine
 10
4.288899840668149
 20
2.702983583499004
 30
0.0
 11
4.318899840668147
 21
2.702983583499004
 31
0.0
  0
LINE
  5
2E3
330
D
100
AcDbEntity
 67
     1
  8
AM_HID
100
AcDbLine
 10
4.318899840668146
 20
3.452983583499004
 30
0.0
 11
4.318899840668146
 21
2.702983583499004
 31
0.0
  0
LINE
  5
2E4
330
D
100
AcDbEntity
 67
     1
  8
AM_HID
100
AcDbLine
 10
4.318899840668147
 20
2.702983583499004
 30
0.0
 11
4.697899840668146
 21
2.702983583499004
 31
0.0
  0
LINE
  5
2E5
330
D
100
AcDbEntity
 67
     1
  8
AM_HID
100
AcDbLine
 10
4.697899840668146
 20
3.452983583499004
 30
0.0
 11
4.697899840668146
 21
2.702983583499004
 31
0.0
  0
LINE
  5
2E6
330
D
100
AcDbEntity
 67
     1
  8
AM_HID
100
AcDbLine
 10
4.697899840668146
 20
2.702983583499004
 30
0.0
 11
4.727899840668148
 21
2.702983583499004
 31
0.0
  0
LINE
  5
2E7
330
D
100
AcDbEntity
 67
     1
  8
AM_HID
100
AcDbLine
 10
4.727899840668146
 20
3.452983583499004
 30
0.0
 11
4.727899840668146
 21
2.702983583499004
 31
0.0
  0
LINE
  5
2E8
330
D
100
AcDbEntity
 67
     1
  8
AM_HID
100
AcDbLine
 10
2.259899840668146
 20
3.452983583499003
 30
0.0
 11
2.259899840668146
 21
2.702983583499003
 31
0.0
  0
LINE
  5
2E9
330
D
100
AcDbEntity
 67
     1
  8
AM_HID
100
AcDbLine
 10
2.259899840668149
 20
2.702983583499003
 30
0.0
 11
2.289899840668143
 21
2.702983583499003
 31
0.0
  0
LINE
  5
2EA
330
D
100
AcDbEntity
 67
     1
  8
AM_HID
100
AcDbLine
 10
2.289899840668143
 20
3.452983583499004
 30
0.0
 11
2.289899840668143
 21
2.702983583499004
 31
0.0
  0
LINE
  5
2EB
330
D
100
AcDbEntity
 67
     1
  8
AM_HID
100
AcDbLine
 10
2.289899840668143
 20
2.702983583499004
 30
0.0
 11
2.668899840668144
 21
2.702983583499004
 31
0.0
  0
LINE
  5
2EC
330
D
100
AcDbEntity
 67
     1
  8
AM_HID
100
AcDbLine
 10
2.668899840668144
 20
3.452983583499004
 30
0.0
 11
2.668899840668144
 21
2.702983583499004
 31
0.0
  0
LINE
  5
2ED
330
D
100
AcDbEntity
 67
     1
  8
AM_HID
100
AcDbLine
 10
2.668899840668144
 20
2.702983583499004
 30
0.0
 11
2.698899840668144
 21
2.702983583499004
 31
0.0
  0
LINE
  5
2EE
330
D
100
AcDbEntity
 67
     1
  8
AM_VIS
100
AcDbLine
 10
2.181899840668149
 20
3.352983583499002
 30
0.0
 11
2.181899840668149
 21
2.640983583499004
 31
0.0
  0
LINE
  5
2EF
330
D
100
AcDbEntity
 67
     1
  8
AM_VIS
100
AcDbLine
 10
2.776899840668154
 20
3.352983583499002
 30
0.0
 11
2.776899840668154
 21
2.640983583499004
 31
0.0
  0
LINE
  5
2F0
330
D
100
AcDbEntity
 67
     1
  8
AM_VIS
100
AcDbLine
 10
2.776899840668156
 20
2.640983583499004
 30
0.0
 11
2.793899840668299
 21
2.640983583499004
 31
0.0
  0
LINE
  5
2F1
330
D
100
AcDbEntity
 67
     1
  8
AM_VIS
100
AcDbLine
 10
2.918899840668299
 20
3.352983583499002
 30
0.0
 11
2.918899840668299
 21
2.640983583499004
 31
0.0
  0
LINE
  5
2F2
330
D
100
AcDbEntity
 67
     1
  8
AM_VIS
100
AcDbLine
 10
2.918899840668299
 20
2.640983583499004
 30
0.0
 11
3.220899840668153
 21
2.640983583499004
 31
0.0
  0
LINE
  5
2F3
330
D
100
AcDbEntity
 67
     1
  8
AM_VIS
100
AcDbLine
 10
3.220899840668153
 20
3.352983583499002
 30
0.0
 11
3.220899840668153
 21
2.640983583499004
 31
0.0
  0
LINE
  5
2F4
330
D
100
AcDbEntity
 67
     1
  8
AM_VIS
100
AcDbLine
 10
3.235899840668153
 20
2.640983583499004
 30
0.0
 11
3.751899840668154
 21
2.640983583499004
 31
0.0
  0
LINE
  5
2F5
330
D
100
AcDbEntity
 67
     1
  8
AM_VIS
100
AcDbLine
 10
3.766899840668153
 20
3.352983583499004
 30
0.0
 11
3.766899840668153
 21
2.640983583499004
 31
0.0
  0
LINE
  5
2F6
330
D
100
AcDbEntity
 67
     1
  8
AM_VIS
100
AcDbLine
 10
3.766899840668155
 20
2.640983583499004
 30
0.0
 11
4.068899840668149
 21
2.640983583499004
 31
0.0
  0
LINE
  5
2F7
330
D
100
AcDbEntity
 67
     1
  8
AM_VIS
100
AcDbLine
 10
4.068899840668147
 20
3.352983583499004
 30
0.0
 11
4.068899840668147
 21
2.640983583499004
 31
0.0
  0
LINE
  5
2F8
330
D
100
AcDbEntity
 67
     1
  8
AM_VIS
100
AcDbLine
 10
4.193899840668083
 20
2.640983583499004
 30
0.0
 11
4.210899840668143
 21
2.640983583499004
 31
0.0
  0
LINE
  5
2F9
330
D
100
AcDbEntity
 67
     1
  8
AM_VIS
100
AcDbLine
 10
4.210899840668142
 20
3.352983583499004
 30
0.0
 11
4.210899840668142
 21
2.640983583499004
 31
0.0
  0
LINE
  5
2FA
330
D
100
AcDbEntity
 67
     1
  8
AM_VIS
100
AcDbLine
 10
4.805899840668145
 20
3.352983583499004
 30
0.0
 11
4.805899840668145
 21
2.640983583499004
 31
0.0
  0
LINE
  5
2FB
330
D
100
AcDbEntity
 67
     1
  8
AM_VIS
100
AcDbLine
 10
4.335899840668143
 20
2.640983583499004
 30
0.0
 11
4.680899840668145
 21
2.640983583499004
 31
0.0
  0
LINE
  5
2FC
330
D
100
AcDbEntity
 67
     1
  8
AM_VIS
100
AcDbLine
 10
2.306899840668148
 20
2.640983583499004
 30
0.0
 11
2.651899840668154
 21
2.640983583499004
 31
0.0
  0
LINE
  5
2FD
330
D
100
AcDbEntity
 67
     1
  8
AM_VIS
100
AcDbLine
 10
4.680899840668145
 20
3.352983583499004
 30
0.0
 11
4.968899840668143
 21
3.352983583499004
 31
0.0
  0
LINE
  5
2FE
330
D
100
AcDbEntity
 67
     1
  8
AM_VIS
100
AcDbLine
 10
2.018899840668145
 20
3.352983583499004
 30
0.0
 11
2.306899840668148
 21
3.352983583499004
 31
0.0
  0
LINE
  5
2FF
330
D
100
AcDbEntity
 67
     1
  8
AM_VIS
100
AcDbLine
 10
2.651899840668154
 20
3.352983583499004
 30
0.0
 11
4.335899840668143
 21
3.352983583499006
 31
0.0
  0
LINE
  5
300
330
D
100
AcDbEntity
 67
     1
  8
AM_HID
100
AcDbLine
 10
5.039707247652231
 20
3.352983583499004
 30
0.0
 11
5.039707247652231
 21
3.452983583499004
 31
0.0
  0
LINE
  5
301
330
D
100
AcDbEntity
 67
     1
  8
AM_HID
100
AcDbLine
 10
4.910092433684072
 20
3.352983583499004
 30
0.0
 11
4.910092433684072
 21
3.452983583499004
 31
0.0
  0
LINE
  5
302
330
D
100
AcDbEntity
 67
     1
  8
AM_HID
100
AcDbLine
 10
2.077707247652226
 20
3.352983583499002
 30
0.0
 11
2.077707247652226
 21
3.452983583499003
 31
0.0
  0
LINE
  5
303
330
D
100
AcDbEntity
 67
     1
  8
AM_HID
100
AcDbLine
 10
1.94809243368407
 20
3.352983583499002
 30
0.0
 11
1.94809243368407
 21
3.452983583499003
 31
0.0
  0
LINE
  5
304
330
D
100
AcDbEntity
 67
     1
  8
AM_VIS
100
AcDbLine
 10
1.893899840668145
 20
3.352983583499002
 30
0.0
 11
1.893899840668145
 21
3.452983583499003
 31
0.0
  0
LINE
  5
305
330
D
100
AcDbEntity
 67
     1
  8
AM_VIS
100
AcDbLine
 10
5.093899840668143
 20
3.352983583499004
 30
0.0
 11
5.093899840668143
 21
3.452983583499004
 31
0.0
  0
LINE
  5
306
330
D
100
AcDbEntity
 67
     1
  8
AM_HID
100
AcDbLine
 10
4.256399840668147
 20
3.452983583499004
 30
0.0
 11
4.256399840668147
 21
3.297983583499003
 31
0.0
  0
LINE
  5
307
330
D
100
AcDbEntity
 67
     1
  8
AM_HID
100
AcDbLine
 10
4.131399840668147
 20
3.452983583499004
 30
0.0
 11
4.131399840668147
 21
3.297983583499003
 31
0.0
  0
LINE
  5
308
330
D
100
AcDbEntity
 67
     1
  8
AM_HID
100
AcDbLine
 10
2.856399840668151
 20
3.452983583499004
 30
0.0
 11
2.856399840668151
 21
3.297983583499003
 31
0.0
  0
LINE
  5
309
330
D
100
AcDbEntity
 67
     1
  8
AM_HID
100
AcDbLine
 10
2.73139984066815
 20
3.452983583499004
 30
0.0
 11
2.73139984066815
 21
3.297983583499003
 31
0.0
  0
LINE
  5
30A
330
D
100
AcDbEntity
 67
     1
  8
AM_HID
100
AcDbLine
 10
4.889899840668152
 20
3.352983583499004
 30
0.0
 11
4.889899840668152
 21
3.452983583499006
 31
0.0
  0
LINE
  5
30B
330
D
100
AcDbEntity
 67
     1
  8
AM_HID
100
AcDbLine
 10
5.059899840668152
 20
3.352983583499004
 30
0.0
 11
5.059899840668152
 21
3.452983583499006
 31
0.0
  0
LINE
  5
30C
330
D
100
AcDbEntity
 67
     1
  8
AM_HID
100
AcDbLine
 10
2.097899840668149
 20
3.352983583499002
 30
0.0
 11
2.097899840668149
 21
3.452983583499003
 31
0.0
  0
LINE
  5
30D
330
D
100
AcDbEntity
 67
     1
  8
AM_HID
100
AcDbLine
 10
1.927899840668148
 20
3.352983583499002
 30
0.0
 11
1.927899840668148
 21
3.452983583499003
 31
0.0
  0
ARC
  5
30E
330
D
100
AcDbEntity
 67
     1
  8
AM_HID
100
AcDbCircle
 10
3.49389984066815
 20
3.202983583499004
 30
0.0
 40
0.195
100
AcDbArc
 50
180.0
 51
0.0
  0
LINE
  5
30F
330
D
100
AcDbEntity
 67
     1
  8
AM_VIS
100
AcDbLine
 10
4.968899840668143
 20
3.452983583499004
 30
0.0
 11
5.093899840668143
 21
3.452983583499004
 31
0.0
  0
LINE
  5
310
330
D
100
AcDbEntity
 67
     1
  8
AM_VIS
100
AcDbLine
 10
1.893899840668145
 20
3.452983583499003
 30
0.0
 11
2.018899840668145
 21
3.452983583499003
 31
0.0
  0
LINE
  5
311
330
D
100
AcDbEntity
 67
     1
  8
AM_HID
100
AcDbLine
 10
4.256399840668147
 20
3.297983583499003
 30
0.0
 11
4.131399840668147
 21
3.297983583499003
 31
0.0
  0
LINE
  5
312
330
D
100
AcDbEntity
 67
     1
  8
AM_HID
100
AcDbLine
 10
2.856399840668149
 20
3.297983583499003
 30
0.0
 11
2.731399840668149
 21
3.297983583499003
 31
0.0
  0
LINE
  5
313
330
D
100
AcDbEntity
 67
     1
  8
AM_VIS
100
AcDbLine
 10
2.306899840668148
 20
2.640983583499004
 30
0.0
 11
2.181899840668149
 21
2.640983583499004
 31
0.0
  0
LINE
  5
314
330
D
100
AcDbEntity
 67
     1
  8
AM_VIS
100
AcDbLine
 10
2.776899840668156
 20
2.640983583499004
 30
0.0
 11
2.651899840668156
 21
2.640983583499004
 31
0.0
  0
LINE
  5
315
330
D
100
AcDbEntity
 67
     1
  8
AM_VIS
100
AcDbLine
 10
2.918899840668299
 20
2.640983583499004
 30
0.0
 11
2.793899840668299
 21
2.640983583499004
 31
0.0
  0
LINE
  5
316
330
D
100
AcDbEntity
 67
     1
  8
AM_VIS
100
AcDbLine
 10
3.235899840668153
 20
2.640983583499004
 30
0.0
 11
3.220899840668153
 21
2.640983583499004
 31
0.0
  0
LINE
  5
317
330
D
100
AcDbEntity
 67
     1
  8
AM_VIS
100
AcDbLine
 10
3.766899840668155
 20
2.640983583499004
 30
0.0
 11
3.751899840668156
 21
2.640983583499004
 31
0.0
  0
LINE
  5
318
330
D
100
AcDbEntity
 67
     1
  8
AM_VIS
100
AcDbLine
 10
4.193899840668149
 20
2.640983583499004
 30
0.0
 11
4.068899840668149
 21
2.640983583499004
 31
0.0
  0
LINE
  5
319
330
D
100
AcDbEntity
 67
     1
  8
AM_VIS
100
AcDbLine
 10
4.335899840668144
 20
2.640983583499004
 30
0.0
 11
4.210899840668144
 21
2.640983583499004
 31
0.0
  0
LINE
  5
31A
330
D
100
AcDbEntity
 67
     1
  8
AM_VIS
100
AcDbLine
 10
4.805899840668145
 20
2.640983583499004
 30
0.0
 11
4.680899840668145
 21
2.640983583499004
 31
0.0
  0
LINE
  5
31B
330
D
100
AcDbEntity
 67
     1
  8
AM_VIS
100
AcDbLine
 10
5.093899840668143
 20
3.352983583499004
 30
0.0
 11
4.968899840668143
 21
3.352983583499004
 31
0.0
  0
LINE
  5
31C
330
D
100
AcDbEntity
 67
     1
  8
AM_VIS
100
AcDbLine
 10
2.018899840668145
 20
3.352983583499002
 30
0.0
 11
1.893899840668145
 21
3.352983583499002
 31
0.0
  0
LINE
  5
31D
330
D
100
AcDbEntity
 67
     1
  8
AM_HID
100
AcDbLine
 10
3.540103212399395
 20
3.384701767621191
 30
0.0
 11
4.245720760123143
 21
3.214916036486431
 31
0.0
  0
LINE
  5
31E
330
D
100
AcDbEntity
 67
     1
  8
AM_HID
100
AcDbLine
 10
4.571145404992221
 20
3.044744471429606
 30
0.0
 11
4.571176065789281
 21
3.04470772190826
 31
0.0
  0
LINE
  5
31F
330
D
100
AcDbEntity
 67
     1
  8
AM_HID
100
AcDbLine
 10
2.580499946115008
 20
3.068925441195033
 30
0.0
 11
2.580683966366974
 21
3.069244192679213
 31
0.0
  0
LINE
  5
320
330
D
100
AcDbEntity
 67
     1
  8
AM_HID
100
AcDbLine
 10
2.751428637732121
 20
3.084182415781123
 30
0.0
 11
3.416181746185991
 21
3.373618128038089
 31
0.0
  0
LINE
  5
321
330
D
100
AcDbEntity
 67
     1
  8
AM_HID
100
AcDbLine
 10
4.245720760123143
 20
3.214916036486431
 30
0.0
 11
4.416688634489866
 21
3.229873787320644
 31
0.0
  0
LINE
  5
322
330
D
100
AcDbEntity
 67
     1
  8
AM_HID
100
AcDbLine
 10
4.416688634489866
 20
3.229873787320644
 30
0.0
 11
4.416809889886981
 21
3.229728452618623
 31
0.0
  0
LINE
  5
323
330
D
100
AcDbEntity
 67
     1
  8
AM_HID
100
AcDbLine
 10
2.580683966366976
 20
3.069244192679213
 30
0.0
 11
2.751428637732121
 21
3.084182415781124
 31
0.0
  0
ARC
  5
324
330
D
100
AcDbEntity
 67
     1
  8
AM_HID
100
AcDbCircle
 10
3.234613867069388
 20
6.177703771498014
 30
0.0
 40
3.40618008299502
100
AcDbArc
 50
257.118564445586
 51
293.1034989026423
  0
CIRCLE
  5
325
330
D
100
AcDbEntity
 67
     1
  8
AM_HID
100
AcDbCircle
 10
2.491462711142651
 20
2.981190779923232
 30
0.0
 40
0.125
  0
CIRCLE
  5
326
330
D
100
AcDbEntity
 67
     1
  8
AM_HID
100
AcDbCircle
 10
4.519621613892556
 20
3.158631691743028
 30
0.0
 40
0.125
  0
CIRCLE
  5
327
330
D
100
AcDbEntity
 67
     1
  8
AM_HID
100
AcDbCircle
 10
3.493899840668156
 20
3.202983583499004
 30
0.0
 40
0.1875
  0
LINE
  5
328
330
D
100
AcDbEntity
 67
     1
  8
AM_HID
100
AcDbLine
 10
9.407546439012774
 20
7.330071546370365
 30
0.0
 11
9.44816540608182
 21
7.330071546370365
 31
0.0
  0
LINE
  5
329
330
D
100
AcDbEntity
 67
     1
  8
AM_HID
100
AcDbLine
 10
9.407546439012774
 20
7.355071546370365
 30
0.0
 11
9.407546439012774
 21
7.330071546370365
 31
0.0
  0
LINE
  5
32A
330
D
100
AcDbEntity
 67
     1
  8
AM_HID
100
AcDbLine
 10
9.44816540608182
 20
7.355071546370365
 30
0.0
 11
9.407546439012774
 21
7.355071546370365
 31
0.0
  0
LINE
  5
32B
330
D
100
AcDbEntity
 67
     1
  8
AM_HID
100
AcDbLine
 10
9.407546439012774
 20
7.355071546370365
 30
0.0
 11
9.407546439012774
 21
7.405071546370365
 31
0.0
  0
LINE
  5
32C
330
D
100
AcDbEntity
 67
     1
  8
AM_HID
100
AcDbLine
 10
9.44816540608182
 20
7.405071546370365
 30
0.0
 11
9.407546439012774
 21
7.405071546370365
 31
0.0
  0
LINE
  5
32D
330
D
100
AcDbEntity
 67
     1
  8
AM_HID
100
AcDbLine
 10
9.407546439012774
 20
7.430071546370365
 30
0.0
 11
9.407546439012774
 21
7.405071546370365
 31
0.0
  0
LINE
  5
32E
330
D
100
AcDbEntity
 67
     1
  8
AM_HID
100
AcDbLine
 10
9.44816540608182
 20
7.430071546370365
 30
0.0
 11
9.407546439012774
 21
7.430071546370365
 31
0.0
  0
LINE
  5
32F
330
D
100
AcDbEntity
 67
     1
  8
AM_VIS
100
AcDbLine
 10
9.377546439012775
 20
7.490071546370365
 30
0.0
 11
9.417546439012772
 21
7.490071546370365
 31
0.0
  0
LINE
  5
330
330
D
100
AcDbEntity
 67
     1
  8
AM_VIS
100
AcDbLine
 10
9.377546439012775
 20
7.270071546370365
 30
0.0
 11
9.417546439012772
 21
7.270071546370365
 31
0.0
  0
LINE
  5
331
330
D
100
AcDbEntity
 67
     1
  8
AM_VIS
100
AcDbLine
 10
8.397546439012776
 20
7.380071546370365
 30
0.0
 11
8.537864976073164
 21
7.440071546370365
 31
0.0
  0
LINE
  5
332
330
D
100
AcDbEntity
 67
     1
  8
AM_VIS
100
AcDbLine
 10
8.397546439012776
 20
7.380071546370365
 30
0.0
 11
8.537864976073166
 21
7.320071546370365
 31
0.0
  0
LINE
  5
333
330
D
100
AcDbEntity
 67
     1
  8
AM_VIS
100
AcDbLine
 10
8.537864976073166
 20
7.440071546370365
 30
0.0
 11
9.217546439012775
 21
7.440071546370365
 31
0.0
  0
LINE
  5
334
330
D
100
AcDbEntity
 67
     1
  8
AM_HID
100
AcDbLine
 10
9.217546439012775
 20
7.440071546370365
 30
0.0
 11
9.377546439012775
 21
7.440071546370365
 31
0.0
  0
LINE
  5
335
330
D
100
AcDbEntity
 67
     1
  8
AM_VIS
100
AcDbLine
 10
8.537864976073166
 20
7.320071546370365
 30
0.0
 11
9.217546439012775
 21
7.320071546370365
 31
0.0
  0
LINE
  5
336
330
D
100
AcDbEntity
 67
     1
  8
AM_HID
100
AcDbLine
 10
9.217546439012775
 20
7.320071546370365
 30
0.0
 11
9.377546439012775
 21
7.320071546370365
 31
0.0
  0
LINE
  5
337
330
D
100
AcDbEntity
 67
     1
  8
AM_VIS
100
AcDbLine
 10
9.44816540608182
 20
7.330071546370365
 30
0.0
 11
9.450084602504524
 21
7.330071546370365
 31
0.0
  0
ARC
  5
338
330
D
100
AcDbEntity
 67
     1
  8
AM_VIS
100
AcDbCircle
 10
9.286296439012772
 20
7.380071546370365
 30
0.0
 40
0.1694153549711502
100
AcDbArc
 50
342.8345091284093
 51
351.5140826901709
  0
LINE
  5
339
330
D
100
AcDbEntity
 67
     1
  8
AM_VIS
100
AcDbLine
 10
9.44816540608182
 20
7.355071546370365
 30
0.0
 11
9.453857062370412
 21
7.355071546370365
 31
0.0
  0
ARC
  5
33A
330
D
100
AcDbEntity
 67
     1
  8
AM_VIS
100
AcDbCircle
 10
9.286296439012772
 20
7.380071546370365
 30
0.0
 40
0.1637881634917517
100
AcDbArc
 50
351.2202717744175
 51
8.77972822558245
  0
LINE
  5
33B
330
D
100
AcDbEntity
 67
     1
  8
AM_VIS
100
AcDbLine
 10
9.453857062370412
 20
7.405071546370365
 30
0.0
 11
9.44816540608182
 21
7.405071546370365
 31
0.0
  0
ARC
  5
33C
330
D
100
AcDbEntity
 67
     1
  8
AM_VIS
100
AcDbCircle
 10
9.286296439012772
 20
7.380071546370365
 30
0.0
 40
0.1694153549711502
100
AcDbArc
 50
8.485917309829071
 51
17.1654908715906
  0
LINE
  5
33D
330
D
100
AcDbEntity
 67
     1
  8
AM_VIS
100
AcDbLine
 10
9.450084602504524
 20
7.430071546370365
 30
0.0
 11
9.44816540608182
 21
7.430071546370365
 31
0.0
  0
LINE
  5
33E
330
D
100
AcDbEntity
 67
     1
  8
AM_VIS
100
AcDbLine
 10
9.417546439012772
 20
7.270071546370365
 30
0.0
 11
9.417546439012772
 21
7.380071546370365
 31
0.0
  0
LINE
  5
33F
330
D
100
AcDbEntity
 67
     1
  8
AM_VIS
100
AcDbLine
 10
9.417546439012772
 20
7.380071546370365
 30
0.0
 11
9.417546439012772
 21
7.490071546370365
 31
0.0
  0
LINE
  5
340
330
D
100
AcDbEntity
 67
     1
  8
AM_VIS
100
AcDbLine
 10
8.537864976073166
 20
7.320071546370365
 30
0.0
 11
8.537864976073166
 21
7.380071546370365
 31
0.0
  0
LINE
  5
341
330
D
100
AcDbEntity
 67
     1
  8
AM_VIS
100
AcDbLine
 10
8.537864976073166
 20
7.380071546370365
 30
0.0
 11
8.537864976073166
 21
7.440071546370365
 31
0.0
  0
ARC
  5
342
330
D
100
AcDbEntity
 67
     1
  8
AM_VIS
100
AcDbCircle
 10
9.286296439012772
 20
7.380071546370365
 30
0.0
 40
0.1712500000000025
100
AcDbArc
 50
320.0337869562004
 51
343.0240179817353
  0
ARC
  5
343
330
D
100
AcDbEntity
 67
     1
  8
AM_VIS
100
AcDbCircle
 10
9.286296439012772
 20
7.380071546370365
 30
0.0
 40
0.1712500000000025
100
AcDbArc
 50
16.97598201826458
 51
39.96621304379949
  0
LINE
  5
344
330
D
100
AcDbEntity
 67
     1
  8
AM_HID
100
AcDbLine
 10
9.616095393586178
 20
7.245071546370277
 30
0.0
 11
9.616095393586178
 21
7.515071546370279
 31
0.0
  0
LINE
  5
345
330
D
100
AcDbEntity
 67
     1
  8
AM_HID
100
AcDbLine
 10
9.479095393586176
 20
7.515071546370279
 30
0.0
 11
9.479095393586176
 21
7.245071546370278
 31
0.0
  0
LINE
  5
346
330
D
100
AcDbEntity
 67
     1
  8
AM_HID
100
AcDbLine
 10
9.616095393586174
 20
7.755071546370332
 30
0.0
 11
9.479095393586176
 21
7.755071546370332
 31
0.0
  0
LINE
  5
347
330
D
100
AcDbEntity
 67
     1
  8
AM_HID
100
AcDbLine
 10
9.479095393586176
 20
7.692071546370332
 30
0.0
 11
9.479095393586176
 21
7.515071546370279
 31
0.0
  0
LINE
  5
348
330
D
100
AcDbEntity
 67
     1
  8
AM_HID
100
AcDbLine
 10
9.616095393586178
 20
7.515071546370279
 30
0.0
 11
9.479095393586176
 21
7.515071546370279
 31
0.0
  0
LINE
  5
349
330
D
100
AcDbEntity
 67
     1
  8
AM_HID
100
AcDbLine
 10
9.616095393586178
 20
7.515071546370279
 30
0.0
 11
9.616095393586178
 21
7.692071546370332
 31
0.0
  0
LINE
  5
34A
330
D
100
AcDbEntity
 67
     1
  8
AM_HID
100
AcDbLine
 10
9.616095393586178
 20
7.245071546370277
 30
0.0
 11
9.479095393586176
 21
7.245071546370277
 31
0.0
  0
LINE
  5
34B
330
D
100
AcDbEntity
 67
     1
  8
AM_HID
100
AcDbLine
 10
9.479095393586176
 20
7.245071546370277
 30
0.0
 11
9.479095393586176
 21
7.068071546370331
 31
0.0
  0
LINE
  5
34C
330
D
100
AcDbEntity
 67
     1
  8
AM_HID
100
AcDbLine
 10
9.616095393586178
 20
7.068071546370331
 30
0.0
 11
9.616095393586178
 21
7.245071546370277
 31
0.0
  0
LINE
  5
34D
330
D
100
AcDbEntity
 67
     1
  8
AM_HID
100
AcDbLine
 10
9.616095393586178
 20
7.005071546370332
 30
0.0
 11
9.479095393586176
 21
7.005071546370332
 31
0.0
  0
LINE
  5
34E
330
D
100
AcDbEntity
 67
     1
  8
AM_HID
100
AcDbLine
 10
9.616095393586174
 20
7.500071546370332
 30
0.0
 11
9.546095393586176
 21
7.500071546370332
 31
0.0
  0
LINE
  5
34F
330
D
100
AcDbEntity
 67
     1
  8
AM_HID
100
AcDbLine
 10
9.616095393586174
 20
7.730071546370332
 30
0.0
 11
9.546095393586174
 21
7.730071546370332
 31
0.0
  0
LINE
  5
350
330
D
100
AcDbEntity
 67
     1
  8
AM_HID
100
AcDbLine
 10
9.616095393586178
 20
7.030071546370224
 30
0.0
 11
9.546095393586178
 21
7.030071546370224
 31
0.0
  0
LINE
  5
351
330
D
100
AcDbEntity
 67
     1
  8
AM_HID
100
AcDbLine
 10
9.616095393586178
 20
7.260071546370223
 30
0.0
 11
9.546095393586178
 21
7.260071546370223
 31
0.0
  0
LINE
  5
352
330
D
100
AcDbEntity
 67
     1
  8
AM_HID
100
AcDbLine
 10
9.479095393586176
 20
7.537071546370335
 30
0.0
 11
9.309938241642747
 21
7.537071546370335
 31
0.0
  0
LINE
  5
353
330
D
100
AcDbEntity
 67
     1
  8
AM_HID
100
AcDbLine
 10
9.479095393586174
 20
7.693071546370338
 30
0.0
 11
9.309938241642743
 21
7.693071546370338
 31
0.0
  0
LINE
  5
354
330
D
100
AcDbEntity
 67
     1
  8
AM_HID
100
AcDbLine
 10
9.479095393586176
 20
7.067071546370335
 30
0.0
 11
9.309938241642747
 21
7.067071546370335
 31
0.0
  0
LINE
  5
355
330
D
100
AcDbEntity
 67
     1
  8
AM_HID
100
AcDbLine
 10
9.479095393586176
 20
7.223071546370335
 30
0.0
 11
9.309938241642747
 21
7.223071546370335
 31
0.0
  0
LINE
  5
356
330
D
100
AcDbEntity
 67
     1
  8
AM_HID
100
AcDbLine
 10
9.746938241642748
 20
7.215071546370332
 30
0.0
 11
9.916095393586175
 21
7.215071546370332
 31
0.0
  0
LINE
  5
357
330
D
100
AcDbEntity
 67
     1
  8
AM_HID
100
AcDbLine
 10
9.746938241642745
 20
7.075071546370332
 30
0.0
 11
9.916095393586175
 21
7.075071546370332
 31
0.0
  0
LINE
  5
358
330
D
100
AcDbEntity
 67
     1
  8
AM_HID
100
AcDbLine
 10
9.746938241642745
 20
7.685071546370331
 30
0.0
 11
9.916095393586175
 21
7.685071546370331
 31
0.0
  0
LINE
  5
359
330
D
100
AcDbEntity
 67
     1
  8
AM_HID
100
AcDbLine
 10
9.746938241642745
 20
7.545071546370332
 30
0.0
 11
9.916095393586175
 21
7.545071546370332
 31
0.0
  0
LINE
  5
35A
330
D
100
AcDbEntity
 67
     1
  8
AM_HID
100
AcDbLine
 10
9.546095393586178
 20
7.500071546370332
 30
0.0
 11
9.546095393586178
 21
7.730071546370332
 31
0.0
  0
LINE
  5
35B
330
D
100
AcDbEntity
 67
     1
  8
AM_HID
100
AcDbLine
 10
9.546095393586178
 20
7.030071546370224
 30
0.0
 11
9.546095393586178
 21
7.260071546370222
 31
0.0
  0
LINE
  5
35C
330
D
100
AcDbEntity
 67
     1
  8
AM_HID
100
AcDbLine
 10
9.059095393586176
 20
7.537071546370335
 30
0.0
 11
9.059095393586176
 21
7.693071546370338
 31
0.0
  0
LINE
  5
35D
330
D
100
AcDbEntity
 67
     1
  8
AM_HID
100
AcDbLine
 10
9.059095393586176
 20
7.067071546370338
 30
0.0
 11
9.059095393586176
 21
7.223071546370338
 31
0.0
  0
LINE
  5
35E
330
D
100
AcDbEntity
 67
     1
  8
AM_HID
100
AcDbLine
 10
9.479095393586176
 20
7.692071546370332
 30
0.0
 11
9.479095393586176
 21
7.755071546370332
 31
0.0
  0
LINE
  5
35F
330
D
100
AcDbEntity
 67
     1
  8
AM_HID
100
AcDbLine
 10
9.616095393586174
 20
7.755071546370332
 30
0.0
 11
9.616095393586174
 21
7.692071546370332
 31
0.0
  0
LINE
  5
360
330
D
100
AcDbEntity
 67
     1
  8
AM_HID
100
AcDbLine
 10
9.479095393586176
 20
7.005071546370332
 30
0.0
 11
9.479095393586176
 21
7.068071546370331
 31
0.0
  0
LINE
  5
361
330
D
100
AcDbEntity
 67
     1
  8
AM_HID
100
AcDbLine
 10
9.616095393586178
 20
7.068071546370331
 30
0.0
 11
9.616095393586178
 21
7.005071546370332
 31
0.0
  0
LINE
  5
362
330
D
100
AcDbEntity
 67
     1
  8
AM_HID
100
AcDbLine
 10
9.916095393586175
 20
7.215071546370332
 30
0.0
 11
9.916095393586175
 21
7.075071546370332
 31
0.0
  0
LINE
  5
363
330
D
100
AcDbEntity
 67
     1
  8
AM_HID
100
AcDbLine
 10
9.916095393586175
 20
7.685071546370331
 30
0.0
 11
9.916095393586175
 21
7.545071546370332
 31
0.0
  0
LINE
  5
364
330
D
100
AcDbEntity
 67
     1
  8
AM_HID
100
AcDbLine
 10
9.446938241642747
 20
7.515071546370386
 30
0.0
 11
9.30993824164275
 21
7.515071546370386
 31
0.0
  0
LINE
  5
365
330
D
100
AcDbEntity
 67
     1
  8
AM_HID
100
AcDbLine
 10
9.309938241642747
 20
7.245071546370382
 30
0.0
 11
9.446938241642747
 21
7.245071546370382
 31
0.0
  0
LINE
  5
366
330
D
100
AcDbEntity
 67
     1
  8
AM_HID
100
AcDbLine
 10
9.309938241642747
 20
7.755071546370329
 30
0.0
 11
9.446938241642747
 21
7.755071546370329
 31
0.0
  0
LINE
  5
367
330
D
100
AcDbEntity
 67
     1
  8
AM_HID
100
AcDbLine
 10
9.309938241642747
 20
7.692071546370329
 30
0.0
 11
9.309938241642747
 21
7.06807154637033
 31
0.0
  0
LINE
  5
368
330
D
100
AcDbEntity
 67
     1
  8
AM_HID
100
AcDbLine
 10
9.446938241642747
 20
7.06807154637033
 30
0.0
 11
9.446938241642747
 21
7.692071546370329
 31
0.0
  0
LINE
  5
369
330
D
100
AcDbEntity
 67
     1
  8
AM_HID
100
AcDbLine
 10
9.446938241642747
 20
7.005071546370331
 30
0.0
 11
9.309938241642747
 21
7.005071546370331
 31
0.0
  0
LINE
  5
36A
330
D
100
AcDbEntity
 67
     1
  8
AM_HID
100
AcDbLine
 10
9.446938241642747
 20
7.030071546370328
 30
0.0
 11
9.376938241642747
 21
7.030071546370328
 31
0.0
  0
LINE
  5
36B
330
D
100
AcDbEntity
 67
     1
  8
AM_HID
100
AcDbLine
 10
9.446938241642747
 20
7.260071546370328
 30
0.0
 11
9.376938241642747
 21
7.260071546370328
 31
0.0
  0
LINE
  5
36C
330
D
100
AcDbEntity
 67
     1
  8
AM_HID
100
AcDbLine
 10
9.446938241642747
 20
7.500071546370437
 30
0.0
 11
9.376938241642747
 21
7.500071546370437
 31
0.0
  0
LINE
  5
36D
330
D
100
AcDbEntity
 67
     1
  8
AM_HID
100
AcDbLine
 10
9.446938241642747
 20
7.730071546370438
 30
0.0
 11
9.376938241642747
 21
7.730071546370438
 31
0.0
  0
LINE
  5
36E
330
D
100
AcDbEntity
 67
     1
  8
AM_HID
100
AcDbLine
 10
9.309938241642747
 20
7.067071546370326
 30
0.0
 11
9.217546439012778
 21
7.067071546370326
 31
0.0
  0
LINE
  5
36F
330
D
100
AcDbEntity
 67
     1
  8
AM_VIS
100
AcDbLine
 10
9.217546439012778
 20
7.067071546370326
 30
0.0
 11
8.889938241642747
 21
7.067071546370326
 31
0.0
  0
LINE
  5
370
330
D
100
AcDbEntity
 67
     1
  8
AM_HID
100
AcDbLine
 10
9.309938241642747
 20
7.223071546370325
 30
0.0
 11
9.217546439012775
 21
7.223071546370325
 31
0.0
  0
LINE
  5
371
330
D
100
AcDbEntity
 67
     1
  8
AM_VIS
100
AcDbLine
 10
9.217546439012775
 20
7.223071546370325
 30
0.0
 11
8.889938241642747
 21
7.223071546370325
 31
0.0
  0
LINE
  5
372
330
D
100
AcDbEntity
 67
     1
  8
AM_HID
100
AcDbLine
 10
9.309938241642747
 20
7.537071546370325
 30
0.0
 11
9.217546439012775
 21
7.537071546370325
 31
0.0
  0
LINE
  5
373
330
D
100
AcDbEntity
 67
     1
  8
AM_VIS
100
AcDbLine
 10
9.217546439012775
 20
7.537071546370325
 30
0.0
 11
8.889938241642747
 21
7.537071546370325
 31
0.0
  0
LINE
  5
374
330
D
100
AcDbEntity
 67
     1
  8
AM_HID
100
AcDbLine
 10
9.309938241642747
 20
7.693071546370326
 30
0.0
 11
9.217546439012775
 21
7.693071546370326
 31
0.0
  0
LINE
  5
375
330
D
100
AcDbEntity
 67
     1
  8
AM_VIS
100
AcDbLine
 10
9.217546439012775
 20
7.693071546370326
 30
0.0
 11
8.889938241642747
 21
7.693071546370326
 31
0.0
  0
LINE
  5
376
330
D
100
AcDbEntity
 67
     1
  8
AM_HID
100
AcDbLine
 10
9.376938241642747
 20
7.68507154637033
 30
0.0
 11
9.746938241642745
 21
7.68507154637033
 31
0.0
  0
LINE
  5
377
330
D
100
AcDbEntity
 67
     1
  8
AM_HID
100
AcDbLine
 10
9.376938241642747
 20
7.545071546370329
 30
0.0
 11
9.746938241642745
 21
7.545071546370329
 31
0.0
  0
LINE
  5
378
330
D
100
AcDbEntity
 67
     1
  8
AM_HID
100
AcDbLine
 10
9.376938241642747
 20
7.215071546370329
 30
0.0
 11
9.746938241642748
 21
7.215071546370329
 31
0.0
  0
LINE
  5
379
330
D
100
AcDbEntity
 67
     1
  8
AM_HID
100
AcDbLine
 10
9.376938241642747
 20
7.075071546370328
 30
0.0
 11
9.746938241642745
 21
7.075071546370328
 31
0.0
  0
LINE
  5
37A
330
D
100
AcDbEntity
 67
     1
  8
AM_HID
100
AcDbLine
 10
9.376938241642747
 20
7.030071546370328
 30
0.0
 11
9.376938241642747
 21
7.26007154637033
 31
0.0
  0
LINE
  5
37B
330
D
100
AcDbEntity
 67
     1
  8
AM_HID
100
AcDbLine
 10
9.376938241642747
 20
7.500071546370437
 30
0.0
 11
9.376938241642747
 21
7.730071546370438
 31
0.0
  0
LINE
  5
37C
330
D
100
AcDbEntity
 67
     1
  8
AM_VIS
100
AcDbLine
 10
8.889938241642747
 20
7.067071546370326
 30
0.0
 11
8.889938241642747
 21
7.223071546370325
 31
0.0
  0
LINE
  5
37D
330
D
100
AcDbEntity
 67
     1
  8
AM_VIS
100
AcDbLine
 10
8.889938241642747
 20
7.537071546370325
 30
0.0
 11
8.889938241642747
 21
7.693071546370326
 31
0.0
  0
LINE
  5
37E
330
D
100
AcDbEntity
 67
     1
  8
AM_HID
100
AcDbLine
 10
9.309938241642747
 20
7.692071546370329
 30
0.0
 11
9.309938241642747
 21
7.755071546370329
 31
0.0
  0
LINE
  5
37F
330
D
100
AcDbEntity
 67
     1
  8
AM_HID
100
AcDbLine
 10
9.446938241642747
 20
7.755071546370329
 30
0.0
 11
9.446938241642747
 21
7.692071546370329
 31
0.0
  0
LINE
  5
380
330
D
100
AcDbEntity
 67
     1
  8
AM_HID
100
AcDbLine
 10
9.309938241642747
 20
7.005071546370329
 30
0.0
 11
9.309938241642747
 21
7.06807154637033
 31
0.0
  0
LINE
  5
381
330
D
100
AcDbEntity
 67
     1
  8
AM_HID
100
AcDbLine
 10
9.446938241642747
 20
7.06807154637033
 30
0.0
 11
9.446938241642747
 21
7.005071546370331
 31
0.0
  0
LINE
  5
382
330
D
100
AcDbEntity
 67
     1
  8
AM_HID
100
AcDbLine
 10
9.746938241642745
 20
7.68507154637033
 30
0.0
 11
9.746938241642745
 21
7.545071546370329
 31
0.0
  0
LINE
  5
383
330
D
100
AcDbEntity
 67
     1
  8
AM_HID
100
AcDbLine
 10
9.746938241642748
 20
7.215071546370329
 30
0.0
 11
9.746938241642748
 21
7.075071546370328
 31
0.0
  0
LINE
  5
384
330
D
100
AcDbEntity
 67
     1
  8
AM_HID
100
AcDbLine
 10
9.324546439012776
 20
7.114571546370382
 30
0.0
 11
9.324546439012776
 21
7.645571546370382
 31
0.0
  0
LINE
  5
385
330
D
100
AcDbEntity
 67
     1
  8
AM_VIS
100
AcDbLine
 10
9.217546439012775
 20
6.9300715463704
 30
0.0
 11
9.277546439012775
 21
6.9300715463704
 31
0.0
  0
LINE
  5
386
330
D
100
AcDbEntity
 67
     1
  8
AM_VIS
100
AcDbLine
 10
9.277546439012775
 20
7.055071546370406
 30
0.0
 11
9.277546439012775
 21
7.705071546370398
 31
0.0
  0
LINE
  5
387
330
D
100
AcDbEntity
 67
     1
  8
AM_VIS
100
AcDbLine
 10
9.217546439012775
 20
7.055071546370406
 30
0.0
 11
9.217546439012775
 21
7.705071546370398
 31
0.0
  0
LINE
  5
388
330
D
100
AcDbEntity
 67
     1
  8
AM_VIS
100
AcDbLine
 10
9.217546439012775
 20
7.830071546370398
 30
0.0
 11
9.277546439012775
 21
7.830071546370398
 31
0.0
  0
LINE
  5
389
330
D
100
AcDbEntity
 67
     1
  8
AM_HID
100
AcDbLine
 10
9.217546439012775
 20
7.325071546370367
 30
0.0
 11
9.277546439012775
 21
7.325071546370367
 31
0.0
  0
LINE
  5
38A
330
D
100
AcDbEntity
 67
     1
  8
AM_HID
100
AcDbLine
 10
9.217546439012775
 20
7.435071546370366
 30
0.0
 11
9.277546439012775
 21
7.435071546370366
 31
0.0
  0
LINE
  5
38B
330
D
100
AcDbEntity
 67
     1
  8
AM_HID
100
AcDbLine
 10
9.217546439012775
 20
7.698071546370401
 30
0.0
 11
9.277546439012773
 21
7.698071546370401
 31
0.0
  0
LINE
  5
38C
330
D
100
AcDbEntity
 67
     1
  8
AM_HID
100
AcDbLine
 10
9.217546439012775
 20
7.532071546370399
 30
0.0
 11
9.277546439012775
 21
7.532071546370399
 31
0.0
  0
LINE
  5
38D
330
D
100
AcDbEntity
 67
     1
  8
AM_HID
100
AcDbLine
 10
9.217546439012775
 20
7.228071546370402
 30
0.0
 11
9.277546439012775
 21
7.228071546370402
 31
0.0
  0
LINE
  5
38E
330
D
100
AcDbEntity
 67
     1
  8
AM_HID
100
AcDbLine
 10
9.217546439012775
 20
7.062071546370401
 30
0.0
 11
9.277546439012775
 21
7.062071546370401
 31
0.0
  0
LINE
  5
38F
330
D
100
AcDbEntity
 67
     1
  8
AM_HID
100
AcDbLine
 10
9.357546439012775
 20
7.635071546370398
 30
0.0
 11
9.437546439012773
 21
7.635071546370398
 31
0.0
  0
LINE
  5
390
330
D
100
AcDbEntity
 67
     1
  8
AM_HID
100
AcDbLine
 10
9.357546439012775
 20
7.5250715463704
 30
0.0
 11
9.437546439012775
 21
7.5250715463704
 31
0.0
  0
LINE
  5
391
330
D
100
AcDbEntity
 67
     1
  8
AM_HID
100
AcDbLine
 10
9.357546439012775
 20
7.235071546370399
 30
0.0
 11
9.437546439012775
 21
7.235071546370399
 31
0.0
  0
LINE
  5
392
330
D
100
AcDbEntity
 67
     1
  8
AM_HID
100
AcDbLine
 10
9.357546439012775
 20
7.125071546370398
 30
0.0
 11
9.437546439012775
 21
7.125071546370398
 31
0.0
  0
LINE
  5
393
330
D
100
AcDbEntity
 67
     1
  8
AM_HID
100
AcDbLine
 10
9.277546439012773
 20
7.6580715463704
 30
0.0
 11
9.357546439012775
 21
7.6580715463704
 31
0.0
  0
LINE
  5
394
330
D
100
AcDbEntity
 67
     1
  8
AM_HID
100
AcDbLine
 10
9.277546439012775
 20
7.502071546370398
 30
0.0
 11
9.357546439012775
 21
7.502071546370398
 31
0.0
  0
LINE
  5
395
330
D
100
AcDbEntity
 67
     1
  8
AM_HID
100
AcDbLine
 10
9.277546439012775
 20
7.258071546370398
 30
0.0
 11
9.357546439012775
 21
7.258071546370398
 31
0.0
  0
LINE
  5
396
330
D
100
AcDbEntity
 67
     1
  8
AM_HID
100
AcDbLine
 10
9.277546439012775
 20
7.102071546370399
 30
0.0
 11
9.357546439012775
 21
7.102071546370399
 31
0.0
  0
LINE
  5
397
330
D
100
AcDbEntity
 67
     1
  8
AM_HID
100
AcDbLine
 10
9.437546439012773
 20
7.635071546370398
 30
0.0
 11
9.437546439012773
 21
7.5250715463704
 31
0.0
  0
LINE
  5
398
330
D
100
AcDbEntity
 67
     1
  8
AM_HID
100
AcDbLine
 10
9.437546439012775
 20
7.235071546370399
 30
0.0
 11
9.437546439012775
 21
7.125071546370398
 31
0.0
  0
LINE
  5
399
330
D
100
AcDbEntity
 67
     1
  8
AM_HID
100
AcDbLine
 10
9.357546439012773
 20
7.6580715463704
 30
0.0
 11
9.357546439012773
 21
7.502071546370398
 31
0.0
  0
LINE
  5
39A
330
D
100
AcDbEntity
 67
     1
  8
AM_HID
100
AcDbLine
 10
9.357546439012775
 20
7.258071546370398
 30
0.0
 11
9.357546439012775
 21
7.102071546370399
 31
0.0
  0
LINE
  5
39B
330
D
100
AcDbEntity
 67
     1
  8
AM_HID
100
AcDbLine
 10
9.324546439012776
 20
7.114571546370382
 30
0.0
 11
9.324546439012776
 21
7.052071546370382
 31
0.0
  0
LINE
  5
39C
330
D
100
AcDbEntity
 67
     1
  8
AM_HID
100
AcDbLine
 10
9.324546439012772
 20
7.708071546370382
 30
0.0
 11
9.324546439012772
 21
7.645571546370382
 31
0.0
  0
LINE
  5
39D
330
D
100
AcDbEntity
 67
     1
  8
AM_VIS
100
AcDbLine
 10
9.277546439012775
 20
7.0550715463704
 30
0.0
 11
9.277546439012775
 21
6.9300715463704
 31
0.0
  0
LINE
  5
39E
330
D
100
AcDbEntity
 67
     1
  8
AM_VIS
100
AcDbLine
 10
9.217546439012775
 20
7.0550715463704
 30
0.0
 11
9.217546439012775
 21
6.9300715463704
 31
0.0
  0
LINE
  5
39F
330
D
100
AcDbEntity
 67
     1
  8
AM_VIS
100
AcDbLine
 10
9.277546439012775
 20
7.830071546370398
 30
0.0
 11
9.277546439012775
 21
7.705071546370398
 31
0.0
  0
LINE
  5
3A0
330
D
100
AcDbEntity
 67
     1
  8
AM_VIS
100
AcDbLine
 10
9.217546439012775
 20
7.830071546370398
 30
0.0
 11
9.217546439012775
 21
7.705071546370398
 31
0.0
  0
LINE
  5
3A1
330
D
100
AcDbEntity
 67
     1
  8
AM_HID
100
AcDbLine
 10
9.527546439012773
 20
7.708071546370333
 30
0.0
 11
9.277546439012773
 21
7.708071546370333
 31
0.0
  0
LINE
  5
3A2
330
D
100
AcDbEntity
 67
     1
  8
AM_HID
100
AcDbLine
 10
9.277546439012773
 20
7.052071546370333
 30
0.0
 11
9.527546439012773
 21
7.052071546370333
 31
0.0
  0
LINE
  5
3A3
330
D
100
AcDbEntity
 67
     1
  8
AM_VIS
100
AcDbLine
 10
9.277546439012773
 20
7.705071546370327
 30
0.0
 11
9.277546439012773
 21
7.055071546370334
 31
0.0
  0
LINE
  5
3A4
330
D
100
AcDbEntity
 67
     1
  8
AM_HID
100
AcDbLine
 10
9.277546439012773
 20
7.286071546370331
 30
0.0
 11
10.02754643901277
 21
7.286071546370331
 31
0.0
  0
LINE
  5
3A5
330
D
100
AcDbEntity
 67
     1
  8
AM_HID
100
AcDbLine
 10
9.277546439012773
 20
7.256071546370334
 30
0.0
 11
10.02754643901277
 21
7.256071546370334
 31
0.0
  0
LINE
  5
3A6
330
D
100
AcDbEntity
 67
     1
  8
AM_HID
100
AcDbLine
 10
9.277546439012773
 20
6.990071546370333
 30
0.0
 11
10.02754643901277
 21
6.990071546370333
 31
0.0
  0
LINE
  5
3A7
330
D
100
AcDbEntity
 67
     1
  8
AM_HID
100
AcDbLine
 10
10.02754643901277
 20
6.990071546370333
 30
0.0
 11
10.02754643901277
 21
7.020071546370334
 31
0.0
  0
LINE
  5
3A8
330
D
100
AcDbEntity
 67
     1
  8
AM_HID
100
AcDbLine
 10
9.277546439012773
 20
7.020071546370334
 30
0.0
 11
10.02754643901277
 21
7.020071546370334
 31
0.0
  0
LINE
  5
3A9
330
D
100
AcDbEntity
 67
     1
  8
AM_HID
100
AcDbLine
 10
10.02754643901277
 20
7.020071546370334
 30
0.0
 11
10.02754643901277
 21
7.740071546370333
 31
0.0
  0
LINE
  5
3AA
330
D
100
AcDbEntity
 67
     1
  8
AM_HID
100
AcDbLine
 10
9.277546439012773
 20
7.740071546370334
 30
0.0
 11
10.02754643901277
 21
7.740071546370334
 31
0.0
  0
LINE
  5
3AB
330
D
100
AcDbEntity
 67
     1
  8
AM_HID
100
AcDbLine
 10
10.02754643901277
 20
7.740071546370333
 30
0.0
 11
10.02754643901277
 21
7.770071546370331
 31
0.0
  0
LINE
  5
3AC
330
D
100
AcDbEntity
 67
     1
  8
AM_HID
100
AcDbLine
 10
9.277546439012773
 20
7.770071546370333
 30
0.0
 11
10.02754643901277
 21
7.770071546370333
 31
0.0
  0
LINE
  5
3AD
330
D
100
AcDbEntity
 67
     1
  8
AM_HID
100
AcDbLine
 10
9.277546439012773
 20
7.504071546370331
 30
0.0
 11
10.02754643901277
 21
7.504071546370331
 31
0.0
  0
LINE
  5
3AE
330
D
100
AcDbEntity
 67
     1
  8
AM_HID
100
AcDbLine
 10
9.277546439012773
 20
7.474071546370334
 30
0.0
 11
10.02754643901277
 21
7.474071546370334
 31
0.0
  0
LINE
  5
3AF
330
D
100
AcDbEntity
 67
     1
  8
AM_HID
100
AcDbLine
 10
9.377546439012773
 20
7.786071546370338
 30
0.0
 11
10.08954643901277
 21
7.786071546370338
 31
0.0
  0
LINE
  5
3B0
330
D
100
AcDbEntity
 67
     1
  8
AM_HID
100
AcDbLine
 10
9.377546439012773
 20
6.974071546370333
 30
0.0
 11
10.08954643901277
 21
6.974071546370333
 31
0.0
  0
LINE
  5
3B1
330
D
100
AcDbEntity
 67
     1
  8
AM_HID
100
AcDbLine
 10
9.377546439012773
 20
7.208071546370334
 30
0.0
 11
10.08954643901277
 21
7.208071546370334
 31
0.0
  0
LINE
  5
3B2
330
D
100
AcDbEntity
 67
     1
  8
AM_HID
100
AcDbLine
 10
9.377546439012773
 20
7.055071546370347
 30
0.0
 11
10.08954643901277
 21
7.055071546370347
 31
0.0
  0
LINE
  5
3B3
330
D
100
AcDbEntity
 67
     1
  8
AM_VIS
100
AcDbLine
 10
9.377546439012773
 20
6.930071546370339
 30
0.0
 11
10.08954643901277
 21
6.930071546370339
 31
0.0
  0
LINE
  5
3B4
330
D
100
AcDbEntity
 67
     1
  8
AM_VIS
100
AcDbLine
 10
10.08954643901277
 20
7.055071546370339
 30
0.0
 11
10.08954643901277
 21
7.705071546370339
 31
0.0
  0
LINE
  5
3B5
330
D
100
AcDbEntity
 67
     1
  8
AM_VIS
100
AcDbLine
 10
9.377546439012773
 20
7.83007154637034
 30
0.0
 11
10.08954643901277
 21
7.83007154637034
 31
0.0
  0
LINE
  5
3B6
330
D
100
AcDbEntity
 67
     1
  8
AM_HID
100
AcDbLine
 10
9.377546439012773
 20
7.705071546370339
 30
0.0
 11
10.08954643901277
 21
7.705071546370339
 31
0.0
  0
LINE
  5
3B7
330
D
100
AcDbEntity
 67
     1
  8
AM_HID
100
AcDbLine
 10
9.377546439012775
 20
7.552071546370338
 30
0.0
 11
10.08954643901277
 21
7.552071546370338
 31
0.0
  0
LINE
  5
3B8
330
D
100
AcDbEntity
 67
     1
  8
AM_VIS
100
AcDbLine
 10
9.377546439012773
 20
7.055071546370334
 30
0.0
 11
9.377546439012773
 21
7.705071546370327
 31
0.0
  0
LINE
  5
3B9
330
D
100
AcDbEntity
 67
     1
  8
AM_HID
100
AcDbLine
 10
9.377546439012773
 20
7.325071546370367
 30
0.0
 11
9.277546439012773
 21
7.325071546370367
 31
0.0
  0
LINE
  5
3BA
330
D
100
AcDbEntity
 67
     1
  8
AM_HID
100
AcDbLine
 10
9.377546439012773
 20
7.435071546370365
 30
0.0
 11
9.277546439012773
 21
7.435071546370365
 31
0.0
  0
LINE
  5
3BB
330
D
100
AcDbEntity
 67
     1
  8
AM_VIS
100
AcDbLine
 10
9.377546439012773
 20
6.930071546370334
 30
0.0
 11
9.277546439012773
 21
6.930071546370334
 31
0.0
  0
LINE
  5
3BC
330
D
100
AcDbEntity
 67
     1
  8
AM_VIS
100
AcDbLine
 10
9.377546439012773
 20
7.830071546370333
 30
0.0
 11
9.277546439012773
 21
7.830071546370333
 31
0.0
  0
LINE
  5
3BD
330
D
100
AcDbEntity
 67
     1
  8
AM_HID
100
AcDbLine
 10
9.722546439012772
 20
7.708071546370334
 30
0.0
 11
9.722546439012772
 21
7.474071546370334
 31
0.0
  0
LINE
  5
3BE
330
D
100
AcDbEntity
 67
     1
  8
AM_HID
100
AcDbLine
 10
9.722546439012772
 20
7.286071546370333
 30
0.0
 11
9.722546439012772
 21
7.052071546370333
 31
0.0
  0
LINE
  5
3BF
330
D
100
AcDbEntity
 67
     1
  8
AM_HID
100
AcDbLine
 10
9.277546439012773
 20
7.242571546370334
 30
0.0
 11
9.432546439012773
 21
7.242571546370334
 31
0.0
  0
LINE
  5
3C0
330
D
100
AcDbEntity
 67
     1
  8
AM_HID
100
AcDbLine
 10
9.277546439012773
 20
7.117571546370334
 30
0.0
 11
9.432546439012773
 21
7.117571546370334
 31
0.0
  0
LINE
  5
3C1
330
D
100
AcDbEntity
 67
     1
  8
AM_HID
100
AcDbLine
 10
9.277546439012773
 20
7.642571546370334
 30
0.0
 11
9.432546439012773
 21
7.642571546370334
 31
0.0
  0
LINE
  5
3C2
330
D
100
AcDbEntity
 67
     1
  8
AM_HID
100
AcDbLine
 10
9.277546439012773
 20
7.517571546370334
 30
0.0
 11
9.432546439012773
 21
7.517571546370334
 31
0.0
  0
LINE
  5
3C3
330
D
100
AcDbEntity
 67
     1
  8
AM_HID
100
AcDbLine
 10
9.527546439012773
 20
7.708071546370333
 30
0.0
 11
9.722546439012772
 21
7.708071546370333
 31
0.0
  0
LINE
  5
3C4
330
D
100
AcDbEntity
 67
     1
  8
AM_HID
100
AcDbLine
 10
9.722546439012772
 20
7.052071546370333
 30
0.0
 11
9.527546439012773
 21
7.052071546370333
 31
0.0
  0
LINE
  5
3C5
330
D
100
AcDbEntity
 67
     1
  8
AM_VIS
100
AcDbLine
 10
9.277546439012773
 20
6.930071546370334
 30
0.0
 11
9.277546439012773
 21
7.055071546370334
 31
0.0
  0
LINE
  5
3C6
330
D
100
AcDbEntity
 67
     1
  8
AM_VIS
100
AcDbLine
 10
9.277546439012773
 20
7.705071546370333
 30
0.0
 11
9.277546439012773
 21
7.830071546370333
 31
0.0
  0
LINE
  5
3C7
330
D
100
AcDbEntity
 67
     1
  8
AM_HID
100
AcDbLine
 10
9.432546439012773
 20
7.242571546370334
 30
0.0
 11
9.432546439012773
 21
7.117571546370334
 31
0.0
  0
LINE
  5
3C8
330
D
100
AcDbEntity
 67
     1
  8
AM_HID
100
AcDbLine
 10
9.432546439012773
 20
7.642571546370334
 30
0.0
 11
9.432546439012773
 21
7.517571546370334
 31
0.0
  0
LINE
  5
3C9
330
D
100
AcDbEntity
 67
     1
  8
AM_VIS
100
AcDbLine
 10
10.08954643901277
 20
7.055071546370339
 30
0.0
 11
10.08954643901277
 21
6.930071546370339
 31
0.0
  0
LINE
  5
3CA
330
D
100
AcDbEntity
 67
     1
  8
AM_VIS
100
AcDbLine
 10
10.08954643901277
 20
7.830071546370339
 30
0.0
 11
10.08954643901277
 21
7.705071546370339
 31
0.0
  0
LINE
  5
3CB
330
D
100
AcDbEntity
 67
     1
  8
AM_VIS
100
AcDbLine
 10
9.377546439012773
 20
7.830071546370333
 30
0.0
 11
9.377546439012773
 21
7.705071546370333
 31
0.0
  0
LINE
  5
3CC
330
D
100
AcDbEntity
 67
     1
  8
AM_VIS
100
AcDbLine
 10
9.377546439012773
 20
7.055071546370334
 30
0.0
 11
9.377546439012773
 21
6.930071546370334
 31
0.0
  0
LINE
  5
3CD
330
D
100
AcDbEntity
 67
     1
  8
AM_HID
100
AcDbLine
 10
9.345828254890566
 20
7.315071546370332
 30
0.0
 11
9.345828254890566
 21
7.445071546370332
 31
0.0
  0
LINE
  5
3CE
330
D
100
AcDbEntity
 67
     1
  8
AM_HID
100
AcDbLine
 10
9.345828254890587
 20
7.315071546370332
 30
0.0
 11
9.500656235191133
 21
7.315071546370332
 31
0.0
  0
LINE
  5
3CF
330
D
100
AcDbEntity
 67
     1
  8
AM_HID
100
AcDbLine
 10
9.515613986025345
 20
7.445071546370332
 30
0.0
 11
9.515613986025345
 21
7.315071546370332
 31
0.0
  0
LINE
  5
3D0
330
D
100
AcDbEntity
 67
     1
  8
AM_HID
100
AcDbLine
 10
9.500656235191133
 20
7.445071546370332
 30
0.0
 11
9.345828254890587
 21
7.44507154637033
 31
0.0
  0
LINE
  5
3D1
330
D
100
AcDbEntity
 67
     1
  8
AM_HID
100
AcDbLine
 10
9.685785551082172
 20
7.315071546370332
 30
0.0
 11
9.685785551082172
 21
7.445071546370332
 31
0.0
  0
LINE
  5
3D2
330
D
100
AcDbEntity
 67
     1
  8
AM_HID
100
AcDbLine
 10
9.685785551082172
 20
7.315071546370332
 30
0.0
 11
9.685822300603517
 21
7.315071546370332
 31
0.0
  0
LINE
  5
3D3
330
D
100
AcDbEntity
 67
     1
  8
AM_HID
100
AcDbLine
 10
9.685822300603517
 20
7.445071546370332
 30
0.0
 11
9.685822300603517
 21
7.315071546370332
 31
0.0
  0
LINE
  5
3D4
330
D
100
AcDbEntity
 67
     1
  8
AM_HID
100
AcDbLine
 10
9.685822300603517
 20
7.445071546370332
 30
0.0
 11
9.685785551082172
 21
7.445071546370332
 31
0.0
  0
LINE
  5
3D5
330
D
100
AcDbEntity
 67
     1
  8
AM_HID
100
AcDbLine
 10
9.500801569893154
 20
7.445071546370332
 30
0.0
 11
9.500656235191133
 21
7.445071546370332
 31
0.0
  0
LINE
  5
3D6
330
D
100
AcDbEntity
 67
     1
  8
AM_HID
100
AcDbLine
 10
9.661604581316744
 20
7.31507154637033
 30
0.0
 11
9.661604581316744
 21
7.44507154637033
 31
0.0
  0
LINE
  5
3D7
330
D
100
AcDbEntity
 67
     1
  8
AM_HID
100
AcDbLine
 10
9.661285829832564
 20
7.44507154637033
 30
0.0
 11
9.661285829832564
 21
7.31507154637033
 31
0.0
  0
LINE
  5
3D8
330
D
100
AcDbEntity
 67
     1
  8
AM_HID
100
AcDbLine
 10
9.356911894473681
 20
7.445071546370332
 30
0.0
 11
9.356911894473681
 21
7.315071546370332
 31
0.0
  0
LINE
  5
3D9
330
D
100
AcDbEntity
 67
     1
  8
AM_HID
100
AcDbLine
 10
9.646347606730651
 20
7.31507154637033
 30
0.0
 11
9.646347606730651
 21
7.44507154637033
 31
0.0
  0
LINE
  5
3DA
330
D
100
AcDbEntity
 67
     1
  8
AM_HID
100
AcDbLine
 10
9.500656235191133
 20
7.445071546370332
 30
0.0
 11
9.500656235191133
 21
7.315071546370332
 31
0.0
  0
LINE
  5
3DB
330
D
100
AcDbEntity
 67
     1
  8
AM_HID
100
AcDbLine
 10
9.500801569893155
 20
7.445071546370332
 30
0.0
 11
9.500801569893155
 21
7.315071546370332
 31
0.0
  0
LINE
  5
3DC
330
D
100
AcDbEntity
 67
     1
  8
AM_HID
100
AcDbLine
 10
9.500656235191133
 20
7.315071546370332
 30
0.0
 11
9.500801569893154
 21
7.315071546370332
 31
0.0
  0
LINE
  5
3DD
330
D
100
AcDbEntity
 67
     1
  8
AM_HID
100
AcDbLine
 10
9.87328462954526
 20
7.44507154637033
 30
0.0
 11
9.87328462954526
 21
7.31507154637033
 31
0.0
  0
LINE
  5
3DE
330
D
100
AcDbEntity
 67
     1
  8
AM_HID
100
AcDbLine
 10
9.959006334008783
 20
7.445071546370332
 30
0.0
 11
9.959006334008783
 21
7.315071546370332
 31
0.0
  0
LINE
  5
3DF
330
D
100
AcDbEntity
 67
     1
  8
AM_HID
100
AcDbLine
 10
9.624339242588542
 20
7.255071546370331
 30
0.0
 11
9.624339242588542
 21
7.505071546370331
 31
0.0
  0
LINE
  5
3E0
330
D
100
AcDbEntity
 67
     1
  8
AM_HID
100
AcDbLine
 10
9.874339242588542
 20
7.255071546370331
 30
0.0
 11
9.874339242588542
 21
7.31507154637033
 31
0.0
  0
LINE
  5
3E1
330
D
100
AcDbEntity
 67
     1
  8
AM_HID
100
AcDbLine
 10
9.874339242588542
 20
7.44507154637033
 30
0.0
 11
9.874339242588542
 21
7.505071546370332
 31
0.0
  0
LINE
  5
3E2
330
D
100
AcDbEntity
 67
     1
  8
AM_HID
100
AcDbLine
 10
9.44689833076875
 20
7.255071546370332
 30
0.0
 11
9.44689833076875
 21
7.505071546370332
 31
0.0
  0
LINE
  5
3E3
330
D
100
AcDbEntity
 67
     1
  8
AM_HID
100
AcDbLine
 10
9.69689833076875
 20
7.255071546370332
 30
0.0
 11
9.69689833076875
 21
7.315071546370332
 31
0.0
  0
LINE
  5
3E4
330
D
100
AcDbEntity
 67
     1
  8
AM_HID
100
AcDbLine
 10
9.69689833076875
 20
7.445071546370332
 30
0.0
 11
9.69689833076875
 21
7.505071546370332
 31
0.0
  0
LINE
  5
3E5
330
D
100
AcDbEntity
 67
     1
  8
AM_HID
100
AcDbLine
 10
9.340046439012773
 20
7.070071546370332
 30
0.0
 11
9.340046439012773
 21
7.690071546370332
 31
0.0
  0
LINE
  5
3E6
330
D
100
AcDbEntity
 67
     1
  8
AM_HID
100
AcDbLine
 10
9.715046439012773
 20
7.070071546370332
 30
0.0
 11
9.715046439012773
 21
7.315071546370332
 31
0.0
  0
LINE
  5
3E7
330
D
100
AcDbEntity
 67
     1
  8
AM_HID
100
AcDbLine
 10
9.715046439012773
 20
7.445071546370332
 30
0.0
 11
9.715046439012773
 21
7.690071546370332
 31
0.0
  0
LINE
  5
3E8
330
D
100
AcDbEntity
 67
     1
  8
AM_HID
100
AcDbLine
 10
9.685785551082172
 20
7.445071546370332
 30
0.0
 11
9.500801569893154
 21
7.445071546370332
 31
0.0
  0
LINE
  5
3E9
330
D
100
AcDbEntity
 67
     1
  8
AM_HID
100
AcDbLine
 10
9.685822300603517
 20
7.445071546370332
 30
0.0
 11
9.959006334008783
 21
7.445071546370332
 31
0.0
  0
LINE
  5
3EA
330
D
100
AcDbEntity
 67
     1
  8
AM_HID
100
AcDbLine
 10
9.959006334008783
 20
7.31507154637033
 30
0.0
 11
9.685822300603517
 21
7.315071546370332
 31
0.0
  0
LINE
  5
3EB
330
D
100
AcDbEntity
 67
     1
  8
AM_HID
100
AcDbLine
 10
9.500801569893154
 20
7.315071546370332
 30
0.0
 11
9.685785551082172
 21
7.315071546370332
 31
0.0
  0
LINE
  5
3EC
330
D
100
AcDbEntity
 67
     1
  8
AM_HID
100
AcDbLine
 10
9.874339242588542
 20
7.255071546370331
 30
0.0
 11
9.69689833076875
 21
7.255071546370331
 31
0.0
  0
LINE
  5
3ED
330
D
100
AcDbEntity
 67
     1
  8
AM_HID
100
AcDbLine
 10
9.696898330768751
 20
7.505071546370331
 30
0.0
 11
9.874339242588542
 21
7.505071546370331
 31
0.0
  0
LINE
  5
3EE
330
D
100
AcDbEntity
 67
     1
  8
AM_HID
100
AcDbLine
 10
9.69689833076875
 20
7.255071546370332
 30
0.0
 11
9.44689833076875
 21
7.255071546370332
 31
0.0
  0
LINE
  5
3EF
330
D
100
AcDbEntity
 67
     1
  8
AM_HID
100
AcDbLine
 10
9.446898330768751
 20
7.505071546370332
 30
0.0
 11
9.696898330768751
 21
7.505071546370332
 31
0.0
  0
LINE
  5
3F0
330
D
100
AcDbEntity
 67
     1
  8
AM_HID
100
AcDbLine
 10
9.715046439012773
 20
7.070071546370332
 30
0.0
 11
9.340046439012773
 21
7.070071546370332
 31
0.0
  0
LINE
  5
3F1
330
D
100
AcDbEntity
 67
     1
  8
AM_HID
100
AcDbLine
 10
9.340046439012773
 20
7.690071546370332
 30
0.0
 11
9.715046439012773
 21
7.690071546370332
 31
0.0
  0
LINE
  5
3F2
330
D
100
AcDbEntity
 67
     1
  8
AM_VIS
100
AcDbLine
 10
12.48879815102382
 20
4.699404837790909
 30
0.0
 11
12.60754344043685
 21
4.696886464915428
 31
0.0
  0
LINE
  5
3F3
330
D
100
AcDbEntity
 67
     1
  8
AM_VIS
100
AcDbLine
 10
12.48879815102382
 20
4.699404837790909
 30
0.0
 11
12.55035177061671
 21
4.597827587017236
 31
0.0
  0
LINE
  5
3F4
330
D
100
AcDbEntity
 67
     1
  8
AM_VIS
100
AcDbLine
 10
12.61801834010541
 20
4.694081559142681
 30
0.0
 11
12.81042766006283
 21
4.582993986470671
 31
0.0
  0
LINE
  5
3F5
330
D
100
AcDbEntity
 67
     1
  8
AM_VIS
100
AcDbLine
 10
12.55801834010541
 20
4.590158510688548
 30
0.0
 11
12.69042766006283
 21
4.513711954167916
 31
0.0
  0
ELLIPSE
  5
3F6
330
D
100
AcDbEntity
 67
     1
  8
AM_VIS
100
AcDbEllipse
 10
12.58801834010541
 20
4.642120034915615
 30
0.0
 11
0.0300000000000003
 21
0.0519615242270668
 31
0.0
210
0.0
220
0.0
230
1.0
 40
0.5773502691896262
 41
2.356194490192326
 42
3.141592653589798
  0
ELLIPSE
  5
3F7
330
D
100
AcDbEntity
 67
     1
  8
AM_VIS
100
AcDbEllipse
 10
12.58801834010541
 20
4.642120034915615
 30
0.0
 11
0.0300000000000003
 21
0.0519615242270668
 31
0.0
210
0.0
220
0.0
230
1.0
 40
0.5773502691896262
 41
-0.0000000000000347
 42
2.356194490192326
  0
LINE
  5
3F8
330
D
100
AcDbEntity
 67
     1
  8
AM_VIS
100
AcDbLine
 10
11.143881053207
 20
3.077842628068444
 30
0.0
 11
11.17260300026633
 21
3.061260004202098
 31
0.0
  0
LINE
  5
3F9
330
D
100
AcDbEntity
 67
     1
  8
AM_VIS
100
AcDbLine
 10
11.12620338367735
 20
3.067636420806848
 30
0.0
 11
11.143881053207
 21
3.077842628068444
 31
0.0
  0
LINE
  5
3FA
330
D
100
AcDbEntity
 67
     1
  8
AM_VIS
100
AcDbLine
 10
11.12620338367735
 20
3.067636420806848
 30
0.0
 11
11.15894993949451
 21
3.048730187990777
 31
0.0
  0
LINE
  5
3FB
330
D
100
AcDbEntity
 67
     1
  8
AM_VIS
100
AcDbLine
 10
11.12620338367735
 20
3.067636420806848
 30
0.0
 11
11.12620338367735
 21
3.047224006283654
 31
0.0
  0
LINE
  5
3FC
330
D
100
AcDbEntity
 67
     1
  8
AM_VIS
100
AcDbLine
 10
11.12620338367735
 20
3.047224006283654
 30
0.0
 11
11.15492533073666
 21
3.030641382417308
 31
0.0
  0
LINE
  5
3FD
330
D
100
AcDbEntity
 67
     1
  8
AM_VIS
100
AcDbLine
 10
11.10852571414768
 20
3.037017799022058
 30
0.0
 11
11.12620338367735
 21
3.047224006283654
 31
0.0
  0
LINE
  5
3FE
330
D
100
AcDbEntity
 67
     1
  8
AM_VIS
100
AcDbLine
 10
11.12359460043518
 20
3.028317773467583
 30
0.0
 11
11.10324939895258
 21
3.040064081020271
 31
0.0
  0
LINE
  5
3FF
330
D
100
AcDbEntity
 67
     1
  8
AM_VIS
100
AcDbLine
 10
11.15894993949451
 20
3.089555017037163
 30
0.0
 11
11.13860473801192
 21
3.101301324589853
 31
0.0
  0
LINE
  5
400
330
D
100
AcDbEntity
 67
     1
  8
AM_VIS
100
AcDbLine
 10
11.143881053207
 20
3.077842628068444
 30
0.0
 11
11.143881053207
 21
3.098255042591637
 31
0.0
  0
LINE
  5
401
330
D
100
AcDbEntity
 67
     1
  8
AM_VIS
100
AcDbLine
 10
11.14231251071209
 20
3.185352871198651
 30
0.0
 11
11.17059678195955
 21
3.169022939580096
 31
0.0
  0
LINE
  5
402
330
D
100
AcDbEntity
 67
     1
  8
AM_VIS
100
AcDbLine
 10
11.03231251071209
 20
2.994827282366073
 30
0.0
 11
11.06059678195955
 21
2.978497350747518
 31
0.0
  0
LINE
  5
403
330
D
100
AcDbEntity
 67
     1
  8
AM_VIS
100
AcDbLine
 10
10.39434786514926
 20
3.490173401436946
 30
0.0
 11
10.51309315456228
 21
3.487655028561467
 31
0.0
  0
LINE
  5
404
330
D
100
AcDbEntity
 67
     1
  8
AM_VIS
100
AcDbLine
 10
10.39434786514926
 20
3.490173401436946
 30
0.0
 11
10.45590148474214
 21
3.388596150663271
 31
0.0
  0
LINE
  5
405
330
D
100
AcDbEntity
 67
     1
  8
AM_VIS
100
AcDbLine
 10
10.52356805423084
 20
3.484850122788718
 30
0.0
 11
10.89002971876103
 21
3.273273382124533
 31
0.0
  0
LINE
  5
406
330
D
100
AcDbEntity
 67
     1
  8
AM_VIS
100
AcDbLine
 10
10.46356805423084
 20
3.380927074334584
 30
0.0
 11
10.89002971876103
 21
3.134709317519023
 31
0.0
  0
ELLIPSE
  5
407
330
D
100
AcDbEntity
 67
     1
  8
AM_VIS
100
AcDbEllipse
 10
11.02278901692881
 20
3.106930318763997
 30
0.0
 11
0.1694153549711503
 21
-0.0000000000000102
 31
0.0
210
0.0
220
0.0
230
0.9999999999999998
 40
0.5773502691896254
 41
5.645894340890801
 42
5.797381477212597
  0
ELLIPSE
  5
408
330
D
100
AcDbEntity
 67
     1
  8
AM_VIS
100
AcDbEllipse
 10
11.04046668645847
 20
3.137548940548785
 30
0.0
 11
-0.0847076774855751
 21
0.1467180011961746
 31
0.0
210
0.0
220
0.0
230
1.0
 40
0.577350269189626
 41
3.627396483556951
 42
3.778883619878741
  0
ELLIPSE
  5
409
330
D
100
AcDbEntity
 67
     1
  8
AM_VIS
100
AcDbEllipse
 10
11.02278901692881
 20
3.086517904240803
 30
0.0
 11
0.163788163491752
 21
-0.0000000000000098
 31
0.0
210
0.0
220
0.0
230
1.0
 40
0.5773502691896254
 41
5.344551978815612
 42
5.651022308748992
  0
ELLIPSE
  5
40A
330
D
100
AcDbEntity
 67
     1
  8
AM_VIS
100
AcDbEllipse
 10
11.00511134739915
 20
3.117136526025591
 30
0.0
 11
-0.0847076774855838
 21
0.1467180011961694
 31
0.0
210
0.0
220
0.0
230
0.9999999999999998
 40
0.5773502691896259
 41
3.627396483556784
 42
3.778883619878573
  0
ELLIPSE
  5
40B
330
D
100
AcDbEntity
 67
     1
  8
AM_VIS
100
AcDbEllipse
 10
11.02278901692881
 20
3.106930318763997
 30
0.0
 11
0.1694153549711503
 21
-0.0000000000000102
 31
0.0
210
0.0
220
0.0
230
0.9999999999999998
 40
0.5773502691896254
 41
5.198192810352019
 42
5.349679946673801
  0
ELLIPSE
  5
40C
330
D
100
AcDbEntity
 67
     1
  8
AM_VIS
100
AcDbEllipse
 10
10.98743367786948
 20
3.106930318763996
 30
0.0
 11
-0.0818940817458842
 21
0.1418447104230512
 31
0.0
210
0.0
220
0.0
230
1.0
 40
0.577350269189626
 41
3.773755652020378
 42
4.080225981953766
  0
ELLIPSE
  5
40D
330
D
100
AcDbEntity
 67
     1
  8
AM_VIS
100
AcDbEllipse
 10
11.02278901692881
 20
3.147755147810383
 30
0.0
 11
0.1694153549711503
 21
-0.0000000000000001
 31
0.0
210
0.0
220
0.0
230
0.9999999999999998
 40
0.5773502691896255
 41
5.645894340890624
 42
5.797381477212418
  0
ELLIPSE
  5
40E
330
D
100
AcDbEntity
 67
     1
  8
AM_VIS
100
AcDbEllipse
 10
11.02278901692881
 20
3.147755147810383
 30
0.0
 11
0.1694153549711503
 21
-0.0000000000000001
 31
0.0
210
0.0
220
0.0
230
0.9999999999999998
 40
0.5773502691896255
 41
5.198192810351842
 42
5.349679946673624
  0
ELLIPSE
  5
40F
330
D
100
AcDbEntity
 67
     1
  8
AM_VIS
100
AcDbEllipse
 10
11.05814435598814
 20
3.147755147810383
 30
0.0
 11
-0.0818940817458761
 21
0.1418447104230565
 31
0.0
210
0.0
220
0.0
230
1.0
 40
0.577350269189626
 41
3.773755652020546
 42
4.080225981953932
  0
ELLIPSE
  5
410
330
D
100
AcDbEntity
 67
     1
  8
AM_VIS
100
AcDbEllipse
 10
11.00511134739915
 20
3.117136526025591
 30
0.0
 11
-0.0847076774855838
 21
0.1467180011961694
 31
0.0
210
0.0
220
0.0
230
0.9999999999999998
 40
0.5773502691896259
 41
4.075098014095568
 42
4.22658515041736
  0
ELLIPSE
  5
411
330
D
100
AcDbEntity
 67
     1
  8
AM_VIS
100
AcDbEllipse
 10
11.04046668645847
 20
3.137548940548785
 30
0.0
 11
-0.0847076774855751
 21
0.1467180011961746
 31
0.0
210
0.0
220
0.0
230
1.0
 40
0.577350269189626
 41
4.075098014095736
 42
4.226585150417527
  0
ELLIPSE
  5
412
330
D
100
AcDbEntity
 67
     1
  8
AM_VIS
100
AcDbEllipse
 10
11.02278901692881
 20
3.168167562333576
 30
0.0
 11
0.163788163491752
 21
0.0
 31
0.0
210
0.0
220
0.0
230
1.0
 40
0.5773502691896254
 41
5.344551978815428
 42
5.651022308748819
  0
ELLIPSE
  5
413
330
D
100
AcDbEntity
 67
     1
  8
AM_VIS
100
AcDbEllipse
 10
11.08731251071207
 20
3.090090076782361
 30
0.0
 11
0.0550000000000002
 21
0.0952627944162886
 31
0.0
210
0.0
220
0.0
230
1.0
 40
0.5773502691896262
 41
2.356194490192349
 42
3.141592653589805
  0
ELLIPSE
  5
414
330
D
100
AcDbEntity
 67
     1
  8
AM_VIS
100
AcDbEllipse
 10
11.08731251071207
 20
3.090090076782361
 30
0.0
 11
0.0550000000000002
 21
0.0952627944162886
 31
0.0
210
0.0
220
0.0
230
1.0
 40
0.5773502691896262
 41
-0.0000000000000088
 42
2.356194490192349
  0
ELLIPSE
  5
415
330
D
100
AcDbEntity
 67
     1
  8
AM_VIS
100
AcDbEllipse
 10
11.11559678195954
 20
3.073760145163806
 30
0.0
 11
0.0550000000000002
 21
0.0952627944162886
 31
0.0
210
0.0
220
0.0
230
1.0
 40
0.5773502691896262
 41
2.356194490192343
 42
4.145744456834542
  0
ELLIPSE
  5
416
330
D
100
AcDbEntity
 67
     1
  8
AM_VIS
100
AcDbEllipse
 10
11.11559678195954
 20
3.073760145163806
 30
0.0
 11
0.0550000000000002
 21
0.0952627944162886
 31
0.0
210
0.0
220
0.0
230
1.0
 40
0.5773502691896262
 41
5.279033503934832
 42
8.63937979737193
  0
ELLIPSE
  5
417
330
D
100
AcDbEntity
 67
     1
  8
AM_VIS
100
AcDbEllipse
 10
10.49356805423084
 20
3.432888598561653
 30
0.0
 11
0.0300000000000003
 21
0.0519615242270668
 31
0.0
210
0.0
220
0.0
230
1.0
 40
0.5773502691896262
 41
2.356194490192338
 42
3.141592653589781
  0
ELLIPSE
  5
418
330
D
100
AcDbEntity
 67
     1
  8
AM_VIS
100
AcDbEllipse
 10
10.49356805423084
 20
3.432888598561653
 30
0.0
 11
0.0300000000000003
 21
0.0519615242270668
 31
0.0
210
0.0
220
0.0
230
1.0
 40
0.5773502691896262
 41
-0.0000000000000097
 42
2.356194490192338
  0
ARC
  5
419
330
D
100
AcDbEntity
 67
     1
  8
AM_VIS
100
AcDbCircle
 10
11.02278901692881
 20
3.12734273328719
 30
0.0
 40
0.1712500000000026
100
AcDbArc
 50
309.8298977730016
 51
350.1701022269978
  0
ELLIPSE
  5
41A
330
D
100
AcDbEntity
 67
     1
  8
AM_VIS
100
AcDbEllipse
 10
12.61964752165418
 20
4.426674994140133
 30
0.0
 11
0.0390000000000001
 21
0.0675499814951862
 31
0.0
210
0.0
220
0.0
230
1.0
 40
0.5773502691896259
 41
0.0256167713052021
 42
1.545179555489688
  0
LINE
  5
41B
330
D
100
AcDbEntity
 67
     1
  8
AM_VIS
100
AcDbLine
 10
11.08108384900247
 20
3.584556871633564
 30
0.0
 11
11.04045782902498
 21
3.608012315203669
 31
0.0
  0
LINE
  5
41C
330
D
100
AcDbEntity
 67
     1
  8
AM_VIS
100
AcDbLine
 10
11.23708384900247
 20
3.674623513627145
 30
0.0
 11
11.11845782902497
 21
3.743112278194042
 31
0.0
  0
ELLIPSE
  5
41D
330
D
100
AcDbEntity
 67
     1
  8
AM_VIS
100
AcDbEllipse
 10
11.07945782902499
 20
3.675562296698856
 30
0.0
 11
0.039
 21
0.0675499814951862
 31
0.0
210
0.0
220
0.0
230
1.0
 40
0.5773502691896263
 41
0.7853981633974536
 42
3.14159265358979
  0
ELLIPSE
  5
41E
330
D
100
AcDbEntity
 67
     1
  8
AM_VIS
100
AcDbEllipse
 10
11.07945782902499
 20
3.675562296698856
 30
0.0
 11
0.039
 21
0.0675499814951862
 31
0.0
210
0.0
220
0.0
230
1.0
 40
0.5773502691896263
 41
0.0000000000000214
 42
0.7853981633974536
  0
LINE
  5
41F
330
D
100
AcDbEntity
 67
     1
  8
AM_VIS
100
AcDbLine
 10
13.06438307090966
 20
4.729615211285261
 30
0.0
 11
13.10680947778086
 21
4.705120313857428
 31
0.0
  0
LINE
  5
420
330
D
100
AcDbEntity
 67
     1
  8
AM_VIS
100
AcDbLine
 10
10.89002971876103
 20
2.841466867889901
 30
0.0
 11
10.93245612563223
 21
2.81697197046207
 31
0.0
  0
LINE
  5
421
330
D
100
AcDbEntity
 67
     1
  8
AM_VIS
100
AcDbLine
 10
10.93245612563223
 20
2.816971970462068
 30
0.0
 11
10.93245612563223
 21
3.347694748065086
 31
0.0
  0
LINE
  5
422
330
D
100
AcDbEntity
 67
     1
  8
AM_VIS
100
AcDbLine
 10
10.89002971876103
 20
3.372189645492919
 30
0.0
 11
10.93245612563223
 21
3.347694748065087
 31
0.0
  0
LINE
  5
423
330
D
100
AcDbEntity
 67
     1
  8
AM_VIS
100
AcDbLine
 10
10.89002971876103
 20
2.841466867889901
 30
0.0
 11
10.89002971876103
 21
3.372189645492917
 31
0.0
  0
LINE
  5
424
330
D
100
AcDbEntity
 67
     1
  8
AM_VIS
100
AcDbLine
 10
10.97841806640935
 20
3.525282754416867
 30
0.0
 11
11.02084447328055
 21
3.500787856989036
 31
0.0
  0
LINE
  5
425
330
D
100
AcDbEntity
 67
     1
  8
AM_VIS
100
AcDbLine
 10
11.02084447328055
 20
3.500787856989036
 30
0.0
 11
13.10680947778085
 21
4.705120313857429
 31
0.0
  0
LINE
  5
426
330
D
100
AcDbEntity
 67
     1
  8
AM_VIS
100
AcDbLine
 10
10.97841806640935
 20
3.525282754416867
 30
0.0
 11
13.06438307090966
 21
4.729615211285261
 31
0.0
  0
LINE
  5
427
330
D
100
AcDbEntity
 67
     1
  8
AM_VIS
100
AcDbLine
 10
13.12688307090966
 20
4.735806314142351
 30
0.0
 11
13.16930947778087
 21
4.711311416714519
 31
0.0
  0
LINE
  5
428
330
D
100
AcDbEntity
 67
     1
  8
AM_VIS
100
AcDbLine
 10
10.91591806640936
 20
2.784244728724824
 30
0.0
 11
10.95834447328055
 21
2.759749831296991
 31
0.0
  0
ELLIPSE
  5
429
330
D
100
AcDbEntity
 67
     1
  8
AM_VIS
100
AcDbEllipse
 10
13.10680947778085
 20
4.603058241241464
 30
0.0
 11
0.0625000000000064
 21
0.1082531754730511
 31
0.0
210
0.0
220
0.0
230
1.0
 40
0.577350269189626
 41
-0.0000000000002172
 42
0.7853981633976255
  0
ELLIPSE
  5
42A
330
D
100
AcDbEntity
 67
     1
  8
AM_VIS
100
AcDbEllipse
 10
13.06438307090966
 20
4.627553138669297
 30
0.0
 11
0.0625000000000064
 21
0.1082531754730511
 31
0.0
210
0.0
220
0.0
230
1.0
 40
0.577350269189626
 41
0.0000000000001861
 42
0.7853981633976255
  0
ELLIPSE
  5
42B
330
D
100
AcDbEntity
 67
     1
  8
AM_VIS
100
AcDbEllipse
 10
11.02084447328055
 20
2.868003006770047
 30
0.0
 11
0.0625000000000064
 21
0.1082531754730511
 31
0.0
210
0.0
220
0.0
230
1.0
 40
0.577350269189626
 41
2.356194490192514
 42
3.141592653590386
  0
ELLIPSE
  5
42C
330
D
100
AcDbEntity
 67
     1
  8
AM_VIS
100
AcDbEllipse
 10
10.97841806640935
 20
2.892497904197878
 30
0.0
 11
0.0625000000000064
 21
0.1082531754730511
 31
0.0
210
0.0
220
0.0
230
1.0
 40
0.577350269189626
 41
2.356194490192514
 42
3.141592653589964
  0
ELLIPSE
  5
42D
330
D
100
AcDbEntity
 67
     1
  8
AM_VIS
100
AcDbEllipse
 10
11.02084447328055
 20
3.398725784373069
 30
0.0
 11
0.0625000000000064
 21
0.1082531754730511
 31
0.0
210
0.0
220
0.0
230
1.0
 40
0.577350269189626
 41
0.7853981633976176
 42
2.356194490192514
  0
ELLIPSE
  5
42E
330
D
100
AcDbEntity
 67
     1
  8
AM_VIS
100
AcDbEllipse
 10
10.97841806640935
 20
3.423220681800902
 30
0.0
 11
0.0625000000000064
 21
0.1082531754730511
 31
0.0
210
0.0
220
0.0
230
1.0
 40
0.577350269189626
 41
0.7853981633976176
 42
2.356194490192514
  0
LINE
  5
42F
330
D
100
AcDbEntity
 67
     1
  8
AM_VIS
100
AcDbLine
 10
10.93245612563223
 20
3.34769474806503
 30
0.0
 11
10.93245612563223
 21
2.816971970462013
 31
0.0
  0
LINE
  5
430
330
D
100
AcDbEntity
 67
     1
  8
AM_VIS
100
AcDbLine
 10
13.10680947778086
 20
4.70512031385738
 30
0.0
 11
11.02084447328055
 21
3.500787856988984
 31
0.0
  0
LINE
  5
431
330
D
100
AcDbEntity
 67
     1
  8
AM_VIS
100
AcDbLine
 10
12.45556413230805
 20
3.630202565066028
 30
0.0
 11
12.82043123140031
 21
3.840858682945381
 31
0.0
  0
LINE
  5
432
330
D
100
AcDbEntity
 67
     1
  8
AM_VIS
100
AcDbLine
 10
12.31697120319549
 20
4.131531465755651
 30
0.0
 11
12.82043123140031
 21
3.840858682945381
 31
0.0
  0
LINE
  5
433
330
D
100
AcDbEntity
 67
     1
  8
AM_VIS
100
AcDbLine
 10
11.95210410410323
 20
3.920875347876298
 30
0.0
 11
12.31697120319549
 21
4.131531465755651
 31
0.0
  0
LINE
  5
434
330
D
100
AcDbEntity
 67
     1
  8
AM_VIS
100
AcDbLine
 10
11.95210410410323
 20
3.920875347876298
 30
0.0
 11
12.45556413230805
 21
3.630202565066028
 31
0.0
  0
LINE
  5
435
330
D
100
AcDbEntity
 67
     1
  8
AM_VIS
100
AcDbLine
 10
12.83103783311811
 20
3.834734958588424
 30
0.0
 11
12.83103783311811
 21
3.655922207365259
 31
0.0
  0
LINE
  5
436
330
D
100
AcDbEntity
 67
     1
  8
AM_VIS
100
AcDbLine
 10
12.83103783311811
 20
3.655922207365258
 30
0.0
 11
13.04458408103633
 21
3.779213191085284
 31
0.0
  0
LINE
  5
437
330
D
100
AcDbEntity
 67
     1
  8
AM_VIS
100
AcDbLine
 10
12.54112405283152
 20
4.069885973895557
 30
0.0
 11
13.04458408103635
 21
3.779213191085286
 31
0.0
  0
LINE
  5
438
330
D
100
AcDbEntity
 67
     1
  8
AM_VIS
100
AcDbLine
 10
12.48682758827533
 20
4.038537895467995
 30
0.0
 11
12.54112405283152
 21
4.069885973895553
 31
0.0
  0
LINE
  5
439
330
D
100
AcDbEntity
 67
     1
  8
AM_VIS
100
AcDbLine
 10
13.04458408103633
 20
3.779213191085286
 30
0.0
 11
13.04458408103633
 21
3.802075095351256
 31
0.0
  0
LINE
  5
43A
330
D
100
AcDbEntity
 67
     1
  8
AM_VIS
100
AcDbLine
 10
12.54112405283152
 20
4.092747878161526
 30
0.0
 11
13.04458408103633
 21
3.802075095351256
 31
0.0
  0
LINE
  5
43B
330
D
100
AcDbEntity
 67
     1
  8
AM_VIS
100
AcDbLine
 10
12.54112405283152
 20
4.069885973895557
 30
0.0
 11
12.54112405283152
 21
4.092747878161526
 31
0.0
  0
LINE
  5
43C
330
D
100
AcDbEntity
 67
     1
  8
AM_VIS
100
AcDbLine
 10
12.62951240047984
 20
4.245840987085473
 30
0.0
 11
13.13297242868466
 21
3.955168204275203
 31
0.0
  0
LINE
  5
43D
330
D
100
AcDbEntity
 67
     1
  8
AM_VIS
100
AcDbLine
 10
13.13297242868466
 20
3.955168204275203
 30
0.0
 11
13.14499324396493
 21
3.962108425213151
 31
0.0
  0
LINE
  5
43E
330
D
100
AcDbEntity
 67
     1
  8
AM_VIS
100
AcDbLine
 10
12.64153321576011
 20
4.252781208023423
 30
0.0
 11
13.14499324396493
 21
3.962108425213153
 31
0.0
  0
LINE
  5
43F
330
D
100
AcDbEntity
 67
     1
  8
AM_VIS
100
AcDbLine
 10
12.62951240047984
 20
4.245840987085474
 30
0.0
 11
12.64153321576011
 21
4.252781208023423
 31
0.0
  0
LINE
  5
440
330
D
100
AcDbEntity
 67
     1
  8
AM_VIS
100
AcDbLine
 10
12.72992156340843
 20
4.405874316947373
 30
0.0
 11
13.23338159161326
 21
4.115201534137101
 31
0.0
  0
LINE
  5
441
330
D
100
AcDbEntity
 67
     1
  8
AM_VIS
100
AcDbLine
 10
12.9738734029178
 20
4.546719977157406
 30
0.0
 11
13.47733343112262
 21
4.256047194347134
 31
0.0
  0
LINE
  5
442
330
D
100
AcDbEntity
 67
     1
  8
AM_VIS
100
AcDbLine
 10
13.56572177877094
 20
4.205016158039152
 30
0.0
 11
13.56572177877094
 21
3.674293380436128
 31
0.0
  0
LINE
  5
443
330
D
100
AcDbEntity
 67
     1
  8
AM_VIS
100
AcDbLine
 10
13.14499324396493
 20
3.431385647610129
 30
0.0
 11
13.13297242868466
 21
3.424445426672186
 31
0.0
  0
LINE
  5
444
330
D
100
AcDbEntity
 67
     1
  8
AM_VIS
100
AcDbLine
 10
13.02478509116312
 20
3.486907415113159
 30
0.0
 11
13.04458408103633
 21
3.475476462980173
 31
0.0
  0
LINE
  5
445
330
D
100
AcDbEntity
 67
     1
  8
AM_VIS
100
AcDbLine
 10
13.04458408103633
 20
3.475476462980173
 30
0.0
 11
13.04458408103633
 21
3.498338367246146
 31
0.0
  0
LINE
  5
446
330
D
100
AcDbEntity
 67
     1
  8
AM_VIS
100
AcDbLine
 10
13.04458408103633
 20
3.498338367246138
 30
0.0
 11
12.83103783311811
 21
3.375047383526111
 31
0.0
  0
LINE
  5
447
330
D
100
AcDbEntity
 67
     1
  8
AM_VIS
100
AcDbLine
 10
12.83103783311811
 20
3.37504738352612
 30
0.0
 11
12.83103783311811
 21
3.196234632302938
 31
0.0
  0
LINE
  5
448
330
D
100
AcDbEntity
 67
     1
  8
AM_VIS
100
AcDbLine
 10
12.82043123140031
 20
3.177863459232066
 30
0.0
 11
12.45556413230805
 21
2.967207341352711
 31
0.0
  0
LINE
  5
449
330
D
100
AcDbEntity
 67
     1
  8
AM_VIS
100
AcDbLine
 10
12.2901011455104
 20
3.062737441321258
 30
0.0
 11
12.44495753059025
 21
2.97333106570967
 31
0.0
  0
LINE
  5
44A
330
D
100
AcDbEntity
 67
     1
  8
AM_VIS
100
AcDbLine
 10
12.44495753059025
 20
2.973331065709667
 30
0.0
 11
12.44495753059025
 21
3.152143816932848
 31
0.0
  0
LINE
  5
44B
330
D
100
AcDbEntity
 67
     1
  8
AM_VIS
100
AcDbLine
 10
12.44495753059025
 20
3.152143816932841
 30
0.0
 11
12.23141128267192
 21
3.028852833212758
 31
0.0
  0
LINE
  5
44C
330
D
100
AcDbEntity
 67
     1
  8
AM_VIS
100
AcDbLine
 10
12.23141128267192
 20
3.028852833212758
 30
0.0
 11
12.23141128267192
 21
3.005990928946785
 31
0.0
  0
LINE
  5
44D
330
D
100
AcDbEntity
 67
     1
  8
AM_VIS
100
AcDbLine
 10
12.14302293502365
 20
2.852897820022868
 30
0.0
 11
12.13100211974344
 21
2.845957599084958
 31
0.0
  0
LINE
  5
44E
330
D
100
AcDbEntity
 67
     1
  8
AM_VIS
100
AcDbLine
 10
11.2068135567326
 20
2.893722649069225
 30
0.0
 11
11.71027358493744
 21
2.603049866258954
 31
0.0
  0
LINE
  5
44F
330
D
100
AcDbEntity
 67
     1
  8
AM_VIS
100
AcDbLine
 10
11.71027358493744
 20
2.603049866258953
 30
0.0
 11
11.71027358493744
 21
3.133772643861977
 31
0.0
  0
LINE
  5
450
330
D
100
AcDbEntity
 67
     1
  8
AM_VIS
100
AcDbLine
 10
11.2068135567326
 20
3.424445426672248
 30
0.0
 11
11.71027358493744
 21
3.133772643861977
 31
0.0
  0
LINE
  5
451
330
D
100
AcDbEntity
 67
     1
  8
AM_VIS
100
AcDbLine
 10
11.2068135567326
 20
2.893722649069225
 30
0.0
 11
11.2068135567326
 21
3.424445426672248
 31
0.0
  0
LINE
  5
452
330
D
100
AcDbEntity
 67
     1
  8
AM_VIS
100
AcDbLine
 10
11.29520190438092
 20
3.577538535596195
 30
0.0
 11
11.79866193258575
 21
3.286865752785926
 31
0.0
  0
LINE
  5
453
330
D
100
AcDbEntity
 67
     1
  8
AM_VIS
100
AcDbLine
 10
11.53915374389028
 20
3.718384195806228
 30
0.0
 11
12.04261377209511
 21
3.427711412995956
 31
0.0
  0
LINE
  5
454
330
D
100
AcDbEntity
 67
     1
  8
AM_VIS
100
AcDbLine
 10
12.13100211974343
 20
3.376680376687973
 30
0.0
 11
12.14302293502365
 21
3.383620597625886
 31
0.0
  0
LINE
  5
455
330
D
100
AcDbEntity
 67
     1
  8
AM_VIS
100
AcDbLine
 10
12.13004401675022
 20
3.391113979584839
 30
0.0
 11
12.14302293502365
 21
3.383620597625886
 31
0.0
  0
LINE
  5
456
330
D
100
AcDbEntity
 67
     1
  8
AM_VIS
100
AcDbLine
 10
12.23141128267192
 20
3.332589561317876
 30
0.0
 11
12.23141128267192
 21
3.309727657051898
 31
0.0
  0
LINE
  5
457
330
D
100
AcDbEntity
 67
     1
  8
AM_VIS
100
AcDbLine
 10
12.23141128267192
 20
3.309727657051905
 30
0.0
 11
12.44495753059025
 21
3.43301864077199
 31
0.0
  0
LINE
  5
458
330
D
100
AcDbEntity
 67
     1
  8
AM_VIS
100
AcDbLine
 10
11.94149750238543
 20
3.723691423582261
 30
0.0
 11
12.44495753059025
 21
3.43301864077199
 31
0.0
  0
LINE
  5
459
330
D
100
AcDbEntity
 67
     1
  8
AM_VIS
100
AcDbLine
 10
11.78436189669205
 20
3.632969139335904
 30
0.0
 11
11.94149750238543
 21
3.723691423582251
 31
0.0
  0
LINE
  5
45A
330
D
100
AcDbEntity
 67
     1
  8
AM_VIS
100
AcDbLine
 10
12.44495753059025
 20
3.43301864077199
 30
0.0
 11
12.44495753059025
 21
3.611831391995154
 31
0.0
  0
LINE
  5
45B
330
D
100
AcDbEntity
 67
     1
  8
AM_VIS
100
AcDbLine
 10
11.94149750238543
 20
3.902504174805424
 30
0.0
 11
12.44495753059025
 21
3.611831391995154
 31
0.0
  0
LINE
  5
45C
330
D
100
AcDbEntity
 67
     1
  8
AM_VIS
100
AcDbLine
 10
11.94149750238543
 20
3.723691423582261
 30
0.0
 11
11.94149750238543
 21
3.902504174805423
 31
0.0
  0
LINE
  5
45D
330
D
100
AcDbEntity
 67
     1
  8
AM_VIS
100
AcDbLine
 10
11.79866193258575
 20
3.286865752785924
 30
0.0
 11
12.04261377209511
 21
3.427711412995956
 31
0.0
  0
LINE
  5
45E
330
D
100
AcDbEntity
 67
     1
  8
AM_VIS
100
AcDbLine
 10
12.04261377209512
 20
2.692864490161004
 30
0.0
 11
11.79866193258575
 21
2.55201882995097
 31
0.0
  0
LINE
  5
45F
330
D
100
AcDbEntity
 67
     1
  8
AM_VIS
100
AcDbLine
 10
13.47733343112262
 20
3.52120027151218
 30
0.0
 11
13.23338159161326
 21
3.380354611302144
 31
0.0
  0
LINE
  5
460
330
D
100
AcDbEntity
 67
     1
  8
AM_VIS
100
AcDbLine
 10
13.23338159161326
 20
4.115201534137101
 30
0.0
 11
13.47733343112262
 21
4.256047194347133
 31
0.0
  0
LINE
  5
461
330
D
100
AcDbEntity
 67
     1
  8
AM_VIS
100
AcDbLine
 10
11.09155515139921
 20
3.459963027942598
 30
0.0
 11
11.29520190438092
 21
3.577538535596191
 31
0.0
  0
LINE
  5
462
330
D
100
AcDbEntity
 67
     1
  8
AM_VIS
100
AcDbLine
 10
11.00316680375089
 20
2.776147141415628
 30
0.0
 11
11.00316680375089
 21
3.306869919018645
 31
0.0
  0
LINE
  5
463
330
D
100
AcDbEntity
 67
     1
  8
AM_VIS
100
AcDbLine
 10
11.25859025202925
 20
2.821553865420521
 30
0.0
 11
11.09155515139921
 21
2.725116105107646
 31
0.0
  0
LINE
  5
464
330
D
100
AcDbEntity
 67
     1
  8
AM_VIS
100
AcDbLine
 10
11.53915374389028
 20
3.718384195806223
 30
0.0
 11
12.72992156340843
 21
4.405874316947368
 31
0.0
  0
LINE
  5
465
330
D
100
AcDbEntity
 67
     1
  8
AM_VIS
100
AcDbLine
 10
13.26590850354784
 20
4.613264448503011
 30
0.0
 11
13.26590850354784
 21
4.420388927877273
 31
0.0
  0
LINE
  5
466
330
D
100
AcDbEntity
 67
     1
  8
AM_VIS
100
AcDbLine
 10
12.9738734029178
 20
4.546719977157401
 30
0.0
 11
13.17752015589952
 21
4.664295484810994
 31
0.0
  0
LINE
  5
467
330
D
100
AcDbEntity
 67
     1
  8
AM_VIS
100
AcDbLine
 10
13.17752015589952
 20
4.664295484810994
 30
0.0
 11
13.10680947778086
 21
4.70512031385738
 31
0.0
  0
LINE
  5
468
330
D
100
AcDbEntity
 67
     1
  8
AM_VIS
100
AcDbLine
 10
11.09155515139921
 20
3.459963027942598
 30
0.0
 11
11.02084447328055
 21
3.500787856988984
 31
0.0
  0
LINE
  5
469
330
D
100
AcDbEntity
 67
     1
  8
AM_VIS
100
AcDbLine
 10
11.00316680375089
 20
3.306869919018645
 30
0.0
 11
10.93245612563223
 21
3.34769474806503
 31
0.0
  0
LINE
  5
46A
330
D
100
AcDbEntity
 67
     1
  8
AM_VIS
100
AcDbLine
 10
11.00316680375089
 20
2.776147141415628
 30
0.0
 11
10.93245612563223
 21
2.816971970462015
 31
0.0
  0
LINE
  5
46B
330
D
100
AcDbEntity
 67
     1
  8
AM_VIS
100
AcDbLine
 10
12.32447120319549
 20
4.132274398098502
 30
0.0
 11
12.82793123140031
 21
3.841601615288231
 31
0.0
  0
LINE
  5
46C
330
D
100
AcDbEntity
 67
     1
  8
AM_VIS
100
AcDbLine
 10
13.0363734029178
 20
4.552911080014493
 30
0.0
 11
13.53983343112262
 21
4.262238297204222
 31
0.0
  0
LINE
  5
46D
330
D
100
AcDbEntity
 67
     1
  8
AM_VIS
100
AcDbLine
 10
13.1032256102089
 20
3.413224707521151
 30
0.0
 11
13.17088159161325
 21
3.374163508445056
 31
0.0
  0
LINE
  5
46E
330
D
100
AcDbEntity
 67
     1
  8
AM_VIS
100
AcDbLine
 10
12.98817343881144
 20
3.465769667772438
 30
0.0
 11
13.07047242868466
 21
3.4182543238151
 31
0.0
  0
LINE
  5
46F
330
D
100
AcDbEntity
 67
     1
  8
AM_VIS
100
AcDbLine
 10
12.28570774722818
 20
3.060200911640371
 30
0.0
 11
12.44806413230805
 21
2.966464409009859
 31
0.0
  0
LINE
  5
470
330
D
100
AcDbEntity
 67
     1
  8
AM_VIS
100
AcDbLine
 10
11.23270190438093
 20
2.836500509904153
 30
0.0
 11
11.73616193258576
 21
2.545827727093882
 31
0.0
  0
LINE
  5
471
330
D
100
AcDbEntity
 67
     1
  8
AM_VIS
100
AcDbLine
 10
11.60165374389029
 20
3.724575298663316
 30
0.0
 11
12.10511377209511
 21
3.433902515853046
 31
0.0
  0
LINE
  5
472
330
D
100
AcDbEntity
 67
     1
  8
AM_VIS
100
AcDbLine
 10
11.70206290681883
 20
3.680484483293244
 30
0.0
 11
12.20552293502365
 21
3.389811700482975
 31
0.0
  0
LINE
  5
473
330
D
100
AcDbEntity
 67
     1
  8
AM_VIS
100
AcDbLine
 10
13.24002015589953
 20
4.670486587668082
 30
0.0
 11
13.16930947778087
 21
4.711311416714468
 31
0.0
  0
LINE
  5
474
330
D
100
AcDbEntity
 67
     1
  8
AM_VIS
100
AcDbLine
 10
11.02905515139921
 20
2.718925002250556
 30
0.0
 11
10.95834447328055
 21
2.759749831296943
 31
0.0
  0
ELLIPSE
  5
475
330
D
100
AcDbEntity
 67
     1
  8
AM_VIS
100
AcDbEllipse
 10
11.02084447328055
 20
2.868003006769998
 30
0.0
 11
0.0625
 21
0.1082531754730548
 31
0.0
210
0.0
220
0.0
230
1.0
 40
0.5773502691896262
 41
2.356194490192351
 42
3.141592653589801
  0
ELLIPSE
  5
476
330
D
100
AcDbEntity
 67
     1
  8
AM_VIS
100
AcDbEllipse
 10
11.02084447328055
 20
3.398725784373018
 30
0.0
 11
0.0625
 21
0.1082531754730548
 31
0.0
210
0.0
220
0.0
230
1.0
 40
0.5773502691896262
 41
0.7853981633974528
 42
2.356194490192349
  0
ELLIPSE
  5
477
330
D
100
AcDbEntity
 67
     1
  8
AM_VIS
100
AcDbEllipse
 10
13.10680947778086
 20
4.603058241241415
 30
0.0
 11
0.0625
 21
0.1082531754730548
 31
0.0
210
0.0
220
0.0
230
1.0
 40
0.5773502691896262
 41
0.0000000000000007
 42
0.7853981633974528
  0
ELLIPSE
  5
478
330
D
100
AcDbEntity
 67
     1
  8
AM_VIS
100
AcDbEllipse
 10
12.82043123140031
 20
3.828611234231466
 30
0.0
 11
0.0075000000000006
 21
0.0129903810567659
 31
0.0
210
0.0
220
0.0
230
0.9999999999999998
 40
0.5773502691896261
 41
5.497787143782244
 42
7.068583470577141
  0
ELLIPSE
  5
479
330
D
100
AcDbEntity
 67
     1
  8
AM_VIS
100
AcDbEllipse
 10
12.31697120319549
 20
4.119284017041736
 30
0.0
 11
0.0075000000000006
 21
0.0129903810567659
 31
0.0
210
0.0
220
0.0
230
0.9999999999999998
 40
0.5773502691896261
 41
0.0000000000003273
 42
0.7853981633976816
  0
ELLIPSE
  5
47A
330
D
100
AcDbEntity
 67
     1
  8
AM_VIS
100
AcDbEllipse
 10
13.13297242868466
 20
3.853106131659238
 30
0.0
 11
0.0625000000000065
 21
0.1082531754730511
 31
0.0
210
0.0
220
0.0
230
0.9999999999999998
 40
0.5773502691896261
 41
0.785398163397626
 42
2.356194490192522
  0
ELLIPSE
  5
47B
330
D
100
AcDbEntity
 67
     1
  8
AM_VIS
100
AcDbEllipse
 10
12.62951240047984
 20
4.143778914469508
 30
0.0
 11
0.0625000000000065
 21
0.1082531754730511
 31
0.0
210
0.0
220
0.0
230
0.9999999999999998
 40
0.5773502691896261
 41
0.7853981633976126
 42
2.356194490192509
  0
ELLIPSE
  5
47C
330
D
100
AcDbEntity
 67
     1
  8
AM_VIS
100
AcDbEllipse
 10
13.23338159161326
 20
4.013139461521134
 30
0.0
 11
0.0625000000000065
 21
0.1082531754730511
 31
0.0
210
0.0
220
0.0
230
0.9999999999999998
 40
0.5773502691896261
 41
0.7853981633976252
 42
2.35619449019252
  0
ELLIPSE
  5
47D
330
D
100
AcDbEntity
 67
     1
  8
AM_VIS
100
AcDbEllipse
 10
12.72992156340843
 20
4.303812244331407
 30
0.0
 11
0.0625000000000065
 21
0.1082531754730511
 31
0.0
210
0.0
220
0.0
230
0.9999999999999998
 40
0.5773502691896261
 41
0.7853981633976252
 42
2.35619449019252
  0
ELLIPSE
  5
47E
330
D
100
AcDbEntity
 67
     1
  8
AM_VIS
100
AcDbEllipse
 10
13.47733343112262
 20
4.153985121731169
 30
0.0
 11
0.0625000000000065
 21
0.1082531754730511
 31
0.0
210
0.0
220
0.0
230
0.9999999999999998
 40
0.5773502691896261
 41
5.497787143782302
 42
7.068583470577197
  0
ELLIPSE
  5
47F
330
D
100
AcDbEntity
 67
     1
  8
AM_VIS
100
AcDbEllipse
 10
12.9738734029178
 20
4.44465790454144
 30
0.0
 11
0.0625000000000065
 21
0.1082531754730511
 31
0.0
210
0.0
220
0.0
230
0.9999999999999998
 40
0.5773502691896261
 41
0.0000000000001732
 42
0.7853981633976268
  0
ELLIPSE
  5
480
330
D
100
AcDbEntity
 67
     1
  8
AM_VIS
100
AcDbEllipse
 10
13.47733343112262
 20
3.623262344128146
 30
0.0
 11
0.0625000000000065
 21
0.1082531754730511
 31
0.0
210
0.0
220
0.0
230
0.9999999999999998
 40
0.5773502691896261
 41
3.926990816987419
 42
5.497787143782315
  0
ELLIPSE
  5
481
330
D
100
AcDbEntity
 67
     1
  8
AM_VIS
100
AcDbEllipse
 10
13.23338159161325
 20
3.48241668391811
 30
0.0
 11
0.0625000000000065
 21
0.1082531754730511
 31
0.0
210
0.0
220
0.0
230
0.9999999999999998
 40
0.5773502691896261
 41
2.356194490192522
 42
3.926990816987419
  0
ELLIPSE
  5
482
330
D
100
AcDbEntity
 67
     1
  8
AM_VIS
100
AcDbEllipse
 10
13.13297242868466
 20
3.526507499288154
 30
0.0
 11
0.0625000000000065
 21
0.1082531754730511
 31
0.0
210
0.0
220
0.0
230
0.9999999999999998
 40
0.5773502691896261
 41
2.356194490192508
 42
3.926990816987403
  0
ELLIPSE
  5
483
330
D
100
AcDbEntity
 67
     1
  8
AM_VIS
100
AcDbEllipse
 10
12.82043123140031
 20
3.190110907945979
 30
0.0
 11
0.0075000000000006
 21
0.0129903810567659
 31
0.0
210
0.0
220
0.0
230
0.9999999999999998
 40
0.5773502691896261
 41
3.926990816987354
 42
5.497787143782251
  0
ELLIPSE
  5
484
330
D
100
AcDbEntity
 67
     1
  8
AM_VIS
100
AcDbEllipse
 10
12.45556413230805
 20
2.979454790066626
 30
0.0
 11
0.0075000000000006
 21
0.0129903810567659
 31
0.0
210
0.0
220
0.0
230
0.9999999999999998
 40
0.5773502691896261
 41
2.356194490192576
 42
3.926990816987473
  0
ELLIPSE
  5
485
330
D
100
AcDbEntity
 67
     1
  8
AM_VIS
100
AcDbEllipse
 10
12.14302293502359
 20
2.954959892638802
 30
0.0
 11
0.0625000000000065
 21
0.1082531754730511
 31
0.0
210
0.0
220
0.0
230
0.9999999999999998
 40
0.5773502691896261
 41
3.926990816987403
 42
5.497787143782299
  0
ELLIPSE
  5
486
330
D
100
AcDbEntity
 67
     1
  8
AM_VIS
100
AcDbEllipse
 10
12.04261377209512
 20
2.79492656277697
 30
0.0
 11
0.0625000000000065
 21
0.1082531754730511
 31
0.0
210
0.0
220
0.0
230
0.9999999999999998
 40
0.5773502691896261
 41
3.926990816987418
 42
5.497787143782313
  0
ELLIPSE
  5
487
330
D
100
AcDbEntity
 67
     1
  8
AM_VIS
100
AcDbEllipse
 10
11.79866193258575
 20
2.654080902566936
 30
0.0
 11
0.0625000000000065
 21
0.1082531754730511
 31
0.0
210
0.0
220
0.0
230
0.9999999999999998
 40
0.5773502691896261
 41
2.356194490192505
 42
3.926990816987403
  0
ELLIPSE
  5
488
330
D
100
AcDbEntity
 67
     1
  8
AM_VIS
100
AcDbEllipse
 10
11.29520190438092
 20
2.944753685377207
 30
0.0
 11
0.0625000000000065
 21
0.1082531754730511
 31
0.0
210
0.0
220
0.0
230
0.9999999999999998
 40
0.5773502691896261
 41
2.356194490192515
 42
3.141592653589964
  0
ELLIPSE
  5
489
330
D
100
AcDbEntity
 67
     1
  8
AM_VIS
100
AcDbEllipse
 10
11.79866193258575
 20
3.184803680169959
 30
0.0
 11
0.0625000000000065
 21
0.1082531754730511
 31
0.0
210
0.0
220
0.0
230
0.9999999999999998
 40
0.5773502691896261
 41
0.785398163397626
 42
2.356194490192522
  0
ELLIPSE
  5
48A
330
D
100
AcDbEntity
 67
     1
  8
AM_VIS
100
AcDbEllipse
 10
11.29520190438092
 20
3.475476462980231
 30
0.0
 11
0.0625000000000065
 21
0.1082531754730511
 31
0.0
210
0.0
220
0.0
230
0.9999999999999998
 40
0.5773502691896261
 41
0.7853981633976196
 42
2.356194490192515
  0
ELLIPSE
  5
48B
330
D
100
AcDbEntity
 67
     1
  8
AM_VIS
100
AcDbEllipse
 10
12.04261377209511
 20
3.32564934037999
 30
0.0
 11
0.0625000000000065
 21
0.1082531754730511
 31
0.0
210
0.0
220
0.0
230
0.9999999999999998
 40
0.5773502691896261
 41
5.497787143782299
 42
7.068583470577197
  0
ELLIPSE
  5
48C
330
D
100
AcDbEntity
 67
     1
  8
AM_VIS
100
AcDbEllipse
 10
11.53915374389028
 20
3.616322123190261
 30
0.0
 11
0.0625000000000065
 21
0.1082531754730511
 31
0.0
210
0.0
220
0.0
230
0.9999999999999998
 40
0.5773502691896261
 41
0.0000000000001705
 42
0.7853981633976189
  0
ELLIPSE
  5
48D
330
D
100
AcDbEntity
 67
     1
  8
AM_VIS
100
AcDbEllipse
 10
12.14302293502365
 20
3.281558525009921
 30
0.0
 11
0.0625000000000065
 21
0.1082531754730511
 31
0.0
210
0.0
220
0.0
230
0.9999999999999998
 40
0.5773502691896261
 41
5.497787143782315
 42
7.068583470577212
  0
ELLIPSE
  5
48E
330
D
100
AcDbEntity
 67
     1
  8
AM_VIS
100
AcDbEllipse
 10
11.63956290681883
 20
3.57223130782019
 30
0.0
 11
0.0625000000000065
 21
0.1082531754730511
 31
0.0
210
0.0
220
0.0
230
0.9999999999999998
 40
0.5773502691896261
 41
0.0000000000001807
 42
0.4421507600445347
  0
ELLIPSE
  5
48F
330
D
100
AcDbEntity
 67
     1
  8
AM_VIS
100
AcDbEllipse
 10
12.45556413230805
 20
3.617955116352111
 30
0.0
 11
0.0075000000000006
 21
0.0129903810567659
 31
0.0
210
0.0
220
0.0
230
0.9999999999999998
 40
0.5773502691896261
 41
0.7853981633975559
 42
2.356194490192451
  0
ELLIPSE
  5
490
330
D
100
AcDbEntity
 67
     1
  8
AM_VIS
100
AcDbEllipse
 10
11.95210410410323
 20
3.908627899162381
 30
0.0
 11
0.0075000000000006
 21
0.0129903810567659
 31
0.0
210
0.0
220
0.0
230
0.9999999999999998
 40
0.5773502691896261
 41
0.7853981633975629
 42
2.356194490192458
  0
ELLIPSE
  5
491
330
D
100
AcDbEntity
 67
     1
  8
AM_VIS
100
AcDbEllipse
 10
11.09155515139921
 20
3.357900955326631
 30
0.0
 11
0.0625000000000065
 21
0.1082531754730511
 31
0.0
210
0.0
220
0.0
230
0.9999999999999998
 40
0.5773502691896261
 41
0.7853981633976189
 42
2.356194490192515
  0
ELLIPSE
  5
492
330
D
100
AcDbEntity
 67
     1
  8
AM_VIS
100
AcDbEllipse
 10
11.09155515139921
 20
2.827178177723611
 30
0.0
 11
0.0625000000000065
 21
0.1082531754730511
 31
0.0
210
0.0
220
0.0
230
0.9999999999999998
 40
0.5773502691896261
 41
2.356194490192515
 42
3.926990816987411
  0
ELLIPSE
  5
493
330
D
100
AcDbEntity
 67
     1
  8
AM_VIS
100
AcDbEllipse
 10
13.17752015589952
 20
4.562233412195028
 30
0.0
 11
0.0625000000000065
 21
0.1082531754730511
 31
0.0
210
0.0
220
0.0
230
0.9999999999999998
 40
0.5773502691896261
 41
5.497787143782302
 42
7.068583470577197
  0
VIEWPORT
  5
49D
330
D
100
AcDbEntity
 67
     1
  8
0
 62
     1
100
AcDbViewport
 10
8.302695222471628
 20
4.832581127481545
 30
0.0
 40
17.0801062412819
 41
12.81661877217171
 68
     1
 69
     1
 12
8.302695222471628
 22
4.832581127481545
 13
0.0
 23
0.0
 14
1.0
 24
1.0
 15
0.0
 25
0.0
 16
0.0
 26
0.0
 36
1.0
 17
0.0
 27
0.0
 37
0.0
 42
50.0
 43
0.0
 44
0.0
 45
12.81661877217171
 50
0.0
 51
0.0
 72
   100
 90
    32800
  1

281
     0
 71
     0
 74
     0
110
0.0
120
0.0
130
0.0
111
1.0
121
0.0
131
0.0
112
0.0
122
1.0
132
0.0
 79
     0
146
0.0
  0
ENDSEC
  0
SECTION
  2
OBJECTS
  0
DICTIONARY
  5
8
330
0
100
AcDbDictionary
281
     1
  3
ACAD_GROUP
350
21
  3
ACAD_LAYOUT
350
C
  3
ACAD_MLINESTYLE
350
22
  3
ACAD_PLOTSETTINGS
350
23
  3
ACAD_PLOTSTYLENAME
350
7
  3
AcDbVariableDictionary
350
495
  3
AcmDictionary
350
559
  3
AMG
350
49E
  3
AMGSNAPSETTINGS
350
594
  3
DWGPROPS
350
55C
  3
MAPISURF_MODULE
350
52B
  0
DICTIONARY
  5
3
330
2
100
AcDbDictionary
280
     1
281
     1
  3
ACAD_INDEX
360
597
  0
DICTIONARY
  5
21
102
{ACAD_REACTORS
330
8
102
}
330
8
100
AcDbDictionary
281
     1
  0
DICTIONARY
  5
C
102
{ACAD_REACTORS
330
8
102
}
330
8
100
AcDbDictionary
281
     1
  3
Layout1
350
10
  3
Model
350
B
  0
DICTIONARY
  5
22
102
{ACAD_REACTORS
330
8
102
}
330
8
100
AcDbDictionary
281
     1
  3
Standard
350
25
  0
DICTIONARY
  5
23
102
{ACAD_REACTORS
330
8
102
}
330
8
100
AcDbDictionary
281
     1
  0
ACDBDICTIONARYWDFLT
  5
7
102
{ACAD_REACTORS
330
8
102
}
330
8
100
AcDbDictionary
281
     1
  3
Normal
350
6
100
AcDbDictionaryWithDefault
340
6
  0
DICTIONARY
  5
495
102
{ACAD_REACTORS
330
8
102
}
330
8
100
AcDbDictionary
281
     1
  3
DIMASSOC
350
497
  3
HIDETEXT
350
496
  3
INDEXCTL
350
5A1
  0
DICTIONARY
  5
559
102
{ACAD_REACTORS
330
8
102
}
330
8
100
AcDbDictionary
281
     1
  3
AcmBOMDATA
350
55A
  3
AcmStdDictionary
350
568
  0
DICTIONARY
  5
49E
102
{ACAD_REACTORS
330
8
102
}
330
8
100
AcDbDictionary
281
     1
  3
AcMgSettings
350
49F
  3
AMGLAYCFG
350
56A
  0
DICTIONARY
  5
594
102
{ACAD_REACTORS
330
8
102
}
330
8
100
AcDbDictionary
281
     1
  3
HATCH (1)
350
595
  3
HATCH (2)
350
596
  0
XRECORD
  5
55C
102
{ACAD_REACTORS
330
8
102
}
330
8
100
AcDbXrecord
280
     1
  1
DWGPROPS COOKIE
  2

  3

  4

  6

  7

  8

  9

300
AmdtFileType=84
301
=
302
=
303
=
304
=
305
=
306
=
307
=
308
=
309
=
 40
0.0488906944444445
 41
2452195.581576782
 42
2452773.598998472
  1

 90
        1
  0
DICTIONARY
  5
597
102
{ACAD_REACTORS
330
3
102
}
330
3
100
AcDbDictionary
281
     1
  3
*A1
350
598
  0
LAYOUT
  5
10
102
{ACAD_REACTORS
330
C
102
}
330
C
100
AcDbPlotSettings
  1

  2
\\NTSERVER_40\HP DesignJet 750C (D/A1) by HP
  4
User1287
  6

 40
4.995333194732666
 41
16.9333209991455
 42
4.995330810546875
 43
16.93331909179687
 44
431.71533203125
 45
279.2306518554687
 46
0.0
 47
0.0
 48
0.0
 49
0.0
140
0.0
141
0.0
142
1.0
143
1.0
 70
   688
 72
     0
 73
     0
 74
     5
  7

 75
     0
147
1.0
148
0.0
149
0.0
100
AcDbLayout
  1
Layout1
 70
     1
 71
     1
 10
-0.1966666612099475
 20
-0.6666661810687208
 11
16.79999995419359
 21
10.32666656914658
 12
0.0
 22
0.0
 32
0.0
 14
-0.1983424068507986
 24
-0.6680902797270783
 34
-0.0000210579213153
 15
16.80373285179405
 25
10.33325253469017
 35
0.0000140989677222
146
0.0
 13
0.0
 23
0.0
 33
0.0
 16
1.0
 26
0.0
 36
0.0
 17
0.0
 27
1.0
 37
0.0
 76
     0
330
D
331
49D
  0
LAYOUT
  5
B
102
{ACAD_REACTORS
330
C
102
}
330
C
100
AcDbPlotSettings
  1

  2
Canon BJC-5100
  4

  6

 40
0.0
 41
0.0
 42
0.0
 43
0.0
 44
0.0
 45
0.0
 46
0.0
 47
0.0
 48
0.0
 49
0.0
140
0.0
141
0.0
142
1.0
143
1.0
 70
  1712
 72
     0
 73
     0
 74
     0
  7

 75
     0
147
1.0
148
0.0
149
0.0
100
AcDbLayout
  1
Model
 70
     1
 71
     0
 10
0.0
 20
0.0
 11
12.0
 21
9.0
 12
0.0
 22
0.0
 32
0.0
 14
0.0
 24
0.0
 34
0.0
 15
0.0
 25
0.0
 35
0.0
146
0.0
 13
0.0
 23
0.0
 33
0.0
 16
1.0
 26
0.0
 36
0.0
 17
0.0
 27
1.0
 37
0.0
 76
     0
330
2
  0
MLINESTYLE
  5
25
102
{ACAD_REACTORS
330
22
102
}
330
22
100
AcDbMlineStyle
  2
STANDARD
 70
     0
  3

 62
   256
 51
90.0
 52
90.0
 71
     2
 49
0.5
 62
   256
  6
BYLAYER
 49
-0.5
 62
   256
  6
BYLAYER
  0
ACDBPLACEHOLDER
  5
6
102
{ACAD_REACTORS
330
7
102
}
330
7
  0
DICTIONARYVAR
  5
497
102
{ACAD_REACTORS
330
495
102
}
330
495
100
DictionaryVariables
280
     0
  1
1
  0
DICTIONARYVAR
  5
496
102
{ACAD_REACTORS
330
495
102
}
330
495
100
DictionaryVariables
280
     0
  1
1
  0
DICTIONARYVAR
  5
5A1
102
{ACAD_REACTORS
330
495
102
}
330
495
100
DictionaryVariables
280
     0
  1
1
  0
ACMDATADICTIONARY
  5
55A
102
{ACAD_REACTORS
330
559
102
}
330
559
100
AcDbDictionary
281
     1
  3
*A1
350
55B
100
AcmDataDictionary
  0
DICTIONARY
  5
568
102
{ACAD_REACTORS
330
559
102
}
330
559
100
AcDbDictionary
281
     1
  3
ANSI
350
569
  0
DICTIONARY
  5
49F
102
{ACAD_REACTORS
330
49E
102
}
330
49E
100
AcDbDictionary
281
     1
  3
DWGSETTINGS
350
4A0
  3
TRANSSETTINGS
350
4A4
  0
ACAMGFILTERDAT
  5
595
102
{ACAD_REACTORS
330
594
102
}
330
594
100
AcAmgFilterDat
 70
    15
  1
HATCH
  2
*
  3
*
  4
*
  5
*
290
     1
  0
ACAMGFILTERDAT
  5
596
102
{ACAD_REACTORS
330
594
102
}
330
594
100
AcAmgFilterDat
 70
    15
  1
LINE
  2
8,8N,*-8,*-8N,AM_8,AM_8N,*-AM_8,*-AM_8N
  3
*
  4
*
  5
INSERT,STDPART2D
290
     1
  0
LAYER_INDEX
  5
598
102
{ACAD_REACTORS
330
597
102
}
330
597
100
AcDbIndex
 40
2452773.607213356
100
AcDbLayerIndex
  8
0
360
599
 90
        0
  8
Defpoints
360
59A
 90
        0
  8
AM_VIS
360
59B
 90
        0
  8
AM_HID
360
59C
 90
        0
  8
CENTER
360
59D
 90
        0
  8
PHANTOM
360
59E
 90
        0
  8
10
360
59F
 90
        0
  8
DIMENSION
360
5A0
 90
        0
  0
ACMDATAENTRYBLOCK
  5
55B
102
{ACAD_REACTORS
330
55A
102
}
330
55A
100
AcmDataEntry
100
AcmDataEntryBlock
  0
IDBUFFER
  5
599
330
0
100
AcDbIdBuffer
  0
IDBUFFER
  5
59A
330
0
100
AcDbIdBuffer
  0
IDBUFFER
  5
59B
330
0
100
AcDbIdBuffer
  0
IDBUFFER
  5
59C
330
0
100
AcDbIdBuffer
  0
IDBUFFER
  5
59D
330
0
100
AcDbIdBuffer
  0
IDBUFFER
  5
59E
330
0
100
AcDbIdBuffer
  0
IDBUFFER
  5
59F
330
0
100
AcDbIdBuffer
  0
IDBUFFER
  5
5A0
330
0
100
AcDbIdBuffer
  0
ENDSEC
  0
EOF
