  0
SECTION
  2
HEADER
  9
$ACADVER
  1
AC1015
  9
$ACADMAINTVER
 70
    20
  9
$DWGCODEPAGE
  3
ANSI_1252
  9
$INSBASE
 10
0.0
 20
0.0
 30
0.0
  9
$EXTMIN
 10
0.0
 20
-0.0000000000000067
 30
0.0
  9
$EXTMAX
 10
11.00000000000012
 20
8.500000000000001
 30
0.0
  9
$LIMMIN
 10
0.0
 20
0.0
  9
$LIMMAX
 10
17.0
 20
11.0
  9
$ORTHOMODE
 70
     1
  9
$REGENMODE
 70
     1
  9
$FILLMODE
 70
     1
  9
$QTEXTMODE
 70
     0
  9
$MIRRTEXT
 70
     1
  9
$LTSCALE
 40
1.0
  9
$ATTMODE
 70
     1
  9
$TEXTSIZE
 40
0.12
  9
$TRACEWID
 40
0.05
  9
$TEXTSTYLE
  7
outline drawings
  9
$CLAYER
  8
0
  9
$CELTYPE
  6
BYLAYER
  9
$CECOLOR
 62
   256
  9
$CELTSCALE
 40
1.0
  9
$DISPSILH
 70
     0
  9
$DIMSCALE
 40
1.0
  9
$DIMASZ
 40
0.125
  9
$DIMEXO
 40
0.0625
  9
$DIMDLI
 40
0.38
  9
$DIMRND
 40
0.0
  9
$DIMDLE
 40
0.0
  9
$DIMEXE
 40
0.18
  9
$DIMTP
 40
0.0
  9
$DIMTM
 40
0.0
  9
$DIMTXT
 40
0.18
  9
$DIMCEN
 40
0.09
  9
$DIMTSZ
 40
0.0
  9
$DIMTOL
 70
     0
  9
$DIMLIM
 70
     0
  9
$DIMTIH
 70
     1
  9
$DIMTOH
 70
     1
  9
$DIMSE1
 70
     0
  9
$DIMSE2
 70
     0
  9
$DIMTAD
 70
     0
  9
$DIMZIN
 70
     0
  9
$DIMBLK
  1

  9
$DIMASO
 70
     1
  9
$DIMSHO
 70
     1
  9
$DIMPOST
  1
 mm\X
  9
$DIMAPOST
  1
 in
  9
$DIMALT
 70
     1
  9
$DIMALTD
 70
     2
  9
$DIMALTF
 40
0.0393700787
  9
$DIMLFAC
 40
25.4
  9
$DIMTOFL
 70
     0
  9
$DIMTVP
 40
0.0
  9
$DIMTIX
 70
     0
  9
$DIMSOXD
 70
     0
  9
$DIMSAH
 70
     0
  9
$DIMBLK1
  1

  9
$DIMBLK2
  1

  9
$DIMSTYLE
  2
Outline Drawings
  9
$DIMCLRD
 70
     0
  9
$DIMCLRE
 70
     0
  9
$DIMCLRT
 70
     0
  9
$DIMTFAC
 40
1.0
  9
$DIMGAP
 40
0.09
  9
$DIMJUST
 70
     0
  9
$DIMSD1
 70
     0
  9
$DIMSD2
 70
     0
  9
$DIMTOLJ
 70
     1
  9
$DIMTZIN
 70
     0
  9
$DIMALTZ
 70
     0
  9
$DIMALTTZ
 70
     0
  9
$DIMUPT
 70
     0
  9
$DIMDEC
 70
     0
  9
$DIMTDEC
 70
     0
  9
$DIMALTU
 70
     2
  9
$DIMALTTD
 70
     2
  9
$DIMTXSTY
  7
outline drawings
  9
$DIMAUNIT
 70
     0
  9
$DIMADEC
 70
     0
  9
$DIMALTRND
 40
0.0
  9
$DIMAZIN
 70
     0
  9
$DIMDSEP
 70
    46
  9
$DIMATFIT
 70
     3
  9
$DIMFRAC
 70
     0
  9
$DIMLDRBLK
  1

  9
$DIMLUNIT
 70
     2
  9
$DIMLWD
 70
    -2
  9
$DIMLWE
 70
    -2
  9
$DIMTMOVE
 70
     0
  9
$LUNITS
 70
     2
  9
$LUPREC
 70
     4
  9
$SKETCHINC
 40
0.1
  9
$FILLETRAD
 40
0.125
  9
$AUNITS
 70
     0
  9
$AUPREC
 70
     0
  9
$MENU
  1
.
  9
$ELEVATION
 40
0.0
  9
$PELEVATION
 40
0.0
  9
$THICKNESS
 40
0.0
  9
$LIMCHECK
 70
     0
  9
$CHAMFERA
 40
0.125
  9
$CHAMFERB
 40
0.125
  9
$CHAMFERC
 40
1.0
  9
$CHAMFERD
 40
0.0
  9
$SKPOLY
 70
     1
  9
$TDCREATE
 40
2453740.440044271
  9
$TDUCREATE
 40
2453740.606710938
  9
$TDUPDATE
 40
2453854.490731679
  9
$TDUUPDATE
 40
2453854.657398345
  9
$TDINDWG
 40
0.1560695255
  9
$TDUSRTIMER
 40
0.1560693519
  9
$USRTIMER
 70
     1
  9
$ANGBASE
 50
0.0
  9
$ANGDIR
 70
     0
  9
$PDMODE
 70
     0
  9
$PDSIZE
 40
0.0
  9
$PLINEWID
 40
0.0
  9
$SPLFRAME
 70
     0
  9
$SPLINETYPE
 70
     6
  9
$SPLINESEGS
 70
     8
  9
$HANDSEED
  5
1FA9
  9
$SURFTAB1
 70
     6
  9
$SURFTAB2
 70
     6
  9
$SURFTYPE
 70
     6
  9
$SURFU
 70
     6
  9
$SURFV
 70
     6
  9
$UCSBASE
  2

  9
$UCSNAME
  2

  9
$UCSORG
 10
0.0
 20
0.0
 30
0.0
  9
$UCSXDIR
 10
1.0
 20
0.0
 30
0.0
  9
$UCSYDIR
 10
0.0
 20
1.0
 30
0.0
  9
$UCSORTHOREF
  2

  9
$UCSORTHOVIEW
 70
     0
  9
$UCSORGTOP
 10
0.0
 20
0.0
 30
0.0
  9
$UCSORGBOTTOM
 10
0.0
 20
0.0
 30
0.0
  9
$UCSORGLEFT
 10
0.0
 20
0.0
 30
0.0
  9
$UCSORGRIGHT
 10
0.0
 20
0.0
 30
0.0
  9
$UCSORGFRONT
 10
0.0
 20
0.0
 30
0.0
  9
$UCSORGBACK
 10
0.0
 20
0.0
 30
0.0
  9
$PUCSBASE
  2

  9
$PUCSNAME
  2

  9
$PUCSORG
 10
0.0
 20
0.0
 30
0.0
  9
$PUCSXDIR
 10
1.0
 20
0.0
 30
0.0
  9
$PUCSYDIR
 10
0.0
 20
1.0
 30
0.0
  9
$PUCSORTHOREF
  2

  9
$PUCSORTHOVIEW
 70
     0
  9
$PUCSORGTOP
 10
0.0
 20
0.0
 30
0.0
  9
$PUCSORGBOTTOM
 10
0.0
 20
0.0
 30
0.0
  9
$PUCSORGLEFT
 10
0.0
 20
0.0
 30
0.0
  9
$PUCSORGRIGHT
 10
0.0
 20
0.0
 30
0.0
  9
$PUCSORGFRONT
 10
0.0
 20
0.0
 30
0.0
  9
$PUCSORGBACK
 10
0.0
 20
0.0
 30
0.0
  9
$USERI1
 70
     0
  9
$USERI2
 70
     0
  9
$USERI3
 70
     0
  9
$USERI4
 70
     0
  9
$USERI5
 70
     0
  9
$USERR1
 40
0.0
  9
$USERR2
 40
0.0
  9
$USERR3
 40
0.0
  9
$USERR4
 40
0.0
  9
$USERR5
 40
0.0
  9
$WORLDVIEW
 70
     1
  9
$SHADEDGE
 70
     3
  9
$SHADEDIF
 70
    70
  9
$TILEMODE
 70
     1
  9
$MAXACTVP
 70
    48
  9
$PINSBASE
 10
0.0
 20
0.0
 30
0.0
  9
$PLIMCHECK
 70
     0
  9
$PEXTMIN
 10
1.000000000000000E+20
 20
1.000000000000000E+20
 30
1.000000000000000E+20
  9
$PEXTMAX
 10
-1.000000000000000E+20
 20
-1.000000000000000E+20
 30
-1.000000000000000E+20
  9
$PLIMMIN
 10
-0.2500002402958907
 20
-0.2499999962453767
  9
$PLIMMAX
 10
10.74999951940821
 20
8.249999763458731
  9
$UNITMODE
 70
     0
  9
$VISRETAIN
 70
     1
  9
$PLINEGEN
 70
     0
  9
$PSLTSCALE
 70
     1
  9
$TREEDEPTH
 70
  3020
  9
$CMLSTYLE
  2
STANDARD
  9
$CMLJUST
 70
     0
  9
$CMLSCALE
 40
1.0
  9
$PROXYGRAPHICS
 70
     1
  9
$MEASUREMENT
 70
     0
  9
$CELWEIGHT
370
    -1
  9
$ENDCAPS
280
     0
  9
$JOINSTYLE
280
     0
  9
$LWDISPLAY
290
     0
  9
$INSUNITS
 70
     1
  9
$HYPERLINKBASE
  1

  9
$STYLESHEET
  1

  9
$XEDIT
290
     1
  9
$CEPSNTYPE
380
     0
  9
$PSTYLEMODE
290
     1
  9
$FINGERPRINTGUID
  2
{3106AFA0-C015-4CE1-8B58-D5EF6B01FEB8}
  9
$VERSIONGUID
  2
{F6126673-B16A-4078-AFB8-2A79E86D09E8}
  9
$EXTNAMES
290
     1
  9
$PSVPSCALE
 40
0.0
  9
$OLESTARTUP
290
     0
  0
ENDSEC
  0
SECTION
  2
CLASSES
  0
CLASS
  1
ACMESTATEMGR
  2
AcMeStateMgr
  3
AcMeServices
 90
        0
280
     0
281
     0
  0
CLASS
  1
ACMESCOPE
  2
AcMeScope
  3
AcMeServices
 90
        0
280
     0
281
     0
  0
CLASS
  1
ACMECOMMANDHISTORY
  2
AcMeCommandHistory
  3
AcMeServices
 90
        0
280
     0
281
     0
  0
CLASS
  1
ACRFINSADJUSTERMGR
  2
AcRfInsAdjusterMgr
  3
AcMeServices
 90
        0
280
     0
281
     0
  0
CLASS
  1
ACMEDRAWINGMAN
  2
AcMeDrawingMan
  3
AcMeServices
 90
        0
280
     0
281
     0
  0
CLASS
  1
AMATTR
  2
AcMeAttribute
  3
AcMeServices
 90
    32768
280
     0
281
     0
  0
CLASS
  1
ACMEBOMCOLUMN
  2
AcMeBOMColumn
  3
AcMeServices
 90
    32768
280
     0
281
     0
  0
CLASS
  1
ACMEBOMCONF
  2
AcMeBOMConf
  3
AcMeServices
 90
    32768
280
     0
281
     0
  0
CLASS
  1
ACMEBOMTABLE
  2
AcMeBOMTable
  3
AcMeServices
 90
    32768
280
     0
281
     0
  0
CLASS
  1
ACMEBOMENTRY
  2
AcMeBOMEntry
  3
AcMeServices
 90
    32768
280
     0
281
     0
  0
CLASS
  1
ACMEVIEW
  2
AcMeView
  3
AcMeServices
 90
    32768
280
     0
281
     0
  0
CLASS
  1
ACGREFMASTER
  2
AcGrefMaster
  3
AcAttribServices
 90
        0
280
     0
281
     0
  0
CLASS
  1
AMIMASTER
  2
AmiMaster
  3
AmiServices
 90
        0
280
     0
281
     0
  0
CLASS
  1
ACASGREFMASTER
  2
AcAsGrefMaster
  3
AutoSurfResolverServices
 90
        0
280
     0
281
     0
  0
CLASS
  1
ADAPPL
  2
AcAdAppl
  3
DesignerServices
 90
        0
280
     0
281
     0
  0
CLASS
  1
DEPMGR
  2
AcAdDepMgr
  3
DesignerServices
 90
        0
280
     0
281
     0
  0
CLASS
  1
PARAMMGR
  2
AcAdParamMgr
  3
DesignerServices
 90
        0
280
     0
281
     0
  0
CLASS
  1
PARAMSCOPE
  2
AcAdParamScope
  3
DesignerServices
 90
        0
280
     0
281
     0
  0
CLASS
  1
ACIMSYSVARMAN
  2
AcImSysVarManager
  3
AcMeServices
 90
        0
280
     0
281
     0
  0
CLASS
  1
ACIMINTSYSVAR
  2
AcImIntSysVar
  3
AcMeServices
 90
        0
280
     0
281
     0
  0
CLASS
  1
ACIMREALSYSVAR
  2
AcImRealSysVar
  3
AcMeServices
 90
        0
280
     0
281
     0
  0
CLASS
  1
ACIMSTRSYSVAR
  2
AcImStrSysVar
  3
AcMeServices
 90
        0
280
     0
281
     0
  0
CLASS
  1
NAMEDAPPL
  2
AcAdNamedAppl
  3
DesignerServices
 90
        0
280
     0
281
     0
  0
CLASS
  1
ADHNTMPLT
  2
AdHoleNoteTemplateMgr
  3
DesignerServices
 90
    32768
280
     0
281
     0
  0
CLASS
  1
AM_HNTEMPLATE_MGR_NAME
  2
AdHoleNoteTemplateMgrName
  3
DesignerServices
 90
    32768
280
     0
281
     0
  0
CLASS
  1
ACADGREFMODULE
  2
AcAdGrefModule
  3
AdGrefServices
 90
        0
280
     0
281
     0
  0
CLASS
  1
AM_DRAWING_MGR
  2
AcDmDwgMgr
  3
AcMechDwgViewMgmt
 90
        0
280
     0
281
     0
  0
CLASS
  1
AM_DWG_DOCUMENT
  2
AcDmDwgDocument
  3
AcMechDwgViewMgmt
 90
        0
280
     0
281
     0
  0
CLASS
  1
AM_DWG_SHEET
  2
AcDmSheet
  3
AcMechDwgViewMgmt
 90
        0
280
     0
281
     0
  0
CLASS
  1
AM_VIEWDIMPARMAP
  2
AcDmViewDimParMap
  3
AcMechDwgViewMgmt
 90
        0
280
     0
281
     0
  0
CLASS
  1
AM_DWGMGR_NAME
  2
AcDmDwgMgrName
  3
AcMechDwgViewMgmt
 90
        0
280
     0
281
     0
  0
CLASS
  1
ACAMPROJECT
  2
AcAmProject
  3
DesignerAssemblies
 90
        0
280
     0
281
     0
  0
CLASS
  1
ACAMGRCOMPSET
  2
AcAmGrCompSet
  3
DesignerAssemblies
 90
    32768
280
     0
281
     0
  0
CLASS
  1
ACAMGRCOMPDEFSET
  2
AcAmGrCompDefSet
  3
DesignerAssemblies
 90
        0
280
     0
281
     0
  0
CLASS
  1
ACAMGRCOMPDEF
  2
AcAmGrCompDef
  3
DesignerAssemblies
 90
        0
280
     0
281
     0
  0
CLASS
  1
ACCMCONTEXT
  2
AcCmContext
  3
DesignerAssemblies
 90
        0
280
     0
281
     0
  0
CLASS
  1
ACAMCOMPDEF
  2
AcAmCompDef
  3
DesignerAssemblies
 90
        0
280
     0
281
     0
  0
CLASS
  1
ACAMCOMPDEFMGR
  2
AcAmCompDefMgr
  3
DesignerAssemblies
 90
        0
280
     0
281
     0
  0
CLASS
  1
AMCONTEXTMGR
  2
AcAmContextMgr
  3
DesignerAssemblies
 90
        0
280
     0
281
     0
  0
CLASS
  1
ACAMCONTEXTMODELER
  2
AcAmContextModeler
  3
DesignerAssemblies
 90
        0
280
     0
281
     0
  0
CLASS
  1
ACDMVIEWGEOM
  2
AcDmViewGeometry
  3
AcMechDwgViewMgmt
 90
        0
280
     0
281
     1
  0
CLASS
  1
CBROWSERAPPOBJECT
  2
CBrowserAppObject
  3
McadcomServices
 90
        0
280
     0
281
     0
  0
CLASS
  1
IM_STATIC_MAN
  2
AcImStaticVarManager
  3
AcMeServices
 90
        0
280
     0
281
     0
  0
CLASS
  1
ASAPP
  2
AcAsAppObject
  3
AutoSurfServices
 90
        0
280
     0
281
     0
  0
CLASS
  1
ACIMDBLSTATICVAR
  2
AcImDblStaticVar
  3
AcMeServices
 90
        0
280
     0
281
     0
  0
CLASS
  1
ACIMSTRSTATICVAR
  2
AcImStrStaticVar
  3
AcMeServices
 90
        0
280
     0
281
     0
  0
CLASS
  1
ACIMINTSTATICVAR
  2
AcImIntStaticVar
  3
AcMeServices
 90
        0
280
     0
281
     0
  0
CLASS
  1
CATALOGSTATE
  2
AcAmCatalogState
  3
DesignerAssemblies
 90
        0
280
     0
281
     0
  0
CLASS
  1
DM_PLACEHOLDER
  2
AcDmSelsetPlaceholder
  3
AcMechDwgViewMgmt
 90
        0
280
     0
281
     0
  0
CLASS
  1
DICTIONARYVAR
  2
AcDbDictionaryVar
  3
ObjectDBX Classes
 90
        0
280
     0
281
     0
  0
CLASS
  1
ACMSTANDARDJIS
  2
AcmStandardJIS
  3
"Amdt_StdImp|Product Description: AutoCAD Mechanical 2004 DX|Company: Autodesk"
 90
    32768
280
     0
281
     0
  0
CLASS
  1
ACMSTANDARDANSI
  2
AcmStandardANSI
  3
"Amdt_StdImp|Product Description: AutoCAD Mechanical 2004 DX|Company: Autodesk"
 90
        0
280
     0
281
     0
  0
CLASS
  1
ACMSTANDARDBSI
  2
AcmStandardBSI
  3
"Amdt_StdImp|Product Description: AutoCAD Mechanical 2004 DX|Company: Autodesk"
 90
    32768
280
     0
281
     0
  0
CLASS
  1
ACMSTANDARDDIN
  2
AcmStandardDIN
  3
"Amdt_StdImp|Product Description: AutoCAD Mechanical 2004 DX|Company: Autodesk"
 90
    32768
280
     0
281
     0
  0
CLASS
  1
ACMSTANDARDISO
  2
AcmStandardISO
  3
"Amdt_StdImp|Product Description: AutoCAD Mechanical 2004 DX|Company: Autodesk"
 90
    32768
280
     0
281
     0
  0
CLASS
  1
LAYER_INDEX
  2
AcDbLayerIndex
  3
ObjectDBX Classes
 90
        0
280
     0
281
     0
  0
CLASS
  1
IDBUFFER
  2
AcDbIdBuffer
  3
ObjectDBX Classes
 90
        0
280
     0
281
     0
  0
CLASS
  1
ACDBDICTIONARYWDFLT
  2
AcDbDictionaryWithDefault
  3
ObjectDBX Classes
 90
        0
280
     0
281
     0
  0
CLASS
  1
ACDBPLACEHOLDER
  2
AcDbPlaceHolder
  3
ObjectDBX Classes
 90
        0
280
     0
281
     0
  0
CLASS
  1
LAYOUT
  2
AcDbLayout
  3
ObjectDBX Classes
 90
        0
280
     0
281
     0
  0
CLASS
  1
ACME_DOCUMENT
  2
AcMeDbDoc
  3
AcMeServices
 90
        0
280
     0
281
     0
  0
CLASS
  1
AMGSETTINGSOBJ
  2
AmgSettingsObj
  3
"AcadM|Product Description: AutoCAD Mechanical 2000|Company: Autodesk"
 90
        0
280
     0
281
     0
  0
CLASS
  1
AMGOBJPROPCFG
  2
AmgObjPropCfg
  3
"AmgLay|Product Description: AutoCAD Mechanical 2000|Company: Autodesk"
 90
        1
280
     0
281
     0
  0
CLASS
  1
ACDBENTITYCACHE
  2
AcMeEntityCache
  3
AcMeServices
 90
        0
280
     0
281
     0
  0
CLASS
  1
GSMANAGER
  2
AcMeGSManager
  3
AcMeServices
 90
        0
280
     0
281
     0
  0
CLASS
  1
AMDTINTERNALREACTOR
  2
AmdtInternalReactor
  3
AcMeServices
 90
        0
280
     0
281
     0
  0
CLASS
  1
ACME_DATABASE
  2
AcMeDbDatabase
  3
AcMeServices
 90
        0
280
     0
281
     0
  0
CLASS
  1
ACGREFACADMASTER
  2
AcGrefacadMaster
  3
AcGrefServices
 90
        0
280
     0
281
     0
  0
CLASS
  1
AMDTMENUSTATEMGR
  2
AmdtMenuStateMgr
  3
McadcomServices
 90
        0
280
     0
281
     0
  0
CLASS
  1
AMDTMCOMMENUSTATE
  2
AmdtMcomMenuState
  3
McadcomServices
 90
        0
280
     0
281
     0
  0
CLASS
  1
MAPIADMODULE
  2
MApiAdModule
  3
MApiAdServices
 90
        0
280
     0
281
     0
  0
CLASS
  1
AMDTDMMENUSTATE
  2
AmdtDmMenuState
  3
AcMechDwgViewMgmt
 90
        0
280
     0
281
     0
  0
CLASS
  1
AMDTADMENUSTATE
  2
AmdtAdMenuState
  3
DesignerServices
 90
        0
280
     0
281
     0
  0
CLASS
  1
AMDTAMMENUSTATE
  2
AmdtAmMenuState
  3
DesignerAssemblies
 90
        0
280
     0
281
     0
  0
CLASS
  1
ACMDATADICTIONARY
  2
AcmDataDictionary
  3
"AcmSymBB|Product Description: AutoCAD Mechanical 2004 DX|Company: Autodesk"
 90
        0
280
     0
281
     0
  0
CLASS
  1
ACMDATAENTRYBLOCK
  2
AcmDataEntryBlock
  3
"AcmSymBB|Product Description: AutoCAD Mechanical 2004 DX|Company: Autodesk"
 90
        0
280
     0
281
     0
  0
CLASS
  1
AMDTBROWSERDBTAB
  2
AmdtBrowserDbTab
  3
McadcomServices
 90
        0
280
     0
281
     0
  0
CLASS
  1
ACAMGFILTERDAT
  2
AcAmgFilterDat
  3
"AcadM|Product Description: AutoCAD Mechanical 2000|Company: Autodesk"
 90
        0
280
     0
281
     0
  0
CLASS
  1
MAPIAMMOUDLE
  2
MApiAmModule
  3
MApiAmServices
 90
        0
280
     0
281
     0
  0
CLASS
  1
AMDTMAPISURFMOUDULE
  2
AmdtMApiSurfModule
  3
MApiSurfServices
 90
        0
280
     0
281
     0
  0
CLASS
  1
ACMSURFSTANDARDANSI
  2
AcmSurfTextStdANSI
  3
"Amdt_StdImp|Product Description: AutoCAD Mechanical 2004 DX|Company: Autodesk"
 90
        0
280
     0
281
     0
  0
CLASS
  1
ACMFCFSTANDARDANSI
  2
AcmFCFStdANSI
  3
"Amdt_StdImp|Product Description: AutoCAD Mechanical 2004 DX|Company: Autodesk"
 90
        0
280
     0
281
     0
  0
CLASS
  1
ACMWELDSTANDARDANSI
  2
AcmWeldingStdANSI
  3
"Amdt_StdImp|Product Description: AutoCAD Mechanical 2004 DX|Company: Autodesk"
 90
        0
280
     0
281
     0
  0
CLASS
  1
ACMIDSTANDARDANSI
  2
AcmIdStdANSI
  3
"Amdt_StdImp|Product Description: AutoCAD Mechanical 2004 DX|Company: Autodesk"
 90
        0
280
     0
281
     0
  0
CLASS
  1
ACMDATUMSTANDARDANSI
  2
AcmDatumStdANSI
  3
"Amdt_StdImp|Product Description: AutoCAD Mechanical 2004 DX|Company: Autodesk"
 90
        0
280
     0
281
     0
  0
CLASS
  1
ACMBOMSTANDARDANSI
  2
AcmBOMStdANSI
  3
"Amdt_StdImp|Product Description: AutoCAD Mechanical 2004 DX|Company: Autodesk"
 90
        0
280
     0
281
     0
  0
CLASS
  1
ACAMGLAYSTD
  2
AcAmgLayStd
  3
"AcAmgLayStd|Product Description: AutoCAD Mechanical 2000|Company: Autodesk"
 90
        0
280
     0
281
     0
  0
CLASS
  1
ACAMGDIMSTD
  2
AcAmgDimStd
  3
"AcAmgDimStd|Product Description: AutoCAD Mechanical 2000|Company: Autodesk"
 90
        0
280
     0
281
     0
  0
CLASS
  1
ACAMGTITLESTD
  2
AcAmgTitleStd
  3
"TITLEAPP"
 90
        0
280
     0
281
     0
  0
CLASS
  1
ACMDETAILSTANDARDANSI
  2
AmdtDetailSymStdANSI
  3
"Amdt_StdImp|Product Description: AutoCAD Mechanical 2004 DX|Company: Autodesk"
 90
        0
280
     0
281
     0
  0
CLASS
  1
ACMSECTIONSTANDARDANSI
  2
AmdtSectionSymStdANSI
  3
"Amdt_StdImp|Product Description: AutoCAD Mechanical 2004 DX|Company: Autodesk"
 90
        0
280
     0
281
     0
  0
CLASS
  1
ACMCENTERLINESTANDARDANSI
  2
AmdtCenterLineStdANSI
  3
"Amdt_StdImp|Product Description: AutoCAD Mechanical 2004 DX|Company: Autodesk"
 90
        0
280
     0
281
     0
  0
CLASS
  1
ACMTHREADLINESTANDARDANSI
  2
AmdtThreadLineStdANSI
  3
"Amdt_StdImp|Product Description: AutoCAD Mechanical 2004 DX|Company: Autodesk"
 90
        0
280
     0
281
     0
  0
CLASS
  1
ACMSURFSTANDARDBSI
  2
AcmSurfTextStdBSI
  3
"Amdt_StdImp|Product Description: AutoCAD Mechanical 2004 DX|Company: Autodesk"
 90
    32768
280
     0
281
     0
  0
CLASS
  1
ACMFCFSTANDARDBSI
  2
AcmFCFStdBSI
  3
"Amdt_StdImp|Product Description: AutoCAD Mechanical 2004 DX|Company: Autodesk"
 90
    32768
280
     0
281
     0
  0
CLASS
  1
ACMWELDSTANDARDBSI
  2
AcmWeldingStdBSI
  3
"Amdt_StdImp|Product Description: AutoCAD Mechanical 2004 DX|Company: Autodesk"
 90
    32768
280
     0
281
     0
  0
CLASS
  1
ACMIDSTANDARDBSI
  2
AcmIdStdBSI
  3
"Amdt_StdImp|Product Description: AutoCAD Mechanical 2004 DX|Company: Autodesk"
 90
    32768
280
     0
281
     0
  0
CLASS
  1
ACMDATUMSTANDARDBSI
  2
AcmDatumStdBSI
  3
"Amdt_StdImp|Product Description: AutoCAD Mechanical 2004 DX|Company: Autodesk"
 90
    32768
280
     0
281
     0
  0
CLASS
  1
ACMBOMSTANDARDBSI
  2
AcmBOMStdBSI
  3
"Amdt_StdImp|Product Description: AutoCAD Mechanical 2004 DX|Company: Autodesk"
 90
    32768
280
     0
281
     0
  0
CLASS
  1
ACMDETAILSTANDARDBSI
  2
AmdtDetailSymStdBSI
  3
"Amdt_StdImp|Product Description: AutoCAD Mechanical 2004 DX|Company: Autodesk"
 90
    32768
280
     0
281
     0
  0
CLASS
  1
ACMSECTIONSTANDARDBSI
  2
AmdtSectionSymStdBSI
  3
"Amdt_StdImp|Product Description: AutoCAD Mechanical 2004 DX|Company: Autodesk"
 90
    32768
280
     0
281
     0
  0
CLASS
  1
ACMCENTERLINESTANDARDBSI
  2
AmdtCenterLineStdBSI
  3
"Amdt_StdImp|Product Description: AutoCAD Mechanical 2004 DX|Company: Autodesk"
 90
    32768
280
     0
281
     0
  0
CLASS
  1
ACMTHREADLINESTANDARDBSI
  2
AmdtThreadLineStdBSI
  3
"Amdt_StdImp|Product Description: AutoCAD Mechanical 2004 DX|Company: Autodesk"
 90
    32768
280
     0
281
     0
  0
CLASS
  1
AMDTEDGESTANDARDDIN
  2
AmdtEdgeStdDIN
  3
"Amdt_StdImp|Product Description: AutoCAD Mechanical 2004 DX|Company: Autodesk"
 90
    32768
280
     0
281
     0
  0
CLASS
  1
ACMSURFSTANDARDDIN
  2
AcmSurfTextStdDIN
  3
"Amdt_StdImp|Product Description: AutoCAD Mechanical 2004 DX|Company: Autodesk"
 90
    32768
280
     0
281
     0
  0
CLASS
  1
ACMFCFSTANDARDDIN
  2
AcmFCFStdDIN
  3
"Amdt_StdImp|Product Description: AutoCAD Mechanical 2004 DX|Company: Autodesk"
 90
    32768
280
     0
281
     0
  0
CLASS
  1
ACMWELDSTANDARDDIN
  2
AcmWeldingStdDIN
  3
"Amdt_StdImp|Product Description: AutoCAD Mechanical 2004 DX|Company: Autodesk"
 90
    32768
280
     0
281
     0
  0
CLASS
  1
ACMIDSTANDARDDIN
  2
AcmIdStdDIN
  3
"Amdt_StdImp|Product Description: AutoCAD Mechanical 2004 DX|Company: Autodesk"
 90
    32768
280
     0
281
     0
  0
CLASS
  1
ACMDATUMSTANDARDDIN
  2
AcmDatumStdDIN
  3
"Amdt_StdImp|Product Description: AutoCAD Mechanical 2004 DX|Company: Autodesk"
 90
    32768
280
     0
281
     0
  0
CLASS
  1
ACMBOMSTANDARDDIN
  2
AcmBOMStdDIN
  3
"Amdt_StdImp|Product Description: AutoCAD Mechanical 2004 DX|Company: Autodesk"
 90
    32768
280
     0
281
     0
  0
CLASS
  1
ACMDETAILSTANDARDDIN
  2
AmdtDetailSymStdDIN
  3
"Amdt_StdImp|Product Description: AutoCAD Mechanical 2004 DX|Company: Autodesk"
 90
    32768
280
     0
281
     0
  0
CLASS
  1
ACMSECTIONSTANDARDDIN
  2
AmdtSectionSymStdDIN
  3
"Amdt_StdImp|Product Description: AutoCAD Mechanical 2004 DX|Company: Autodesk"
 90
    32768
280
     0
281
     0
  0
CLASS
  1
ACMCENTERLINESTANDARDDIN
  2
AmdtCenterLineStdDIN
  3
"Amdt_StdImp|Product Description: AutoCAD Mechanical 2004 DX|Company: Autodesk"
 90
    32768
280
     0
281
     0
  0
CLASS
  1
ACMTHREADLINESTANDARDDIN
  2
AmdtThreadLineStdDIN
  3
"Amdt_StdImp|Product Description: AutoCAD Mechanical 2004 DX|Company: Autodesk"
 90
    32768
280
     0
281
     0
  0
CLASS
  1
ACMSURFSTANDARDISO
  2
AcmSurfTextStdISO
  3
"Amdt_StdImp|Product Description: AutoCAD Mechanical 2004 DX|Company: Autodesk"
 90
    32768
280
     0
281
     0
  0
CLASS
  1
ACMFCFSTANDARDISO
  2
AcmFCFStdISO
  3
"Amdt_StdImp|Product Description: AutoCAD Mechanical 2004 DX|Company: Autodesk"
 90
    32768
280
     0
281
     0
  0
CLASS
  1
ACMWELDSTANDARDISO
  2
AcmWeldingStdISO
  3
"Amdt_StdImp|Product Description: AutoCAD Mechanical 2004 DX|Company: Autodesk"
 90
    32768
280
     0
281
     0
  0
CLASS
  1
ACMIDSTANDARDISO
  2
AcmIdStdISO
  3
"Amdt_StdImp|Product Description: AutoCAD Mechanical 2004 DX|Company: Autodesk"
 90
    32768
280
     0
281
     0
  0
CLASS
  1
ACMDATUMSTANDARDISO
  2
AcmDatumStdISO
  3
"Amdt_StdImp|Product Description: AutoCAD Mechanical 2004 DX|Company: Autodesk"
 90
    32768
280
     0
281
     0
  0
CLASS
  1
ACMBOMSTANDARDISO
  2
AcmBOMStdISO
  3
"Amdt_StdImp|Product Description: AutoCAD Mechanical 2004 DX|Company: Autodesk"
 90
    32768
280
     0
281
     0
  0
CLASS
  1
AMDTEDGESTANDARDISO
  2
AmdtEdgeStdISO
  3
"Amdt_StdImp|Product Description: AutoCAD Mechanical 2004 DX|Company: Autodesk"
 90
    32768
280
     0
281
     0
  0
CLASS
  1
ACMDETAILSTANDARDISO
  2
AmdtDetailSymStdISO
  3
"Amdt_StdImp|Product Description: AutoCAD Mechanical 2004 DX|Company: Autodesk"
 90
    32768
280
     0
281
     0
  0
CLASS
  1
ACMSECTIONSTANDARDISO
  2
AmdtSectionSymStdISO
  3
"Amdt_StdImp|Product Description: AutoCAD Mechanical 2004 DX|Company: Autodesk"
 90
    32768
280
     0
281
     0
  0
CLASS
  1
ACMCENTERLINESTANDARDISO
  2
AmdtCenterLineStdISO
  3
"Amdt_StdImp|Product Description: AutoCAD Mechanical 2004 DX|Company: Autodesk"
 90
    32768
280
     0
281
     0
  0
CLASS
  1
ACMTHREADLINESTANDARDISO
  2
AmdtThreadLineStdISO
  3
"Amdt_StdImp|Product Description: AutoCAD Mechanical 2004 DX|Company: Autodesk"
 90
    32768
280
     0
281
     0
  0
CLASS
  1
ACMSURFSTANDARDJIS
  2
AcmSurfTextStdJIS
  3
"Amdt_StdImp|Product Description: AutoCAD Mechanical 2004 DX|Company: Autodesk"
 90
    32768
280
     0
281
     0
  0
CLASS
  1
ACMFCFSTANDARDJIS
  2
AcmFCFStdJIS
  3
"Amdt_StdImp|Product Description: AutoCAD Mechanical 2004 DX|Company: Autodesk"
 90
    32768
280
     0
281
     0
  0
CLASS
  1
ACMWELDSTANDARDJIS
  2
AcmWeldingStdJIS
  3
"Amdt_StdImp|Product Description: AutoCAD Mechanical 2004 DX|Company: Autodesk"
 90
    32768
280
     0
281
     0
  0
CLASS
  1
ACMIDSTANDARDJIS
  2
AcmIdStdJIS
  3
"Amdt_StdImp|Product Description: AutoCAD Mechanical 2004 DX|Company: Autodesk"
 90
    32768
280
     0
281
     0
  0
CLASS
  1
ACMDATUMSTANDARDJIS
  2
AcmDatumStdJIS
  3
"Amdt_StdImp|Product Description: AutoCAD Mechanical 2004 DX|Company: Autodesk"
 90
    32768
280
     0
281
     0
  0
CLASS
  1
ACMBOMSTANDARDJIS
  2
AcmBOMStdJIS
  3
"Amdt_StdImp|Product Description: AutoCAD Mechanical 2004 DX|Company: Autodesk"
 90
    32768
280
     0
281
     0
  0
CLASS
  1
ACMDETAILSTANDARDJIS
  2
AmdtDetailSymStdJIS
  3
"Amdt_StdImp|Product Description: AutoCAD Mechanical 2004 DX|Company: Autodesk"
 90
    32768
280
     0
281
     0
  0
CLASS
  1
ACMSECTIONSTANDARDJIS
  2
AmdtSectionSymStdJIS
  3
"Amdt_StdImp|Product Description: AutoCAD Mechanical 2004 DX|Company: Autodesk"
 90
    32768
280
     0
281
     0
  0
CLASS
  1
ACMCENTERLINESTANDARDJIS
  2
AmdtCenterLineStdJIS
  3
"Amdt_StdImp|Product Description: AutoCAD Mechanical 2004 DX|Company: Autodesk"
 90
    32768
280
     0
281
     0
  0
CLASS
  1
ACMTHREADLINESTANDARDJIS
  2
AmdtThreadLineStdJIS
  3
"Amdt_StdImp|Product Description: AutoCAD Mechanical 2004 DX|Company: Autodesk"
 90
    32768
280
     0
281
     0
  0
CLASS
  1
ACMNOTESTANDARDANSI
  2
AmdtNoteStdANSI
  3
"Amdt_StdImp|Product Description: AutoCAD Mechanical 2004 DX|Company: Autodesk"
 90
        0
280
     0
281
     0
  0
CLASS
  1
ACAMGHOLECHARTSTDANSI
  2
AcAmgHoleChartStdANSI
  3
ACMSYMBB_MODULE_NAME
 90
        0
280
     0
281
     0
  0
CLASS
  1
TABLESTYLE
  2
AcDbTableStyle
  3
ObjectDBX Classes
 90
     2047
280
     0
281
     0
  0
CLASS
  1
AMDTNOTETEMPLATEDB
  2
AmdtNoteTemplateDB
  3
AMDT_STDIMP_MODULE_NAME
 90
        0
280
     0
281
     0
  0
CLASS
  1
IMAGE
  2
AcDbRasterImage
  3
ISM
 90
      127
280
     0
281
     1
  0
CLASS
  1
IMAGEDEF_REACTOR
  2
AcDbRasterImageDefReactor
  3
ISM
 90
        1
280
     0
281
     0
  0
CLASS
  1
IMAGEDEF
  2
AcDbRasterImageDef
  3
ISM
 90
        0
280
     0
281
     0
  0
CLASS
  1
RASTERVARIABLES
  2
AcDbRasterVariables
  3
ISM
 90
        0
280
     0
281
     0
  0
CLASS
  1
SORTENTSTABLE
  2
AcDbSortentsTable
  3
ObjectDBX Classes
 90
        0
280
     0
281
     0
  0
CLASS
  1
VAACXREFPANELOBJECT
  2
VaAcXREFPanelObject
  3
VAAC_ADDIN
 90
        0
280
     0
281
     0
  0
CLASS
  1
VAACIMAGEINVENTORY
  2
VaAcImageInventory
  3
VAAC_ADDIN
 90
        0
280
     0
281
     0
  0
ENDSEC
  0
SECTION
  2
TABLES
  0
TABLE
  2
VPORT
  5
8
330
0
100
AcDbSymbolTable
 70
     3
  0
VPORT
  5
1F99
330
8
100
AcDbSymbolTableRecord
100
AcDbViewportTableRecord
  2
*Active
 70
     0
 10
0.0
 20
0.0
 11
1.0
 21
1.0
 12
5.529041145366456
 22
4.250055744220274
 13
0.0
 23
0.0
 14
0.125
 24
0.125
 15
1.0
 25
1.0
 16
0.0
 26
0.0
 36
1.0
 17
0.0
 27
0.0
 37
0.0
 40
8.544144271518307
 41
1.387234042553191
 42
50.0
 43
0.0
 44
0.0
 50
0.0
 51
0.0
 71
     0
 72
 20000
 73
     1
 74
     1
 75
     0
 76
     0
 77
     0
 78
     0
281
     0
 65
     0
110
0.0
120
0.0
130
0.0
111
1.0
121
0.0
131
0.0
112
0.0
122
1.0
132
0.0
 79
     0
146
0.0
  0
ENDTAB
  0
TABLE
  2
LTYPE
  5
5
330
0
100
AcDbSymbolTable
 70
    36
  0
LTYPE
  5
13
330
5
100
AcDbSymbolTableRecord
100
AcDbLinetypeTableRecord
  2
BYBLOCK
 70
     0
  3

 72
    65
 73
     0
 40
0.0
  0
LTYPE
  5
14
330
5
100
AcDbSymbolTableRecord
100
AcDbLinetypeTableRecord
  2
BYLAYER
 70
     0
  3

 72
    65
 73
     0
 40
0.0
  0
LTYPE
  5
15
330
5
100
AcDbSymbolTableRecord
100
AcDbLinetypeTableRecord
  2
CONTINUOUS
 70
     0
  3
Solid line
 72
    65
 73
     0
 40
0.0
  0
LTYPE
  5
8C
330
5
100
AcDbSymbolTableRecord
100
AcDbLinetypeTableRecord
  2
HIDDEN
 70
     0
  3
__ __ __ __ __ __ __ __ __ __ __ __ __ __ __ __
 72
    65
 73
     2
 40
0.375
 49
0.25
 74
     0
 49
-0.125
 74
     0
  0
LTYPE
  5
8E
330
5
100
AcDbSymbolTableRecord
100
AcDbLinetypeTableRecord
  2
PHANTOM2
 70
     0
  3
___ _ _ ___ _ _ ___ _ _ ___ _ _ ___ _ _ ___ _ _
 72
    65
 73
     6
 40
1.25
 49
0.625
 74
     0
 49
-0.125
 74
     0
 49
0.125
 74
     0
 49
-0.125
 74
     0
 49
0.125
 74
     0
 49
-0.125
 74
     0
  0
LTYPE
  5
99
330
5
100
AcDbSymbolTableRecord
100
AcDbLinetypeTableRecord
  2
CENTER
 70
     0
  3
____ _ ____ _ ____ _ ____ _ ____ _ ____ _ ____ 
 72
    65
 73
     4
 40
2.0
 49
1.25
 74
     0
 49
-0.25
 74
     0
 49
0.25
 74
     0
 49
-0.25
 74
     0
  0
LTYPE
  5
F2
330
5
100
AcDbSymbolTableRecord
100
AcDbLinetypeTableRecord
  2
ASULTYPE
 70
     0
  3
Solid line
 72
    65
 73
     2
 40
3.0
 49
2.5
 74
     0
 49
0.5
 74
     0
  0
LTYPE
  5
F3
330
5
100
AcDbSymbolTableRecord
100
AcDbLinetypeTableRecord
  2
ASVLTYPE
 70
     0
  3
__ __ __ __ __ __ __ __ __ __ __ __ __ __ __ __ __ __ __ __ __
 72
    65
 73
     2
 40
0.75
 49
0.5
 74
     0
 49
-0.25
 74
     0
  0
LTYPE
  5
15C
330
5
100
AcDbSymbolTableRecord
100
AcDbLinetypeTableRecord
  2
AM_ISO02W050
 70
     0
  3
__ __ __ __ __ __ __ __ __ __ __ __ __ __ __
 72
    65
 73
     2
 40
7.5
 49
6.0
 74
     0
 49
-1.5
 74
     0
  0
LTYPE
  5
15D
330
5
100
AcDbSymbolTableRecord
100
AcDbLinetypeTableRecord
  2
AM_ISO08W050
 70
     0
  3
____ . ____ . ____ . ____ . ____ . ____ . ____
 72
    65
 73
     4
 40
18.0
 49
12.0
 74
     0
 49
-1.5
 74
     0
 49
3.0
 74
     0
 49
-1.5
 74
     0
  0
LTYPE
  5
15E
330
5
100
AcDbSymbolTableRecord
100
AcDbLinetypeTableRecord
  2
AM_ISO09W050
 70
     0
  3
_____ . . _____ . . _____ . . ____ .. ____
 72
    65
 73
     6
 40
22.5
 49
12.0
 74
     0
 49
-1.5
 74
     0
 49
3.0
 74
     0
 49
-1.5
 74
     0
 49
3.0
 74
     0
 49
-1.5
 74
     0
  0
LTYPE
  5
15F
330
5
100
AcDbSymbolTableRecord
100
AcDbLinetypeTableRecord
  2
AM_ISO02W050x2
 70
     0
  3
 _ _ _ _ _ _ _ _ _ _ _ _
 72
    65
 73
     2
 40
3.75
 49
3.0
 74
     0
 49
-0.75
 74
     0
  0
LTYPE
  5
160
330
5
100
AcDbSymbolTableRecord
100
AcDbLinetypeTableRecord
  2
AM_ISO08W050x2
 70
     0
  3
__ . __ . __ . __ . __ . __
 72
    65
 73
     4
 40
9.0
 49
6.0
 74
     0
 49
-0.75
 74
     0
 49
1.5
 74
     0
 49
-0.75
 74
     0
  0
LTYPE
  5
163
330
5
100
AcDbSymbolTableRecord
100
AcDbLinetypeTableRecord
  2
amzigzag
 70
     0
  3
/\/-/\/-/\/-/\/-/\/-/\/
 72
    65
 73
     2
 40
11.0001
 49
0.0001
 74
     4
 75
   135
340
162
 46
0.04
 50
0.0
 44
0.0
 45
0.0
 49
-11.0
 74
     0
  0
LTYPE
  5
164
330
5
100
AcDbSymbolTableRecord
100
AcDbLinetypeTableRecord
  2
HIDDEN2
 70
     0
  3
Hidden (.5x) _ _ _ _ _ _ _ _ _ _ _ _ _ _ _ _ _
 72
    65
 73
     2
 40
0.1875
 49
0.125
 74
     0
 49
-0.0625
 74
     0
  0
LTYPE
  5
165
330
5
100
AcDbSymbolTableRecord
100
AcDbLinetypeTableRecord
  2
CENTER2
 70
     0
  3
Center (.5x) ___ _ ___ _ ___ _ ___ _ ___ _ ___
 72
    65
 73
     4
 40
1.125
 49
0.75
 74
     0
 49
-0.125
 74
     0
 49
0.125
 74
     0
 49
-0.125
 74
     0
  0
LTYPE
  5
2A6
330
5
100
AcDbSymbolTableRecord
100
AcDbLinetypeTableRecord
  2
Amconstr
 70
     0
  3
_______________________
 72
    65
 73
     2
 40
9999.0
 49
9999.0
 74
     0
 49
0.0
 74
     0
  0
LTYPE
  5
2B1
330
5
100
AcDbSymbolTableRecord
100
AcDbLinetypeTableRecord
  2
Amzigzag2
 70
     0
  3
/\/-/\/-/\/-/\/-/\/-/\/
 72
    65
 73
     2
 40
0.4401
 49
0.0001
 74
     4
 75
   135
340
162
 46
0.0016
 50
0.0
 44
0.0
 45
0.0
 49
-0.4400000000000001
 74
     0
  0
LTYPE
  5
2B2
330
5
100
AcDbSymbolTableRecord
100
AcDbLinetypeTableRecord
  2
AM_DIN_F_W050
 70
     0
  3
__ __ __ __ __ __ __ __ __ __ __ __ __ __ __
 72
    65
 73
     2
 40
6.25
 49
4.75
 74
     0
 49
-1.5
 74
     0
  0
LTYPE
  5
2B3
330
5
100
AcDbSymbolTableRecord
100
AcDbLinetypeTableRecord
  2
AM_DIN_G_W050
 70
     0
  3
____ . ____ . ____ . ____ . ____ . ____ . ____
 72
    65
 73
     4
 40
13.75
 49
9.75
 74
     0
 49
-1.5
 74
     0
 49
1.0
 74
     0
 49
-1.5
 74
     0
  0
LTYPE
  5
2B4
330
5
100
AcDbSymbolTableRecord
100
AcDbLinetypeTableRecord
  2
AM_DIN_K_W050
 70
     0
  3
_____ . . _____ . . _____ . . ____ .. ____
 72
    65
 73
     6
 40
16.25
 49
9.75
 74
     0
 49
-1.5
 74
     0
 49
1.0
 74
     0
 49
-1.5
 74
     0
 49
1.0
 74
     0
 49
-1.5
 74
     0
  0
LTYPE
  5
2B5
330
5
100
AcDbSymbolTableRecord
100
AcDbLinetypeTableRecord
  2
AM_DIN_G_W050x2
 70
     0
  3
__ . __ . __ . __ . __ . __
 72
    65
 73
     4
 40
6.875
 49
4.75
 74
     0
 49
-0.875
 74
     0
 49
0.375
 74
     0
 49
-0.875
 74
     0
  0
LTYPE
  5
2B6
330
5
100
AcDbSymbolTableRecord
100
AcDbLinetypeTableRecord
  2
AM_DIN_F_W050x2
 70
     0
  3
 _ _ _ _ _ _ _ _ _ _ _ _
 72
    65
 73
     2
 40
3.125
 49
2.25
 74
     0
 49
-0.875
 74
     0
  0
LTYPE
  5
2CC
330
5
100
AcDbSymbolTableRecord
100
AcDbLinetypeTableRecord
  2
ACANSTGBM
 70
     0
  3
__ . . __ . .
 72
    65
 73
     6
 40
9.0
 49
4.0
 74
     0
 49
-1.0
 74
     0
 49
1.0
 74
     0
 49
-1.0
 74
     0
 49
1.0
 74
     0
 49
-1.0
 74
     0
  0
LTYPE
  5
2CD
330
5
100
AcDbSymbolTableRecord
100
AcDbLinetypeTableRecord
  2
ACANSTGLM
 70
     0
  3
_ _ _ _ _
 72
    65
 73
     2
 40
3.0
 49
2.0
 74
     0
 49
-1.0
 74
     0
  0
LTYPE
  5
2E5
330
5
100
AcDbSymbolTableRecord
100
AcDbLinetypeTableRecord
  2
ACBSWELD
 70
     0
  3
_ _ _ _ _
 72
    65
 73
     2
 40
2.0
 49
2.0
 74
     0
 49
-1.0
 74
     0
  0
LTYPE
  5
2E8
330
5
100
AcDbSymbolTableRecord
100
AcDbLinetypeTableRecord
  2
ACBSITGB
 70
     0
  3
__ . . __ . .
 72
    65
 73
     6
 40
9.0
 49
4.0
 74
     0
 49
-1.0
 74
     0
 49
1.0
 74
     0
 49
-1.0
 74
     0
 49
1.0
 74
     0
 49
-1.0
 74
     0
  0
LTYPE
  5
2E9
330
5
100
AcDbSymbolTableRecord
100
AcDbLinetypeTableRecord
  2
ACBSITGL
 70
     0
  3
_ _ _ _ _
 72
    65
 73
     2
 40
3.0
 49
2.0
 74
     0
 49
-1.0
 74
     0
  0
LTYPE
  5
300
330
5
100
AcDbSymbolTableRecord
100
AcDbLinetypeTableRecord
  2
ACDINWELD
 70
     0
  3
_ _ _ _ _
 72
    65
 73
     2
 40
2.0
 49
2.0
 74
     0
 49
-1.0
 74
     0
  0
LTYPE
  5
303
330
5
100
AcDbSymbolTableRecord
100
AcDbLinetypeTableRecord
  2
ACDINTGB
 70
     0
  3
__ . . __ . .
 72
    65
 73
     6
 40
9.0
 49
4.0
 74
     0
 49
-1.0
 74
     0
 49
1.0
 74
     0
 49
-1.0
 74
     0
 49
1.0
 74
     0
 49
-1.0
 74
     0
  0
LTYPE
  5
304
330
5
100
AcDbSymbolTableRecord
100
AcDbLinetypeTableRecord
  2
ACDINTGL
 70
     0
  3
_ _ _ _ _
 72
    65
 73
     2
 40
3.0
 49
2.0
 74
     0
 49
-1.0
 74
     0
  0
LTYPE
  5
31A
330
5
100
AcDbSymbolTableRecord
100
AcDbLinetypeTableRecord
  2
ACISOWELD
 70
     0
  3
_ _ _ _ _
 72
    65
 73
     2
 40
2.0
 49
2.0
 74
     0
 49
-1.0
 74
     0
  0
LTYPE
  5
31D
330
5
100
AcDbSymbolTableRecord
100
AcDbLinetypeTableRecord
  2
ACISOTGB
 70
     0
  3
__ . . __ . .
 72
    65
 73
     6
 40
9.0
 49
4.0
 74
     0
 49
-1.0
 74
     0
 49
1.0
 74
     0
 49
-1.0
 74
     0
 49
1.0
 74
     0
 49
-1.0
 74
     0
  0
LTYPE
  5
31E
330
5
100
AcDbSymbolTableRecord
100
AcDbLinetypeTableRecord
  2
ACISOTGL
 70
     0
  3
_ _ _ _ _
 72
    65
 73
     2
 40
3.0
 49
2.0
 74
     0
 49
-1.0
 74
     0
  0
LTYPE
  5
337
330
5
100
AcDbSymbolTableRecord
100
AcDbLinetypeTableRecord
  2
ACJISTGB
 70
     0
  3
__ . . __ . .
 72
    65
 73
     6
 40
9.0
 49
4.0
 74
     0
 49
-1.0
 74
     0
 49
1.0
 74
     0
 49
-1.0
 74
     0
 49
1.0
 74
     0
 49
-1.0
 74
     0
  0
LTYPE
  5
338
330
5
100
AcDbSymbolTableRecord
100
AcDbLinetypeTableRecord
  2
ACJISTGL
 70
     0
  3
_ _ _ _ _
 72
    65
 73
     2
 40
3.0
 49
2.0
 74
     0
 49
-1.0
 74
     0
  0
LTYPE
  5
3A6
330
5
100
AcDbSymbolTableRecord
100
AcDbLinetypeTableRecord
  2
ACANSTGB
 70
     0
  3
__ . . __ . .
 72
    65
 73
     6
 40
0.35433070866
 49
0.15748031496
 74
     0
 49
-0.03937007874
 74
     0
 49
0.03937007874
 74
     0
 49
-0.03937007874
 74
     0
 49
0.03937007874
 74
     0
 49
-0.03937007874
 74
     0
  0
LTYPE
  5
3A7
330
5
100
AcDbSymbolTableRecord
100
AcDbLinetypeTableRecord
  2
ACANSTGL
 70
     0
  3
_ _ _ _ _
 72
    65
 73
     2
 40
0.11811023622
 49
0.07874015748
 74
     0
 49
-0.03937007874
 74
     0
  0
ENDTAB
  0
TABLE
  2
LAYER
  5
2
102
{ACAD_XDICTIONARY
360
44C
102
}
330
0
100
AcDbSymbolTable
 70
     5
  0
LAYER
  5
F
330
2
100
AcDbSymbolTableRecord
100
AcDbLayerTableRecord
  2
0
 70
     0
 62
     7
  6
CONTINUOUS
370
    -3
390
14F
  0
LAYER
  5
76D
330
2
100
AcDbSymbolTableRecord
100
AcDbLayerTableRecord
  2
10
 70
     0
 62
     7
  6
CONTINUOUS
370
    -3
390
14F
  0
LAYER
  5
76E
330
2
100
AcDbSymbolTableRecord
100
AcDbLayerTableRecord
  2
L-REV
 70
     0
 62
     4
  6
CONTINUOUS
370
    -3
390
14F
  0
LAYER
  5
76F
330
2
100
AcDbSymbolTableRecord
100
AcDbLayerTableRecord
  2
L1
 70
     0
 62
     7
  6
CONTINUOUS
370
    -3
390
14F
  0
LAYER
  5
770
330
2
100
AcDbSymbolTableRecord
100
AcDbLayerTableRecord
  2
Defpoints
 70
     0
 62
     7
  6
CONTINUOUS
290
     0
370
    -3
390
14F
  0
ENDTAB
  0
TABLE
  2
STYLE
  5
3
330
0
100
AcDbSymbolTable
 70
    19
  0
STYLE
  5
10
330
3
100
AcDbSymbolTableRecord
100
AcDbTextStyleTableRecord
  2
STANDARD
 70
     0
 40
0.0
 41
1.0
 50
0.0
 71
     0
 42
0.12
  3
ROMANS.SHX
  4

  0
STYLE
  5
11D
330
3
100
AcDbSymbolTableRecord
100
AcDbTextStyleTableRecord
  2
ADESK1
 70
     0
 40
0.0
 41
1.0
 50
0.0
 71
     0
 42
0.12
  3
romans.shx
  4

  0
STYLE
  5
162
330
3
100
AcDbSymbolTableRecord
100
AcDbTextStyleTableRecord
  2

 70
     1
 40
0.0
 41
1.0
 50
0.0
 71
     0
 42
0.12
  3
ltypeshp.shx
  4

  0
STYLE
  5
2C5
330
3
100
AcDbSymbolTableRecord
100
AcDbTextStyleTableRecord
  2
ACANSTSI
 70
     0
 40
1.0
 41
1.0
 50
0.0
 71
     0
 42
3.5
  3
romans.shx
  4

  0
STYLE
  5
2C8
330
3
100
AcDbSymbolTableRecord
100
AcDbTextStyleTableRecord
  2
ACANSGDT
 70
     0
 40
0.0
 41
1.0
 50
0.0
 71
     0
 42
3.5
  3
amgdt.shx
  4

  0
STYLE
  5
2E0
330
3
100
AcDbSymbolTableRecord
100
AcDbTextStyleTableRecord
  2
ACBSITS
 70
     0
 40
1.0
 41
1.0
 50
0.0
 71
     0
 42
3.5
  3
isocp.shx
  4

  0
STYLE
  5
2E3
330
3
100
AcDbSymbolTableRecord
100
AcDbTextStyleTableRecord
  2
ACBSIGDT
 70
     0
 40
0.0
 41
1.0
 50
0.0
 71
     0
 42
3.5
  3
amgdt.shx
  4

  0
STYLE
  5
2FA
330
3
100
AcDbSymbolTableRecord
100
AcDbTextStyleTableRecord
  2
ACDINTS
 70
     0
 40
1.0
 41
1.0
 50
0.0
 71
     0
 42
3.5
  3
isocp.shx
  4

  0
STYLE
  5
2FE
330
3
100
AcDbSymbolTableRecord
100
AcDbTextStyleTableRecord
  2
ACDINGDT
 70
     0
 40
0.0
 41
1.0
 50
0.0
 71
     0
 42
3.5
  3
amgdt.shx
  4

  0
STYLE
  5
315
330
3
100
AcDbSymbolTableRecord
100
AcDbTextStyleTableRecord
  2
ACISOTS
 70
     0
 40
1.0
 41
1.0
 50
0.0
 71
     0
 42
3.5
  3
isocp.shx
  4

  0
STYLE
  5
318
330
3
100
AcDbSymbolTableRecord
100
AcDbTextStyleTableRecord
  2
ACISOGDT
 70
     0
 40
0.0
 41
1.0
 50
0.0
 71
     0
 42
3.5
  3
amgdt.shx
  4

  0
STYLE
  5
330
330
3
100
AcDbSymbolTableRecord
100
AcDbTextStyleTableRecord
  2
ACJISTS
 70
     0
 40
1.0
 41
1.0
 50
0.0
 71
     0
 42
3.5
  3
isocp.shx
  4
bigfont.shx
  0
STYLE
  5
333
330
3
100
AcDbSymbolTableRecord
100
AcDbTextStyleTableRecord
  2
ACJISGDT
 70
     0
 40
0.0
 41
1.0
 50
0.0
 71
     0
 42
3.5
  3
amgdt.shx
  4

  0
STYLE
  5
39B
330
3
100
AcDbSymbolTableRecord
100
AcDbTextStyleTableRecord
  2
ACANSTS
 70
     0
 40
1.0
 41
1.0
 50
0.0
 71
     0
 42
0.12
  3
romans.shx
  4

  0
STYLE
  5
4CF
330
3
100
AcDbSymbolTableRecord
100
AcDbTextStyleTableRecord
  2
USER1
 70
     0
 40
0.0
 41
1.0
 50
0.0
 71
     0
 42
0.12
  3
TXT.SHX
  4

  0
STYLE
  5
4D0
330
3
100
AcDbSymbolTableRecord
100
AcDbTextStyleTableRecord
  2
USER2
 70
     0
 40
0.0
 41
1.0
 50
0.0
 71
     0
 42
0.12
  3
SIMPLEX.SHX
  4

  0
STYLE
  5
4D1
330
3
100
AcDbSymbolTableRecord
100
AcDbTextStyleTableRecord
  2
USER3
 70
     0
 40
0.0
 41
1.0
 50
0.0
 71
     0
 42
0.12
  3
ITALIC.SHX
  4

  0
STYLE
  5
5AB
330
3
100
AcDbSymbolTableRecord
100
AcDbTextStyleTableRecord
  2
outline drawings
 70
     0
 40
0.0
 41
1.0
 50
0.0
 71
     0
 42
0.12
  3
ARIAL.TTF
  4

1001
ACAD
1000
Arial
1071
       34
  0
STYLE
  5
7F6
330
3
100
AcDbSymbolTableRecord
100
AcDbTextStyleTableRecord
  2
ROMANS
 70
     0
 40
2.5
 41
1.0
 50
0.0
 71
     0
 42
2.5
  3
romans.shx
  4

  0
ENDTAB
  0
TABLE
  2
VIEW
  5
6
330
0
100
AcDbSymbolTable
 70
     3
  0
VIEW
  5
193
330
6
100
AcDbSymbolTableRecord
100
AcDbViewTableRecord
  2
AMDTVIEW1
 70
     0
 40
11.38251346627189
 10
7.263840830449827
 20
5.691256733135946
 41
14.52768166089965
 11
0.0
 21
0.0
 31
1.0
 12
0.0
 22
0.0
 32
0.0
 42
50.0
 43
0.0
 44
0.0
 50
0.0
 71
     0
281
     0
 72
     0
  0
VIEW
  5
194
330
6
100
AcDbSymbolTableRecord
100
AcDbViewTableRecord
  2
AMDTVIEW2
 70
     0
 40
11.38251346627189
 10
7.263840830449827
 20
5.691256733135946
 41
14.52768166089965
 11
0.0
 21
0.0
 31
1.0
 12
0.0
 22
0.0
 32
0.0
 42
50.0
 43
0.0
 44
0.0
 50
0.0
 71
     0
281
     0
 72
     0
  0
VIEW
  5
195
330
6
100
AcDbSymbolTableRecord
100
AcDbViewTableRecord
  2
AMDTVIEW3
 70
     0
 40
11.38251346627189
 10
7.263840830449827
 20
5.691256733135946
 41
14.52768166089965
 11
0.0
 21
0.0
 31
1.0
 12
0.0
 22
0.0
 32
0.0
 42
50.0
 43
0.0
 44
0.0
 50
0.0
 71
     0
281
     0
 72
     0
  0
ENDTAB
  0
TABLE
  2
UCS
  5
7
330
0
100
AcDbSymbolTable
 70
     0
  0
ENDTAB
  0
TABLE
  2
APPID
  5
9
330
0
100
AcDbSymbolTable
 70
    15
  0
APPID
  5
11
330
9
100
AcDbSymbolTableRecord
100
AcDbRegAppTableRecord
  2
ACAD
 70
     0
  0
APPID
  5
9C
330
9
100
AcDbSymbolTableRecord
100
AcDbRegAppTableRecord
  2
AD_DRAW
 70
     0
  0
APPID
  5
B6
330
9
100
AcDbSymbolTableRecord
100
AcDbRegAppTableRecord
  2
DESIGNERASSEMBLIES
 70
     0
  0
APPID
  5
BD
330
9
100
AcDbSymbolTableRecord
100
AcDbRegAppTableRecord
  2
MCAD_NO_VIS
 70
     0
  0
APPID
  5
F4
330
9
100
AcDbSymbolTableRecord
100
AcDbRegAppTableRecord
  2
ASURF_PCURVE_APPNAME
 70
     0
  0
APPID
  5
168
330
9
100
AcDbSymbolTableRecord
100
AcDbRegAppTableRecord
  2
ACAD_TEMP_GRAPHIC
 70
     0
  0
APPID
  5
172
330
9
100
AcDbSymbolTableRecord
100
AcDbRegAppTableRecord
  2
ACATTRIBSERVICES
 70
     0
  0
APPID
  5
18F
330
9
100
AcDbSymbolTableRecord
100
AcDbRegAppTableRecord
  2
ACADM_DIM_EDIT
 70
     0
  0
APPID
  5
19D
330
9
100
AcDbSymbolTableRecord
100
AcDbRegAppTableRecord
  2
GENIUS_GENDIM_13
 70
     0
  0
APPID
  5
19E
330
9
100
AcDbSymbolTableRecord
100
AcDbRegAppTableRecord
  2
GENIUS_GENDTOL_13
 70
     0
  0
APPID
  5
19F
330
9
100
AcDbSymbolTableRecord
100
AcDbRegAppTableRecord
  2
GENIUS_GE3DTOL_13
 70
     0
  0
APPID
  5
2A2
330
9
100
AcDbSymbolTableRecord
100
AcDbRegAppTableRecord
  2
AMG_3D2D_5.0
 70
     0
  0
APPID
  5
3EE
330
9
100
AcDbSymbolTableRecord
100
AcDbRegAppTableRecord
  2
AMDT_DM_ADJ
 70
     0
  0
APPID
  5
4D3
330
9
100
AcDbSymbolTableRecord
100
AcDbRegAppTableRecord
  2
ACAD_DSTYLE_DIMTEXT_FILL
 70
     0
  0
APPID
  5
771
330
9
100
AcDbSymbolTableRecord
100
AcDbRegAppTableRecord
  2
ACAD_PSEXT
 70
     0
  0
ENDTAB
  0
TABLE
  2
DIMSTYLE
  5
A
330
0
100
AcDbSymbolTable
 70
    36
100
AcDbDimStyleTable
 71
     6
340
606
340
1D
340
2D3
340
322
340
308
340
2ED
  0
DIMSTYLE
105
1D
330
A
100
AcDbSymbolTableRecord
100
AcDbDimStyleTableRecord
  2
STANDARD
 70
     0
340
10
  0
DIMSTYLE
105
2D3
330
A
100
AcDbSymbolTableRecord
100
AcDbDimStyleTableRecord
  2
AM_ANSI
 70
     0
  4
mm
 41
0.1
 42
0.05
 43
0.5
 44
0.1
 47
0.1
 48
0.1
 78
     7
 79
     2
140
0.12
141
0.0
146
0.71
147
0.06
176
   256
177
   256
178
     2
274
     4
284
     7
340
10
371
    -1
372
    -1
  0
DIMSTYLE
105
2D4
330
A
100
AcDbSymbolTableRecord
100
AcDbDimStyleTableRecord
  2
AM_ANSI$3
 70
     0
  4
mm
 41
0.1
 42
0.05
 43
0.5
 44
0.1
 47
0.1
 48
0.1
 78
     7
 79
     2
140
0.12
141
0.0
146
0.71
147
0.06
176
   256
177
   256
178
     2
274
     4
284
     7
288
     1
289
     0
340
10
371
    -1
372
    -1
  0
DIMSTYLE
105
2D5
330
A
100
AcDbSymbolTableRecord
100
AcDbDimStyleTableRecord
  2
AM_ANSI$4
 70
     0
  4
mm
 41
0.1
 42
0.05
 43
0.5
 44
0.1
 47
0.1
 48
0.1
 78
     7
 79
     2
140
0.12
141
0.0
146
0.71
147
0.06
176
   256
177
   256
178
     2
274
     4
284
     7
288
     1
289
     0
340
10
371
    -1
372
    -1
  0
DIMSTYLE
105
2D6
330
A
100
AcDbSymbolTableRecord
100
AcDbDimStyleTableRecord
  2
AM_ANSI$7
 70
     0
  4
mm
 41
0.1
 42
0.05
 43
0.5
 44
0.1
 47
0.1
 48
0.1
 78
     7
 79
     2
140
0.24
141
0.0
146
0.71
147
0.06
176
   256
177
   256
178
     2
274
     4
284
     7
340
10
371
    -1
372
    -1
  0
DIMSTYLE
105
2D7
330
A
100
AcDbSymbolTableRecord
100
AcDbDimStyleTableRecord
  2
AM_ANSI$SF
 70
     0
  4
mm
 41
0.1
 42
0.05
 43
0.5
 44
0.1
 47
0.1
 48
0.1
 75
     1
 76
     1
 78
     7
 79
     2
140
0.12
141
0.0
146
0.71
147
0.06
176
   256
177
   256
178
     2
274
     4
284
     7
340
10
371
    -1
372
    -1
  0
DIMSTYLE
105
2D8
330
A
100
AcDbSymbolTableRecord
100
AcDbDimStyleTableRecord
  2
AM_ANSI$SH
 70
     0
  4
mm
 41
0.1
 42
0.05
 43
0.5
 44
0.1
 47
0.1
 48
0.1
 75
     1
 76
     1
 78
     7
 79
     2
140
0.12
141
0.0
146
0.71
147
0.06
173
     1
176
   256
177
   256
178
     2
274
     4
284
     7
340
10
371
    -1
372
    -1
  0
DIMSTYLE
105
2ED
330
A
100
AcDbSymbolTableRecord
100
AcDbDimStyleTableRecord
  2
AM_BSI
 70
     0
  4
mm
 41
0.1574803149606299
 42
0.05
 43
0.5
 44
0.1
 47
0.1
 48
0.1
 73
     0
 74
     0
 77
     1
 78
     7
 79
     2
140
0.12
141
0.0
146
0.71
147
0.06
172
     1
176
   256
177
   256
178
     2
274
     4
283
     0
284
     7
340
10
371
    -1
372
    -1
  0
DIMSTYLE
105
2EE
330
A
100
AcDbSymbolTableRecord
100
AcDbDimStyleTableRecord
  2
AM_BSI$3
 70
     0
  4
mm
 41
0.1574803149606299
 42
0.05
 43
0.5
 44
0.1
 47
0.1
 48
0.1
 73
     0
 77
     1
 78
     7
 79
     2
140
0.12
141
0.0
146
0.71
147
0.06
176
   256
177
   256
178
     2
274
     4
283
     0
284
     7
288
     1
289
     0
340
10
371
    -1
372
    -1
  0
DIMSTYLE
105
2EF
330
A
100
AcDbSymbolTableRecord
100
AcDbDimStyleTableRecord
  2
AM_BSI$4
 70
     0
  4
mm
 41
0.1574803149606299
 42
0.05
 43
0.5
 44
0.1
 47
0.1
 48
0.1
 73
     0
 77
     1
 78
     7
 79
     2
140
0.12
141
0.0
146
0.71
147
0.06
176
   256
177
   256
178
     2
274
     4
283
     0
284
     7
288
     1
289
     0
340
10
371
    -1
372
    -1
  0
DIMSTYLE
105
2F0
330
A
100
AcDbSymbolTableRecord
100
AcDbDimStyleTableRecord
  2
AM_BSI$6
 70
     0
  4
mm
 41
0.1574803149606299
 42
0.05
 43
0.5
 44
0.1
 47
0.1
 48
0.1
 73
     0
 74
     0
 78
     7
 79
     2
140
0.12
141
0.0
146
0.71
147
0.06
172
     1
176
   256
177
   256
178
     2
274
     4
283
     0
284
     7
340
10
371
    -1
372
    -1
  0
DIMSTYLE
105
2F1
330
A
100
AcDbSymbolTableRecord
100
AcDbDimStyleTableRecord
  2
AM_BSI$7
 70
     0
  4
mm
 41
0.1
 42
0.05
 43
0.5
 44
0.1
 47
0.1
 48
0.1
 73
     0
 74
     0
 77
     1
 78
     7
 79
     2
140
0.24
141
0.0
146
0.71
147
0.06
172
     1
176
   256
177
   256
178
     2
274
     4
283
     0
284
     7
340
10
371
    -1
372
    -1
  0
DIMSTYLE
105
2F2
330
A
100
AcDbSymbolTableRecord
100
AcDbDimStyleTableRecord
  2
AM_BSI$SF
 70
     0
  4
mm
 41
0.1574803149606299
 42
0.05
 43
0.5
 44
0.1
 47
0.1
 48
0.1
 73
     0
 74
     0
 75
     1
 76
     1
 77
     1
 78
     7
 79
     2
140
0.12
141
0.0
146
0.71
147
0.06
172
     1
176
   256
177
   256
178
     2
274
     4
283
     0
284
     7
340
10
371
    -1
372
    -1
  0
DIMSTYLE
105
2F3
330
A
100
AcDbSymbolTableRecord
100
AcDbDimStyleTableRecord
  2
AM_BSI$SH
 70
     0
  4
mm
 41
0.1574803149606299
 42
0.05
 43
0.5
 44
0.1
 47
0.1
 48
0.1
 73
     0
 74
     0
 75
     1
 76
     1
 77
     1
 78
     7
 79
     2
140
0.12
141
0.0
144
2.0
146
0.71
147
0.06
172
     1
173
     1
176
   256
177
   256
178
     2
274
     4
283
     0
284
     7
340
10
371
    -1
372
    -1
  0
DIMSTYLE
105
308
330
A
100
AcDbSymbolTableRecord
100
AcDbDimStyleTableRecord
  2
AM_DIN
 70
     0
  4
mm
 41
0.1
 42
0.05
 43
0.5
 44
0.1
 47
0.1
 48
0.1
 73
     0
 74
     0
 77
     1
 78
     7
 79
     2
140
0.12
141
0.0
146
0.71
147
0.06
172
     1
176
   256
177
   256
178
     2
274
     4
283
     0
284
     7
340
10
371
    -1
372
    -1
  0
DIMSTYLE
105
309
330
A
100
AcDbSymbolTableRecord
100
AcDbDimStyleTableRecord
  2
AM_DIN$3
 70
     0
  4
mm
 41
0.1
 42
0.05
 43
0.5
 44
0.1
 47
0.1
 48
0.1
 73
     0
 77
     1
 78
     7
 79
     2
140
0.12
141
0.0
146
0.71
147
0.06
176
   256
177
   256
178
     2
274
     4
283
     0
284
     7
288
     1
289
     0
340
10
371
    -1
372
    -1
  0
DIMSTYLE
105
30A
330
A
100
AcDbSymbolTableRecord
100
AcDbDimStyleTableRecord
  2
AM_DIN$4
 70
     0
  4
mm
 41
0.1
 42
0.05
 43
0.5
 44
0.1
 47
0.1
 48
0.1
 73
     0
 77
     1
 78
     7
 79
     2
140
0.12
141
0.0
146
0.71
147
0.06
176
   256
177
   256
178
     2
274
     4
283
     0
284
     7
288
     1
289
     0
340
10
371
    -1
372
    -1
  0
DIMSTYLE
105
30B
330
A
100
AcDbSymbolTableRecord
100
AcDbDimStyleTableRecord
  2
AM_DIN$6
 70
     0
  4
mm
 41
0.1
 42
0.05
 43
0.5
 44
0.1
 47
0.1
 48
0.1
 73
     0
 74
     0
 78
     7
 79
     2
140
0.12
141
0.0
146
0.71
147
0.06
172
     1
176
   256
177
   256
178
     2
274
     4
283
     0
284
     7
340
10
371
    -1
372
    -1
  0
DIMSTYLE
105
30C
330
A
100
AcDbSymbolTableRecord
100
AcDbDimStyleTableRecord
  2
AM_DIN$7
 70
     0
  4
mm
 41
0.1
 42
0.05
 43
0.5
 44
0.1
 47
0.1
 48
0.1
 73
     0
 74
     0
 77
     1
 78
     7
 79
     2
140
0.24
141
0.0
146
0.71
147
0.06
172
     1
176
   256
177
   256
178
     2
274
     4
283
     0
284
     7
340
10
371
    -1
372
    -1
  0
DIMSTYLE
105
30D
330
A
100
AcDbSymbolTableRecord
100
AcDbDimStyleTableRecord
  2
AM_DIN$SF
 70
     0
  4
mm
 41
0.1
 42
0.05
 43
0.5
 44
0.1
 47
0.1
 48
0.1
 73
     0
 74
     0
 75
     1
 76
     1
 77
     1
 78
     7
 79
     2
140
0.12
141
0.0
146
0.71
147
0.06
172
     1
176
   256
177
   256
178
     2
274
     4
283
     0
284
     7
340
10
371
    -1
372
    -1
  0
DIMSTYLE
105
30E
330
A
100
AcDbSymbolTableRecord
100
AcDbDimStyleTableRecord
  2
AM_DIN$SH
 70
     0
  4
mm
 41
0.1
 42
0.05
 43
0.5
 44
0.1
 47
0.1
 48
0.1
 73
     0
 74
     0
 75
     1
 76
     1
 77
     1
 78
     7
 79
     2
140
0.12
141
0.0
144
2.0
146
0.71
147
0.06
172
     1
173
     1
176
   256
177
   256
178
     2
274
     4
283
     0
284
     7
340
10
371
    -1
372
    -1
  0
DIMSTYLE
105
322
330
A
100
AcDbSymbolTableRecord
100
AcDbDimStyleTableRecord
  2
AM_ISO
 70
     0
  4
mm
 41
0.1
 42
0.05
 43
0.5
 44
0.1
 47
0.1
 48
0.1
 73
     0
 74
     0
 77
     1
 78
     7
 79
     2
140
0.12
141
0.0
146
0.71
147
0.06
172
     1
176
   256
177
   256
178
     2
274
     4
283
     0
284
     7
340
10
371
    -1
372
    -1
  0
DIMSTYLE
105
323
330
A
100
AcDbSymbolTableRecord
100
AcDbDimStyleTableRecord
  2
AM_ISO$3
 70
     0
  4
mm
 41
0.1
 42
0.05
 43
0.5
 44
0.1
 47
0.1
 48
0.1
 73
     0
 77
     1
 78
     7
 79
     2
140
0.12
141
0.0
146
0.71
147
0.06
176
   256
177
   256
178
     2
274
     4
283
     0
284
     7
288
     1
289
     0
340
10
371
    -1
372
    -1
  0
DIMSTYLE
105
324
330
A
100
AcDbSymbolTableRecord
100
AcDbDimStyleTableRecord
  2
AM_ISO$4
 70
     0
  4
mm
 41
0.1
 42
0.05
 43
0.5
 44
0.1
 47
0.1
 48
0.1
 73
     0
 77
     1
 78
     7
 79
     2
140
0.12
141
0.0
146
0.71
147
0.06
176
   256
177
   256
178
     2
274
     4
283
     0
284
     7
288
     1
289
     0
340
10
371
    -1
372
    -1
  0
DIMSTYLE
105
325
330
A
100
AcDbSymbolTableRecord
100
AcDbDimStyleTableRecord
  2
AM_ISO$6
 70
     0
  4
mm
 41
0.1
 42
0.05
 43
0.5
 44
0.1
 47
0.1
 48
0.1
 73
     0
 74
     0
 78
     7
 79
     2
140
0.12
141
0.0
146
0.71
147
0.06
172
     1
176
   256
177
   256
178
     2
274
     4
283
     0
284
     7
340
10
371
    -1
372
    -1
  0
DIMSTYLE
105
326
330
A
100
AcDbSymbolTableRecord
100
AcDbDimStyleTableRecord
  2
AM_ISO$7
 70
     0
  4
mm
 41
0.1
 42
0.05
 43
0.5
 44
0.1
 47
0.1
 48
0.1
 73
     0
 74
     0
 77
     1
 78
     7
 79
     2
140
0.24
141
0.0
146
0.71
147
0.06
172
     1
176
   256
177
   256
178
     2
274
     4
283
     0
284
     7
340
10
371
    -1
372
    -1
  0
DIMSTYLE
105
327
330
A
100
AcDbSymbolTableRecord
100
AcDbDimStyleTableRecord
  2
AM_ISO$SF
 70
     0
  4
mm
 41
0.1
 42
0.05
 43
0.5
 44
0.1
 47
0.1
 48
0.1
 73
     0
 74
     0
 75
     1
 76
     1
 77
     1
 78
     7
 79
     2
140
0.12
141
0.0
146
0.71
147
0.06
172
     1
176
   256
177
   256
178
     2
274
     4
283
     0
284
     7
340
10
371
    -1
372
    -1
  0
DIMSTYLE
105
328
330
A
100
AcDbSymbolTableRecord
100
AcDbDimStyleTableRecord
  2
AM_ISO$SH
 70
     0
  4
mm
 41
0.1
 42
0.05
 43
0.5
 44
0.1
 47
0.1
 48
0.1
 73
     0
 74
     0
 75
     1
 76
     1
 77
     1
 78
     7
 79
     2
140
0.12
141
0.0
144
2.0
146
0.71
147
0.06
172
     1
173
     1
176
   256
177
   256
178
     2
274
     4
283
     0
284
     7
340
10
371
    -1
372
    -1
  0
DIMSTYLE
105
33C
330
A
100
AcDbSymbolTableRecord
100
AcDbDimStyleTableRecord
  2
AM_JIS
 70
     0
  4
mm
 41
0.1
 42
0.05
 43
0.5
 44
0.1
 47
0.1
 48
0.1
 73
     0
 74
     0
 77
     3
 78
     7
 79
     2
140
0.12
141
0.0
146
0.71
147
0.06
172
     1
176
   256
177
   256
178
     2
274
     4
283
     0
284
     7
340
10
371
    -1
372
    -1
  0
DIMSTYLE
105
33D
330
A
100
AcDbSymbolTableRecord
100
AcDbDimStyleTableRecord
  2
AM_JIS$3
 70
     0
  4
mm
 41
0.1
 42
0.05
 43
0.5
 44
0.1
 47
0.1
 48
0.1
 73
     0
 77
     3
 78
     7
 79
     2
140
0.12
141
0.0
146
0.71
147
0.06
176
   256
177
   256
178
     2
274
     4
283
     0
284
     7
288
     1
289
     0
340
10
371
    -1
372
    -1
  0
DIMSTYLE
105
33E
330
A
100
AcDbSymbolTableRecord
100
AcDbDimStyleTableRecord
  2
AM_JIS$4
 70
     0
  4
mm
 41
0.1
 42
0.05
 43
0.5
 44
0.1
 47
0.1
 48
0.1
 73
     0
 77
     3
 78
     7
 79
     2
140
0.12
141
0.0
146
0.71
147
0.06
176
   256
177
   256
178
     2
274
     4
283
     0
284
     7
288
     1
289
     0
340
10
371
    -1
372
    -1
  0
DIMSTYLE
105
33F
330
A
100
AcDbSymbolTableRecord
100
AcDbDimStyleTableRecord
  2
AM_JIS$6
 70
     0
  4
mm
 41
0.1
 42
0.05
 43
0.5
 44
0.1
 47
0.1
 48
0.1
 73
     0
 74
     0
 78
     7
 79
     2
140
0.12
141
0.0
146
0.71
147
0.06
172
     1
176
   256
177
   256
178
     2
274
     4
283
     0
284
     7
340
10
371
    -1
372
    -1
  0
DIMSTYLE
105
340
330
A
100
AcDbSymbolTableRecord
100
AcDbDimStyleTableRecord
  2
AM_JIS$7
 70
     0
  4
mm
 41
0.1
 42
0.05
 43
0.5
 44
0.1
 47
0.1
 48
0.1
 73
     0
 74
     0
 77
     3
 78
     7
 79
     2
140
0.24
141
0.0
146
0.71
147
0.06
172
     1
176
   256
177
   256
178
     2
274
     4
283
     0
284
     7
340
10
371
    -1
372
    -1
  0
DIMSTYLE
105
341
330
A
100
AcDbSymbolTableRecord
100
AcDbDimStyleTableRecord
  2
AM_JIS$SF
 70
     0
  4
mm
 41
0.1
 42
0.05
 43
0.5
 44
0.1
 47
0.1
 48
0.1
 73
     0
 74
     0
 75
     1
 76
     1
 77
     3
 78
     7
 79
     2
140
0.12
141
0.0
146
0.71
147
0.06
172
     1
176
   256
177
   256
178
     2
274
     4
283
     0
284
     7
340
10
371
    -1
372
    -1
  0
DIMSTYLE
105
342
330
A
100
AcDbSymbolTableRecord
100
AcDbDimStyleTableRecord
  2
AM_JIS$SH
 70
     0
  4
mm
 41
0.1
 42
0.05
 43
0.5
 44
0.1
 47
0.1
 48
0.1
 73
     0
 74
     0
 75
     1
 76
     1
 77
     3
 78
     7
 79
     2
140
0.12
141
0.0
144
2.0
146
0.71
147
0.06
172
     1
173
     1
176
   256
177
   256
178
     2
274
     4
283
     0
284
     7
340
10
371
    -1
372
    -1
  0
DIMSTYLE
105
606
102
{ACAD_REACTORS
330
1A5A
330
1A6A
330
1A79
102
}
330
A
100
AcDbSymbolTableRecord
100
AcDbDimStyleTableRecord
  2
Outline Drawings
 70
     0
  3
 mm\X
  4
 in
 41
0.125
143
0.0393700787
144
25.4
170
     1
271
     0
272
     0
340
5AB
  0
ENDTAB
  0
TABLE
  2
BLOCK_RECORD
  5
1
330
0
100
AcDbSymbolTable
 70
    14
  0
BLOCK_RECORD
  5
19
102
{ACAD_XDICTIONARY
360
11F
102
}
330
1
100
AcDbSymbolTableRecord
100
AcDbBlockTableRecord
  2
*MODEL_SPACE
340
152
  0
BLOCK_RECORD
  5
16
330
1
100
AcDbSymbolTableRecord
100
AcDbBlockTableRecord
  2
*PAPER_SPACE
340
153
  0
BLOCK_RECORD
  5
2A7
330
1
100
AcDbSymbolTableRecord
100
AcDbBlockTableRecord
  2
_Open30
340
0
  0
BLOCK_RECORD
  5
2AD
330
1
100
AcDbSymbolTableRecord
100
AcDbBlockTableRecord
  2
GENAXEH
340
0
  0
BLOCK_RECORD
  5
642
330
1
100
AcDbSymbolTableRecord
100
AcDbBlockTableRecord
  2
A$C708B5813
340
0
102
{BLKREFS
331
687
331
69A
102
}
  0
BLOCK_RECORD
  5
685
330
1
100
AcDbSymbolTableRecord
100
AcDbBlockTableRecord
  2
A$C2BF30918
340
0
102
{BLKREFS
331
6C3
102
}
  0
BLOCK_RECORD
  5
689
330
1
100
AcDbSymbolTableRecord
100
AcDbBlockTableRecord
  2
A$C0832103F
340
0
  0
BLOCK_RECORD
  5
704
330
1
100
AcDbSymbolTableRecord
100
AcDbBlockTableRecord
  2
A$C5A7A0274
340
0
102
{BLKREFS
331
768
102
}
  0
BLOCK_RECORD
  5
743
330
1
100
AcDbSymbolTableRecord
100
AcDbBlockTableRecord
  2
A$C497D351A
340
0
  0
BLOCK_RECORD
  5
772
102
{ACAD_XDICTIONARY
360
7EA
102
}
330
1
100
AcDbSymbolTableRecord
100
AcDbBlockTableRecord
  2
STD50006-8X11
340
0
1001
ACAD
1000
DesignCenter Data
1002
{
1070
     1
1070
     1
1002
}
  0
BLOCK_RECORD
  5
1A18
102
{ACAD_XDICTIONARY
360
1A2B
102
}
330
1
100
AcDbSymbolTableRecord
100
AcDbBlockTableRecord
  2
A$C267F10F2
340
0
  0
BLOCK_RECORD
  5
1A5B
330
1
100
AcDbSymbolTableRecord
100
AcDbBlockTableRecord
  2
*D11
340
0
  0
BLOCK_RECORD
  5
1A6B
330
1
100
AcDbSymbolTableRecord
100
AcDbBlockTableRecord
  2
*D12
340
0
  0
BLOCK_RECORD
  5
1A7A
330
1
100
AcDbSymbolTableRecord
100
AcDbBlockTableRecord
  2
*D13
340
0
  0
ENDTAB
  0
ENDSEC
  0
SECTION
  2
BLOCKS
  0
BLOCK
  5
1A
330
19
100
AcDbEntity
  8
0
100
AcDbBlockBegin
  2
*MODEL_SPACE
 70
     0
 10
0.0
 20
0.0
 30
0.0
  3
*MODEL_SPACE
  1

  0
ENDBLK
  5
1B
330
19
100
AcDbEntity
  8
0
100
AcDbBlockEnd
  0
BLOCK
  5
17
330
16
100
AcDbEntity
 67
     1
  8
0
100
AcDbBlockBegin
  2
*PAPER_SPACE
 70
     0
 10
0.0
 20
0.0
 30
0.0
  3
*PAPER_SPACE
  1

  0
ENDBLK
  5
18
330
16
100
AcDbEntity
 67
     1
  8
0
100
AcDbBlockEnd
  0
BLOCK
  5
2AB
330
2A7
100
AcDbEntity
  8
0
100
AcDbBlockBegin
  2
_Open30
 70
     0
 10
0.0
 20
0.0
 30
0.0
  3
_Open30
  1

  0
LINE
  5
2A8
330
2A7
100
AcDbEntity
  8
0
  6
ByBlock
 62
     0
370
    -2
100
AcDbLine
 10
-1.0
 20
0.26794919
 30
0.0
 11
0.0
 21
0.0
 31
0.0
  0
LINE
  5
2A9
330
2A7
100
AcDbEntity
  8
0
  6
ByBlock
 62
     0
370
    -2
100
AcDbLine
 10
0.0
 20
0.0
 30
0.0
 11
-1.0
 21
-0.26794919
 31
0.0
  0
LINE
  5
2AA
330
2A7
100
AcDbEntity
  8
0
  6
ByBlock
 62
     0
370
    -2
100
AcDbLine
 10
0.0
 20
0.0
 30
0.0
 11
-1.0
 21
0.0
 31
0.0
  0
ENDBLK
  5
2AC
330
2A7
100
AcDbEntity
  8
0
100
AcDbBlockEnd
  0
BLOCK
  5
2AF
330
2AD
100
AcDbEntity
  8
0
100
AcDbBlockBegin
  2
GENAXEH
 70
     0
 10
0.0
 20
0.0
 30
0.0
  3
GENAXEH
  1

  0
LINE
  5
2AE
330
2AD
100
AcDbEntity
  8
0
100
AcDbLine
 10
-1.0
 20
0.0
 30
0.0
 11
1.0
 21
0.0
 31
0.0
  0
ENDBLK
  5
2B0
330
2AD
100
AcDbEntity
  8
0
100
AcDbBlockEnd
  0
BLOCK
  5
643
330
642
100
AcDbEntity
  8
0
100
AcDbBlockBegin
  2
A$C708B5813
 70
     0
 10
0.0
 20
0.0
 30
0.0
  3
A$C708B5813
  1

  0
LINE
  5
644
330
642
100
AcDbEntity
  8
10
100
AcDbLine
 10
0.2399999692803618
 20
0.2640315084226485
 30
0.0
 11
0.2436013672279564
 21
0.2661107764971518
 31
0.0
  0
CIRCLE
  5
645
330
642
100
AcDbEntity
  8
10
100
AcDbCircle
 10
0.2399999692803618
 20
0.2640315084226485
 30
0.0
 40
0.0041585361490064
  0
ARC
  5
646
330
642
100
AcDbEntity
  8
10
100
AcDbCircle
 10
0.2399999692803512
 20
0.2871255191902322
 30
0.0
 40
0.01
100
AcDbArc
 50
240.0
 51
300.0000000000008
  0
ARC
  5
647
330
642
100
AcDbEntity
  8
10
100
AcDbCircle
 10
0.2399999692803618
 20
0.529612632249878
 30
0.0
 40
0.01
100
AcDbArc
 50
60.00000000000078
 51
119.9999999999996
  0
ARC
  5
648
330
642
100
AcDbEntity
  8
10
100
AcDbCircle
 10
0.2399999692511088
 20
0.3949160812035983
 30
0.0
 40
0.01
100
AcDbArc
 50
239.9999999674645
 51
300.0000000465846
  0
ARC
  5
649
330
642
100
AcDbEntity
  8
10
100
AcDbCircle
 10
0.2393667475655192
 20
0.4214564796978131
 30
0.0
 40
0.01
100
AcDbArc
 50
60.0
 51
119.9999999818938
  0
LINE
  5
64A
330
642
100
AcDbEntity
  8
10
100
AcDbLine
 10
0.0249999692803549
 20
0.3997088216822098
 30
0.0
 11
0.2349999692803522
 21
0.2784652651523878
 31
0.0
  0
LINE
  5
64B
330
642
100
AcDbEntity
  8
10
100
AcDbLine
 10
-0.0000000307196402
 20
0.3737280595686747
 30
0.0
 11
-0.0000000307196366
 21
0.1312409465090325
 31
0.0
  0
LINE
  5
64C
330
642
100
AcDbEntity
  8
10
100
AcDbLine
 10
0.0149999692803604
 20
0.3823883136065191
 30
0.0
 11
0.2249999692803613
 21
0.2611447570767011
 31
0.0
  0
LINE
  5
64D
330
642
100
AcDbEntity
  8
10
100
AcDbLine
 10
0.2399999692803618
 20
0.2640315084226485
 30
0.0
 11
0.2399999692803618
 21
0.2598729722736421
 31
0.0
  0
LINE
  5
64E
330
642
100
AcDbEntity
  8
10
100
AcDbLine
 10
0.2363985713327672
 20
0.2661107764971531
 30
0.0
 11
0.2399999692803618
 21
0.2640315084226485
 31
0.0
  0
LINE
  5
64F
330
642
100
AcDbEntity
  8
10
100
AcDbLine
 10
0.2299999692803709
 20
0.1139204384333419
 30
0.0
 11
0.1356921705519909
 21
0.168369071415853
 31
0.0
  0
LINE
  5
650
330
642
100
AcDbEntity
  8
10
100
AcDbLine
 10
0.2299999692803674
 20
0.1370144492009269
 30
0.0
 11
0.1366506043749744
 21
0.1909097301577374
 31
0.0
  0
LINE
  5
651
330
642
100
AcDbEntity
  8
10
100
AcDbLine
 10
0.2299999692803709
 20
0.113920438433345
 30
0.0
 11
0.2299999692803674
 21
0.0099973899792092
 31
0.0
  0
LINE
  5
652
330
642
100
AcDbEntity
  8
10
100
AcDbLine
 10
0.2299999692803638
 20
0.2524845030388567
 30
0.0
 11
0.2299999692803674
 21
0.1370144492009304
 31
0.0
  0
ARC
  5
653
330
642
100
AcDbEntity
  8
10
100
AcDbCircle
 10
0.1266506043749622
 20
0.1726410827766105
 30
0.0
 40
0.01
100
AcDbArc
 50
239.9999999999996
 51
334.709932108123
  0
LINE
  5
654
330
642
100
AcDbEntity
  8
10
100
AcDbLine
 10
0.1366506043749744
 20
0.1909097301577414
 30
0.0
 11
0.1366506043749673
 21
0.1985892220820524
 31
0.0
  0
LINE
  5
655
330
642
100
AcDbEntity
  8
10
100
AcDbLine
 10
0.1216506043749632
 20
0.1639808287387661
 30
0.0
 11
0.0983493341857553
 21
0.177433823354967
 31
0.0
  0
ARC
  5
656
330
642
100
AcDbEntity
  8
10
100
AcDbCircle
 10
0.1266506043749658
 20
0.1985892220820524
 30
0.0
 40
0.01
100
AcDbArc
 50
0.0
 51
59.99999999999917
  0
LINE
  5
657
330
642
100
AcDbEntity
  8
10
100
AcDbLine
 10
0.1316506043749648
 20
0.2072494761198969
 30
0.0
 11
0.1083493341857533
 21
0.2207024707360996
 31
0.0
  0
ARC
  5
658
330
642
100
AcDbEntity
  8
10
100
AcDbCircle
 10
0.1033493341857543
 20
0.1860940773928115
 30
0.0
 40
0.01
100
AcDbArc
 50
180.0
 51
240.0
  0
LINE
  5
659
330
642
100
AcDbEntity
  8
10
100
AcDbLine
 10
0.0933493341857528
 20
0.1860940773928115
 30
0.0
 11
0.0933493341857528
 21
0.2120422166982552
 31
0.0
  0
ARC
  5
65A
330
642
100
AcDbEntity
  8
10
100
AcDbCircle
 10
0.1033493341857543
 20
0.2120422166982552
 30
0.0
 40
0.01
100
AcDbArc
 50
60.0
 51
180.0
  0
ARC
  5
65B
330
642
100
AcDbEntity
  8
10
100
AcDbCircle
 10
0.009999969280365
 20
0.1312409465090325
 30
0.0
 40
0.01
100
AcDbArc
 50
180.0000000000007
 51
240.0000000000003
  0
LINE
  5
65C
330
642
100
AcDbEntity
  8
10
100
AcDbLine
 10
0.0049999692803659
 20
0.1225806924711881
 30
0.0
 11
0.2149999692803668
 21
0.0013371359413648
 31
0.0
  0
ARC
  5
65D
330
642
100
AcDbEntity
  8
10
100
AcDbCircle
 10
0.2199999692803658
 20
0.0099973899792092
 30
0.0
 40
0.01
100
AcDbArc
 50
240.0
 51
0.0
  0
ARC
  5
65E
330
642
100
AcDbEntity
  8
10
100
AcDbCircle
 10
0.2199999692803622
 20
0.2524845030388567
 30
0.0
 40
0.01
100
AcDbArc
 50
0.0000000000007124
 51
60.00000000000078
  0
LINE
  5
65F
330
642
100
AcDbEntity
  8
10
100
AcDbLine
 10
0.0249999692803549
 20
0.4170293297578988
 30
0.0
 11
0.2349999692803628
 21
0.5382728862877224
 31
0.0
  0
ARC
  5
660
330
642
100
AcDbEntity
  8
10
100
AcDbCircle
 10
0.0299999692803539
 20
0.4083690757200542
 30
0.0
 40
0.01
100
AcDbArc
 50
119.9999999999997
 51
240.0000000000002
  0
LINE
  5
661
330
642
100
AcDbEntity
  8
10
100
AcDbLine
 10
0.2349999692461928
 20
0.3862558271685934
 30
0.0
 11
0.2116986990911549
 21
0.3997088217818918
 31
0.0
  0
LINE
  5
662
330
642
100
AcDbEntity
  8
10
100
AcDbLine
 10
0.2116986990911549
 20
0.4170293298575807
 30
0.0
 11
0.2343667475682558
 21
0.4301167337372376
 31
0.0
  0
ARC
  5
663
330
642
100
AcDbEntity
  8
10
100
AcDbCircle
 10
0.2166986990911539
 20
0.4083690758197364
 30
0.0
 40
0.01
100
AcDbArc
 50
119.9999999999999
 51
240.0
  0
ARC
  5
664
330
642
100
AcDbEntity
  8
10
100
AcDbCircle
 10
0.0099999692803614
 20
0.3737280595686747
 30
0.0
 40
0.01
100
AcDbArc
 50
60.00000000000071
 51
180.0
  0
LINE
  5
665
330
642
100
AcDbEntity
  8
10
100
AcDbLine
 10
0.2449999692803502
 20
0.2784652651523878
 30
0.0
 11
0.4549999692803617
 21
0.399708821682216
 31
0.0
  0
LINE
  5
666
330
642
100
AcDbEntity
  8
10
100
AcDbLine
 10
0.2599999692803685
 20
0.2640315084226534
 30
0.0
 11
0.4499999692803557
 21
0.3737280595686805
 31
0.0
  0
ARC
  5
667
330
642
100
AcDbEntity
  8
10
100
AcDbCircle
 10
0.4599999692803573
 20
0.3564075514929916
 30
0.0
 40
0.02
100
AcDbArc
 50
0.0000000000006997
 51
119.9999999999999
  0
LINE
  5
668
330
642
100
AcDbEntity
  8
10
100
AcDbLine
 10
0.3853226110081884
 20
0.1920490020623578
 30
0.0
 11
0.4799999692803604
 21
0.2467110003469632
 31
0.0
  0
LINE
  5
669
330
642
100
AcDbEntity
  8
10
100
AcDbLine
 10
0.3860173827363553
 20
0.2155441394742277
 30
0.0
 11
0.4799999692803567
 21
0.269805011114542
 31
0.0
  0
ARC
  5
66A
330
642
100
AcDbEntity
  8
10
100
AcDbCircle
 10
0.3766506043749799
 20
0.2120422166982596
 30
0.0
 40
0.01
100
AcDbArc
 50
20.49907611913283
 51
120.0000000000061
  0
LINE
  5
66B
330
642
100
AcDbEntity
  8
10
100
AcDbLine
 10
0.3853226110081849
 20
0.192049002062356
 30
0.0
 11
0.3853226110081813
 21
0.1857245431213443
 31
0.0
  0
LINE
  5
66C
330
642
100
AcDbEntity
  8
10
100
AcDbLine
 10
0.4799999692803604
 20
0.2467110003469597
 30
0.0
 11
0.4799999692803639
 21
0.1370144492009322
 31
0.0
  0
LINE
  5
66D
330
642
100
AcDbEntity
  8
10
100
AcDbLine
 10
0.4799999692803567
 20
0.3564075514929921
 30
0.0
 11
0.4799999692803567
 21
0.2698050111145451
 31
0.0
  0
ARC
  5
66E
330
642
100
AcDbEntity
  8
10
100
AcDbCircle
 10
0.3533493341857579
 20
0.1722355030579732
 30
0.0
 40
0.01
100
AcDbArc
 50
180.0
 51
301.5450923819967
  0
LINE
  5
66F
330
642
100
AcDbEntity
  8
10
100
AcDbLine
 10
0.3805543054044094
 20
0.1772022562366846
 30
0.0
 11
0.358581028581991
 21
0.1637132161733139
 31
0.0
  0
LINE
  5
670
330
642
100
AcDbEntity
  8
10
100
AcDbLine
 10
0.3433493341857599
 20
0.1793627247739491
 30
0.0
 11
0.3433493341857563
 21
0.1722355030579732
 31
0.0
  0
ARC
  5
671
330
642
100
AcDbEntity
  8
10
100
AcDbCircle
 10
0.3753226110081798
 20
0.1857245431213443
 30
0.0
 40
0.01
100
AcDbArc
 50
301.5450923819923
 51
0.0
  0
LINE
  5
672
330
642
100
AcDbEntity
  8
10
100
AcDbLine
 10
0.3483493341857553
 20
0.2072494761198902
 30
0.0
 11
0.3716506043749774
 21
0.2207024707361036
 31
0.0
  0
ARC
  5
673
330
642
100
AcDbEntity
  8
10
100
AcDbCircle
 10
0.3533493341857579
 20
0.1985892220820467
 30
0.0
 40
0.01
100
AcDbArc
 50
120.0000000000091
 51
180.0
  0
LINE
  5
674
330
642
100
AcDbEntity
  8
10
100
AcDbLine
 10
0.3433493341857599
 20
0.1793627247739509
 30
0.0
 11
0.3433493341857563
 21
0.1985892220820467
 31
0.0
  0
ARC
  5
675
330
642
100
AcDbEntity
  8
10
100
AcDbCircle
 10
0.2699999692803701
 20
0.2467110003469646
 30
0.0
 40
0.02
100
AcDbArc
 50
120.0000000000001
 51
180.0000000000027
  0
LINE
  5
676
330
642
100
AcDbEntity
  8
10
100
AcDbLine
 10
0.2499999692803705
 20
0.2467110003469637
 30
0.0
 11
0.2499999692803705
 21
0.0273178980548985
 31
0.0
  0
ARC
  5
677
330
642
100
AcDbEntity
  8
10
100
AcDbCircle
 10
0.2699999692803701
 20
0.0273178980548989
 30
0.0
 40
0.02
100
AcDbArc
 50
180.0000000000015
 51
300.0000000000004
  0
LINE
  5
678
330
642
100
AcDbEntity
  8
10
100
AcDbLine
 10
0.2799999692803716
 20
0.0099973899792101
 30
0.0
 11
0.4699999692803658
 21
0.1196939411252429
 31
0.0
  0
ARC
  5
679
330
642
100
AcDbEntity
  8
10
100
AcDbCircle
 10
0.4599999692803644
 20
0.1370144492009317
 30
0.0
 40
0.02
100
AcDbArc
 50
300.0000000000004
 51
0.0000000000017175
  0
ARC
  5
67A
330
642
100
AcDbEntity
  8
10
100
AcDbCircle
 10
0.2699999692803594
 20
0.2467110003469637
 30
0.0
 40
0.02
100
AcDbArc
 50
120.0000000000008
 51
180.0000000000007
  0
ARC
  5
67B
330
642
100
AcDbEntity
  8
10
100
AcDbCircle
 10
0.4499999692803627
 20
0.4083690757200606
 30
0.0
 40
0.01
100
AcDbArc
 50
300.0000000000008
 51
60.00000000000074
  0
LINE
  5
67C
330
642
100
AcDbEntity
  8
10
100
AcDbLine
 10
0.3599999691803148
 20
0.4718776053886781
 30
0.0
 11
0.4549999692803617
 21
0.417029329757905
 31
0.0
  0
LINE
  5
67D
330
642
100
AcDbEntity
  8
10
100
AcDbLine
 10
0.2449999692803608
 20
0.5382728862877224
 30
0.0
 11
0.3399999691803188
 21
0.4834246107724695
 31
0.0
  0
LINE
  5
67E
330
642
100
AcDbEntity
  8
10
100
AcDbLine
 10
0.2660173827513717
 20
0.4176167338147875
 30
0.0
 11
0.3599999691803148
 21
0.4718776053886781
 31
0.0
  0
LINE
  5
67F
330
642
100
AcDbEntity
  8
10
100
AcDbLine
 10
0.2460173826459275
 20
0.429163739137699
 30
0.0
 11
0.3399999691803188
 21
0.4834246107724695
 31
0.0
  0
LINE
  5
680
330
642
100
AcDbEntity
  8
10
100
AcDbLine
 10
0.2460173826459311
 20
0.4291637391376977
 30
0.0
 11
0.2443667475655182
 21
0.4301167337356575
 31
0.0
  0
LINE
  5
681
330
642
100
AcDbEntity
  8
10
100
AcDbLine
 10
0.267668017831781
 20
0.4166637392168293
 30
0.0
 11
0.2660173827513788
 21
0.417616733814787
 31
0.0
  0
LINE
  5
682
330
642
100
AcDbEntity
  8
10
100
AcDbLine
 10
0.2449999692581493
 20
0.3862558271698191
 30
0.0
 11
0.2676680178317312
 21
0.3993432311411684
 31
0.0
  0
ARC
  5
683
330
642
100
AcDbEntity
  8
10
100
AcDbCircle
 10
0.2626680178317322
 20
0.408003485179013
 30
0.0
 40
0.01
100
AcDbArc
 50
299.9999999999999
 51
59.99999999968121
  0
ENDBLK
  5
684
330
642
100
AcDbEntity
  8
0
100
AcDbBlockEnd
  0
BLOCK
  5
686
330
685
100
AcDbEntity
  8
0
100
AcDbBlockBegin
  2
A$C2BF30918
 70
     0
 10
0.0
 20
0.0
 30
0.0
  3
A$C2BF30918
  1

  0
INSERT
  5
687
330
685
100
AcDbEntity
  8
10
100
AcDbBlockReference
  2
A$C708B5813
 10
0.0000000098500248
 20
-0.0001119937962062
 30
0.0
 41
0.75
 42
0.75
 43
0.75
  0
ENDBLK
  5
688
330
685
100
AcDbEntity
  8
0
100
AcDbBlockEnd
  0
BLOCK
  5
68A
330
689
100
AcDbEntity
  8
0
100
AcDbBlockBegin
  2
A$C0832103F
 70
     0
 10
0.0
 20
0.0
 30
0.0
  3
A$C0832103F
  1

  0
MTEXT
  5
68B
330
689
100
AcDbEntity
  8
10
 62
     7
100
AcDbMText
 10
2.082241661529446
 20
-3.025881151812108
 30
0.9200000000000001
 40
0.16
 41
3.80968
 71
     1
 72
     5
  1
CONTROL CONCEPTS CORP.
 73
     1
 44
1.0
1001
ACAD
1000
MTEXTBEGIN
1070
    73
1070
     1
1070
    44
1040
1.0
1070
    74
1070
     0
1000
MTEXTEND
  0
MTEXT
  5
68C
330
689
100
AcDbEntity
  8
10
100
AcDbMText
 10
5.499092001902988
 20
4.334063748274236
 30
0.9200000000000001
 40
0.100000008
 41
2.4400001952
 71
     2
 72
     5
  1
Description
  7
ACANSTS
 73
     1
 44
1.0
1001
ACAD
1000
MTEXTBEGIN
1070
    73
1070
     1
1070
    44
1040
1.0
1070
    74
1070
     0
1000
MTEXTEND
  0
MTEXT
  5
68D
330
689
100
AcDbEntity
  8
10
100
AcDbMText
 10
6.530968288450296
 20
4.060492297817092
 30
0.9200000000000001
 40
0.100000008
 41
0.0
 71
     5
 72
     5
  1
PART DESCRIPTION (MOLD NUMBER)
  7
ACANSTS
 73
     1
 44
1.0
1001
ACAD
1000
MTEXTBEGIN
1070
    73
1070
     1
1070
    44
1040
1.0
1070
    74
1070
     0
1000
MTEXTEND
  0
LINE
  5
68E
330
689
100
AcDbEntity
  8
10
100
AcDbLine
 10
-0.9663256969107603
 20
4.803825690617096
 30
0.9200000000000001
 11
9.641325680136002
 21
4.803825690617093
 31
0.9200000000000001
  0
LINE
  5
68F
330
689
100
AcDbEntity
  8
10
100
AcDbLine
 10
3.420610896764576
 20
4.803825690617093
 30
0.9200000000000001
 11
9.641325680136008
 21
4.803825690617093
 31
0.9200000000000001
  0
LINE
  5
690
330
689
100
AcDbEntity
  8
10
100
AcDbLine
 10
3.420610896764576
 20
4.591444721245663
 30
0.9200000000000001
 11
9.641325680136008
 21
4.591444721245663
 31
0.9200000000000001
  0
LINE
  5
691
330
689
100
AcDbEntity
  8
10
100
AcDbLine
 10
9.641325680136008
 20
3.954301813131381
 30
0.9200000000000001
 11
3.420610896764576
 21
3.954301813131381
 31
0.9200000000000001
  0
LINE
  5
692
330
689
100
AcDbEntity
  8
10
100
AcDbLine
 10
3.420610896764576
 20
4.166682782502805
 30
0.9200000000000001
 11
9.641325680136008
 21
4.166682782502805
 31
0.9200000000000001
  0
LINE
  5
693
330
689
100
AcDbEntity
  8
10
100
AcDbLine
 10
3.420610896764576
 20
4.379063751874236
 30
0.9200000000000001
 11
9.641325680136008
 21
4.379063751874236
 31
0.9200000000000001
  0
LINE
  5
694
330
689
100
AcDbEntity
  8
10
100
AcDbLine
 10
-0.9663256969107811
 20
-3.30382568642958
 30
0.9200000000000001
 11
9.641325680136002
 21
-3.303825686429587
 31
0.9200000000000001
  0
LINE
  5
695
330
689
100
AcDbEntity
  8
10
370
    50
100
AcDbLine
 10
-0.9663256969107807
 20
-2.903825686429587
 30
0.9200000000000001
 11
9.641325680136002
 21
-2.903825686429587
 31
0.9200000000000001
  0
LINE
  5
696
330
689
100
AcDbEntity
  8
10
100
AcDbLine
 10
-0.9663256969107756
 20
4.803825690617101
 30
0.9200000000000001
 11
-0.9663256969107811
 21
-3.303825686429579
 31
0.9200000000000001
  0
CIRCLE
  5
697
330
689
100
AcDbEntity
  8
10
 62
     1
100
AcDbCircle
 10
-0.9663256969107839
 20
-3.30382568642958
 30
0.9200000000000001
 40
0.1111040097775731
  0
LINE
  5
698
330
689
100
AcDbEntity
  8
10
100
AcDbLine
 10
-1.162500008387439
 20
-3.30382568642958
 30
0.9200000000000001
 11
-1.162500008387442
 21
-3.499999997906243
 31
0.9200000000000001
  0
LINE
  5
699
330
689
100
AcDbEntity
  8
10
100
AcDbLine
 10
-1.162500008387442
 20
-3.499999997906243
 30
0.9200000000000001
 11
-0.9663256969107811
 21
-3.499999997906243
 31
0.9200000000000001
  0
INSERT
  5
69A
330
689
100
AcDbEntity
  8
10
100
AcDbBlockReference
  2
A$C708B5813
 10
1.668649617811994
 20
-3.267998077370169
 30
0.9200000000000001
 41
0.6000000000000001
 42
0.6000000000000001
 43
0.6
  0
LINE
  5
69B
330
689
100
AcDbEntity
  8
10
100
AcDbLine
 10
-1.162500008387427
 20
5.000000002093758
 30
0.9200000000000001
 11
-0.9663256969107663
 21
5.000000002093758
 31
0.9200000000000001
  0
LINE
  5
69C
330
689
100
AcDbEntity
  8
10
100
AcDbLine
 10
-1.162500008387427
 20
5.000000002093758
 30
0.9200000000000001
 11
-1.162500008387425
 21
4.803825690617093
 31
0.9200000000000001
  0
MTEXT
  5
69D
330
689
100
AcDbEntity
  8
10
100
AcDbMText
 10
3.796325212536004
 20
4.708825683017093
 30
0.9200000000000001
 40
0.100000008
 41
0.0
 71
     4
 72
     5
  1
 XXXXX
  7
ACANSTS
 73
     1
 44
1.0
1001
ACAD
1000
MTEXTBEGIN
1070
    73
1070
     1
1070
    44
1040
1.0
1070
    74
1070
     0
1000
MTEXTEND
  0
MTEXT
  5
69E
330
689
100
AcDbEntity
  8
10
100
AcDbMText
 10
3.796325212536004
 20
4.496444713645662
 30
0.9200000000000001
 40
0.100000008
 41
2.4400001952
 71
     4
 72
     5
  1
 XXXXX
  7
ACANSTS
 73
     1
 44
1.0
1001
ACAD
1000
MTEXTBEGIN
1070
    73
1070
     1
1070
    44
1040
1.0
1070
    74
1070
     0
1000
MTEXTEND
  0
LINE
  5
69F
330
689
100
AcDbEntity
  8
10
100
AcDbLine
 10
3.420610896764576
 20
3.954301813131381
 30
0.9200000000000001
 11
3.420610896764576
 21
4.803825690617093
 31
0.9200000000000001
  0
MTEXT
  5
6A0
330
689
100
AcDbEntity
  8
10
100
AcDbMText
 10
3.593468053450291
 20
4.758825687017094
 30
0.9200000000000001
 40
0.100000008
 41
0.2857407636
 71
     2
 72
     5
  1
H02
  7
ACANSTS
 73
     1
 44
1.0
1001
ACAD
1000
MTEXTBEGIN
1070
    73
1070
     1
1070
    44
1040
1.0
1070
    74
1070
     0
1000
MTEXTEND
  0
MTEXT
  5
6A1
330
689
100
AcDbEntity
  8
10
100
AcDbMText
 10
3.593468053450291
 20
4.546444717645663
 30
0.9200000000000001
 40
0.100000008
 41
0.2857407636
 71
     2
 72
     5
  1
H01
  7
ACANSTS
 73
     1
 44
1.0
1001
ACAD
1000
MTEXTBEGIN
1070
    73
1070
     1
1070
    44
1040
1.0
1070
    74
1070
     0
1000
MTEXTEND
  0
MTEXT
  5
6A2
330
689
100
AcDbEntity
  8
10
100
AcDbMText
 10
3.593468053450291
 20
4.334063748274236
 30
0.9200000000000001
 40
0.100000008
 41
0.2857143085714286
 71
     2
 72
     5
  1
Item
  7
ACANSTS
 73
     1
 44
1.0
1001
ACAD
1000
MTEXTBEGIN
1070
    73
1070
     1
1070
    44
1040
1.0
1070
    74
1070
     0
1000
MTEXTEND
  0
LINE
  5
6A3
330
689
100
AcDbEntity
  8
10
100
AcDbLine
 10
3.766325210136006
 20
4.591444721245663
 30
0.9200000000000001
 11
3.766325210136006
 21
4.379063751874236
 31
0.9200000000000001
  0
LINE
  5
6A4
330
689
100
AcDbEntity
  8
10
100
AcDbLine
 10
3.766325210136006
 20
4.379063751874236
 30
0.9200000000000001
 11
3.766325210136006
 21
4.166682782502805
 31
0.9200000000000001
  0
LINE
  5
6A5
330
689
100
AcDbEntity
  8
10
100
AcDbLine
 10
3.766325210136006
 20
4.803825690617093
 30
0.9200000000000001
 11
3.766325210136006
 21
4.591444721245663
 31
0.9200000000000001
  0
LINE
  5
6A6
330
689
100
AcDbEntity
  8
10
100
AcDbLine
 10
9.641325680136002
 20
4.803825690617093
 30
0.9200000000000001
 11
9.641325680136002
 21
-3.303825686429587
 31
0.9200000000000001
  0
LINE
  5
6A7
330
689
100
AcDbEntity
  8
L-REV
100
AcDbLine
 10
9.641325680136008
 20
4.803825690617093
 30
0.9200000000000001
 11
9.641325680136002
 21
-3.303825686429587
 31
0.9200000000000001
  0
LINE
  5
6A8
330
689
100
AcDbEntity
  8
L-REV
100
AcDbLine
 10
10.041325680136
 20
-3.303825686429587
 30
0.9200000000000001
 11
10.041325680136
 21
4.803825690617096
 31
0.9200000000000001
  0
LINE
  5
6A9
330
689
100
AcDbEntity
  8
L-REV
100
AcDbLine
 10
10.441325680136
 20
-3.303825686429587
 30
0.9200000000000001
 11
10.44132568013601
 21
4.803825690617096
 31
0.9200000000000001
  0
LINE
  5
6AA
330
689
100
AcDbEntity
  8
L-REV
100
AcDbLine
 10
12.44132568013599
 20
-3.303825686429587
 30
0.9200000000000001
 11
12.441325680136
 21
4.803825690617096
 31
0.9200000000000001
  0
LINE
  5
6AB
330
689
100
AcDbEntity
  8
L-REV
100
AcDbLine
 10
12.84132568013599
 20
-3.303825686429587
 30
0.9200000000000001
 11
12.841325680136
 21
4.803825690617096
 31
0.9200000000000001
  0
LINE
  5
6AC
330
689
100
AcDbEntity
  8
L-REV
100
AcDbLine
 10
9.641325680136006
 20
-0.9961743093829069
 30
0.9200000000000001
 11
12.84132568013601
 21
-0.9961743093829069
 31
0.9200000000000001
  0
LINE
  5
6AD
330
689
100
AcDbEntity
  8
L-REV
100
AcDbLine
 10
9.641325680136006
 20
-2.996174309382903
 30
0.9200000000000001
 11
12.841325680136
 21
-2.996174309382908
 31
0.9200000000000001
  0
LINE
  5
6AE
330
689
100
AcDbEntity
  8
L-REV
100
AcDbLine
 10
9.641325680136006
 20
-2.796174309382904
 30
0.9200000000000001
 11
12.841325680136
 21
-2.796174309382908
 31
0.9200000000000001
  0
LINE
  5
6AF
330
689
100
AcDbEntity
  8
L-REV
100
AcDbLine
 10
9.641325680136006
 20
-2.596174309382904
 30
0.9200000000000001
 11
12.841325680136
 21
-2.596174309382909
 31
0.9200000000000001
  0
LINE
  5
6B0
330
689
100
AcDbEntity
  8
L-REV
100
AcDbLine
 10
9.641325680136006
 20
-2.196174309382904
 30
0.9200000000000001
 11
12.841325680136
 21
-2.196174309382909
 31
0.9200000000000001
  0
LINE
  5
6B1
330
689
100
AcDbEntity
  8
L-REV
100
AcDbLine
 10
9.641325680136006
 20
-1.796174309382904
 30
0.9200000000000001
 11
12.841325680136
 21
-1.796174309382909
 31
0.9200000000000001
  0
LINE
  5
6B2
330
689
100
AcDbEntity
  8
L-REV
100
AcDbLine
 10
9.641325680136006
 20
-1.396174309382906
 30
0.9200000000000001
 11
12.841325680136
 21
-1.396174309382906
 31
0.9200000000000001
  0
LINE
  5
6B3
330
689
100
AcDbEntity
  8
L-REV
100
AcDbLine
 10
9.641325680136006
 20
-2.396174309382904
 30
0.9200000000000001
 11
12.841325680136
 21
-2.396174309382908
 31
0.9200000000000001
  0
LINE
  5
6B4
330
689
100
AcDbEntity
  8
L-REV
100
AcDbLine
 10
9.641325680136006
 20
-1.996174309382904
 30
0.9200000000000001
 11
12.841325680136
 21
-1.996174309382908
 31
0.9200000000000001
  0
LINE
  5
6B5
330
689
100
AcDbEntity
  8
L-REV
100
AcDbLine
 10
9.641325680136006
 20
-1.596174309382904
 30
0.9200000000000001
 11
12.841325680136
 21
-1.596174309382909
 31
0.9200000000000001
  0
LINE
  5
6B6
330
689
100
AcDbEntity
  8
L-REV
100
AcDbLine
 10
9.641325680136006
 20
-1.196174309382906
 30
0.9200000000000001
 11
12.841325680136
 21
-1.196174309382906
 31
0.9200000000000001
  0
LINE
  5
6B7
330
689
100
AcDbEntity
  8
L-REV
100
AcDbLine
 10
12.84132568013599
 20
-3.303825686429587
 30
0.9200000000000001
 11
9.641325680136002
 21
-3.303825686429587
 31
0.9200000000000001
  0
MTEXT
  5
6B8
330
689
100
AcDbEntity
  8
10
 62
     1
100
AcDbMText
 10
7.337136490274709
 20
-3.174516684749863
 30
0.9200000000000001
 40
0.1
 41
1.86752
 71
     1
 72
     5
  1
1.0:1.0
 73
     1
 44
1.0
1001
ACAD
1000
MTEXTBEGIN
1070
    73
1070
     1
1070
    44
1040
1.0
1070
    74
1070
     0
1000
MTEXTEND
  0
MTEXT
  5
6B9
330
689
100
AcDbEntity
  8
10
 62
     7
100
AcDbMText
 10
7.292380721294657
 20
-2.607654143428681
 30
0.9200000000000001
 40
0.072
 41
3.6
 71
     1
 72
     5
  1
\LDRAWN BY:
 73
     1
 44
1.0
1001
ACAD
1000
MTEXTBEGIN
1070
    73
1070
     1
1070
    44
1040
1.0
1070
    74
1070
     0
1000
MTEXTEND
  0
MTEXT
  5
6BA
330
689
100
AcDbEntity
  8
10
 62
     1
100
AcDbMText
 10
7.337136490274709
 20
-2.774516684749864
 30
0.9200000000000001
 40
0.1
 41
1.86752
 71
     1
 72
     5
  1
INITIALS
 73
     1
 44
1.0
1001
ACAD
1000
MTEXTBEGIN
1070
    73
1070
     1
1070
    44
1040
1.0
1070
    74
1070
     0
1000
MTEXTEND
  0
LINE
  5
6BB
330
689
100
AcDbEntity
  8
10
370
    50
100
AcDbLine
 10
5.641325680136003
 20
-1.703825686429588
 30
0.9200000000000001
 11
9.641325680136002
 21
-1.703825686429588
 31
0.9200000000000001
  0
LINE
  5
6BC
330
689
100
AcDbEntity
  8
10
100
AcDbLine
 10
7.316325680136004
 20
-2.478825686429588
 30
0.9200000000000001
 11
9.566325680136003
 21
-2.478825686429588
 31
0.9200000000000001
  0
LINE
  5
6BD
330
689
100
AcDbEntity
  8
10
100
AcDbLine
 10
7.316325680136004
 20
-1.728825686429589
 30
0.9200000000000001
 11
9.566325680136003
 21
-1.728825686429589
 31
0.9200000000000001
  0
LINE
  5
6BE
330
689
100
AcDbEntity
  8
10
370
    50
100
AcDbLine
 10
7.241325680136003
 20
-2.503825686429586
 30
0.9200000000000001
 11
9.641325680136002
 21
-2.503825686429586
 31
0.9200000000000001
  0
LINE
  5
6BF
330
689
100
AcDbEntity
  8
10
370
    50
100
AcDbLine
 10
5.641325680136003
 20
-1.703825686429588
 30
0.9200000000000001
 11
5.641325680136003
 21
-2.903825686429587
 31
0.9200000000000001
  0
MTEXT
  5
6C0
330
689
100
AcDbEntity
  8
10
 62
     7
100
AcDbMText
 10
6.477356989457232
 20
-1.777553007134571
 30
0.9200000000000001
 40
0.072
 41
0.0
 71
     2
 72
     5
  1
{\LTOLERANCE:\P\P}  .XX +/- 0.02\P .XXX +/- 0.005\P.XXXX +/- 0.001\PANGLES +/- 0.5 DEG\P\PUNLESS OTHERWISE \PSPECIFIED
 73
     1
 44
1.0
1001
ACAD
1000
MTEXTBEGIN
1070
    73
1070
     1
1070
    44
1040
1.0
1070
    74
1070
     0
1000
MTEXTEND
  0
LINE
  5
6C1
330
689
100
AcDbEntity
  8
10
370
    50
100
AcDbLine
 10
7.241325680136003
 20
-1.703825686429588
 30
0.9200000000000001
 11
7.241325680136003
 21
-3.303825686429588
 31
0.9200000000000001
  0
MTEXT
  5
6C2
330
689
100
AcDbEntity
  8
10
 62
     7
100
AcDbMText
 10
5.582369377705323
 20
-2.927099139905942
 30
0.9200000000000001
 40
0.08
 41
5.440000000000001
 71
     1
 72
     5
  1
P.O. BOX 496\P664 STATE STREET\PBEAVER, PA 15009
 73
     1
 44
1.0
1001
ACAD
1000
MTEXTBEGIN
1070
    73
1070
     1
1070
    44
1040
1.0
1070
    74
1070
     0
1000
MTEXTEND
  0
INSERT
  5
6C3
330
689
100
AcDbEntity
  8
10
100
AcDbBlockReference
  2
A$C2BF30918
 10
6.864341287565771
 20
-3.267908482333203
 30
0.9200000000000001
 41
0.8
 42
0.8
 43
0.8000000000000001
  0
MTEXT
  5
6C4
330
689
100
AcDbEntity
  8
10
 62
     7
100
AcDbMText
 10
7.279886554832522
 20
-2.978228759978683
 30
0.9200000000000001
 40
0.072
 41
3.6
 71
     1
 72
     5
  1
\LSCALE:
 73
     1
 44
1.0
1001
ACAD
1000
MTEXTBEGIN
1070
    73
1070
     1
1070
    44
1040
1.0
1070
    74
1070
     0
1000
MTEXTEND
  0
ARC
  5
6C5
330
689
100
AcDbEntity
  8
10
100
AcDbCircle
 10
7.316325680136004
 20
-1.778825686429588
 30
0.9200000000000001
 40
0.05
100
AcDbArc
 50
90.0
 51
180.0
  0
LINE
  5
6C6
330
689
100
AcDbEntity
  8
10
100
AcDbLine
 10
7.266325680136003
 20
-1.778825686429588
 30
0.9200000000000001
 11
7.266325680136003
 21
-2.428825686429588
 31
0.9200000000000001
  0
ARC
  5
6C7
330
689
100
AcDbEntity
  8
10
100
AcDbCircle
 10
7.316325680136004
 20
-2.428825686429588
 30
0.9200000000000001
 40
0.05
100
AcDbArc
 50
180.0
 51
270.0
  0
MTEXT
  5
6C8
330
689
100
AcDbEntity
  8
10
 62
     7
100
AcDbMText
 10
7.315778493502831
 20
-1.795315425001196
 30
0.9200000000000001
 40
0.072
 41
0.0
 71
     1
 72
     5
  1
{\LTITLE:}
 73
     1
 44
1.0
1001
ACAD
1000
MTEXTBEGIN
1070
    73
1070
     1
1070
    44
1040
1.0
1070
    74
1070
     0
1000
MTEXTEND
  0
MTEXT
  5
6C9
330
689
100
AcDbEntity
  8
10
 62
     1
100
AcDbMText
 10
7.312319225186522
 20
-1.949477205123434
 30
0.9200000000000001
 40
0.1
 41
1.86752
 71
     1
 72
     5
  1
TITLE
 73
     1
 44
1.0
1001
ACAD
1000
MTEXTBEGIN
1070
    73
1070
     1
1070
    44
1040
1.0
1070
    74
1070
     0
1000
MTEXTEND
  0
LINE
  5
6CA
330
689
100
AcDbEntity
  8
10
370
    50
100
AcDbLine
 10
8.041325680136003
 20
-2.503825686429586
 30
0.9200000000000001
 11
8.041325680136003
 21
-3.303825686429587
 31
0.9200000000000001
  0
MTEXT
  5
6CB
330
689
100
AcDbEntity
  8
10
 62
     7
100
AcDbMText
 10
8.319354886227062
 20
-2.971072892355071
 30
0.9200000000000001
 40
0.072
 41
3.6
 71
     1
 72
     5
  1
\LDRAWING NO.
 73
     1
 44
1.0
1001
ACAD
1000
MTEXTBEGIN
1070
    73
1070
     1
1070
    44
1040
1.0
1070
    74
1070
     0
1000
MTEXTEND
  0
MTEXT
  5
6CC
330
689
100
AcDbEntity
  8
10
 62
     1
100
AcDbMText
 10
8.292244409137353
 20
-3.174516684749863
 30
0.9200000000000001
 40
0.1
 41
1.86752
 71
     1
 72
     5
  1
DRWG NUMBER
 73
     1
 44
1.0
1001
ACAD
1000
MTEXTBEGIN
1070
    73
1070
     1
1070
    44
1040
1.0
1070
    74
1070
     0
1000
MTEXTEND
  0
MTEXT
  5
6CD
330
689
100
AcDbEntity
  8
10
 62
     1
100
AcDbMText
 10
8.292244409137353
 20
-2.774516684749864
 30
0.9200000000000001
 40
0.1
 41
1.86752
 71
     1
 72
     5
  1
DATE
 73
     1
 44
1.0
1001
ACAD
1000
MTEXTBEGIN
1070
    73
1070
     1
1070
    44
1040
1.0
1070
    74
1070
     0
1000
MTEXTEND
  0
MTEXT
  5
6CE
330
689
100
AcDbEntity
  8
L-REV
100
AcDbMText
 10
9.71787386841223
 20
-3.171362050493581
 30
0.9200000000000001
 40
0.072
 41
0.0
 71
     1
 72
     5
  1
REV#
 73
     1
 44
1.0
1001
ACAD
1000
MTEXTBEGIN
1070
    73
1070
     1
1070
    44
1040
1.0
1070
    74
1070
     0
1000
MTEXTEND
  0
MTEXT
  5
6CF
330
689
100
AcDbEntity
  8
10
 62
     7
100
AcDbMText
 10
8.330259821535518
 20
-2.595162852580749
 30
0.9200000000000001
 40
0.072
 41
3.6
 71
     1
 72
     5
  1
\LDATE:
 73
     1
 44
1.0
1001
ACAD
1000
MTEXTBEGIN
1070
    73
1070
     1
1070
    44
1040
1.0
1070
    74
1070
     0
1000
MTEXTEND
  0
ARC
  5
6D0
330
689
100
AcDbEntity
  8
10
100
AcDbCircle
 10
9.566325680136003
 20
-1.778825686429588
 30
0.9200000000000001
 40
0.05
100
AcDbArc
 50
0.0
 51
90.0
  0
LINE
  5
6D1
330
689
100
AcDbEntity
  8
10
100
AcDbLine
 10
9.616325680136004
 20
-1.778825686429588
 30
0.9200000000000001
 11
9.616325680136004
 21
-2.428825686429588
 31
0.9200000000000001
  0
ARC
  5
6D2
330
689
100
AcDbEntity
  8
10
100
AcDbCircle
 10
9.566325680136003
 20
-2.428825686429588
 30
0.9200000000000001
 40
0.05
100
AcDbArc
 50
270.0
 51
0.0
  0
MTEXT
  5
6D3
330
689
100
AcDbEntity
  8
L-REV
100
AcDbMText
 10
12.52052670670902
 20
-3.171362050493584
 30
0.9200000000000001
 40
0.072
 41
0.0
 71
     1
 72
     5
  1
DATE
 73
     1
 44
1.0
1001
ACAD
1000
MTEXTBEGIN
1070
    73
1070
     1
1070
    44
1040
1.0
1070
    74
1070
     0
1000
MTEXTEND
  0
MTEXT
  5
6D4
330
689
100
AcDbEntity
  8
L-REV
100
AcDbMText
 10
11.08467206669906
 20
-3.163722909274858
 30
0.9200000000000001
 40
0.072
 41
0.0
 71
     1
 72
     5
  1
DESCRIPTION
 73
     1
 44
1.0
1001
ACAD
1000
MTEXTBEGIN
1070
    73
1070
     1
1070
    44
1040
1.0
1070
    74
1070
     0
1000
MTEXTEND
  0
MTEXT
  5
6D5
330
689
100
AcDbEntity
  8
L-REV
100
AcDbMText
 10
10.18091351179044
 20
-3.171362050493581
 30
0.9200000000000001
 40
0.072
 41
0.0
 71
     1
 72
     5
  1
BY
 73
     1
 44
1.0
1001
ACAD
1000
MTEXTBEGIN
1070
    73
1070
     1
1070
    44
1040
1.0
1070
    74
1070
     0
1000
MTEXTEND
  0
LINE
  5
6D6
330
689
100
AcDbEntity
  8
10
100
AcDbLine
 10
12.84135136865934
 20
-3.499999997906246
 30
0.9200000000000001
 11
13.03752568013601
 21
-3.499999997906249
 31
0.9200000000000001
  0
LINE
  5
6D7
330
689
100
AcDbEntity
  8
10
100
AcDbLine
 10
13.037525680136
 20
-3.499999997906249
 30
0.9200000000000001
 11
13.037525680136
 21
-3.303825686429586
 31
0.9200000000000001
  0
LINE
  5
6D8
330
689
100
AcDbEntity
  8
L-REV
100
AcDbLine
 10
9.641325680136008
 20
4.803825690617093
 30
0.9200000000000001
 11
12.84132568013601
 21
4.803825690617093
 31
0.9200000000000001
  0
LINE
  5
6D9
330
689
100
AcDbEntity
  8
L-REV
100
AcDbLine
 10
9.641325680136008
 20
4.403825690617094
 30
0.9200000000000001
 11
12.84132568013601
 21
4.403825690617094
 31
0.9200000000000001
  0
LINE
  5
6DA
330
689
100
AcDbEntity
  8
L-REV
100
AcDbLine
 10
9.641325680136008
 20
4.603825690617093
 30
0.9200000000000001
 11
12.84132568013601
 21
4.603825690617093
 31
0.9200000000000001
  0
LINE
  5
6DB
330
689
100
AcDbEntity
  8
L-REV
100
AcDbLine
 10
9.641325680136006
 20
3.803825690617093
 30
0.9200000000000001
 11
12.84132568013601
 21
3.803825690617093
 31
0.9200000000000001
  0
LINE
  5
6DC
330
689
100
AcDbEntity
  8
L-REV
100
AcDbLine
 10
9.641325680136008
 20
4.203825690617091
 30
0.9200000000000001
 11
12.84132568013601
 21
4.203825690617091
 31
0.9200000000000001
  0
LINE
  5
6DD
330
689
100
AcDbEntity
  8
L-REV
100
AcDbLine
 10
9.641325680136006
 20
4.003825690617093
 30
0.9200000000000001
 11
12.84132568013601
 21
4.003825690617093
 31
0.9200000000000001
  0
LINE
  5
6DE
330
689
100
AcDbEntity
  8
L-REV
100
AcDbLine
 10
9.641325680136006
 20
3.603825690617094
 30
0.9200000000000001
 11
12.84132568013601
 21
3.603825690617094
 31
0.9200000000000001
  0
LINE
  5
6DF
330
689
100
AcDbEntity
  8
L-REV
100
AcDbLine
 10
9.641325680136008
 20
3.403825690617095
 30
0.9200000000000001
 11
12.84132568013601
 21
3.403825690617095
 31
0.9200000000000001
  0
LINE
  5
6E0
330
689
100
AcDbEntity
  8
L-REV
100
AcDbLine
 10
9.641325680136006
 20
3.803825690617093
 30
0.9200000000000001
 11
12.84132568013601
 21
3.803825690617093
 31
0.9200000000000001
  0
LINE
  5
6E1
330
689
100
AcDbEntity
  8
L-REV
100
AcDbLine
 10
9.641325680136006
 20
0.6038256906170929
 30
0.9200000000000001
 11
12.84132568013601
 21
0.6038256906170947
 31
0.9200000000000001
  0
LINE
  5
6E2
330
689
100
AcDbEntity
  8
L-REV
100
AcDbLine
 10
9.641325680136006
 20
1.00382569061709
 30
0.9200000000000001
 11
12.84132568013601
 21
1.003825690617093
 31
0.9200000000000001
  0
LINE
  5
6E3
330
689
100
AcDbEntity
  8
L-REV
100
AcDbLine
 10
9.641325680136006
 20
0.403825690617092
 30
0.9200000000000001
 11
12.84132568013601
 21
0.4038256906170937
 31
0.9200000000000001
  0
LINE
  5
6E4
330
689
100
AcDbEntity
  8
L-REV
100
AcDbLine
 10
9.641325680136006
 20
0.803825690617092
 30
0.9200000000000001
 11
12.84132568013601
 21
0.8038256906170937
 31
0.9200000000000001
  0
LINE
  5
6E5
330
689
100
AcDbEntity
  8
L-REV
100
AcDbLine
 10
9.641325680136006
 20
1.40382569061709
 30
0.9200000000000001
 11
12.84132568013601
 21
1.403825690617094
 31
0.9200000000000001
  0
LINE
  5
6E6
330
689
100
AcDbEntity
  8
L-REV
100
AcDbLine
 10
9.641325680136006
 20
1.803825690617093
 30
0.9200000000000001
 11
12.84132568013601
 21
1.803825690617093
 31
0.9200000000000001
  0
LINE
  5
6E7
330
689
100
AcDbEntity
  8
L-REV
100
AcDbLine
 10
9.641325680136006
 20
2.203825690617095
 30
0.9200000000000001
 11
12.84132568013601
 21
2.203825690617095
 31
0.9200000000000001
  0
LINE
  5
6E8
330
689
100
AcDbEntity
  8
L-REV
100
AcDbLine
 10
9.641325680136006
 20
2.603825690617094
 30
0.9200000000000001
 11
12.84132568013601
 21
2.603825690617094
 31
0.9200000000000001
  0
LINE
  5
6E9
330
689
100
AcDbEntity
  8
L-REV
100
AcDbLine
 10
9.641325680136008
 20
3.003825690617093
 30
0.9200000000000001
 11
12.84132568013601
 21
3.003825690617093
 31
0.9200000000000001
  0
LINE
  5
6EA
330
689
100
AcDbEntity
  8
L-REV
100
AcDbLine
 10
9.641325680136006
 20
1.203825690617092
 30
0.9200000000000001
 11
12.84132568013601
 21
1.203825690617095
 31
0.9200000000000001
  0
LINE
  5
6EB
330
689
100
AcDbEntity
  8
L-REV
100
AcDbLine
 10
9.641325680136006
 20
1.603825690617093
 30
0.9200000000000001
 11
12.84132568013601
 21
1.603825690617093
 31
0.9200000000000001
  0
LINE
  5
6EC
330
689
100
AcDbEntity
  8
L-REV
100
AcDbLine
 10
9.641325680136006
 20
2.003825690617093
 30
0.9200000000000001
 11
12.84132568013601
 21
2.003825690617093
 31
0.9200000000000001
  0
LINE
  5
6ED
330
689
100
AcDbEntity
  8
L-REV
100
AcDbLine
 10
9.641325680136006
 20
2.403825690617095
 30
0.9200000000000001
 11
12.84132568013601
 21
2.403825690617095
 31
0.9200000000000001
  0
LINE
  5
6EE
330
689
100
AcDbEntity
  8
L-REV
100
AcDbLine
 10
9.641325680136006
 20
2.803825690617093
 30
0.9200000000000001
 11
12.84132568013601
 21
2.803825690617093
 31
0.9200000000000001
  0
LINE
  5
6EF
330
689
100
AcDbEntity
  8
L-REV
100
AcDbLine
 10
9.641325680136008
 20
3.203825690617096
 30
0.9200000000000001
 11
12.84132568013601
 21
3.203825690617096
 31
0.9200000000000001
  0
LINE
  5
6F0
330
689
100
AcDbEntity
  8
L-REV
100
AcDbLine
 10
9.641325680136006
 20
0.2038256906170925
 30
0.9200000000000001
 11
12.84132568013601
 21
0.2038256906170943
 31
0.9200000000000001
  0
LINE
  5
6F1
330
689
100
AcDbEntity
  8
L-REV
100
AcDbLine
 10
9.641325680136006
 20
-0.1961743093829078
 30
0.9200000000000001
 11
12.84132568013601
 21
-0.1961743093829078
 31
0.9200000000000001
  0
LINE
  5
6F2
330
689
100
AcDbEntity
  8
L-REV
100
AcDbLine
 10
9.641325680136006
 20
0.0038256906170933
 30
0.9200000000000001
 11
12.84132568013601
 21
0.0038256906170933
 31
0.9200000000000001
  0
LINE
  5
6F3
330
689
100
AcDbEntity
  8
L-REV
100
AcDbLine
 10
9.641325680136006
 20
-0.5961743093829082
 30
0.9200000000000001
 11
12.84132568013601
 21
-0.5961743093829082
 31
0.9200000000000001
  0
LINE
  5
6F4
330
689
100
AcDbEntity
  8
L-REV
100
AcDbLine
 10
9.641325680136006
 20
-0.7961743093829075
 30
0.9200000000000001
 11
12.84132568013601
 21
-0.7961743093829075
 31
0.9200000000000001
  0
LINE
  5
6F5
330
689
100
AcDbEntity
  8
L-REV
100
AcDbLine
 10
9.641325680136006
 20
-0.3961743093829071
 30
0.9200000000000001
 11
12.84132568013601
 21
-0.3961743093829071
 31
0.9200000000000001
  0
MTEXT
  5
6F6
330
689
100
AcDbEntity
  8
10
100
AcDbMText
 10
7.774120572183917
 20
4.334063748274236
 30
0.9200000000000001
 40
0.100000008
 41
1.3466667744
 71
     2
 72
     5
  1
Material
  7
ACANSTS
 73
     1
 44
1.0
1001
ACAD
1000
MTEXTBEGIN
1070
    73
1070
     1
1070
    44
1040
1.0
1070
    74
1070
     0
1000
MTEXTEND
  0
MTEXT
  5
6F7
330
689
100
AcDbEntity
  8
10
100
AcDbMText
 10
7.774120572183917
 20
4.758825687017091
 30
0.9200000000000001
 40
0.100000008
 41
1.3466667744
 71
     2
 72
     5
  1
VALOX 357
  7
ACANSTS
 73
     1
 44
1.0
1001
ACAD
1000
MTEXTBEGIN
1070
    73
1070
     1
1070
    44
1040
1.0
1070
    74
1070
     0
1000
MTEXTEND
  0
MTEXT
  5
6F8
330
689
100
AcDbEntity
  8
10
100
AcDbMText
 10
7.774120572183917
 20
4.546444717645661
 30
0.9200000000000001
 40
0.100000008
 41
1.3466667744
 71
     2
 72
     5
  1
VALOX 357
  7
ACANSTS
 73
     1
 44
1.0
1001
ACAD
1000
MTEXTBEGIN
1070
    73
1070
     1
1070
    44
1040
1.0
1070
    74
1070
     0
1000
MTEXTEND
  0
LINE
  5
6F9
330
689
100
AcDbEntity
  8
10
100
AcDbLine
 10
6.91948030350847
 20
4.591444721245663
 30
0.9200000000000001
 11
6.91948030350847
 21
4.379063751874236
 31
0.9200000000000001
  0
LINE
  5
6FA
330
689
100
AcDbEntity
  8
10
100
AcDbLine
 10
6.91948030350847
 20
4.379063751874236
 30
0.9200000000000001
 11
6.91948030350847
 21
4.166682782502805
 31
0.9200000000000001
  0
LINE
  5
6FB
330
689
100
AcDbEntity
  8
10
100
AcDbLine
 10
6.91948030350847
 20
4.803825690617093
 30
0.9200000000000001
 11
6.91948030350847
 21
4.591444721245663
 31
0.9200000000000001
  0
MTEXT
  5
6FC
330
689
100
AcDbEntity
  8
10
100
AcDbMText
 10
9.05473143528666
 20
4.758825687017091
 30
0.9200000000000001
 40
0.100000008
 41
0.9241667406000001
 71
     2
 72
     5
  1
RED
  7
ACANSTS
 73
     1
 44
1.0
1001
ACAD
1000
MTEXTBEGIN
1070
    73
1070
     1
1070
    44
1040
1.0
1070
    74
1070
     0
1000
MTEXTEND
  0
MTEXT
  5
6FD
330
689
100
AcDbEntity
  8
10
100
AcDbMText
 10
9.05473143528666
 20
4.546444717645661
 30
0.9200000000000001
 40
0.100000008
 41
0.9241667406000001
 71
     2
 72
     5
  1
GREEN
  7
ACANSTS
 73
     1
 44
1.0
1001
ACAD
1000
MTEXTBEGIN
1070
    73
1070
     1
1070
    44
1040
1.0
1070
    74
1070
     0
1000
MTEXTEND
  0
MTEXT
  5
6FE
330
689
100
AcDbEntity
  8
10
100
AcDbMText
 10
9.05473143528666
 20
4.334063748274236
 30
0.9200000000000001
 40
0.100000008
 41
0.9241667406000001
 71
     2
 72
     5
  1
Color
  7
ACANSTS
 73
     1
 44
1.0
1001
ACAD
1000
MTEXTBEGIN
1070
    73
1070
     1
1070
    44
1040
1.0
1070
    74
1070
     0
1000
MTEXTEND
  0
LINE
  5
6FF
330
689
100
AcDbEntity
  8
10
100
AcDbLine
 10
8.477453961783922
 20
4.166682782502805
 30
0.9200000000000001
 11
8.477453961783918
 21
4.803825690617093
 31
0.9200000000000001
  0
LINE
  5
700
330
689
100
AcDbEntity
  8
10
100
AcDbLine
 10
9.641325680136008
 20
4.803825690617093
 30
0.9200000000000001
 11
9.641325680136008
 21
3.954301813131381
 31
0.9200000000000001
  0
LINE
  5
701
330
689
100
AcDbEntity
  8
10
100
AcDbLine
 10
12.84135136865934
 20
5.000000002093758
 30
0.9200000000000001
 11
13.03752568013601
 21
5.000000002093758
 31
0.9200000000000001
  0
LINE
  5
702
330
689
100
AcDbEntity
  8
10
100
AcDbLine
 10
13.037525680136
 20
5.000000002093758
 30
0.9200000000000001
 11
13.037525680136
 21
4.803825690617096
 31
0.9200000000000001
  0
ENDBLK
  5
703
330
689
100
AcDbEntity
  8
0
100
AcDbBlockEnd
  0
BLOCK
  5
705
330
704
100
AcDbEntity
  8
0
 62
     1
100
AcDbBlockBegin
  2
A$C5A7A0274
 70
     0
 10
0.0
 20
0.0
 30
0.0
  3
A$C5A7A0274
  1

  0
ELLIPSE
  5
706
330
704
100
AcDbEntity
  8
0
100
AcDbEllipse
 10
0.9687500026610942
 20
1.555786541996389
 30
0.0
 11
-0.0441941738241592
 21
0.0
 31
0.0
210
0.0
220
0.0
230
1.0
 40
0.5773502691896219
 41
7.068583470577034
 42
8.63937979737193
  0
ELLIPSE
  5
707
330
704
100
AcDbEntity
  8
0
100
AcDbEllipse
 10
0.9687500026610962
 20
1.158858231928521
 30
0.0
 11
-0.0441941738241592
 21
0.0
 31
0.0
210
0.0
220
0.0
230
1.0
 40
0.5773502691896219
 41
0.7853981633974491
 42
2.356194490192344
  0
ELLIPSE
  5
708
330
704
100
AcDbEntity
  8
0
100
AcDbEllipse
 10
0.9687500026610942
 20
2.16922120301037
 30
0.0
 11
-0.0441941738241592
 21
0.0
 31
0.0
210
0.0
220
0.0
230
1.0
 40
0.5773502691896219
 41
3.926990816987241
 42
5.497787143782136
  0
LINE
  5
709
330
704
100
AcDbEntity
  8
0
100
AcDbLine
 10
1.375000002661094
 20
1.970757047976435
 30
0.0
 11
0.9687500026610951
 21
1.736208501118149
 31
0.0
  0
ELLIPSE
  5
70A
330
704
100
AcDbEntity
  8
0
100
AcDbEllipse
 10
0.3750000026610971
 20
0.9603940768945895
 30
0.0
 11
0.0220970869120795
 21
-0.0382732772309876
 31
0.0
210
0.0
220
0.0
230
0.9999999999999998
 40
0.5773502691896241
 41
8.639379797371937
 42
10.21017612416682
  0
ELLIPSE
  5
70B
330
704
100
AcDbEntity
  8
0
100
AcDbEllipse
 10
0.5000000026610964
 20
0.8882252932458861
 30
0.0
 11
0.0220970869120795
 21
-0.0382732772309876
 31
0.0
210
0.0
220
0.0
230
0.9999999999999998
 40
0.5773502691896241
 41
7.068583470577034
 42
8.639379797371937
  0
ELLIPSE
  5
70C
330
704
100
AcDbEntity
  8
0
100
AcDbEllipse
 10
0.5000000026610955
 20
0.6717189422997773
 30
0.0
 11
0.0220970869120795
 21
-0.0382732772309876
 31
0.0
210
0.0
220
0.0
230
0.9999999999999998
 40
0.5773502691896241
 41
5.497787143782145
 42
7.068583470577058
  0
ELLIPSE
  5
70D
330
704
100
AcDbEntity
  8
0
100
AcDbEllipse
 10
0.3750000026610962
 20
0.74388772594848
 30
0.0
 11
0.0220970869120795
 21
-0.0382732772309876
 31
0.0
210
0.0
220
0.0
230
0.9999999999999998
 40
0.5773502691896241
 41
3.926990816987241
 42
5.497787143782145
  0
ELLIPSE
  5
70E
330
704
100
AcDbEntity
  8
0
100
AcDbEllipse
 10
0.0312500026610962
 20
0.5454235709145463
 30
0.0
 11
0.0220970869120795
 21
-0.0382732772309876
 31
0.0
210
0.0
220
0.0
230
0.9999999999999998
 40
0.5773502691896241
 41
3.926990816987241
 42
5.497787143782145
  0
ELLIPSE
  5
70F
330
704
100
AcDbEntity
  8
0
100
AcDbEllipse
 10
0.9062500026610942
 20
0.0402420853736236
 30
0.0
 11
0.0220970869120795
 21
-0.0382732772309876
 31
0.0
210
0.0
220
0.0
230
0.9999999999999998
 40
0.5773502691896241
 41
5.497787143782145
 42
7.068583470577034
  0
ELLIPSE
  5
710
330
704
100
AcDbEntity
  8
0
100
AcDbEllipse
 10
0.9062500026610981
 20
1.050605056455468
 30
0.0
 11
0.0220970869120795
 21
-0.0382732772309876
 31
0.0
210
0.0
220
0.0
230
0.9999999999999998
 40
0.5773502691896241
 41
7.068583470577034
 42
8.639379797371937
  0
ELLIPSE
  5
711
330
704
100
AcDbEntity
  8
0
100
AcDbEllipse
 10
0.0312500026610962
 20
1.555786541996391
 30
0.0
 11
0.0220970869120795
 21
-0.0382732772309876
 31
0.0
210
0.0
220
0.0
230
0.9999999999999998
 40
0.5773502691896241
 41
2.356194490192351
 42
3.926990816987241
  0
ELLIPSE
  5
712
330
704
100
AcDbEntity
  8
0
100
AcDbEllipse
 10
0.9062500026610962
 20
1.736208501118149
 30
0.0
 11
-0.0441941738241592
 21
0.0
 31
0.0
210
0.0
220
0.0
230
1.0
 40
0.5773502691896219
 41
3.926990816987228
 42
5.497787143782136
  0
ELLIPSE
  5
713
330
704
100
AcDbEntity
  8
0
100
AcDbEllipse
 10
0.7812500026610945
 20
1.664039717469445
 30
0.0
 11
-0.0441941738241592
 21
0.0
 31
0.0
210
0.0
220
0.0
230
1.0
 40
0.5773502691896219
 41
5.497787143782136
 42
7.068583470577034
  0
ELLIPSE
  5
714
330
704
100
AcDbEntity
  8
0
100
AcDbEllipse
 10
0.0937500026610954
 20
1.664039717469446
 30
0.0
 11
-0.0441941738241592
 21
0.0
 31
0.0
210
0.0
220
0.0
230
1.0
 40
0.5773502691896219
 41
5.497787143782136
 42
7.068583470577034
  0
LINE
  5
715
330
704
100
AcDbEntity
  8
0
100
AcDbLine
 10
0.9062500026610942
 20
0.004157693549272
 30
0.0
 11
0.0312500026610962
 21
0.5093391790901947
 31
0.0
  0
LINE
  5
716
330
704
100
AcDbEntity
  8
0
100
AcDbLine
 10
0.9375000026610972
 20
0.4552125913536669
 30
0.0
 11
0.5312500026610955
 21
0.6897611382119524
 31
0.0
  0
LINE
  5
717
330
704
100
AcDbEntity
  8
0
100
AcDbLine
 10
0.9375000026610972
 20
0.4552125913536669
 30
0.0
 11
0.9375000026610942
 21
0.0221998894614475
 31
0.0
  0
LINE
  5
718
330
704
100
AcDbEntity
  8
0
100
AcDbLine
 10
0.0625000026610954
 20
1.682081913381621
 30
0.0
 11
0.9375000026610942
 21
2.187263398922544
 31
0.0
  0
LINE
  5
719
330
704
100
AcDbEntity
  8
0
100
AcDbLine
 10
0.9062500026610981
 20
1.086689448279819
 30
0.0
 11
0.0312500026610962
 21
1.591870933820743
 31
0.0
  0
LINE
  5
71A
330
704
100
AcDbEntity
  8
0
100
AcDbLine
 10
0.0000000026610962
 20
1.573828737908566
 30
0.0
 11
0.0000000026610962
 21
0.5634657668267225
 31
0.0
  0
LINE
  5
71B
330
704
100
AcDbEntity
  8
0
100
AcDbLine
 10
0.9375000026610962
 20
1.140816036016345
 30
0.0
 11
0.0625000026610954
 21
1.645997521557269
 31
0.0
  0
LINE
  5
71C
330
704
100
AcDbEntity
  8
0
100
AcDbLine
 10
0.3437500026610971
 20
0.9784362728067655
 30
0.0
 11
0.3437500026610962
 21
0.7619299218606562
 31
0.0
  0
LINE
  5
71D
330
704
100
AcDbEntity
  8
0
100
AcDbLine
 10
0.5000000026610955
 20
0.6356345504754257
 30
0.0
 11
0.3750000026610962
 21
0.7078033341241285
 31
0.0
  0
LINE
  5
71E
330
704
100
AcDbEntity
  8
0
100
AcDbLine
 10
0.5000000026610964
 20
0.924309685070238
 30
0.0
 11
0.3750000026610971
 21
0.9964784687189411
 31
0.0
  0
LINE
  5
71F
330
704
100
AcDbEntity
  8
0
100
AcDbLine
 10
0.9375000026610981
 20
1.032562860543291
 30
0.0
 11
0.9375000026610972
 21
0.5995501586510719
 31
0.0
  0
LINE
  5
720
330
704
100
AcDbEntity
  8
0
100
AcDbLine
 10
0.9375000026610972
 20
0.5995501586510719
 30
0.0
 11
0.5312500026610964
 21
0.8340987055093583
 31
0.0
  0
LINE
  5
721
330
704
100
AcDbEntity
  8
0
100
AcDbLine
 10
0.5312500026610955
 20
0.6536767463876007
 30
0.0
 11
0.5312500026610955
 21
0.6897611382119524
 31
0.0
  0
LINE
  5
722
330
704
100
AcDbEntity
  8
0
100
AcDbLine
 10
0.5312500026610964
 20
0.8701830973337099
 30
0.0
 11
0.5312500026610964
 21
0.8340987055093588
 31
0.0
  0
LINE
  5
723
330
704
100
AcDbEntity
  8
0
100
AcDbLine
 10
0.8750000026610962
 20
1.754250697030324
 30
0.0
 11
0.7500000026610945
 21
1.68208191338162
 31
0.0
  0
LINE
  5
724
330
704
100
AcDbEntity
  8
0
100
AcDbLine
 10
0.9375000026610942
 20
1.537744346084215
 30
0.0
 11
0.7500000026610955
 21
1.645997521557269
 31
0.0
  0
LINE
  5
725
330
704
100
AcDbEntity
  8
0
100
AcDbLine
 10
0.9375000026610962
 20
1.754250697030324
 30
0.0
 11
0.9687500026610951
 21
1.736208501118149
 31
0.0
  0
ELLIPSE
  5
726
330
704
100
AcDbEntity
  8
0
100
AcDbEllipse
 10
1.375000002661095
 20
0.8521409014215347
 30
0.0
 11
-0.0220970869120792
 21
-0.0382732772309871
 31
0.0
210
0.0
220
0.0
230
1.0
 40
0.5773502691896315
 41
3.926990816987227
 42
5.497787143782118
  0
ELLIPSE
  5
727
330
704
100
AcDbEntity
  8
0
100
AcDbEllipse
 10
1.500000002661095
 20
0.924309685070238
 30
0.0
 11
-0.0220970869120792
 21
-0.0382732772309871
 31
0.0
210
0.0
220
0.0
230
1.0
 40
0.5773502691896315
 41
8.639379797371912
 42
10.21017612416681
  0
ELLIPSE
  5
728
330
704
100
AcDbEntity
  8
0
100
AcDbEllipse
 10
1.500000002661098
 20
0.707803334124127
 30
0.0
 11
-0.0220970869120792
 21
-0.0382732772309871
 31
0.0
210
0.0
220
0.0
230
1.0
 40
0.5773502691896315
 41
7.068583470577022
 42
8.63937979737193
  0
ELLIPSE
  5
729
330
704
100
AcDbEntity
  8
0
100
AcDbEllipse
 10
1.375000002661095
 20
0.6356345504754235
 30
0.0
 11
-0.0220970869120792
 21
-0.0382732772309871
 31
0.0
210
0.0
220
0.0
230
1.0
 40
0.5773502691896315
 41
5.497787143782124
 42
7.068583470577022
  0
ELLIPSE
  5
72A
330
704
100
AcDbEntity
  8
0
100
AcDbEllipse
 10
1.031250002661096
 20
0.0402420853736238
 30
0.0
 11
-0.0220970869120792
 21
-0.0382732772309871
 31
0.0
210
0.0
220
0.0
230
1.0
 40
0.5773502691896315
 41
5.497787143782124
 42
7.068583470577022
  0
ELLIPSE
  5
72B
330
704
100
AcDbEntity
  8
0
100
AcDbEllipse
 10
1.906250002661098
 20
0.5454235709145462
 30
0.0
 11
-0.0220970869120792
 21
-0.0382732772309871
 31
0.0
210
0.0
220
0.0
230
1.0
 40
0.5773502691896315
 41
0.7853981633974354
 42
2.356194490192331
  0
ELLIPSE
  5
72C
330
704
100
AcDbEntity
  8
0
100
AcDbEllipse
 10
1.906250002661097
 20
1.55578654199639
 30
0.0
 11
-0.0220970869120792
 21
-0.0382732772309871
 31
0.0
210
0.0
220
0.0
230
1.0
 40
0.5773502691896315
 41
2.356194490192337
 42
3.926990816987227
  0
ELLIPSE
  5
72D
330
704
100
AcDbEntity
  8
0
100
AcDbEllipse
 10
1.031250002661098
 20
1.050605056455469
 30
0.0
 11
-0.0220970869120792
 21
-0.0382732772309871
 31
0.0
210
0.0
220
0.0
230
1.0
 40
0.5773502691896315
 41
3.926990816987227
 42
5.497787143782105
  0
ELLIPSE
  5
72E
330
704
100
AcDbEntity
  8
0
100
AcDbEllipse
 10
1.093750002661096
 20
1.627955325645093
 30
0.0
 11
-0.0441941738241592
 21
0.0
 31
0.0
210
0.0
220
0.0
230
1.0
 40
0.5773502691896219
 41
2.356194490192316
 42
3.926990816987241
  0
ELLIPSE
  5
72F
330
704
100
AcDbEntity
  8
0
100
AcDbEllipse
 10
1.843750002661097
 20
1.664039717469445
 30
0.0
 11
-0.0441941738241592
 21
0.0
 31
0.0
210
0.0
220
0.0
230
1.0
 40
0.5773502691896219
 41
2.356194490192344
 42
3.926990816987241
  0
LINE
  5
730
330
704
100
AcDbEntity
  8
0
100
AcDbLine
 10
1.031250002661096
 20
0.004157693549272
 30
0.0
 11
1.906250002661098
 21
0.5093391790901946
 31
0.0
  0
LINE
  5
731
330
704
100
AcDbEntity
  8
0
100
AcDbLine
 10
1.000000002661097
 20
1.032562860543292
 30
0.0
 11
1.000000002661096
 21
0.0221998894614484
 31
0.0
  0
LINE
  5
732
330
704
100
AcDbEntity
  8
0
100
AcDbLine
 10
1.875000002661097
 20
1.68208191338162
 30
0.0
 11
1.500000002661094
 21
1.89858826432773
 31
0.0
  0
LINE
  5
733
330
704
100
AcDbEntity
  8
0
100
AcDbLine
 10
1.500000002661094
 20
1.89858826432773
 30
0.0
 11
1.093750002661096
 21
1.664039717469446
 31
0.0
  0
LINE
  5
734
330
704
100
AcDbEntity
  8
0
100
AcDbLine
 10
1.531250002661097
 20
0.7619299218606546
 30
0.0
 11
1.937500002661098
 21
0.9964784687189403
 31
0.0
  0
LINE
  5
735
330
704
100
AcDbEntity
  8
0
100
AcDbLine
 10
1.531250002661097
 20
0.9062674891580615
 30
0.0
 11
1.937500002661098
 21
1.140816036016347
 31
0.0
  0
LINE
  5
736
330
704
100
AcDbEntity
  8
0
100
AcDbLine
 10
1.031250002661098
 20
1.086689448279819
 30
0.0
 11
1.906250002661097
 21
1.591870933820743
 31
0.0
  0
LINE
  5
737
330
704
100
AcDbEntity
  8
0
100
AcDbLine
 10
1.000000002661096
 20
1.140816036016345
 30
0.0
 11
1.875000002661097
 21
1.645997521557269
 31
0.0
  0
LINE
  5
738
330
704
100
AcDbEntity
  8
0
100
AcDbLine
 10
1.375000002661095
 20
0.5995501586510719
 30
0.0
 11
1.500000002661098
 21
0.6717189422997754
 31
0.0
  0
LINE
  5
739
330
704
100
AcDbEntity
  8
0
100
AcDbLine
 10
1.375000002661095
 20
0.8882252932458861
 30
0.0
 11
1.500000002661095
 21
0.9603940768945887
 31
0.0
  0
LINE
  5
73A
330
704
100
AcDbEntity
  8
0
100
AcDbLine
 10
1.343750002661095
 20
0.8340987055093592
 30
0.0
 11
1.343750002661095
 21
0.6175923545632482
 31
0.0
  0
LINE
  5
73B
330
704
100
AcDbEntity
  8
0
100
AcDbLine
 10
1.531250002661097
 20
0.7619299218606548
 30
0.0
 11
1.531250002661098
 21
0.725845530036303
 31
0.0
  0
LINE
  5
73C
330
704
100
AcDbEntity
  8
0
100
AcDbLine
 10
1.531250002661095
 20
0.9423518809824143
 30
0.0
 11
1.531250002661095
 21
0.9062674891580611
 31
0.0
  0
LINE
  5
73D
330
704
100
AcDbEntity
  8
0
100
AcDbLine
 10
1.093750002661097
 20
1.664039717469446
 30
0.0
 11
1.125000002661096
 21
1.645997521557269
 31
0.0
  0
LINE
  5
73E
330
704
100
AcDbEntity
  8
0
100
AcDbLine
 10
1.125000002661094
 20
1.609913129732918
 30
0.0
 11
1.000000002661094
 21
1.537744346084215
 31
0.0
  0
LINE
  5
73F
330
704
100
AcDbEntity
  8
0
100
AcDbLine
 10
1.937500002661097
 20
1.573828737908566
 30
0.0
 11
1.937500002661098
 21
1.140816036016347
 31
0.0
  0
LINE
  5
740
330
704
100
AcDbEntity
  8
0
100
AcDbLine
 10
1.937500002661098
 20
0.9964784687189403
 30
0.0
 11
1.937500002661098
 21
0.5634657668267216
 31
0.0
  0
LINE
  5
741
330
704
100
AcDbEntity
  8
0
100
AcDbLine
 10
1.375000002661094
 20
1.970757047976435
 30
0.0
 11
1.000000002661094
 21
2.187263398922544
 31
0.0
  0
ENDBLK
  5
742
330
704
100
AcDbEntity
  8
0
 62
     1
100
AcDbBlockEnd
  0
BLOCK
  5
744
330
743
100
AcDbEntity
  8
0
100
AcDbBlockBegin
  2
A$C497D351A
 70
     0
 10
0.0
 20
0.0
 30
0.0
  3
A$C497D351A
  1

  0
MTEXT
  5
745
330
743
100
AcDbEntity
  8
10
 62
     7
100
AcDbMText
 10
4.187358927777895
 20
0.4002719483440039
 30
0.0
 40
0.085
 41
5.78
 71
     1
 72
     5
  1
P.O. BOX 496\P664 STATE STREET\PBEAVER, PA 15009
 73
     1
 44
1.0
1001
ACAD
1000
MTEXTBEGIN
1070
    73
1070
     1
1070
    44
1040
1.0
1070
    74
1070
     0
1000
MTEXTEND
  0
LINE
  5
746
330
743
100
AcDbEntity
  8
10
370
    50
100
AcDbLine
 10
-0.0000000090042569
 20
0.4249999926626417
 30
0.0
 11
-0.0000000090042569
 21
-0.0000000073373645
 31
0.0
  0
MTEXT
  5
747
330
743
100
AcDbEntity
  8
10
 62
     7
100
AcDbMText
 10
0.468473229341023
 20
0.2698346584247493
 30
0.0
 40
0.10625
 41
4.047785
 71
     1
 72
     5
  1
C3CONTROLS by CONTROL CONCEPTS CORP.
 73
     1
 44
1.0
1001
ACAD
1000
MTEXTBEGIN
1070
    73
1070
     1
1070
    44
1040
1.0
1070
    74
1070
     0
1000
MTEXTEND
  0
CIRCLE
  5
748
330
743
100
AcDbEntity
  8
0
100
AcDbCircle
 10
0.2185977116542841
 20
0.2198417898065244
 30
0.0
 40
0.185385
  0
ARC
  5
749
330
743
100
AcDbEntity
  8
0
100
AcDbCircle
 10
0.2185977116542841
 20
0.2198417898065244
 30
0.0
 40
0.16674609375
100
AcDbArc
 50
129.16671071612
 51
230.8332892838798
  0
ARC
  5
74A
330
743
100
AcDbEntity
  8
0
100
AcDbCircle
 10
0.2185977116542841
 20
0.2198417898065244
 30
0.0
 40
0.13447265625
100
AcDbArc
 50
129.16671071612
 51
230.8332892838798
  0
ARC
  5
74B
330
743
100
AcDbEntity
  8
0
100
AcDbCircle
 10
0.2925454467943724
 20
0.2736308523065247
 30
0.0
 40
0.0753046875
100
AcDbArc
 50
314.4153085971927
 51
36.03187907247066
  0
ARC
  5
74C
330
743
100
AcDbEntity
  8
0
100
AcDbCircle
 10
0.2925454467943724
 20
0.2736308523065247
 30
0.0
 40
0.04303125
100
AcDbArc
 50
270.0
 51
36.03187907247066
  0
ARC
  5
74D
330
743
100
AcDbEntity
  8
0
100
AcDbCircle
 10
0.2925454467943724
 20
0.1660527273065249
 30
0.0
 40
0.04303125
100
AcDbArc
 50
323.9681209275293
 51
90.0
  0
ARC
  5
74E
330
743
100
AcDbEntity
  8
0
100
AcDbCircle
 10
0.2185977116542841
 20
0.2198417898065244
 30
0.0
 40
0.13447265625
100
AcDbArc
 50
309.1667107161201
 51
323.9681209275293
  0
ARC
  5
74F
330
743
100
AcDbEntity
  8
0
100
AcDbCircle
 10
0.2831445866542843
 20
0.1406055528890331
 30
0.0
 40
0.064546875
100
AcDbArc
 50
179.9999999999998
 51
309.1667107161201
  0
ARC
  5
750
330
743
100
AcDbEntity
  8
0
100
AcDbCircle
 10
0.1540508366542848
 20
0.1406055528890331
 30
0.0
 40
0.0322734375
100
AcDbArc
 50
230.8332892838798
 51
0.0000000000001018
  0
ARC
  5
751
330
743
100
AcDbEntity
  8
0
100
AcDbCircle
 10
0.1540508366542848
 20
0.1406055528890331
 30
0.0
 40
0.064546875
100
AcDbArc
 50
230.8332892838798
 51
0.0000000000001018
  0
ARC
  5
752
330
743
100
AcDbEntity
  8
0
100
AcDbCircle
 10
0.2831445866542843
 20
0.1406055528890331
 30
0.0
 40
0.0322734375
100
AcDbArc
 50
179.9999999999998
 51
309.1667107161201
  0
LINE
  5
753
330
743
100
AcDbEntity
  8
0
100
AcDbLine
 10
0.2717824031197458
 20
0.2305996023065244
 30
0.0
 11
0.2925454467943724
 21
0.2305996023065244
 31
0.0
  0
LINE
  5
754
330
743
100
AcDbEntity
  8
0
100
AcDbLine
 10
0.2717824031197458
 20
0.2090839773065243
 30
0.0
 11
0.2925454467943724
 21
0.2090839773065243
 31
0.0
  0
LINE
  5
755
330
743
100
AcDbEntity
  8
0
100
AcDbLine
 10
0.2717824031197458
 20
0.2305996023065244
 30
0.0
 11
0.2717824031197458
 21
0.2090839773065243
 31
0.0
  0
LINE
  5
756
330
743
100
AcDbEntity
  8
0
100
AcDbLine
 10
0.1863242741542848
 20
0.1621211778890341
 30
0.0
 11
0.2185977116542841
 21
0.1621211778890341
 31
0.0
  0
LINE
  5
757
330
743
100
AcDbEntity
  8
0
100
AcDbLine
 10
0.1863242741542848
 20
0.1406055528890331
 30
0.0
 11
0.1863242741542848
 21
0.1621211778890341
 31
0.0
  0
LINE
  5
758
330
743
100
AcDbEntity
  8
0
100
AcDbLine
 10
0.2508711491542841
 20
0.1406055528890331
 30
0.0
 11
0.2508711491542841
 21
0.1621211778890341
 31
0.0
  0
LINE
  5
759
330
743
100
AcDbEntity
  8
0
100
AcDbLine
 10
0.2185977116542841
 20
0.1406055528890331
 30
0.0
 11
0.2185977116542841
 21
0.1621211778890341
 31
0.0
  0
LINE
  5
75A
330
743
100
AcDbEntity
  8
0
100
AcDbLine
 10
0.2185977116542841
 20
0.1621211778890341
 30
0.0
 11
0.2508711491542841
 21
0.1621211778890341
 31
0.0
  0
ARC
  5
75B
330
743
100
AcDbEntity
  8
0
100
AcDbCircle
 10
0.2185977116542841
 20
0.2198417898065244
 30
0.0
 40
0.16674609375
100
AcDbArc
 50
309.1667107161201
 51
323.9681209275293
  0
ARC
  5
75C
330
743
100
AcDbEntity
  8
0
100
AcDbCircle
 10
0.2925454467943724
 20
0.1660527273065249
 30
0.0
 40
0.0753046875
100
AcDbArc
 50
323.9681209275293
 51
45.58469140280712
  0
ARC
  5
75D
330
743
100
AcDbEntity
  8
0
100
AcDbCircle
 10
0.2185977116542841
 20
0.2198417898065244
 30
0.0
 40
0.13447265625
100
AcDbArc
 50
36.03187907247066
 51
50.83328928387988
  0
ARC
  5
75E
330
743
100
AcDbEntity
  8
0
100
AcDbCircle
 10
0.2831445866542843
 20
0.2990780267240156
 30
0.0
 40
0.064546875
100
AcDbArc
 50
50.83328928387988
 51
180.0
  0
ARC
  5
75F
330
743
100
AcDbEntity
  8
0
100
AcDbCircle
 10
0.1540508366542848
 20
0.2990780267240156
 30
0.0
 40
0.0322734375
100
AcDbArc
 50
0.0
 51
129.16671071612
  0
ARC
  5
760
330
743
100
AcDbEntity
  8
0
100
AcDbCircle
 10
0.1540508366542848
 20
0.2990780267240156
 30
0.0
 40
0.064546875
100
AcDbArc
 50
0.0
 51
129.16671071612
  0
LINE
  5
761
330
743
100
AcDbEntity
  8
0
100
AcDbLine
 10
0.1863242741542848
 20
0.2775624017240155
 30
0.0
 11
0.2185977116542841
 21
0.2775624017240155
 31
0.0
  0
LINE
  5
762
330
743
100
AcDbEntity
  8
0
100
AcDbLine
 10
0.1863242741542848
 20
0.2990780267240156
 30
0.0
 11
0.1863242741542848
 21
0.2775624017240155
 31
0.0
  0
LINE
  5
763
330
743
100
AcDbEntity
  8
0
100
AcDbLine
 10
0.2508711491542841
 20
0.2990780267240156
 30
0.0
 11
0.2508711491542841
 21
0.2775624017240155
 31
0.0
  0
LINE
  5
764
330
743
100
AcDbEntity
  8
0
100
AcDbLine
 10
0.2185977116542841
 20
0.2990780267240156
 30
0.0
 11
0.2185977116542841
 21
0.2775624017240155
 31
0.0
  0
LINE
  5
765
330
743
100
AcDbEntity
  8
0
100
AcDbLine
 10
0.2185977116542841
 20
0.2775624017240155
 30
0.0
 11
0.2508711491542841
 21
0.2775624017240155
 31
0.0
  0
ARC
  5
766
330
743
100
AcDbEntity
  8
0
100
AcDbCircle
 10
0.2831445866542843
 20
0.2990780267240156
 30
0.0
 40
0.0322734375
100
AcDbArc
 50
50.83328928387988
 51
180.0
  0
ARC
  5
767
330
743
100
AcDbEntity
  8
0
100
AcDbCircle
 10
0.2185977116542841
 20
0.2198417898065244
 30
0.0
 40
0.16674609375
100
AcDbArc
 50
36.0318790724706
 51
50.83328928387988
  0
INSERT
  5
768
330
743
100
AcDbEntity
  8
10
 62
     1
100
AcDbBlockReference
  2
A$C5A7A0274
 10
5.548059539119257
 20
0.0331957830881047
 30
0.0
 41
0.159375
 42
0.1593749999999998
 43
0.159375
  0
ENDBLK
  5
769
330
743
100
AcDbEntity
  8
0
100
AcDbBlockEnd
  0
BLOCK
  5
7EB
330
772
100
AcDbEntity
  8
0
100
AcDbBlockBegin
  2
STD50006-8X11
 70
     0
 10
0.0
 20
0.0
 30
0.0
  3
STD50006-8X11
  1

  0
MTEXT
  5
773
330
772
100
AcDbEntity
  8
10
100
AcDbMText
 10
6.66159201029043
 20
7.834063746180479
 30
0.0
 40
0.100000008
 41
2.4400001952
 71
     2
 72
     5
  1
Description
  7
ACANSTS
 73
     1
 44
1.0
1001
ACAD
1000
MTEXTBEGIN
1070
    73
1070
     1
1070
    44
1040
1.0
1070
    74
1070
     0
1000
MTEXTEND
  0
MTEXT
  5
774
330
772
100
AcDbEntity
  8
10
100
AcDbMText
 10
7.693468296837739
 20
7.560492295723335
 30
0.0
 40
0.100000008
 41
0.0
 71
     5
 72
     5
  1
PART DESCRIPTION (MOLD NUMBER)
  7
ACANSTS
 73
     1
 44
1.0
1001
ACAD
1000
MTEXTBEGIN
1070
    73
1070
     1
1070
    44
1040
1.0
1070
    74
1070
     0
1000
MTEXTEND
  0
LINE
  5
775
330
772
100
AcDbEntity
  8
10
100
AcDbLine
 10
0.1961743114766824
 20
8.303825688523339
 30
0.0
 11
10.80382568852344
 21
8.303825688523335
 31
0.0
  0
LINE
  5
776
330
772
100
AcDbEntity
  8
10
100
AcDbLine
 10
4.583110905152018
 20
8.303825688523335
 30
0.0
 11
10.80382568852345
 21
8.303825688523335
 31
0.0
  0
LINE
  5
777
330
772
100
AcDbEntity
  8
10
100
AcDbLine
 10
4.583110905152018
 20
8.091444719151906
 30
0.0
 11
10.80382568852345
 21
8.091444719151906
 31
0.0
  0
LINE
  5
778
330
772
100
AcDbEntity
  8
10
100
AcDbLine
 10
10.80382568852345
 20
7.454301811037624
 30
0.0
 11
4.583110905152018
 21
7.454301811037624
 31
0.0
  0
LINE
  5
779
330
772
100
AcDbEntity
  8
10
100
AcDbLine
 10
4.583110905152018
 20
7.666682780409049
 30
0.0
 11
10.80382568852345
 21
7.666682780409049
 31
0.0
  0
LINE
  5
77A
330
772
100
AcDbEntity
  8
10
100
AcDbLine
 10
4.583110905152018
 20
7.879063749780479
 30
0.0
 11
10.80382568852345
 21
7.879063749780479
 31
0.0
  0
LINE
  5
77B
330
772
100
AcDbEntity
  8
10
100
AcDbLine
 10
0.1961743114766616
 20
0.1961743114766623
 30
0.0
 11
10.80382568852344
 21
0.1961743114766557
 31
0.0
  0
LINE
  5
77C
330
772
100
AcDbEntity
  8
10
100
AcDbLine
 10
0.1961743114766672
 20
8.303825688523344
 30
0.0
 11
0.1961743114766616
 21
0.1961743114766623
 31
0.0
  0
CIRCLE
  5
77D
330
772
100
AcDbEntity
  8
10
 62
     1
100
AcDbCircle
 10
0.1961743114766589
 20
0.1961743114766623
 30
0.0
 40
0.1111040097775731
  0
LINE
  5
77E
330
772
100
AcDbEntity
  8
10
100
AcDbLine
 10
0.0000000000000029
 20
0.1961743114766623
 30
0.0
 11
0.0
 21
0.0
 31
0.0
  0
LINE
  5
77F
330
772
100
AcDbEntity
  8
10
100
AcDbLine
 10
0.0
 20
0.0
 30
0.0
 11
0.1961743114766616
 21
-0.0000000000000004
 31
0.0
  0
LINE
  5
780
330
772
100
AcDbEntity
  8
10
100
AcDbLine
 10
0.0000000000000149
 20
8.500000000000001
 30
0.0
 11
0.1961743114766764
 21
8.500000000000001
 31
0.0
  0
LINE
  5
781
330
772
100
AcDbEntity
  8
10
100
AcDbLine
 10
0.0000000000000149
 20
8.500000000000001
 30
0.0
 11
0.0000000000000178
 21
8.303825688523335
 31
0.0
  0
MTEXT
  5
782
330
772
100
AcDbEntity
  8
10
100
AcDbMText
 10
4.958825220923447
 20
8.208825680923336
 30
0.0
 40
0.100000008
 41
0.0
 71
     4
 72
     5
  1
 XXXXX
  7
ACANSTS
 73
     1
 44
1.0
1001
ACAD
1000
MTEXTBEGIN
1070
    73
1070
     1
1070
    44
1040
1.0
1070
    74
1070
     0
1000
MTEXTEND
  0
MTEXT
  5
783
330
772
100
AcDbEntity
  8
10
100
AcDbMText
 10
4.958825220923447
 20
7.996444711551905
 30
0.0
 40
0.100000008
 41
2.4400001952
 71
     4
 72
     5
  1
 XXXXX
  7
ACANSTS
 73
     1
 44
1.0
1001
ACAD
1000
MTEXTBEGIN
1070
    73
1070
     1
1070
    44
1040
1.0
1070
    74
1070
     0
1000
MTEXTEND
  0
LINE
  5
784
330
772
100
AcDbEntity
  8
10
100
AcDbLine
 10
4.583110905152018
 20
7.454301811037624
 30
0.0
 11
4.583110905152018
 21
8.303825688523335
 31
0.0
  0
MTEXT
  5
785
330
772
100
AcDbEntity
  8
10
100
AcDbMText
 10
4.755968061837734
 20
8.258825684923337
 30
0.0
 40
0.100000008
 41
0.2857407636
 71
     2
 72
     5
  1
H02
  7
ACANSTS
 73
     1
 44
1.0
1001
ACAD
1000
MTEXTBEGIN
1070
    73
1070
     1
1070
    44
1040
1.0
1070
    74
1070
     0
1000
MTEXTEND
  0
MTEXT
  5
786
330
772
100
AcDbEntity
  8
10
100
AcDbMText
 10
4.755968061837734
 20
8.046444715551906
 30
0.0
 40
0.100000008
 41
0.2857407636
 71
     2
 72
     5
  1
H01
  7
ACANSTS
 73
     1
 44
1.0
1001
ACAD
1000
MTEXTBEGIN
1070
    73
1070
     1
1070
    44
1040
1.0
1070
    74
1070
     0
1000
MTEXTEND
  0
MTEXT
  5
787
330
772
100
AcDbEntity
  8
10
100
AcDbMText
 10
4.755968061837734
 20
7.834063746180479
 30
0.0
 40
0.100000008
 41
0.2857143085714286
 71
     2
 72
     5
  1
Item
  7
ACANSTS
 73
     1
 44
1.0
1001
ACAD
1000
MTEXTBEGIN
1070
    73
1070
     1
1070
    44
1040
1.0
1070
    74
1070
     0
1000
MTEXTEND
  0
LINE
  5
788
330
772
100
AcDbEntity
  8
10
100
AcDbLine
 10
4.928825218523449
 20
8.091444719151906
 30
0.0
 11
4.928825218523449
 21
7.879063749780479
 31
0.0
  0
LINE
  5
789
330
772
100
AcDbEntity
  8
10
100
AcDbLine
 10
4.928825218523449
 20
7.879063749780479
 30
0.0
 11
4.928825218523449
 21
7.666682780409049
 31
0.0
  0
LINE
  5
78A
330
772
100
AcDbEntity
  8
10
100
AcDbLine
 10
4.928825218523449
 20
8.303825688523335
 30
0.0
 11
4.928825218523449
 21
8.091444719151906
 31
0.0
  0
LINE
  5
78B
330
772
100
AcDbEntity
  8
10
100
AcDbLine
 10
10.80382568852344
 20
8.303825688523335
 30
0.0
 11
10.80382568852344
 21
0.1961743114766557
 31
0.0
  0
LINE
  5
78C
330
772
100
AcDbEntity
  8
L-REV
100
AcDbLine
 10
10.80382568852345
 20
8.303825688523335
 30
0.0
 11
10.80382568852344
 21
0.1961743114766557
 31
0.0
  0
LINE
  5
78D
330
772
100
AcDbEntity
  8
L-REV
100
AcDbLine
 10
11.20382568852344
 20
0.1961743114766557
 30
0.0
 11
11.20382568852344
 21
8.303825688523339
 31
0.0
  0
LINE
  5
78E
330
772
100
AcDbEntity
  8
L-REV
100
AcDbLine
 10
11.60382568852344
 20
0.1961743114766557
 30
0.0
 11
11.60382568852345
 21
8.303825688523339
 31
0.0
  0
LINE
  5
78F
330
772
100
AcDbEntity
  8
L-REV
100
AcDbLine
 10
13.60382568852343
 20
0.1961743114766557
 30
0.0
 11
13.60382568852344
 21
8.303825688523339
 31
0.0
  0
LINE
  5
790
330
772
100
AcDbEntity
  8
L-REV
100
AcDbLine
 10
14.00382568852343
 20
0.1961743114766557
 30
0.0
 11
14.00382568852344
 21
8.303825688523339
 31
0.0
  0
LINE
  5
791
330
772
100
AcDbEntity
  8
L-REV
100
AcDbLine
 10
10.80382568852345
 20
2.503825688523336
 30
0.0
 11
14.00382568852345
 21
2.503825688523336
 31
0.0
  0
LINE
  5
792
330
772
100
AcDbEntity
  8
L-REV
100
AcDbLine
 10
10.80382568852345
 20
0.5038256885233397
 30
0.0
 11
14.00382568852344
 21
0.5038256885233348
 31
0.0
  0
LINE
  5
793
330
772
100
AcDbEntity
  8
L-REV
100
AcDbLine
 10
10.80382568852345
 20
0.7038256885233385
 30
0.0
 11
14.00382568852344
 21
0.7038256885233345
 31
0.0
  0
LINE
  5
794
330
772
100
AcDbEntity
  8
L-REV
100
AcDbLine
 10
10.80382568852345
 20
0.9038256885233391
 30
0.0
 11
14.00382568852344
 21
0.9038256885233341
 31
0.0
  0
LINE
  5
795
330
772
100
AcDbEntity
  8
L-REV
100
AcDbLine
 10
10.80382568852345
 20
1.303825688523339
 30
0.0
 11
14.00382568852344
 21
1.303825688523334
 31
0.0
  0
LINE
  5
796
330
772
100
AcDbEntity
  8
L-REV
100
AcDbLine
 10
10.80382568852345
 20
1.703825688523338
 30
0.0
 11
14.00382568852344
 21
1.703825688523334
 31
0.0
  0
LINE
  5
797
330
772
100
AcDbEntity
  8
L-REV
100
AcDbLine
 10
10.80382568852345
 20
2.103825688523336
 30
0.0
 11
14.00382568852344
 21
2.103825688523336
 31
0.0
  0
LINE
  5
798
330
772
100
AcDbEntity
  8
L-REV
100
AcDbLine
 10
10.80382568852345
 20
1.103825688523338
 30
0.0
 11
14.00382568852344
 21
1.103825688523334
 31
0.0
  0
LINE
  5
799
330
772
100
AcDbEntity
  8
L-REV
100
AcDbLine
 10
10.80382568852345
 20
1.503825688523339
 30
0.0
 11
14.00382568852344
 21
1.503825688523335
 31
0.0
  0
LINE
  5
79A
330
772
100
AcDbEntity
  8
L-REV
100
AcDbLine
 10
10.80382568852345
 20
1.903825688523339
 30
0.0
 11
14.00382568852344
 21
1.903825688523333
 31
0.0
  0
LINE
  5
79B
330
772
100
AcDbEntity
  8
L-REV
100
AcDbLine
 10
10.80382568852345
 20
2.303825688523336
 30
0.0
 11
14.00382568852344
 21
2.303825688523336
 31
0.0
  0
LINE
  5
79C
330
772
100
AcDbEntity
  8
L-REV
100
AcDbLine
 10
14.00382568852343
 20
0.1961743114766557
 30
0.0
 11
10.80382568852344
 21
0.1961743114766557
 31
0.0
  0
MTEXT
  5
79D
330
772
100
AcDbEntity
  8
L-REV
100
AcDbMText
 10
10.88037387679967
 20
0.3286379474126613
 30
0.0
 40
0.072
 41
0.0
 71
     1
 72
     5
  1
REV#
 73
     1
 44
1.0
1001
ACAD
1000
MTEXTBEGIN
1070
    73
1070
     1
1070
    44
1040
1.0
1070
    74
1070
     0
1000
MTEXTEND
  0
MTEXT
  5
79E
330
772
100
AcDbEntity
  8
L-REV
100
AcDbMText
 10
13.68302671509646
 20
0.3286379474126591
 30
0.0
 40
0.072
 41
0.0
 71
     1
 72
     5
  1
DATE
 73
     1
 44
1.0
1001
ACAD
1000
MTEXTBEGIN
1070
    73
1070
     1
1070
    44
1040
1.0
1070
    74
1070
     0
1000
MTEXTEND
  0
MTEXT
  5
79F
330
772
100
AcDbEntity
  8
L-REV
100
AcDbMText
 10
12.2471720750865
 20
0.3362770886313844
 30
0.0
 40
0.072
 41
0.0
 71
     1
 72
     5
  1
DESCRIPTION
 73
     1
 44
1.0
1001
ACAD
1000
MTEXTBEGIN
1070
    73
1070
     1
1070
    44
1040
1.0
1070
    74
1070
     0
1000
MTEXTEND
  0
MTEXT
  5
7A0
330
772
100
AcDbEntity
  8
L-REV
100
AcDbMText
 10
11.34341352017788
 20
0.3286379474126613
 30
0.0
 40
0.072
 41
0.0
 71
     1
 72
     5
  1
BY
 73
     1
 44
1.0
1001
ACAD
1000
MTEXTBEGIN
1070
    73
1070
     1
1070
    44
1040
1.0
1070
    74
1070
     0
1000
MTEXTEND
  0
LINE
  5
7A1
330
772
100
AcDbEntity
  8
10
100
AcDbLine
 10
14.00385137704678
 20
-0.0000000000000036
 30
0.0
 11
14.20002568852345
 21
-0.0000000000000067
 31
0.0
  0
LINE
  5
7A2
330
772
100
AcDbEntity
  8
10
100
AcDbLine
 10
14.20002568852344
 20
-0.0000000000000067
 30
0.0
 11
14.20002568852344
 21
0.196174311476657
 31
0.0
  0
LINE
  5
7A3
330
772
100
AcDbEntity
  8
L-REV
100
AcDbLine
 10
10.80382568852345
 20
8.303825688523335
 30
0.0
 11
14.00382568852345
 21
8.303825688523335
 31
0.0
  0
LINE
  5
7A4
330
772
100
AcDbEntity
  8
L-REV
100
AcDbLine
 10
10.80382568852345
 20
7.903825688523337
 30
0.0
 11
14.00382568852345
 21
7.903825688523337
 31
0.0
  0
LINE
  5
7A5
330
772
100
AcDbEntity
  8
L-REV
100
AcDbLine
 10
10.80382568852345
 20
8.103825688523336
 30
0.0
 11
14.00382568852345
 21
8.103825688523336
 31
0.0
  0
LINE
  5
7A6
330
772
100
AcDbEntity
  8
L-REV
100
AcDbLine
 10
10.80382568852345
 20
7.303825688523336
 30
0.0
 11
14.00382568852345
 21
7.303825688523336
 31
0.0
  0
LINE
  5
7A7
330
772
100
AcDbEntity
  8
L-REV
100
AcDbLine
 10
10.80382568852345
 20
7.703825688523334
 30
0.0
 11
14.00382568852345
 21
7.703825688523334
 31
0.0
  0
LINE
  5
7A8
330
772
100
AcDbEntity
  8
L-REV
100
AcDbLine
 10
10.80382568852345
 20
7.503825688523336
 30
0.0
 11
14.00382568852345
 21
7.503825688523336
 31
0.0
  0
LINE
  5
7A9
330
772
100
AcDbEntity
  8
L-REV
100
AcDbLine
 10
10.80382568852345
 20
7.103825688523337
 30
0.0
 11
14.00382568852345
 21
7.103825688523337
 31
0.0
  0
LINE
  5
7AA
330
772
100
AcDbEntity
  8
L-REV
100
AcDbLine
 10
10.80382568852345
 20
6.903825688523339
 30
0.0
 11
14.00382568852345
 21
6.903825688523339
 31
0.0
  0
LINE
  5
7AB
330
772
100
AcDbEntity
  8
L-REV
100
AcDbLine
 10
10.80382568852345
 20
7.303825688523336
 30
0.0
 11
14.00382568852345
 21
7.303825688523336
 31
0.0
  0
LINE
  5
7AC
330
772
100
AcDbEntity
  8
L-REV
100
AcDbLine
 10
10.80382568852345
 20
4.103825688523336
 30
0.0
 11
14.00382568852345
 21
4.103825688523338
 31
0.0
  0
LINE
  5
7AD
330
772
100
AcDbEntity
  8
L-REV
100
AcDbLine
 10
10.80382568852345
 20
4.503825688523334
 30
0.0
 11
14.00382568852345
 21
4.503825688523336
 31
0.0
  0
LINE
  5
7AE
330
772
100
AcDbEntity
  8
L-REV
100
AcDbLine
 10
10.80382568852345
 20
3.903825688523335
 30
0.0
 11
14.00382568852345
 21
3.903825688523336
 31
0.0
  0
LINE
  5
7AF
330
772
100
AcDbEntity
  8
L-REV
100
AcDbLine
 10
10.80382568852345
 20
4.303825688523335
 30
0.0
 11
14.00382568852345
 21
4.303825688523336
 31
0.0
  0
LINE
  5
7B0
330
772
100
AcDbEntity
  8
L-REV
100
AcDbLine
 10
10.80382568852345
 20
4.903825688523333
 30
0.0
 11
14.00382568852345
 21
4.903825688523338
 31
0.0
  0
LINE
  5
7B1
330
772
100
AcDbEntity
  8
L-REV
100
AcDbLine
 10
10.80382568852345
 20
5.303825688523335
 30
0.0
 11
14.00382568852345
 21
5.303825688523335
 31
0.0
  0
LINE
  5
7B2
330
772
100
AcDbEntity
  8
L-REV
100
AcDbLine
 10
10.80382568852345
 20
5.703825688523338
 30
0.0
 11
14.00382568852345
 21
5.703825688523338
 31
0.0
  0
LINE
  5
7B3
330
772
100
AcDbEntity
  8
L-REV
100
AcDbLine
 10
10.80382568852345
 20
6.103825688523337
 30
0.0
 11
14.00382568852345
 21
6.103825688523337
 31
0.0
  0
LINE
  5
7B4
330
772
100
AcDbEntity
  8
L-REV
100
AcDbLine
 10
10.80382568852345
 20
6.503825688523336
 30
0.0
 11
14.00382568852345
 21
6.503825688523336
 31
0.0
  0
LINE
  5
7B5
330
772
100
AcDbEntity
  8
L-REV
100
AcDbLine
 10
10.80382568852345
 20
4.703825688523335
 30
0.0
 11
14.00382568852345
 21
4.703825688523338
 31
0.0
  0
LINE
  5
7B6
330
772
100
AcDbEntity
  8
L-REV
100
AcDbLine
 10
10.80382568852345
 20
5.103825688523337
 30
0.0
 11
14.00382568852345
 21
5.103825688523337
 31
0.0
  0
LINE
  5
7B7
330
772
100
AcDbEntity
  8
L-REV
100
AcDbLine
 10
10.80382568852345
 20
5.503825688523336
 30
0.0
 11
14.00382568852345
 21
5.503825688523336
 31
0.0
  0
LINE
  5
7B8
330
772
100
AcDbEntity
  8
L-REV
100
AcDbLine
 10
10.80382568852345
 20
5.903825688523339
 30
0.0
 11
14.00382568852345
 21
5.903825688523339
 31
0.0
  0
LINE
  5
7B9
330
772
100
AcDbEntity
  8
L-REV
100
AcDbLine
 10
10.80382568852345
 20
6.303825688523336
 30
0.0
 11
14.00382568852345
 21
6.303825688523336
 31
0.0
  0
LINE
  5
7BA
330
772
100
AcDbEntity
  8
L-REV
100
AcDbLine
 10
10.80382568852345
 20
6.703825688523339
 30
0.0
 11
14.00382568852345
 21
6.703825688523339
 31
0.0
  0
LINE
  5
7BB
330
772
100
AcDbEntity
  8
L-REV
100
AcDbLine
 10
10.80382568852345
 20
3.703825688523335
 30
0.0
 11
14.00382568852345
 21
3.703825688523337
 31
0.0
  0
LINE
  5
7BC
330
772
100
AcDbEntity
  8
L-REV
100
AcDbLine
 10
10.80382568852345
 20
3.303825688523335
 30
0.0
 11
14.00382568852345
 21
3.303825688523335
 31
0.0
  0
LINE
  5
7BD
330
772
100
AcDbEntity
  8
L-REV
100
AcDbLine
 10
10.80382568852345
 20
3.503825688523336
 30
0.0
 11
14.00382568852345
 21
3.503825688523336
 31
0.0
  0
LINE
  5
7BE
330
772
100
AcDbEntity
  8
L-REV
100
AcDbLine
 10
10.80382568852345
 20
2.903825688523335
 30
0.0
 11
14.00382568852345
 21
2.903825688523335
 31
0.0
  0
LINE
  5
7BF
330
772
100
AcDbEntity
  8
L-REV
100
AcDbLine
 10
10.80382568852345
 20
2.703825688523335
 30
0.0
 11
14.00382568852345
 21
2.703825688523335
 31
0.0
  0
LINE
  5
7C0
330
772
100
AcDbEntity
  8
L-REV
100
AcDbLine
 10
10.80382568852345
 20
3.103825688523336
 30
0.0
 11
14.00382568852345
 21
3.103825688523336
 31
0.0
  0
MTEXT
  5
7C1
330
772
100
AcDbEntity
  8
10
100
AcDbMText
 10
8.936620580571361
 20
7.834063746180479
 30
0.0
 40
0.100000008
 41
1.3466667744
 71
     2
 72
     5
  1
Material
  7
ACANSTS
 73
     1
 44
1.0
1001
ACAD
1000
MTEXTBEGIN
1070
    73
1070
     1
1070
    44
1040
1.0
1070
    74
1070
     0
1000
MTEXTEND
  0
MTEXT
  5
7C2
330
772
100
AcDbEntity
  8
10
100
AcDbMText
 10
8.936620580571361
 20
8.258825684923333
 30
0.0
 40
0.100000008
 41
1.3466667744
 71
     2
 72
     5
  1
VALOX 357
  7
ACANSTS
 73
     1
 44
1.0
1001
ACAD
1000
MTEXTBEGIN
1070
    73
1070
     1
1070
    44
1040
1.0
1070
    74
1070
     0
1000
MTEXTEND
  0
MTEXT
  5
7C3
330
772
100
AcDbEntity
  8
10
100
AcDbMText
 10
8.936620580571361
 20
8.046444715551904
 30
0.0
 40
0.100000008
 41
1.3466667744
 71
     2
 72
     5
  1
VALOX 357
  7
ACANSTS
 73
     1
 44
1.0
1001
ACAD
1000
MTEXTBEGIN
1070
    73
1070
     1
1070
    44
1040
1.0
1070
    74
1070
     0
1000
MTEXTEND
  0
LINE
  5
7C4
330
772
100
AcDbEntity
  8
10
100
AcDbLine
 10
8.081980311895913
 20
8.091444719151906
 30
0.0
 11
8.081980311895913
 21
7.879063749780479
 31
0.0
  0
LINE
  5
7C5
330
772
100
AcDbEntity
  8
10
100
AcDbLine
 10
8.081980311895913
 20
7.879063749780479
 30
0.0
 11
8.081980311895913
 21
7.666682780409049
 31
0.0
  0
LINE
  5
7C6
330
772
100
AcDbEntity
  8
10
100
AcDbLine
 10
8.081980311895913
 20
8.303825688523335
 30
0.0
 11
8.081980311895913
 21
8.091444719151906
 31
0.0
  0
MTEXT
  5
7C7
330
772
100
AcDbEntity
  8
10
100
AcDbMText
 10
10.2172314436741
 20
8.258825684923333
 30
0.0
 40
0.100000008
 41
0.9241667406000001
 71
     2
 72
     5
  1
RED
  7
ACANSTS
 73
     1
 44
1.0
1001
ACAD
1000
MTEXTBEGIN
1070
    73
1070
     1
1070
    44
1040
1.0
1070
    74
1070
     0
1000
MTEXTEND
  0
MTEXT
  5
7C8
330
772
100
AcDbEntity
  8
10
100
AcDbMText
 10
10.2172314436741
 20
8.046444715551904
 30
0.0
 40
0.100000008
 41
0.9241667406000001
 71
     2
 72
     5
  1
GREEN
  7
ACANSTS
 73
     1
 44
1.0
1001
ACAD
1000
MTEXTBEGIN
1070
    73
1070
     1
1070
    44
1040
1.0
1070
    74
1070
     0
1000
MTEXTEND
  0
MTEXT
  5
7C9
330
772
100
AcDbEntity
  8
10
100
AcDbMText
 10
10.2172314436741
 20
7.834063746180479
 30
0.0
 40
0.100000008
 41
0.9241667406000001
 71
     2
 72
     5
  1
Color
  7
ACANSTS
 73
     1
 44
1.0
1001
ACAD
1000
MTEXTBEGIN
1070
    73
1070
     1
1070
    44
1040
1.0
1070
    74
1070
     0
1000
MTEXTEND
  0
LINE
  5
7CA
330
772
100
AcDbEntity
  8
10
100
AcDbLine
 10
9.639953970171365
 20
7.666682780409049
 30
0.0
 11
9.639953970171362
 21
8.303825688523335
 31
0.0
  0
LINE
  5
7CB
330
772
100
AcDbEntity
  8
10
100
AcDbLine
 10
10.80382568852345
 20
8.303825688523335
 30
0.0
 11
10.80382568852345
 21
7.454301811037624
 31
0.0
  0
LINE
  5
7CC
330
772
100
AcDbEntity
  8
10
100
AcDbLine
 10
14.00385137704678
 20
8.500000000000001
 30
0.0
 11
14.20002568852345
 21
8.500000000000001
 31
0.0
  0
LINE
  5
7CD
330
772
100
AcDbEntity
  8
10
100
AcDbLine
 10
14.20002568852344
 20
8.500000000000001
 30
0.0
 11
14.20002568852344
 21
8.303825688523339
 31
0.0
  0
MTEXT
  5
7CE
330
772
100
AcDbEntity
  8
10
 62
     7
100
AcDbMText
 10
7.825787782870921
 20
1.484327851128144
 30
0.0
 40
0.045
 41
0.0
 71
     2
 72
     5
  1
{\fArial|b0|i0|c0|p34;\LTOLERANCE:\P\P\l  .XX +/- 0.02\P .XXX +/- 0.005\P.XXXX +/- 0.001\PANGLES +/- 0.5 DEG\P\H0.7778x;\P\H1.286x;UNLESS OTHERWISE \PSPECIFIED}
 73
     1
 44
1.0
1001
ACAD
1000
MTEXTBEGIN
1070
    73
1070
     1
1070
    44
1040
1.0
1070
    74
1070
     0
1000
MTEXTEND
  0
MTEXT
  5
7CF
102
{ACAD_XDICTIONARY
360
1FA1
102
}
330
772
100
AcDbEntity
  8
10
 62
     7
100
AcDbMText
 10
8.534103697292026
 20
1.023538202411762
 30
0.0
 40
0.05
 41
2.061478375197692
 71
     1
 72
     5
  1
{\fArial|b0|i0|c0|p34;P.O. BOX 496        BEAVER, PA 15009         \C256;www.c3controls.com}
 73
     1
 44
1.0
1001
ACAD
1000
MTEXTBEGIN
1070
    73
1070
     1
1070
    44
1040
1.0
1070
    74
1070
     0
1000
MTEXTEND
  0
IMAGE
  5
7D0
330
772
100
AcDbEntity
  8
10
 92
      140
310
8C000000010000008400000006000000050000001D4DB43CD40D2140EA516FE0E8D0F03F00000000000000001D4DB43CD40D21409E88EA39A15FF73F0000000000000000A5DE49F1B31D25409E88EA39A15FF73F0000000000000000A5DE49F1B31D2540EA516FE0E8D0F03F00000000000000001D4DB43CD40D2140EA516F
310
E0E8D0F03F0000000000000000
100
AcDbRasterImage
 90
        0
 10
8.527009865769793
 20
1.051003338526351
 30
0.0
 11
0.0091076395148456
 21
0.0
 31
0.0
 12
0.0
 22
0.0091076395148456
 32
0.0
 13
223.0
 23
45.0
340
7EE
 70
     7
280
     0
281
    50
282
    50
283
     0
360
7D1
 71
     1
 91
        2
 14
-0.5
 24
-0.5
 14
222.5
 24
44.5
  0
LINE
  5
7D2
330
772
100
AcDbEntity
  8
10
100
AcDbLine
 10
8.303825688523446
 20
0.9461743114766555
 30
0.0
 11
10.80382568852344
 21
0.9461743114766555
 31
0.0
  0
MTEXT
  5
7D3
330
772
100
AcDbEntity
  8
10
100
AcDbMText
 10
7.810416917469382
 20
0.4951779088847244
 30
0.0
 40
0.05
 41
0.9934087710540634
 71
     5
 72
     5
  1
{\fArial|b0|i0|c0|p34;\C7;This drawing is the property of \C5;c3\C7;controls.  The drawing may not be copied, used or disclosed, for any purpose except as authorized in writing by \C5;c3\C7;controls.}
  7
ADESK1
 73
     1
 44
1.0
1001
ACAD
1000
MTEXTBEGIN
1070
    73
1070
     1
1070
    44
1040
1.0
1070
    74
1070
     0
1000
MTEXTEND
  0
LINE
  5
7D4
330
772
100
AcDbEntity
  8
10
100
AcDbLine
 10
10.80382568852344
 20
0.4461743114766557
 30
0.0
 11
8.303825688523446
 21
0.4461743114766557
 31
0.0
  0
LINE
  5
7D5
330
772
100
AcDbEntity
  8
10
100
AcDbLine
 10
7.303825688523446
 20
0.1961743114766557
 30
0.0
 11
10.80382568852344
 21
0.1961743114766557
 31
0.0
  0
MTEXT
  5
7D6
330
772
100
AcDbEntity
  8
10
100
AcDbMText
 10
8.328668770674212
 20
0.9235976724297451
 30
0.0
 40
0.045
 41
0.4329439054016504
 71
     1
 72
     5
  1
{\fArial|b0|i0|c0|p34;\LDescription\l:}
  7
ADESK1
 73
     1
 44
1.0
1001
ACAD
1000
MTEXTBEGIN
1070
    73
1070
     1
1070
    44
1040
1.0
1070
    74
1070
     0
1000
MTEXTEND
  0
LINE
  5
7D7
330
772
100
AcDbEntity
  8
10
100
AcDbLine
 10
9.553825688523446
 20
0.1961743114766557
 30
0.0
 11
8.303825688523446
 21
0.1961743114766557
 31
0.0
  0
MTEXT
  5
7D8
330
772
100
AcDbEntity
  8
10
100
AcDbMText
 10
8.32802284328801
 20
0.2868720012243906
 30
0.0
 40
0.045
 41
0.1920968035785435
 71
     1
 72
     5
  1
{\fArial|b0|i0|c0|p34;\LDate\l:}
  7
ADESK1
 73
     1
 44
1.0
1001
ACAD
1000
MTEXTBEGIN
1070
    73
1070
     1
1070
    44
1040
1.0
1070
    74
1070
     0
1000
MTEXTEND
  0
LINE
  5
7D9
330
772
100
AcDbEntity
  8
10
100
AcDbLine
 10
8.303825688523446
 20
0.4461743114766557
 30
0.0
 11
8.303825688523446
 21
0.5711743114766557
 31
0.0
  0
MTEXT
  5
7DA
330
772
100
AcDbEntity
  8
10
100
AcDbMText
 10
8.324337016104422
 20
0.4118389523115078
 30
0.0
 40
0.045
 41
0.3748785207666998
 71
     1
 72
     5
  1
{\fArial|b0|i0|c0|p34;\LDrawn By\l:}
  7
ADESK1
 73
     1
 44
1.0
1001
ACAD
1000
MTEXTBEGIN
1070
    73
1070
     1
1070
    44
1040
1.0
1070
    74
1070
     0
1000
MTEXTEND
  0
LINE
  5
7DB
330
772
100
AcDbEntity
  8
10
100
AcDbLine
 10
7.303825688523446
 20
0.8211743114766555
 30
0.0
 11
8.303825688523446
 21
0.8211743114766555
 31
0.0
  0
MTEXT
  5
7DC
330
772
100
AcDbEntity
  8
10
100
AcDbMText
 10
9.068976160632743
 20
0.2871257996165633
 30
0.0
 40
0.045
 41
0.1651821716154203
 71
     1
 72
     5
  1
{\fArial|b0|i0|c0|p34;\LScale\l:}
  7
ADESK1
 73
     1
 44
1.0
1001
ACAD
1000
MTEXTBEGIN
1070
    73
1070
     1
1070
    44
1040
1.0
1070
    74
1070
     0
1000
MTEXTEND
  0
MTEXT
  5
7DD
330
772
100
AcDbEntity
  8
10
100
AcDbMText
 10
9.576446267369348
 20
0.4208917298119937
 30
0.0
 40
0.045
 41
0.6519284424069412
 71
     1
 72
     5
  1
{\fArial|b0|i0|c0|p34;\LDrawing Number\l:}
  7
ADESK1
 73
     1
 44
1.0
1001
ACAD
1000
MTEXTBEGIN
1070
    73
1070
     1
1070
    44
1040
1.0
1070
    74
1070
     0
1000
MTEXTEND
  0
LINE
  5
7DE
330
772
100
AcDbEntity
  8
10
100
AcDbLine
 10
7.303825688523446
 20
1.508674311476655
 30
0.0
 11
7.303825688523446
 21
0.1961743114766557
 31
0.0
  0
LINE
  5
7DF
330
772
100
AcDbEntity
  8
10
100
AcDbLine
 10
7.303825688523446
 20
1.508674311476655
 30
0.0
 11
10.80382568852344
 21
1.508674311476659
 31
0.0
  0
LINE
  5
7E0
330
772
100
AcDbEntity
  8
10
100
AcDbLine
 10
10.80382568852344
 20
1.508674311476659
 30
0.0
 11
10.80382568852344
 21
0.1961743114766557
 31
0.0
  0
LINE
  5
7E1
330
772
100
AcDbEntity
  8
10
100
AcDbLine
 10
8.303825688523446
 20
1.508674311476655
 30
0.0
 11
8.303825688523446
 21
0.1961743114766557
 31
0.0
  0
LINE
  5
7E2
330
772
100
AcDbEntity
  8
10
100
AcDbLine
 10
9.553825688523446
 20
0.4461743114766557
 30
0.0
 11
9.553825688523446
 21
0.1961743114766557
 31
0.0
  0
LINE
  5
7E3
330
772
100
AcDbEntity
  8
10
100
AcDbLine
 10
8.303825688523446
 20
0.3211743114766556
 30
0.0
 11
9.553825688523446
 21
0.3211743114766556
 31
0.0
  0
MTEXT
  5
7E4
102
{ACAD_XDICTIONARY
360
1FA3
102
}
330
772
100
AcDbEntity
  8
10
100
AcDbMText
 10
8.640777345549317
 20
0.4112478786675263
 30
0.0
 40
0.075
 41
0.8858571826804109
 71
     1
 72
     5
  1
{\fArial|b0|i0|c0|p34;  NAME}
  7
ADESK1
 73
     1
 44
1.0
1001
ACAD
1000
MTEXTBEGIN
1070
    73
1070
     1
1070
    44
1040
1.0
1070
    74
1070
     0
1000
MTEXTEND
  0
MTEXT
  5
7E5
330
772
100
AcDbEntity
  8
10
100
AcDbMText
 10
8.777374242347999
 20
0.2546743126943283
 30
0.0
 40
0.06
 41
0.5240277777777779
 71
     5
 72
     5
  1
{\fArial|b0|i0|c0|p34;MM-DD-YYYY}
  7
ADESK1
 73
     1
 44
1.0
1001
ACAD
1000
MTEXTBEGIN
1070
    73
1070
     1
1070
    44
1040
1.0
1070
    74
1070
     0
1000
MTEXTEND
  0
MTEXT
  5
7E6
330
772
100
AcDbEntity
  8
10
100
AcDbMText
 10
8.342268264633609
 20
0.8135691678395481
 30
0.0
 40
0.1
 41
2.39057925170068
 71
     1
 72
     5
  1
{\fArial|b0|i0|c0|p34;DESCRIPTION}
  7
ADESK1
 73
     1
 44
1.0
1001
ACAD
1000
MTEXTBEGIN
1070
    73
1070
     1
1070
    44
1040
1.0
1070
    74
1070
     0
1000
MTEXTEND
  0
MTEXT
  5
7E7
330
772
100
AcDbEntity
  8
10
100
AcDbMText
 10
10.21942521872159
 20
0.2688981892586812
 30
0.0
 40
0.125
 41
1.015727699530516
 71
     5
 72
     5
  1
{\fArial|b0|i0|c0|p34;XXXXXXXX}
  7
ADESK1
 73
     1
 44
1.0
1001
ACAD
1000
MTEXTBEGIN
1070
    73
1070
     1
1070
    44
1040
1.0
1070
    74
1070
     0
1000
MTEXTEND
  0
MTEXT
  5
7E8
330
772
100
AcDbEntity
  8
10
100
AcDbMText
 10
9.389563639441231
 20
0.2573750034360827
 30
0.0
 40
0.06
 41
0.1329061784897025
 71
     5
 72
     5
  1
{\fArial|b0|i0|c0|p34;1:1}
  7
ADESK1
 73
     1
 44
1.0
1001
ACAD
1000
MTEXTBEGIN
1070
    73
1070
     1
1070
    44
1040
1.0
1070
    74
1070
     0
1000
MTEXTEND
  0
LINE
  5
7E9
330
772
100
AcDbEntity
  8
10
100
AcDbLine
 10
9.053825688523446
 20
0.3211743114766556
 30
0.0
 11
9.053825688523446
 21
0.1961743114766557
 31
0.0
  0
ENDBLK
  5
7EC
330
772
100
AcDbEntity
  8
0
100
AcDbBlockEnd
  0
BLOCK
  5
1A2D
330
1A18
100
AcDbEntity
  8
0
100
AcDbBlockBegin
  2
A$C267F10F2
 70
     0
 10
0.0
 20
0.0
 30
0.0
  3
A$C267F10F2
  1

  0
LINE
  5
1A19
330
1A18
100
AcDbEntity
  8
0
100
AcDbLine
 10
34.52847366953142
 20
0.0000002463866622
 30
0.0
 11
34.52847366953074
 21
1.500000246386662
 31
0.0
  0
LINE
  5
1A1A
330
1A18
100
AcDbEntity
  8
0
100
AcDbLine
 10
9.47152606703139
 20
0.0000002463866622
 30
0.0
 11
9.47152606703139
 21
1.500000246386548
 31
0.0
  0
LINE
  5
1A1B
330
1A18
100
AcDbEntity
  8
0
100
AcDbLine
 10
-0.0000001267137577
 20
1.500000246386662
 30
0.0
 11
43.99999986327725
 21
1.500000246386775
 31
0.0
  0
LINE
  5
1A1C
330
1A18
100
AcDbEntity
  8
0
100
AcDbLine
 10
-0.0000001267137577
 20
0.0000002463866622
 30
0.0
 11
43.99999986327725
 21
0.0000002463867759
 31
0.0
  0
LINE
  5
1A1D
330
1A18
100
AcDbEntity
  8
0
100
AcDbLine
 10
-0.0000001267137577
 20
1.500000246386662
 30
0.0
 11
-0.0000001267137577
 21
0.0000002463866622
 31
0.0
  0
LINE
  5
1A1E
330
1A18
100
AcDbEntity
  8
0
100
AcDbLine
 10
43.99999986327725
 20
1.500000246386775
 30
0.0
 11
43.99999986327725
 21
0.0000002463867759
 31
0.0
  0
ELLIPSE
  5
1A1F
330
1A18
100
AcDbEntity
  8
0
100
AcDbEllipse
 10
35.68109325924638
 20
27.75142669052707
 30
0.0
 11
-0.0000000000073139
 21
0.5040871935000269
 31
0.0
210
0.0
220
0.0
230
1.0
 40
0.9941513264212986
 41
3.141592653574744
 42
9.42477796075433
  0
ELLIPSE
  5
1A20
330
1A18
100
AcDbEntity
  8
0
100
AcDbEllipse
 10
35.68109325924638
 20
27.75142669052707
 30
0.0
 11
-0.0000000000362154
 21
1.159400545050061
 31
0.0
210
0.0
220
0.0
230
1.0
 40
0.9941513264211808
 41
3.141592653558175
 42
9.424777960737761
  0
LINE
  5
1A21
330
1A18
100
AcDbEntity
  8
0
370
    15
100
AcDbLine
 10
-0.0000001267137577
 20
8.092026144026817
 30
0.0
 11
43.99999986327657
 21
8.092026144027272
 31
0.0
  0
LINE
  5
1A22
330
1A18
100
AcDbEntity
  8
0
100
AcDbLine
 10
34.52847366953142
 20
38.13562287662739
 30
0.0
 11
43.99999986327657
 21
28.60837491947803
 31
0.0
  0
LINE
  5
1A23
330
1A18
100
AcDbEntity
  8
0
100
AcDbLine
 10
-0.0000001267144398
 20
8.092026144026704
 30
0.0
 11
-0.0000001267137577
 21
28.60837491947768
 31
0.0
  0
ELLIPSE
  5
1A24
330
1A18
100
AcDbEntity
  8
0
100
AcDbEllipse
 10
8.318906477316431
 20
27.75142669052707
 30
0.0
 11
-0.0000000000362154
 21
1.159400545050061
 31
0.0
210
0.0
220
0.0
230
1.0
 40
0.9941513264211808
 41
3.141592653558175
 42
9.424777960737761
  0
ELLIPSE
  5
1A25
330
1A18
100
AcDbEntity
  8
0
100
AcDbEllipse
 10
8.318906477316431
 20
27.75142669052707
 30
0.0
 11
-0.0000000000278204
 21
0.5040871935000268
 31
0.0
210
0.0
220
0.0
230
1.0
 40
0.9941513264212986
 41
3.141592653533824
 42
9.424777960713409
  0
LINE
  5
1A26
330
1A18
100
AcDbEntity
  8
0
100
AcDbLine
 10
9.47152606703139
 20
38.13562287662739
 30
0.0
 11
-0.0000001267137577
 21
28.60837491947768
 31
0.0
  0
LINE
  5
1A27
330
1A18
100
AcDbEntity
  8
0
100
AcDbLine
 10
43.99999986327657
 20
8.092026144027386
 30
0.0
 11
43.99999986327657
 21
28.60837491947803
 31
0.0
  0
LINE
  5
1A28
330
1A18
100
AcDbEntity
  8
0
370
    15
100
AcDbLine
 10
9.47152606703139
 20
45.09202614692753
 30
0.0
 11
34.52847366953142
 21
45.09202614692753
 31
0.0
  0
LINE
  5
1A29
330
1A18
100
AcDbEntity
  8
0
100
AcDbLine
 10
34.52847366953142
 20
38.13562287662762
 30
0.0
 11
34.52847366953142
 21
45.09202614692753
 31
0.0
  0
LINE
  5
1A2A
330
1A18
100
AcDbEntity
  8
0
100
AcDbLine
 10
9.471526067032073
 20
38.13562287662796
 30
0.0
 11
9.47152606703139
 21
45.09202614692753
 31
0.0
  0
ENDBLK
  5
1A2E
330
1A18
100
AcDbEntity
  8
0
100
AcDbBlockEnd
  0
BLOCK
  5
1A68
330
1A5B
100
AcDbEntity
  8
0
100
AcDbBlockBegin
  2
*D11
 70
     1
 10
0.0
 20
0.0
 30
0.0
  3
*D11
  1

  0
LINE
  5
1F2D
330
1A5B
100
AcDbEntity
  8
0
 62
     0
370
    -2
100
AcDbLine
 10
3.950546564171204
 20
6.139769179844048
 30
0.0
 11
3.321622963801587
 21
6.139769179844048
 31
0.0
  0
LINE
  5
1F2E
330
1A5B
100
AcDbEntity
  8
0
 62
     0
370
    -2
100
AcDbLine
 10
3.950546564171204
 20
6.080714061794079
 30
0.0
 11
3.321622963801587
 21
6.080714061794079
 31
0.0
  0
LINE
  5
1F2F
330
1A5B
100
AcDbEntity
  8
0
 62
     0
370
    -2
100
AcDbLine
 10
3.501622963801587
 20
6.264769179844048
 30
0.0
 11
3.501622963801587
 21
6.389769179844048
 31
0.0
  0
LINE
  5
1F30
330
1A5B
100
AcDbEntity
  8
0
 62
     0
370
    -2
100
AcDbLine
 10
3.501622963801587
 20
5.955714061794079
 30
0.0
 11
3.501622963801587
 21
5.830714061794079
 31
0.0
  0
LINE
  5
1F31
330
1A5B
100
AcDbEntity
  8
0
 62
     0
370
    -2
100
AcDbLine
 10
3.501622963801587
 20
5.830714061794079
 30
0.0
 11
3.376622963801587
 21
5.830714061794079
 31
0.0
  0
SOLID
  5
1F32
330
1A5B
100
AcDbEntity
  8
0
 62
     0
100
AcDbTrace
 10
3.480789630468253
 20
6.264769179844048
 30
0.0
 11
3.52245629713492
 21
6.264769179844048
 31
0.0
 12
3.501622963801587
 22
6.139769179844048
 32
0.0
 13
3.501622963801587
 23
6.139769179844048
 33
0.0
  0
SOLID
  5
1F33
330
1A5B
100
AcDbEntity
  8
0
 62
     0
100
AcDbTrace
 10
3.480789630468253
 20
5.955714061794079
 30
0.0
 11
3.52245629713492
 21
5.955714061794079
 31
0.0
 12
3.501622963801587
 22
6.080714061794079
 32
0.0
 13
3.501622963801587
 23
6.080714061794079
 33
0.0
  0
MTEXT
  5
1F34
330
1A5B
100
AcDbEntity
  8
0
 62
     0
100
AcDbMText
 10
2.85596129940868
 20
6.012617199583984
 30
0.0
 40
0.18
 41
0.0
 71
     5
 72
     1
  1
\A1;1.5 mm
  7
outline drawings
 73
     1
 44
1.0
1001
ACAD
1000
MTEXTBEGIN
1070
    73
1070
     1
1070
    44
1040
1.0
1070
    74
1070
     0
1000
MTEXTEND
  0
MTEXT
  5
1F35
330
1A5B
100
AcDbEntity
  8
0
 62
     0
100
AcDbMText
 10
2.85596129940868
 20
5.625359355109224
 30
0.0
 40
0.18
 41
0.0
 71
     5
 72
     1
  1
\A1;[0.06 in]
  7
outline drawings
 73
     1
 44
1.0
1001
ACAD
1000
MTEXTBEGIN
1070
    73
1070
     1
1070
    44
1040
1.0
1070
    74
1070
     0
1000
MTEXTEND
  0
POINT
  5
1F36
330
1A5B
100
AcDbEntity
  8
Defpoints
 62
     0
100
AcDbPoint
 10
4.013046564171204
 20
6.139769179844048
 30
0.0
  0
POINT
  5
1F37
330
1A5B
100
AcDbEntity
  8
Defpoints
 62
     0
100
AcDbPoint
 10
4.013046564171204
 20
6.080714061794079
 30
0.0
  0
POINT
  5
1F38
330
1A5B
100
AcDbEntity
  8
Defpoints
 62
     0
100
AcDbPoint
 10
3.501622963801587
 20
6.080714061794079
 30
0.0
  0
ENDBLK
  5
1A69
330
1A5B
100
AcDbEntity
  8
0
100
AcDbBlockEnd
  0
BLOCK
  5
1A77
330
1A6B
100
AcDbEntity
  8
0
100
AcDbBlockBegin
  2
*D12
 70
     1
 10
0.0
 20
0.0
 30
0.0
  3
*D12
  1

  0
LINE
  5
1F5B
330
1A6B
100
AcDbEntity
  8
0
 62
     0
370
    -2
100
AcDbLine
 10
4.013046564171204
 20
6.202269179844048
 30
0.0
 11
4.013046564171204
 21
7.041727743375222
 31
0.0
  0
LINE
  5
1F5C
330
1A6B
100
AcDbEntity
  8
0
 62
     0
370
    -2
100
AcDbLine
 10
7.339818214321225
 20
6.206000669876843
 30
0.0
 11
7.339818214321225
 21
7.041727743375222
 31
0.0
  0
LINE
  5
1F5D
330
1A6B
100
AcDbEntity
  8
0
 62
     0
370
    -2
100
AcDbLine
 10
4.138046564171204
 20
6.861727743375222
 30
0.0
 11
5.11052515868687
 21
6.861727743375222
 31
0.0
  0
LINE
  5
1F5E
330
1A6B
100
AcDbEntity
  8
0
 62
     0
370
    -2
100
AcDbLine
 10
7.214818214321225
 20
6.861727743375222
 30
0.0
 11
6.24233961980556
 21
6.861727743375222
 31
0.0
  0
SOLID
  5
1F5F
330
1A6B
100
AcDbEntity
  8
0
 62
     0
100
AcDbTrace
 10
4.138046564171204
 20
6.882561076708555
 30
0.0
 11
4.138046564171204
 21
6.840894410041889
 31
0.0
 12
4.013046564171204
 22
6.861727743375222
 32
0.0
 13
4.013046564171204
 23
6.861727743375222
 33
0.0
  0
SOLID
  5
1F60
330
1A6B
100
AcDbEntity
  8
0
 62
     0
100
AcDbTrace
 10
7.214818214321225
 20
6.882561076708555
 30
0.0
 11
7.214818214321225
 21
6.840894410041889
 31
0.0
 12
7.339818214321225
 22
6.861727743375222
 32
0.0
 13
7.339818214321225
 23
6.861727743375222
 33
0.0
  0
MTEXT
  5
1F61
330
1A6B
100
AcDbEntity
  8
0
 62
     0
100
AcDbMText
 10
5.676432389246215
 20
7.043630881165126
 30
0.0
 40
0.18
 41
0.0
 71
     5
 72
     1
  1
\A1;84.5 mm
  7
outline drawings
 73
     1
 44
1.0
1001
ACAD
1000
MTEXTBEGIN
1070
    73
1070
     1
1070
    44
1040
1.0
1070
    74
1070
     0
1000
MTEXTEND
  0
MTEXT
  5
1F62
330
1A6B
100
AcDbEntity
  8
0
 62
     0
100
AcDbMText
 10
5.676432389246215
 20
6.656373036690366
 30
0.0
 40
0.18
 41
0.0
 71
     5
 72
     1
  1
\A1;[3.33 in]
  7
outline drawings
 73
     1
 44
1.0
1001
ACAD
1000
MTEXTBEGIN
1070
    73
1070
     1
1070
    44
1040
1.0
1070
    74
1070
     0
1000
MTEXTEND
  0
POINT
  5
1F63
330
1A6B
100
AcDbEntity
  8
Defpoints
 62
     0
100
AcDbPoint
 10
4.013046564171204
 20
6.139769179844048
 30
0.0
  0
POINT
  5
1F64
330
1A6B
100
AcDbEntity
  8
Defpoints
 62
     0
100
AcDbPoint
 10
7.339818214321225
 20
6.143500669876843
 30
0.0
  0
POINT
  5
1F65
330
1A6B
100
AcDbEntity
  8
Defpoints
 62
     0
100
AcDbPoint
 10
7.339818214321225
 20
6.861727743375222
 30
0.0
  0
ENDBLK
  5
1A78
330
1A6B
100
AcDbEntity
  8
0
100
AcDbBlockEnd
  0
BLOCK
  5
1A86
330
1A7A
100
AcDbEntity
  8
0
100
AcDbBlockBegin
  2
*D13
 70
     1
 10
0.0
 20
0.0
 30
0.0
  3
*D13
  1

  0
LINE
  5
1F67
330
1A7A
100
AcDbEntity
  8
0
 62
     0
370
    -2
100
AcDbLine
 10
4.104257823297318
 20
3.967353986923253
 30
0.0
 11
3.147221572985589
 21
3.967353986923253
 31
0.0
  0
LINE
  5
1F68
330
1A7A
100
AcDbEntity
  8
0
 62
     0
370
    -2
100
AcDbLine
 10
3.970590007679006
 20
2.648456350473079
 30
0.0
 11
3.147221572985589
 21
2.648456350473079
 31
0.0
  0
LINE
  5
1F69
330
1A7A
100
AcDbEntity
  8
0
 62
     0
370
    -2
100
AcDbLine
 10
3.327221572985589
 20
3.842353986923253
 30
0.0
 11
3.327221572985589
 21
3.695224404714537
 31
0.0
  0
LINE
  5
1F6A
330
1A7A
100
AcDbEntity
  8
0
 62
     0
370
    -2
100
AcDbLine
 10
3.327221572985589
 20
2.773456350473079
 30
0.0
 11
3.327221572985589
 21
2.920585932681795
 31
0.0
  0
SOLID
  5
1F6B
330
1A7A
100
AcDbEntity
  8
0
 62
     0
100
AcDbTrace
 10
3.306388239652256
 20
3.842353986923253
 30
0.0
 11
3.348054906318923
 21
3.842353986923253
 31
0.0
 12
3.327221572985589
 22
3.967353986923253
 32
0.0
 13
3.327221572985589
 23
3.967353986923253
 33
0.0
  0
SOLID
  5
1F6C
330
1A7A
100
AcDbEntity
  8
0
 62
     0
100
AcDbTrace
 10
3.306388239652255
 20
2.773456350473079
 30
0.0
 11
3.348054906318922
 21
2.773456350473079
 31
0.0
 12
3.327221572985589
 22
2.648456350473079
 32
0.0
 13
3.327221572985589
 23
2.648456350473079
 33
0.0
  0
MTEXT
  5
1F6D
330
1A7A
100
AcDbEntity
  8
0
 62
     0
100
AcDbMText
 10
3.327221572985588
 20
3.489869698029681
 30
0.0
 40
0.18
 41
0.0
 71
     5
 72
     1
  1
\A1;33.5 mm
  7
outline drawings
 73
     1
 44
1.0
1001
ACAD
1000
MTEXTBEGIN
1070
    73
1070
     1
1070
    44
1040
1.0
1070
    74
1070
     0
1000
MTEXTEND
  0
MTEXT
  5
1F6E
330
1A7A
100
AcDbEntity
  8
0
 62
     0
100
AcDbMText
 10
3.327221572985588
 20
3.10255046201331
 30
0.0
 40
0.18
 41
0.0
 71
     5
 72
     1
  1
\A1;[1.32 in]
  7
outline drawings
 73
     1
 44
1.0
1001
ACAD
1000
MTEXTBEGIN
1070
    73
1070
     1
1070
    44
1040
1.0
1070
    74
1070
     0
1000
MTEXTEND
  0
POINT
  5
1F6F
330
1A7A
100
AcDbEntity
  8
Defpoints
 62
     0
100
AcDbPoint
 10
4.166757823297318
 20
3.967353986923253
 30
0.0
  0
POINT
  5
1F70
330
1A7A
100
AcDbEntity
  8
Defpoints
 62
     0
100
AcDbPoint
 10
4.033090007679007
 20
2.648456350473079
 30
0.0
  0
POINT
  5
1F71
330
1A7A
100
AcDbEntity
  8
Defpoints
 62
     0
100
AcDbPoint
 10
3.327221572985589
 20
2.648456350473079
 30
0.0
  0
ENDBLK
  5
1A87
330
1A7A
100
AcDbEntity
  8
0
100
AcDbBlockEnd
  0
ENDSEC
  0
SECTION
  2
ENTITIES
  0
LINE
  5
A5F
330
19
100
AcDbEntity
  8
10
100
AcDbLine
 10
0.1961743114766824
 20
8.303825688523339
 30
0.0
 11
10.80382568852344
 21
8.303825688523335
 31
0.0
  0
LINE
  5
A65
330
19
100
AcDbEntity
  8
10
100
AcDbLine
 10
0.1961743114766616
 20
0.1961743114766623
 30
0.0
 11
10.80382568852344
 21
0.1961743114766557
 31
0.0
  0
LINE
  5
A66
330
19
100
AcDbEntity
  8
10
100
AcDbLine
 10
0.1961743114766672
 20
8.303825688523344
 30
0.0
 11
0.1961743114766616
 21
0.1961743114766623
 31
0.0
  0
CIRCLE
  5
A67
330
19
100
AcDbEntity
  8
10
 62
     1
100
AcDbCircle
 10
0.1961743114766589
 20
0.1961743114766623
 30
0.0
 40
0.1111040097775731
  0
LINE
  5
A68
330
19
100
AcDbEntity
  8
10
100
AcDbLine
 10
0.0000000000000029
 20
0.1961743114766623
 30
0.0
 11
0.0
 21
0.0
 31
0.0
  0
LINE
  5
A69
330
19
100
AcDbEntity
  8
10
100
AcDbLine
 10
0.0
 20
0.0
 30
0.0
 11
0.1961743114766616
 21
-0.0000000000000004
 31
0.0
  0
LINE
  5
A6A
330
19
100
AcDbEntity
  8
10
100
AcDbLine
 10
0.0000000000000149
 20
8.500000000000001
 30
0.0
 11
0.1961743114766764
 21
8.500000000000001
 31
0.0
  0
LINE
  5
A6B
330
19
100
AcDbEntity
  8
10
100
AcDbLine
 10
0.0000000000000149
 20
8.500000000000001
 30
0.0
 11
0.0000000000000178
 21
8.303825688523335
 31
0.0
  0
LINE
  5
A75
330
19
100
AcDbEntity
  8
10
100
AcDbLine
 10
10.80382568852344
 20
8.303825688523335
 30
0.0
 11
10.80382568852344
 21
0.1961743114766557
 31
0.0
  0
LINE
  5
A8B
330
19
100
AcDbEntity
  8
10
100
AcDbLine
 10
10.80382568852344
 20
-0.0000000000000036
 30
0.0
 11
11.00000000000012
 21
-0.0000000000000067
 31
0.0
  0
LINE
  5
A8C
330
19
100
AcDbEntity
  8
10
100
AcDbLine
 10
11.00000000000011
 20
-0.0000000000000067
 30
0.0
 11
11.00000000000011
 21
0.196174311476657
 31
0.0
  0
LINE
  5
AB6
330
19
100
AcDbEntity
  8
10
100
AcDbLine
 10
10.80382568852344
 20
8.500000000000001
 30
0.0
 11
11.00000000000012
 21
8.500000000000001
 31
0.0
  0
LINE
  5
AB7
330
19
100
AcDbEntity
  8
10
100
AcDbLine
 10
11.00000000000011
 20
8.500000000000001
 30
0.0
 11
11.00000000000011
 21
8.303825688523339
 31
0.0
  0
MTEXT
  5
AB8
330
19
100
AcDbEntity
  8
10
 62
     7
100
AcDbMText
 10
7.825787782870921
 20
1.484327851128144
 30
0.0
 40
0.045
 41
0.0
 71
     2
 72
     5
  1
{\fArial|b0|i0|c0|p34;\LTOLERANCE:\P\P\l  .XX +/- 0.02\P .XXX +/- 0.005\P.XXXX +/- 0.001\PANGLES +/- 0.5 DEG\P\H0.7778x;\P\H1.286x;UNLESS OTHERWISE \PSPECIFIED}
 73
     1
 44
1.0
1001
ACAD
1000
MTEXTBEGIN
1070
    73
1070
     1
1070
    44
1040
1.0
1070
    74
1070
     0
1000
MTEXTEND
  0
MTEXT
  5
AB9
102
{ACAD_XDICTIONARY
360
1FA5
102
}
330
19
100
AcDbEntity
  8
10
 62
     7
100
AcDbMText
 10
8.534103697292026
 20
1.023538202411762
 30
0.0
 40
0.05
 41
2.061478375197692
 71
     1
 72
     5
  1
{\fArial|b0|i0|c0|p34;P.O. BOX 496        BEAVER, PA 15009         \C256;www.c3controls.com}
 73
     1
 44
1.0
1001
ACAD
1000
MTEXTBEGIN
1070
    73
1070
     1
1070
    44
1040
1.0
1070
    74
1070
     0
1000
MTEXTEND
  0
IMAGE
  5
ABA
330
19
100
AcDbEntity
  8
10
 92
      140
310
8C000000010000008400000006000000050000001D4DB43CD40D2140EA516FE0E8D0F03F00000000000000001D4DB43CD40D21409E88EA39A15FF73F0000000000000000A5DE49F1B31D25409E88EA39A15FF73F0000000000000000A5DE49F1B31D2540EA516FE0E8D0F03F00000000000000001D4DB43CD40D2140EA516F
310
E0E8D0F03F0000000000000000
100
AcDbRasterImage
 90
        0
 10
8.527009865769793
 20
1.051003338526351
 30
0.0
 11
0.0091076395148456
 21
0.0
 31
0.0
 12
0.0
 22
0.0091076395148456
 32
0.0
 13
223.0
 23
45.0
340
7EE
 70
     7
280
     0
281
    50
282
    50
283
     0
360
ABB
 71
     1
 91
        2
 14
-0.5
 24
-0.5
 14
222.5
 24
44.5
  0
LINE
  5
ABC
330
19
100
AcDbEntity
  8
10
100
AcDbLine
 10
8.303825688523446
 20
0.9461743114766555
 30
0.0
 11
10.80382568852344
 21
0.9461743114766555
 31
0.0
  0
MTEXT
  5
ABD
330
19
100
AcDbEntity
  8
10
100
AcDbMText
 10
7.810416917469382
 20
0.4951779088847244
 30
0.0
 40
0.05
 41
0.9934087710540634
 71
     5
 72
     5
  1
{\fArial|b0|i0|c0|p34;\C7;This drawing is the property of \C5;c3\C7;controls.  The drawing may not be copied, used or disclosed, for any purpose except as authorized in writing by \C5;c3\C7;controls.}
  7
ADESK1
 73
     1
 44
1.0
1001
ACAD
1000
MTEXTBEGIN
1070
    73
1070
     1
1070
    44
1040
1.0
1070
    74
1070
     0
1000
MTEXTEND
  0
LINE
  5
ABE
330
19
100
AcDbEntity
  8
10
100
AcDbLine
 10
10.80382568852344
 20
0.4461743114766557
 30
0.0
 11
8.303825688523446
 21
0.4461743114766557
 31
0.0
  0
LINE
  5
ABF
330
19
100
AcDbEntity
  8
10
100
AcDbLine
 10
7.303825688523446
 20
0.1961743114766557
 30
0.0
 11
10.80382568852344
 21
0.1961743114766557
 31
0.0
  0
MTEXT
  5
AC0
330
19
100
AcDbEntity
  8
10
100
AcDbMText
 10
8.328668770674212
 20
0.9235976724297451
 30
0.0
 40
0.045
 41
0.4329439054016504
 71
     1
 72
     5
  1
{\fArial|b0|i0|c0|p34;\LDescription\l:}
  7
ADESK1
 73
     1
 44
1.0
1001
ACAD
1000
MTEXTBEGIN
1070
    73
1070
     1
1070
    44
1040
1.0
1070
    74
1070
     0
1000
MTEXTEND
  0
LINE
  5
AC1
330
19
100
AcDbEntity
  8
10
100
AcDbLine
 10
9.553825688523446
 20
0.1961743114766557
 30
0.0
 11
8.303825688523446
 21
0.1961743114766557
 31
0.0
  0
MTEXT
  5
AC2
330
19
100
AcDbEntity
  8
10
100
AcDbMText
 10
8.32802284328801
 20
0.2868720012243906
 30
0.0
 40
0.045
 41
0.1920968035785435
 71
     1
 72
     5
  1
{\fArial|b0|i0|c0|p34;\LDate\l:}
  7
ADESK1
 73
     1
 44
1.0
1001
ACAD
1000
MTEXTBEGIN
1070
    73
1070
     1
1070
    44
1040
1.0
1070
    74
1070
     0
1000
MTEXTEND
  0
LINE
  5
AC3
330
19
100
AcDbEntity
  8
10
100
AcDbLine
 10
8.303825688523446
 20
0.4461743114766557
 30
0.0
 11
8.303825688523446
 21
0.5711743114766557
 31
0.0
  0
MTEXT
  5
AC4
330
19
100
AcDbEntity
  8
10
100
AcDbMText
 10
8.324337016104422
 20
0.4118389523115078
 30
0.0
 40
0.045
 41
0.3748785207666998
 71
     1
 72
     5
  1
{\fArial|b0|i0|c0|p34;\LDrawn By\l:}
  7
ADESK1
 73
     1
 44
1.0
1001
ACAD
1000
MTEXTBEGIN
1070
    73
1070
     1
1070
    44
1040
1.0
1070
    74
1070
     0
1000
MTEXTEND
  0
LINE
  5
AC5
330
19
100
AcDbEntity
  8
10
100
AcDbLine
 10
7.303825688523446
 20
0.8211743114766555
 30
0.0
 11
8.303825688523446
 21
0.8211743114766555
 31
0.0
  0
MTEXT
  5
AC6
330
19
100
AcDbEntity
  8
10
100
AcDbMText
 10
9.068976160632743
 20
0.2871257996165633
 30
0.0
 40
0.045
 41
0.1651821716154203
 71
     1
 72
     5
  1
{\fArial|b0|i0|c0|p34;\LScale\l:}
  7
ADESK1
 73
     1
 44
1.0
1001
ACAD
1000
MTEXTBEGIN
1070
    73
1070
     1
1070
    44
1040
1.0
1070
    74
1070
     0
1000
MTEXTEND
  0
MTEXT
  5
AC7
330
19
100
AcDbEntity
  8
10
100
AcDbMText
 10
9.576446267369348
 20
0.4208917298119937
 30
0.0
 40
0.045
 41
0.6519284424069412
 71
     1
 72
     5
  1
{\fArial|b0|i0|c0|p34;\LDrawing Number\l:}
  7
ADESK1
 73
     1
 44
1.0
1001
ACAD
1000
MTEXTBEGIN
1070
    73
1070
     1
1070
    44
1040
1.0
1070
    74
1070
     0
1000
MTEXTEND
  0
LINE
  5
AC8
330
19
100
AcDbEntity
  8
10
100
AcDbLine
 10
7.303825688523446
 20
1.508674311476655
 30
0.0
 11
7.303825688523446
 21
0.1961743114766557
 31
0.0
  0
LINE
  5
AC9
330
19
100
AcDbEntity
  8
10
100
AcDbLine
 10
7.303825688523446
 20
1.508674311476655
 30
0.0
 11
10.80382568852344
 21
1.508674311476659
 31
0.0
  0
LINE
  5
ACA
330
19
100
AcDbEntity
  8
10
100
AcDbLine
 10
10.80382568852344
 20
1.508674311476659
 30
0.0
 11
10.80382568852344
 21
0.1961743114766557
 31
0.0
  0
LINE
  5
ACB
330
19
100
AcDbEntity
  8
10
100
AcDbLine
 10
8.303825688523446
 20
1.508674311476655
 30
0.0
 11
8.303825688523446
 21
0.1961743114766557
 31
0.0
  0
LINE
  5
ACC
330
19
100
AcDbEntity
  8
10
100
AcDbLine
 10
9.553825688523446
 20
0.4461743114766557
 30
0.0
 11
9.553825688523446
 21
0.1961743114766557
 31
0.0
  0
LINE
  5
ACD
330
19
100
AcDbEntity
  8
10
100
AcDbLine
 10
8.303825688523446
 20
0.3211743114766556
 30
0.0
 11
9.553825688523446
 21
0.3211743114766556
 31
0.0
  0
MTEXT
  5
ACE
102
{ACAD_XDICTIONARY
360
1FA7
102
}
330
19
100
AcDbEntity
  8
10
100
AcDbMText
 10
8.640777345549317
 20
0.4112478786675263
 30
0.0
 40
0.075
 41
0.8858571826804109
 71
     1
 72
     5
  1
{\fArial|b0|i0|c0|p34;  P. DAMESIMO}
  7
ADESK1
 73
     1
 44
1.0
1001
ACAD
1000
MTEXTBEGIN
1070
    73
1070
     1
1070
    44
1040
1.0
1070
    74
1070
     0
1000
MTEXTEND
  0
MTEXT
  5
ACF
330
19
100
AcDbEntity
  8
10
100
AcDbMText
 10
8.777374242347999
 20
0.2546743126943283
 30
0.0
 40
0.06
 41
0.5240277777777779
 71
     5
 72
     5
  1
{\fArial|b0|i0|c0|p34;01-04-2006}
  7
ADESK1
 73
     1
 44
1.0
1001
ACAD
1000
MTEXTBEGIN
1070
    73
1070
     1
1070
    44
1040
1.0
1070
    74
1070
     0
1000
MTEXTEND
  0
MTEXT
  5
AD0
330
19
100
AcDbEntity
  8
10
100
AcDbMText
 10
8.342268264633609
 20
0.8135691678395481
 30
0.0
 40
0.1
 41
2.461557423889835
 71
     1
 72
     5
  1
{\fArial|b0|i0|c0|p34;WTB2S-PPW4-12 OUTLINE DIMENSION DRAWING}
  7
ADESK1
 73
     1
 44
1.0
1001
ACAD
1000
MTEXTBEGIN
1070
    73
1070
     1
1070
    44
1040
1.0
1070
    74
1070
     0
1000
MTEXTEND
  0
MTEXT
  5
AD1
330
19
100
AcDbEntity
  8
10
100
AcDbMText
 10
10.21942521872159
 20
0.2688981892586812
 30
0.0
 40
0.125
 41
1.015727699530516
 71
     5
 72
     5
  1
{\fArial|b0|i0|c0|p34;25T30064}
  7
ADESK1
 73
     1
 44
1.0
1001
ACAD
1000
MTEXTBEGIN
1070
    73
1070
     1
1070
    44
1040
1.0
1070
    74
1070
     0
1000
MTEXTEND
  0
MTEXT
  5
AD2
330
19
100
AcDbEntity
  8
10
100
AcDbMText
 10
9.389563639441231
 20
0.2573750034360827
 30
0.0
 40
0.06
 41
0.1329061784897025
 71
     5
 72
     5
  1
{\fArial|b0|i0|c0|p34;1:1}
  7
ADESK1
 73
     1
 44
1.0
1001
ACAD
1000
MTEXTBEGIN
1070
    73
1070
     1
1070
    44
1040
1.0
1070
    74
1070
     0
1000
MTEXTEND
  0
LINE
  5
AD3
330
19
100
AcDbEntity
  8
10
100
AcDbLine
 10
9.053825688523446
 20
0.3211743114766556
 30
0.0
 11
9.053825688523446
 21
0.1961743114766557
 31
0.0
  0
DIMENSION
  5
1A5A
330
19
100
AcDbEntity
  8
0
100
AcDbDimension
  2
*D11
 10
3.501622963801587
 20
6.080714061794079
 30
0.0
 11
2.85596129940868
 21
5.83071406179408
 31
0.0
 70
    32
  1
<>[]
 71
     5
 42
1.499999998469206
  3
Outline Drawings
100
AcDbAlignedDimension
 13
4.013046564171204
 23
6.139769179844048
 33
0.0
 14
4.013046564171204
 24
6.080714061794079
 34
0.0
 50
90.0
100
AcDbRotatedDimension
1001
ACAD
1000
DSTYLE
1002
{
1070
   271
1070
     1
1002
}
  0
DIMENSION
  5
1A6A
330
19
100
AcDbEntity
  8
0
100
AcDbDimension
  2
*D12
 10
7.339818214321225
 20
6.861727743375222
 30
0.0
 11
5.676432389246215
 21
6.861727743375222
 31
0.0
 70
    32
  1
<>[]
 71
     5
 42
84.49999991381053
  3
Outline Drawings
100
AcDbAlignedDimension
 13
4.013046564171204
 23
6.139769179844048
 33
0.0
 14
7.339818214321225
 24
6.143500669876843
 34
0.0
100
AcDbRotatedDimension
1001
ACAD
1000
DSTYLE
1002
{
1070
   271
1070
     1
1002
}
  0
DIMENSION
  5
1A79
330
19
100
AcDbEntity
  8
0
100
AcDbDimension
  2
*D13
 10
3.327221572985589
 20
2.648456350473079
 30
0.0
 11
3.327221572985588
 21
3.307905168698167
 31
0.0
 70
    32
  1
<>[]
 71
     5
 42
33.49999996583442
  3
Outline Drawings
100
AcDbAlignedDimension
 13
4.166757823297318
 23
3.967353986923253
 33
0.0
 14
4.033090007679007
 24
2.648456350473079
 34
0.0
 50
90.0
100
AcDbRotatedDimension
1001
ACAD
1000
DSTYLE
1002
{
1070
   271
1070
     1
1002
}
  0
LINE
  5
1EFD
330
19
100
AcDbEntity
  8
0
100
AcDbLine
 10
7.319774770813424
 20
2.648456350473079
 30
0.0
 11
4.033090007679007
 21
2.648456350473079
 31
0.0
  0
LINE
  5
1EFE
330
19
100
AcDbEntity
  8
0
100
AcDbLine
 10
7.186106955195114
 20
3.967353986923026
 30
0.0
 11
4.166757823297317
 21
3.967353986923253
 31
0.0
  0
LINE
  5
1EFF
330
19
100
AcDbEntity
  8
0
100
AcDbLine
 10
7.339513188305332
 20
3.453055435026808
 30
0.0
 11
7.193675944919291
 21
3.961650344061435
 31
0.0
  0
ARC
  5
1F00
330
19
100
AcDbEntity
  8
0
100
AcDbCircle
 10
7.186106955195114
 20
3.959479971183181
 30
0.0
 40
0.00787401574
100
AcDbArc
 50
16.00000000000301
 51
90.0
  0
CIRCLE
  5
1F01
330
19
100
AcDbEntity
  8
0
100
AcDbCircle
 10
7.162652860171206
 20
3.14845634996308
 30
0.0
 40
0.037401574765
  0
LINE
  5
1F02
330
19
100
AcDbEntity
  8
0
100
AcDbLine
 10
7.339818214321226
 20
3.450885062148554
 30
0.0
 11
7.339818214321226
 21
2.724296133841416
 31
0.0
  0
ARC
  5
1F03
330
19
100
AcDbEntity
  8
0
100
AcDbCircle
 10
7.331944198581155
 20
3.450885062148554
 30
0.0
 40
0.00787401574
100
AcDbArc
 50
0.0
 51
16.00000000000301
  0
LINE
  5
1F04
330
19
100
AcDbEntity
  8
0
100
AcDbLine
 10
7.33954991374118
 20
2.722258188606328
 30
0.0
 11
7.319774770813424
 21
2.648456350473079
 31
0.0
  0
ARC
  5
1F05
330
19
100
AcDbEntity
  8
0
100
AcDbCircle
 10
7.331944198581155
 20
2.724296133841416
 30
0.0
 40
0.00787401574
100
AcDbArc
 50
345.0000000000056
 51
0.0
  0
CIRCLE
  5
1F06
330
19
100
AcDbEntity
  8
0
100
AcDbCircle
 10
6.487456010466317
 20
2.748850051158196
 30
0.0
 40
0.037401574765
  0
CIRCLE
  5
1F07
330
19
100
AcDbEntity
  8
0
100
AcDbCircle
 10
4.928400893946232
 20
3.550031152703095
 30
0.0
 40
0.037401574765
  0
LINE
  5
1F08
330
19
100
AcDbEntity
  8
0
100
AcDbLine
 10
4.013351590187099
 20
3.453055435027035
 30
0.0
 11
4.159188833573139
 21
3.961650344061435
 31
0.0
  0
ARC
  5
1F09
330
19
100
AcDbEntity
  8
0
100
AcDbCircle
 10
4.166757823297317
 20
3.959479971183181
 30
0.0
 40
0.00787401574
100
AcDbArc
 50
90.0
 51
163.999999999997
  0
CIRCLE
  5
1F0A
330
19
100
AcDbEntity
  8
0
100
AcDbCircle
 10
4.190211918321224
 20
3.14845634996308
 30
0.0
 40
0.037401574765
  0
LINE
  5
1F0B
330
19
100
AcDbEntity
  8
0
100
AcDbLine
 10
4.013046564171204
 20
3.450246055629886
 30
0.0
 11
4.013046564171204
 21
2.724296133841189
 31
0.0
  0
LINE
  5
1F0C
330
19
100
AcDbEntity
  8
0
100
AcDbLine
 10
4.013046564171204
 20
3.450885062148781
 30
0.0
 11
4.013046564171204
 21
2.724296133841189
 31
0.0
  0
ARC
  5
1F0D
330
19
100
AcDbEntity
  8
0
100
AcDbCircle
 10
4.020920579911276
 20
3.450885062148781
 30
0.0
 40
0.00787401574
100
AcDbArc
 50
163.999999999997
 51
180.0
  0
LINE
  5
1F0E
330
19
100
AcDbEntity
  8
0
100
AcDbLine
 10
4.013314864751251
 20
2.722258188606328
 30
0.0
 11
4.033090007679007
 21
2.648456350473079
 31
0.0
  0
ARC
  5
1F0F
330
19
100
AcDbEntity
  8
0
100
AcDbCircle
 10
4.020920579911049
 20
2.724296133841189
 30
0.0
 40
0.00787401574
100
AcDbArc
 50
180.0
 51
194.9999999999944
  0
LINE
  5
1F10
330
19
100
AcDbEntity
  8
0
100
AcDbLine
 10
4.013046564171204
 20
6.139769179844048
 30
0.0
 11
7.339818214321226
 21
6.139769179844048
 31
0.0
  0
LINE
  5
1F11
330
19
100
AcDbEntity
  8
0
100
AcDbLine
 10
4.166757823297317
 20
6.139769179844048
 30
0.0
 11
4.166757823297317
 21
6.080714061794079
 31
0.0
  0
LINE
  5
1F12
330
19
100
AcDbEntity
  8
0
100
AcDbLine
 10
7.186106955195114
 20
6.139769179844048
 30
0.0
 11
7.186106955195114
 21
6.080714061794079
 31
0.0
  0
LINE
  5
1F13
330
19
100
AcDbEntity
  8
0
100
AcDbLine
 10
4.013046564171204
 20
6.080714061794079
 30
0.0
 11
7.339818214321226
 21
6.080714061794079
 31
0.0
  0
LINE
  5
1F14
330
19
100
AcDbEntity
  8
0
100
AcDbLine
 10
4.013046564171204
 20
6.139769179844048
 30
0.0
 11
4.013046564171204
 21
6.080714061794079
 31
0.0
  0
LINE
  5
1F15
330
19
100
AcDbEntity
  8
0
100
AcDbLine
 10
7.339818214321226
 20
6.139769179844048
 30
0.0
 11
7.339818214321226
 21
6.080714061794079
 31
0.0
  0
VIEWPORT
  5
BA
102
{ACAD_XDICTIONARY
360
1F9C
102
}
330
16
100
AcDbEntity
 67
     1
  8
0
100
AcDbViewport
 10
5.249999639556164
 20
6.140308632623733
 30
0.0
 40
11.99666166085311
 41
13.27361724380106
 68
     1
 69
     1
 12
5.249999639556164
 22
6.140308632623733
 13
0.0
 23
0.0
 14
0.5
 24
0.5
 15
0.5
 25
0.5
 16
0.0
 26
0.0
 36
1.0
 17
0.0
 27
0.0
 37
0.0
 42
50.0
 43
0.0
 44
0.0
 45
13.27361724380106
 50
0.0
 51
0.0
 72
   100
 90
    32800
  1

281
     0
 71
     1
 74
     0
110
0.0
120
0.0
130
0.0
111
1.0
121
0.0
131
0.0
112
0.0
122
1.0
132
0.0
 79
     0
146
0.0
  0
ENDSEC
  0
SECTION
  2
OBJECTS
  0
DICTIONARY
  5
C
330
0
100
AcDbDictionary
281
     1
  3
ACAD_COLOR
350
3F8
  3
ACAD_GROUP
350
D
  3
ACAD_IMAGE_DICT
350
7ED
  3
ACAD_IMAGE_VARS
350
7F4
  3
ACAD_LAYOUT
350
150
  3
ACAD_MATERIAL
350
3F7
  3
ACAD_MLINESTYLE
350
E
  3
ACAD_PLOTSETTINGS
350
151
  3
ACAD_PLOTSTYLENAME
350
14E
  3
ACAD_TABLESTYLE
350
3F9
  3
ACDBHEADERROUNDTRIPXREC
350
1F9B
  3
ACDBVARIABLEDICTIONARY
350
FA
  3
AcmDictionary
350
189
  3
AMG
350
158
  3
AMGSNAPSETTINGS
350
1BA
  3
DWGPROPS
350
1F9A
  3
MAPISURF_MODULE
350
2A1
  0
DICTIONARY
  5
44C
330
2
100
AcDbDictionary
280
     1
281
     1
  3
ACAD_LAYERSTATES
360
44D
  0
DICTIONARY
  5
11F
330
19
100
AcDbDictionary
280
     1
281
     1
  3
ACAD_INDEX
360
120
  3
ACAD_SORTENTS
360
AD4
  0
DICTIONARY
  5
7EA
330
772
100
AcDbDictionary
280
     1
281
     1
  0
DICTIONARY
  5
1A2B
330
1A18
100
AcDbDictionary
280
     1
281
     1
  3
ACAD_SORTENTS
360
1A2C
  0
DICTIONARY
  5
1FA1
330
7CF
100
AcDbDictionary
280
     1
281
     1
  3
ACAD_MTEXT_RT
360
1FA2
  0
IMAGEDEF_REACTOR
  5
7D1
330
7D0
100
AcDbRasterImageDefReactor
 90
        2
330
7D0
  0
DICTIONARY
  5
1FA3
330
7E4
100
AcDbDictionary
280
     1
281
     1
  3
ACAD_MTEXT_RT
360
1FA4
  0
DICTIONARY
  5
1FA5
330
AB9
100
AcDbDictionary
280
     1
281
     1
  3
ACAD_MTEXT_RT
360
1FA6
  0
IMAGEDEF_REACTOR
  5
ABB
330
ABA
100
AcDbRasterImageDefReactor
 90
        2
330
ABA
  0
DICTIONARY
  5
1FA7
330
ACE
100
AcDbDictionary
280
     1
281
     1
  3
ACAD_MTEXT_RT
360
1FA8
  0
DICTIONARY
  5
1F9C
330
BA
100
AcDbDictionary
280
     1
281
     1
  3
ACAD_XREC_ROUNDTRIP
360
1F9D
  0
DICTIONARY
  5
3F8
102
{ACAD_REACTORS
330
C
102
}
330
C
100
AcDbDictionary
281
     1
  0
DICTIONARY
  5
D
102
{ACAD_REACTORS
330
C
102
}
330
C
100
AcDbDictionary
281
     1
  0
DICTIONARY
  5
7ED
102
{ACAD_REACTORS
330
C
102
}
330
C
100
AcDbDictionary
281
     1
  3
c3 logo
350
7EE
  0
RASTERVARIABLES
  5
7F4
102
{ACAD_REACTORS
330
C
102
}
330
C
100
AcDbRasterVariables
 90
        0
 70
     1
 71
     1
 72
     5
  0
DICTIONARY
  5
150
102
{ACAD_REACTORS
330
C
102
}
330
C
100
AcDbDictionary
281
     1
  3
Layout1
350
153
  3
Model
350
152
  0
DICTIONARY
  5
3F7
102
{ACAD_REACTORS
330
C
102
}
330
C
100
AcDbDictionary
281
     1
  0
DICTIONARY
  5
E
102
{ACAD_REACTORS
330
C
102
}
330
C
100
AcDbDictionary
281
     1
  3
STANDARD
350
1C
  0
DICTIONARY
  5
151
102
{ACAD_REACTORS
330
C
102
}
330
C
100
AcDbDictionary
281
     1
  0
ACDBDICTIONARYWDFLT
  5
14E
102
{ACAD_REACTORS
330
C
102
}
330
C
100
AcDbDictionary
281
     1
  3
Normal
350
14F
100
AcDbDictionaryWithDefault
340
14F
  0
DICTIONARY
  5
3F9
102
{ACAD_REACTORS
330
C
102
}
330
C
100
AcDbDictionary
281
     1
  3
Standard
350
3FA
  0
DICTIONARY
  5
1F9B
102
{ACAD_REACTORS
330
C
102
}
330
C
100
AcDbDictionary
281
     1
  0
DICTIONARY
  5
FA
102
{ACAD_REACTORS
330
C
102
}
330
C
100
AcDbDictionary
281
     1
  3
CTABLESTYLE
350
429
  3
DIMASSOC
350
3F5
  3
INDEXCTL
350
FB
  3
PROJECTNAME
350
1F98
  0
DICTIONARY
  5
189
102
{ACAD_REACTORS
330
C
102
}
330
C
100
AcDbDictionary
281
     1
  3
AcmStdDictionary
350
2C1
  3
AMDTSECTSYM_ARROWCOLOR
350
402
  0
DICTIONARY
  5
158
102
{ACAD_REACTORS
330
C
102
}
330
C
100
AcDbDictionary
281
     1
  3
AcMgSettings
350
159
  0
DICTIONARY
  5
1BA
102
{ACAD_REACTORS
330
C
102
}
330
C
100
AcDbDictionary
281
     1
  3
DIMENSION
350
1BE
  3
FEA
350
1BD
  3
HATCH
350
1BB
  3
SYMBOLS
350
1BC
  0
XRECORD
  5
1F9A
102
{ACAD_REACTORS
330
C
102
}
330
C
100
AcDbXrecord
280
     1
  1
DWGPROPS COOKIE
  2

  3

  4

  6

  7

  8

  9

300
AmdtFileType=84
301
=
302
=
303
=
304
=
305
=
306
=
307
=
308
=
309
=
 40
0.1560687962962963
 41
2453740.440044271
 42
2453854.490731679
  1

 90
        1
  0
DICTIONARY
  5
44D
102
{ACAD_REACTORS
330
44C
102
}
330
44C
100
AcDbDictionary
281
     1
  0
DICTIONARY
  5
120
102
{ACAD_REACTORS
330
11F
102
}
330
11F
100
AcDbDictionary
281
     1
  3
*A1
350
121
  0
SORTENTSTABLE
  5
AD4
102
{ACAD_REACTORS
330
11F
102
}
330
11F
100
AcDbSortentsTable
330
19
331
AC4
  5
8E6
331
ACE
  5
8F2
331
A67
  5
888
331
ABF
  5
8E1
331
ABA
  5
8DD
331
AD3
  5
8F7
331
A8B
  5
8AC
331
AC9
  5
8ED
331
AC5
  5
8E7
331
ACF
  5
8F3
331
A68
  5
889
331
AB6
  5
8D7
331
A8C
  5
8AD
331
ACA
  5
8EE
331
AC0
  5
8E2
331
AC6
  5
8E8
331
A5F
  5
880
331
AB7
  5
8D9
331
ABC
  5
8DE
331
A69
  5
88A
331
AD0
  5
8F4
331
ACB
  5
8EF
331
AC1
  5
8E3
331
AC7
  5
8E9
331
ACC
  5
8F0
331
A65
  5
886
331
ABD
  5
8DF
331
A6A
  5
88B
331
AB8
  5
8DB
331
AD1
  5
8F5
331
AC2
  5
8E4
331
A75
  5
896
331
ACD
  5
8F1
331
A66
  5
887
331
ABE
  5
8E0
331
A6B
  5
88C
331
AB9
  5
8DC
331
AD2
  5
8F6
331
AC8
  5
8EB
331
AC3
  5
8E5
  0
SORTENTSTABLE
  5
1A2C
102
{ACAD_REACTORS
330
1A2B
102
}
330
1A2B
100
AcDbSortentsTable
330
1A18
  0
XRECORD
  5
1FA2
102
{ACAD_REACTORS
330
1FA1
102
}
330
1FA1
100
AcDbXrecord
280
     1
 40
303599.0
  1
{\fArial|b0|i0|c0|p34;P.O. BOX 496^IBEAVER, PA 15009^I\C256;www.c3controls.com}
  0
XRECORD
  5
1FA4
102
{ACAD_REACTORS
330
1FA3
102
}
330
1FA3
100
AcDbXrecord
280
     1
 40
34575.0
  1
\pl0.075;{\fArial|b0|i0|c0|p34;NAME}
  0
XRECORD
  5
1FA6
102
{ACAD_REACTORS
330
1FA5
102
}
330
1FA5
100
AcDbXrecord
280
     1
 40
303599.0
  1
{\fArial|b0|i0|c0|p34;P.O. BOX 496^IBEAVER, PA 15009^I\C256;www.c3controls.com}
  0
XRECORD
  5
1FA8
102
{ACAD_REACTORS
330
1FA7
102
}
330
1FA7
100
AcDbXrecord
280
     1
 40
50545.0
  1
\pl0.075;{\fArial|b0|i0|c0|p34;P. DAMESIMO}
  0
XRECORD
  5
1F9D
102
{ACAD_REACTORS
330
1F9C
102
}
330
1F9C
100
AcDbXrecord
280
     1
102
SHADEPLOT
 70
     0
  0
IMAGEDEF
  5
7EE
102
{ACAD_REACTORS
330
7ED
330
7D1
330
ABB
102
}
330
7ED
100
AcDbRasterImageDef
 90
        0
  1
K:\Archive- EngrDwgs\Borders\Title Blocks\c3 logo Size A.bmp
 10
223.0
 20
45.0
 11
0.264550269889837
 21
0.264550269889837
280
     1
281
     2
  0
LAYOUT
  5
153
102
{ACAD_XDICTIONARY
360
44F
102
}
102
{ACAD_REACTORS
330
150
102
}
330
150
100
AcDbPlotSettings
  1

  2
none_device
  4
Letter_(8.50_x_11.00_Inches)
  6

 40
6.349999904632568
 41
6.349999904632568
 42
6.350006103515625
 43
6.350006103515625
 44
215.8999938964844
 45
279.3999938964844
 46
0.0
 47
0.0
 48
0.0
 49
0.0
140
0.0
141
0.0
142
1.0
143
1.0
 70
   688
 72
     0
 73
     1
 74
     5
  7

 75
     0
147
1.0
148
0.0
149
0.0
100
AcDbLayout
  1
Layout1
 70
     1
 71
     1
 10
-0.2500002402958907
 20
-0.2499999962453767
 11
10.74999951940821
 21
8.249999763458731
 12
0.0
 22
0.0
 32
0.0
 14
1.000000000000000E+20
 24
1.000000000000000E+20
 34
1.000000000000000E+20
 15
-1.000000000000000E+20
 25
-1.000000000000000E+20
 35
-1.000000000000000E+20
146
0.0
 13
0.0
 23
0.0
 33
0.0
 16
1.0
 26
0.0
 36
0.0
 17
0.0
 27
1.0
 37
0.0
 76
     0
330
16
331
BA
  0
LAYOUT
  5
152
102
{ACAD_XDICTIONARY
360
1F9E
102
}
102
{ACAD_REACTORS
330
150
102
}
330
150
100
AcDbPlotSettings
  1

  2
\\NOVIBDC\HPLJ4-TPUB
  4

  6

 40
0.0
 41
0.0
 42
0.0
 43
0.0
 44
0.0
 45
0.0
 46
0.0
 47
0.0
 48
0.0
 49
0.0
140
0.0
141
0.0
142
1.0
143
1.0
 70
  1712
 72
     0
 73
     0
 74
     0
  7

 75
     0
147
1.0
148
0.0
149
0.0
100
AcDbLayout
  1
Model
 70
     1
 71
     0
 10
0.0
 20
0.0
 11
12.0
 21
9.0
 12
0.0
 22
0.0
 32
0.0
 14
0.0
 24
0.0
 34
0.0
 15
0.0
 25
0.0
 35
0.0
146
0.0
 13
0.0
 23
0.0
 33
0.0
 16
1.0
 26
0.0
 36
0.0
 17
0.0
 27
1.0
 37
0.0
 76
     0
330
19
  0
MLINESTYLE
  5
1C
102
{ACAD_REACTORS
330
E
102
}
330
E
100
AcDbMlineStyle
  2
STANDARD
 70
     0
  3

 62
     0
 51
90.0
 52
90.0
 71
     2
 49
0.5
 62
   256
  6
BYLAYER
 49
-0.5
 62
   256
  6
BYLAYER
  0
ACDBPLACEHOLDER
  5
14F
102
{ACAD_REACTORS
330
14E
102
}
330
14E
  0
TABLESTYLE
  5
3FA
102
{ACAD_REACTORS
330
3F9
102
}
330
3F9
100
AcDbTableStyle
  3
Standard
 70
     0
 71
     0
 40
0.06
 41
0.06
280
     0
281
     0
  7
STANDARD
140
0.18
170
     2
 62
     0
 63
     7
283
     0
274
    -2
284
     1
 64
     0
275
    -2
285
     1
 65
     0
276
    -2
286
     1
 66
     0
277
    -2
287
     1
 67
     0
278
    -2
288
     1
 68
     0
279
    -2
289
     1
 69
     0
  7
STANDARD
140
0.25
170
     5
 62
     0
 63
     7
283
     0
274
    -2
284
     1
 64
     0
275
    -2
285
     1
 65
     0
276
    -2
286
     1
 66
     0
277
    -2
287
     1
 67
     0
278
    -2
288
     1
 68
     0
279
    -2
289
     1
 69
     0
  7
STANDARD
140
0.18
170
     5
 62
     0
 63
     7
283
     0
274
    -2
284
     1
 64
     0
275
    -2
285
     1
 65
     0
276
    -2
286
     1
 66
     0
277
    -2
287
     1
 67
     0
278
    -2
288
     1
 68
     0
279
    -2
289
     1
 69
     0
  0
DICTIONARYVAR
  5
429
102
{ACAD_REACTORS
330
FA
102
}
330
FA
100
DictionaryVariables
280
     0
  1
STANDARD
  0
DICTIONARYVAR
  5
3F5
102
{ACAD_REACTORS
330
FA
102
}
330
FA
100
DictionaryVariables
280
     0
  1
1
  0
DICTIONARYVAR
  5
FB
102
{ACAD_REACTORS
330
FA
102
}
330
FA
100
DictionaryVariables
280
     0
  1
1
  0
DICTIONARYVAR
  5
1F98
102
{ACAD_REACTORS
330
FA
102
}
330
FA
100
DictionaryVariables
280
     0
  1

  0
DICTIONARY
  5
2C1
102
{ACAD_REACTORS
330
189
102
}
330
189
100
AcDbDictionary
281
     1
  0
XRECORD
  5
402
102
{ACAD_REACTORS
330
189
102
}
330
189
100
AcDbXrecord
280
     1
 90
-1023410169
  0
DICTIONARY
  5
159
102
{ACAD_REACTORS
330
158
102
}
330
158
100
AcDbDictionary
281
     1
  3
DWGSETTINGS
350
15A
  3
Shaft
350
375
  3
TRANSSETTINGS
350
166
  0
ACAMGFILTERDAT
  5
1BE
102
{ACAD_REACTORS
330
1BA
102
}
330
1BA
100
AcAmgFilterDat
 70
    15
  1
DIMENSION,AMDT_*_DIM
  2
*
  3
*
  4
*
  5
*
290
     1
  0
ACAMGFILTERDAT
  5
1BD
102
{ACAD_REACTORS
330
1BA
102
}
330
1BA
100
AcAmgFilterDat
 70
    15
  1
*
  2
AM_FEA-AM_*
  3
*
  4
*
  5
*
290
     1
  0
ACAMGFILTERDAT
  5
1BB
102
{ACAD_REACTORS
330
1BA
102
}
330
1BA
100
AcAmgFilterDat
 70
    15
  1
HATCH
  2
*
  3
*
  4
*
  5
*
290
     1
  0
ACAMGFILTERDAT
  5
1BC
102
{ACAD_REACTORS
330
1BA
102
}
330
1BA
100
AcAmgFilterDat
 70
    15
  1
ACMFCFRAME,ACMDATUMTARGET,ACMDATUMID,ACMWELDSYM,ACMSURFSYM,ACMFEATID,ACMPARTREF,ACMBALLOON
  2
*
  3
*
  4
*
  5
*
290
     1
  0
LAYER_INDEX
  5
121
102
{ACAD_REACTORS
330
120
102
}
330
120
100
AcDbIndex
 40
2453854.490731679
100
AcDbLayerIndex
  8
0
360
122
 90
       28
  8
10
360
AD9
 90
       40
  8
L-REV
360
ADA
 90
        0
  8
L1
360
ADB
 90
        0
  8
Defpoints
360
ADC
 90
        0
  0
DICTIONARY
  5
44F
330
153
100
AcDbDictionary
280
     1
281
     1
  3
ACAD_XREC_ROUNDTRIP
360
1FA0
  3
ADSK_XREC_LAYOUTTHUMBNAIL
360
450
  0
DICTIONARY
  5
1F9E
330
152
100
AcDbDictionary
280
     1
281
     1
  3
ACAD_XREC_ROUNDTRIP
360
1F9F
  0
IDBUFFER
  5
122
330
0
100
AcDbIdBuffer
330
1F15
330
1F14
330
1F13
330
1F12
330
1F11
330
1F10
330
1F0F
330
1F0E
330
1F0D
330
1F0C
330
1F0B
330
1F0A
330
1F09
330
1F08
330
1F07
330
1F06
330
1F05
330
1F04
330
1F03
330
1F02
330
1F01
330
1F00
330
1EFF
330
1EFD
330
1EFE
330
1A79
330
1A6A
330
1A5A
  0
IDBUFFER
  5
AD9
330
0
100
AcDbIdBuffer
330
ABC
330
ABD
330
ABE
330
ABF
330
AC0
330
AC1
330
AC2
330
AC3
330
AC4
330
AC5
330
AC6
330
AC7
330
AC8
330
AC9
330
ACA
330
ACB
330
ACC
330
ACD
330
ACE
330
ACF
330
AD0
330
AD1
330
AD2
330
AD3
330
A5F
330
A65
330
A66
330
A67
330
A68
330
A69
330
A6A
330
A6B
330
A75
330
A8B
330
A8C
330
AB6
330
AB7
330
AB8
330
AB9
330
ABA
  0
IDBUFFER
  5
ADA
330
0
100
AcDbIdBuffer
  0
IDBUFFER
  5
ADB
330
0
100
AcDbIdBuffer
  0
IDBUFFER
  5
ADC
330
0
100
AcDbIdBuffer
  0
XRECORD
  5
1FA0
102
{ACAD_REACTORS
330
44F
102
}
330
44F
100
AcDbXrecord
280
     1
102
SHADEPLOT
 70
     0
102
SHADEPLOTRESLEVEL
 70
     2
102
SHADEPLOTCUSTOMDPI
 70
   300
  0
XRECORD
  5
450
102
{ACAD_REACTORS
330
44F
102
}
330
44F
100
AcDbXrecord
280
     1
310
28000000B40000008B0000000100080000000000BC61000000000000000000000001000000000000FFFFFF0000000000FFFFFF000000000000000000000000000000000000000000000000000000000000000000330000006600000099000000CC000000FF00000000330000333300006633000099330000CC330000FF3300
310
0000660000336600006666000099660000CC660000FF66000000990000339900006699000099990000CC990000FF99000000CC000033CC000066CC000099CC0000CCCC0000FFCC000000FF000033FF000066FF000099FF0000CCFF0000FFFF000000003300330033006600330099003300CC003300FF003300003333003333
310
33006633330099333300CC333300FF33330000663300336633006666330099663300CC663300FF66330000993300339933006699330099993300CC993300FF99330000CC330033CC330066CC330099CC3300CCCC3300FFCC330000FF330033FF330066FF330099FF3300CCFF3300FFFF330000006600330066006600660099
310
006600CC006600FF00660000336600333366006633660099336600CC336600FF33660000666600336666006666660099666600CC666600FF66660000996600339966006699660099996600CC996600FF99660000CC660033CC660066CC660099CC6600CCCC6600FFCC660000FF660033FF660066FF660099FF6600CCFF6600
310
FFFF660000009900330099006600990099009900CC009900FF00990000339900333399006633990099339900CC339900FF33990000669900336699006666990099669900CC669900FF66990000999900339999006699990099999900CC999900FF99990000CC990033CC990066CC990099CC9900CCCC9900FFCC990000FF99
310
0033FF990066FF990099FF9900CCFF9900FFFF99000000CC003300CC006600CC009900CC00CC00CC00FF00CC000033CC003333CC006633CC009933CC00CC33CC00FF33CC000066CC003366CC006666CC009966CC00CC66CC00FF66CC000099CC003399CC006699CC009999CC00CC99CC00FF99CC0000CCCC0033CCCC0066CC
310
CC0099CCCC00CCCCCC00FFCCCC0000FFCC0033FFCC0066FFCC0099FFCC00CCFFCC00FFFFCC000000FF003300FF006600FF009900FF00CC00FF00FF00FF000033FF003333FF006633FF009933FF00CC33FF00FF33FF000066FF003366FF006666FF009966FF00CC66FF00FF66FF000099FF003399FF006699FF009999FF00CC
310
99FF00FF99FF0000CCFF0033CCFF0066CCFF0099CCFF00CCCCFF00FFCCFF0000FFFF0033FFFF0066FFFF0099FFFF00CCFFFF00FFFFFF00000000000D0D0D001A1A1A00282828003535350043434300505050005D5D5D006B6B6B00787878008686860093939300A1A1A100AEAEAE00BBBBBB00C9C9C900D6D6D600E4E4E400
310
F1F1F100FFFFFF0000000000000000000000000000000000000000000000000000000000000000000000000000000000E2E2E2E2E2E2E2E2E2E2E2E2E2E2E2E2E2E2E2E2E2E2E2E2E2E2E2E2E2E2E2E2E2E2E2E2E2E2E2E2E2E2E2E2E2E2E2E2E2E2E2E2E2E2E2E2E2E2E2E2E2E2E2E2E2E2E2E2E2E2E2E2E2E2E2E2E2E2E2
310
E2E2E2E2E2E2E2E2E2E2E2E2E2E2E2E2E2E2E2E2E2E2E2E2E2E2E2E2E2E2E2E2E2E2E2E2E2E2E2E2E2E2E2E2E2E2E2E2E2E2E2E2E2E2E2E2E2E2E2E2E2E2E2E2E2E2E2E2E2E2E2E2E2E2E2E2E2E2E2E2E2E2E2E2E2E2E2E2E2E2E2E2E2E2E2E2E2E2E2E2E2E2F5F5F5F5F5F5F5F5F5F5F5F5F5F5F5F5F5F5F5F5F5F5F5F5F5
310
F5F5F5F5F5F5F5F5F5F5F5F5F5F5F5F5F5F5F5F5F5F5F5F5F5F5F5F5F5F5F5F5F5F5F5F5F5F5F5F5F5F5F5F5F5F5F5F5F5F5F5F5F5F5F5F5F5F5F5F5F5F5F5F5F5F5F5F5F5F5F5F5F5F5F5F5F5F5F5F5F5F5F5F5F5F5F5F5F5F5F5F5F5F5F5F5F5F5F5F5F5F5F5F5F5F5F5F5F5F5F5F5F5F5F5F5F5F5F5F5F5F5F5F5F5F5F5
310
F5F5F5F5F5F5F5F5F5F5F5F5F5F5F5F5F5F5F5F5F5F5F5F5F5F5E2E2F5F5F5F5F5F5F5F5F5F5F5F5F5F5F5F5F5F5F5F5F5F5F5F5F5F5F5F5F5F5F5F5F5F5F5F5F5F5F5F5F5F5F5F5F5F5F5F5F5F5F5F5F5F5F5F5F5F5F5F5F5F5F5F5F5F5F5F5F5F5F5F5F5F5F5F5F5F5F5F5F5F5F5F5F5F5F5F5F5F5F5F5F5F5F5F5F5F5F5
310
F5F5F5F5F5F5F5F5F5F5F5F5F5F5F5F5F5F5F5F5F5F5F5F5F5F5F5F5F5F5F5F5F5F5F5F5F5F5F5F5F5F5F5F5F5F5F5F5F5F5F5F5F5F5F5F5F5F5F5F5F5F5F5F5F5F5F5F5F5F5F5F5F5F5F5F5F5F5F5E2E2F5F5F5F5F5F5F5F5F5F5F5F5F5F5F5F5F5F5F5F5F5F5F5F5F5F5F5F5F5F5F5F5F5F5F5F5F5F5F5F5F5F5F5F5F5F5
310
F5F5F5F5F5F5F5F5F5F5F5F5F5F5F5F5F5F5F5F5F5F5F5F5F5F5F5F5F5F5F5F5F5F5F5F5F5F5F5F5F5F5F5F5F5F5F5F5F5F5F5F5F5F5F5F5F5F5F5F5F5F5F5F5F5F5F5F5F5F5F5F5F5F5F5F5F5F5F5F5F5F5F5F5F5F5F5F5F5F5F5F5F5F5F5F5F5F5F5F5F5F5F5F5F5F5F5F5F5F5F5F5F5F5F5F5F5F5F5F5F5F5F5F5F5F5F5
310
F5F5F5F5F5E2E2F5F5F5F5F5F5F5F5F5F5F5F5F5F5F5F5F5F5F5F5F5F5F5F5F5F5F5F5F5F5F5F5F5F5F5F5F5F5F5F5F5F5F5F5F5F5F5F5F5F5F5F5F5F5F5F5F5F5F5F5F5F5F5F5F5F5F5F5F5F5F5F5F5F5F5F5F5F5F5F5F5F5F5F5F5F5F5F5F5F5F5F5F5F5F5F5F5F5F5F5F5F5F5F5F5F5F5F5F5F5F5F5F5F5F5F5F5F5F5F5
310
F5F5F5F5F5F5F5F5F5F5F5F5F5F5F5F5F5F5F5F5F5F5F5F5F5F5F5F5F5F5F5F5F5F5F5F5F5F5F5F5F5F5F5F5F5F5F5F5F5F5F5F5F5F5F5F5F5F5E2E2F5F5F5E2E2E2E2E2E2E2E2F5F5F5F5F5F5F5F5F5E2E2E2E2E2E2E2E2E2E2E2E2E2E2E2E2F5F5F5F5F5F5F5F5F5E2E2E2E2E2E2E2E2E2E2E2E2E2E2E2F5F5F5F5F5F5F5
310
F5F5E2E2E2E2E2E2E2E2E2E2E2E2E2E2E2E2F5F5F5F5F5F5F5F5E2E2E2E2E2E2E2E2E2E2E2E2E2E2E2E2F5F5F5F5F5F5F5F5F5E2E2E2E2E2E2E2E2E2E2E2E2E2E2E2F5F5F5F5F5F5F5F5F5E2E2E2E2E2E2E2E2E2E2E2E2E2E2E2E2F5F5F5F5F5F5F5F5F5E2E2E2E2E2E2E2E2F5F5F5E2E2F5F5F5E2F5F5F5F5F5F5F5F5F5F5
310
F5F5F5F5F5F5F5F5F5F5F5F5F5F5F5F5F5F5F5F5F5F5F5F5F5F5F5F5F5F5F5F5F5F5F5F5F5F5F5F5F5F5F5F5F5F5F5F5F5F5F5F5F5F5F5F5F5F5F5F5F5F5F5F5F5F5F5F5F5F5F5F5F5F5F5F5F5F5F5F5F5F5F5F5F5F5F5F5F5F5F5F5F5F5F5F5F5F5F5F5F5F5F5F5F5F5F5F5F5F5F5F5F5F5F5F5F5F5F5F5F5F5F5F5F5F5F5
310
F5F5F5F5F5F5F5F5F5F5F5F5F5F5F5F5F5F5F5F5F5F5F5F5F5F5F5F5F5F5F5F5F5E2F5F5F5E2E2F5F5F5E2F5F5F5F5F5F5F5F5F5F5F5F5F5F5F5F5F5F5F5F5F5F5F5F5F5F5F5F5F5F5F5F5F5F5F5F5F5F5F5F5F5F5F5F5F5F5F5F5F5F5F5F5F5F5F5F5F5F5F5F5F5F5F5F5F5F5F5F5F5F5F5F5F5F5F5F5F5F5F5F5F5F5F5F5
310
F5F5F5F5F5F5F5F5F5F5F5F5F5F5F5F5F5F5F5F5F5F5F5F5F5F5F5F5F5F5F5F5F5F5F5F5F5F5F5F5F5F5F5F5F5F5F5F5F5F5F5F5F5F5F5F5F5F5F5F5F5F5F5F5F5F5F5F5F5F5F5F5F5F5F5F5F5F5F5F5F5F5F5F5F5F5E2F5F5F5E2E2F5F5F5E2F5F5F5F5F5F5F5F5F5F5F5F5F5F5F5F5F5F5F5F5F5F5F5F5F5F5F5F5F5F5F5
310
F5F5F5F5F5F5F5F5F5F5F5F5F5F5F5F5F5F5F5F5F5F5F5F5F5F5F5F5F5F5F5F5F5F5F5F5F5F5F5F5F5F5F5F5F5F5F5F5F5F5F5F5F5F5F5F5F5F5F5F5F5F5F5F5F5F5F5F5F5F5F5F5F5F5F5F5F5F5F5F5F5F5F5F5F5F5F5F5F5F5F5F5F5F5F5F5F5F5F5F5F5F5F5F5F5F5F5F5F5F5F5F5F5F5F5F5F5F5F5F5F5F5F5F5F5F5F5
310
F5F5F5F5F5F5F5F5F5F5F5F5E2F5F5F5E2E2F5F5F5E2F5F5F5F5F5F5F5F5F5F5F5F5F5F5F5F5F5F5F5F5F5F5F5F5F5F5F5F5F5F5F5F5F5F5F5F5F5F5F5F5F5F5F5F5F5F5F5F5F5F5F5F5F5F5F5F5F5F5F5F5F5F5F5F5F5F5F5F5F5F5F5F5F5F5F5F5F5F5F5F5F5F5F5F5F5F5F5F5F5F5F5F5F5F5F5F5F5F5F5F5F5F5F5F5F5
310
F5F5F5F5F5F5F5F5F5F5F5F5F5F5F5F5F5F5F5F5F5F5F5F5F5F5F5F5F5F5F5F5F5F5F5F5F5F5F5F5F5F5F5F5F5F5F5F5F5F5F5F5F5F5F5F5F5F5F5F5F5F5F5F5F5E2F5F5F5E2E2F5F5F5E2F5F5F5F5F5F5F5F5F5F5F5F5F5F5F5F5F5F5F5F5F5F5F5F5F5F5F5F5F5F5F5F5F5F5F5F5F5F5F5F5F5F5F5F5F5F5F5F5F5F5F5F5
310
F5F5F5F5F5F5F5F5F5F5F5F5F5F5F5F5F5F5F5F5F5F5F5F5F5F5F5F5F5F5F5F5F5F5F5F5F5F5F5F5F5F5F5F5F5F5F5F5F5F5F5F5F5F5F5F5F5F5F5F5F5F5F5F5F5F5F5F5F5F5F5F5F5F5F5F5F5F5F5F5F5F5F5F5F5F5F5F5F5F5F5F5F5F5F5F5F5F5F5F5F5F5F5F5F5F5F5F5F5F5F5F5F5F5F5F5F5F5E2F5F5F5E2E2F5F5F5
310
E2F5F5F5F5F5F5F5F5F5F5F5F5F5F5F5F5F5F5F5F5F5F5F5F5F5F5F5F5F5F5F5F5F5F5F5F5F5F5F5F5F5F5F5F5F5F5F5F5F5F5F5F5F5F5F5F5F5F5F5F5F5F5F5F5F5F5F5F5F5F5F5F5F5F5F5F5F5F5F5F5F5F5F5F5F5F5F5F5F5F5F5F5F5F5F5F5F5F5F5F5F5F5F5F5F5F5F5F5F5F5F5F5F5F5F5F5F5F5F5F5F5F5F5F5F5F5
310
F5F5F5F5F5F5F5F5F5F5F5F5F5F5F5F5F5F5F5F5F5F5F5F5F5F5F5F5F5F5F5F5F5F5F5F5F5F5F5F5F5F5F5F5E2F5F5F5E2E2F5F5F5E2F5F5F5F5F5F5F5F5F5F5F5F5F5F5F5F5F5F5F5F5F5F5F5F5F5F5F5F5F5F5F5F5F5F5F5F5F5F5F5F5F5F5F5F5F5F5F5F5F5F5F5F5F5F5F5F5F5F5F5F5F5F5F5F5F5F5F5F5F5F5F5F5F5
310
F5F5F5F5F5F5F5F5F5F5F5F5F5F5F5F5F5F5F5F5F5F5F5F5F5F5F5F5F5F5F5F5F5F5F5F5F5F5F5F5F5F5F5F5F5F5F5F5F5F5F5F5F5F5F5F5F5F5F5F5F5F5F5F5F5F5F5F5F5F5F5F5F5F5F5F5F5F5F5F5F5F5F5F5F5F5F5F5F5F5F5F5F5F5F5F5F5E2F5F5F5E2E2F5F5F5E2F5F5F5F5F5F5F5F5F5F5F5F5F5F5F5F5F5F5F5F5
310
F5F5F5F5F5F5F5F5F5F5F5F5F5F5F5F5F5F5F5F5F5F5F5F5F5F5F5F5F5F5F5F5F5F5F5F5F5F5F5F5F5F5F5F5F5F5F5F5F5F5F5F5F5F5F5F5F5F5F5F5F5F5F5F5F5F5F5F5F5F5F5F5F5F5F5F5F5F5F5F5F5F5F5F5F5F5F5F5F5F5F5F5F5F5F5F5F5F5F5F5F5F5F5F5F5F5F5F5F5F5F5F5F5F5F5F5F5F5F5F5F5F5F5F5F5F5F5
310
F5F5F5F5F5F5F5F5F5F5F5F5F5F5F5F5F5F5F5F5F5F5F5E2F5F5F5E2E2F5F5F5F5F5F5F5F5F5F5F5F5F5F5F5F5F5F5F5F5F5F5F5F5F5F5F5F5F5F5F5F5F5F5F5F5F5F5F5F5F5F5F5F5F5F5F5F5F5F5F5F5F5F5F5F5F5F5F5F5F5F5F5F5F5F5F5F5F5F5F5F5F5F5F5F5F5F5F5F5F5F5F5F5F5F5F5F5F5F5F5F5F5F5F5F5F5F5
310
F5F5F5F5F5F5F5F5F5F5F5F5F5F5F5F5F5F5F5F5F5F5F5F5F5F5F5F5F5F5F5F5F5F5F5F5F5F5F5F5F5F5F5F5F5F5F5F5F5F5F5F5F5F5F5F5F5F5F5F5F5F5F5F5F5F5F5F5F5F5F5F5F5F5F5F5F5F5F5F5E2E2F5F5F5F5F5F5F5F5F5F5F5F5F5F5F5F5F5F5F5F5F5F5F5F5F5F5F5F5F5F5F5F5F5F5F5F5F5F5F5F5F5F5F5F5F5
310
F5F5F5F5F5F5F5F5F5F5F5F5F5F5F5F5F5F5F5F5F5F5F5F5F5F5F5F5F5F5F5F5F5F5F5F5F5F5F5F5F5F5F5F5F5F5F5F5F5F5F5F5F5F5F5F5F5F5F5F5F5F5F5F5F5F5F5F5F5F5F5F5F5F5F5F5F5F5F5F5F5F5F5F5F5F5F5F5F5F5F5F5F5F5F5F5F5F5F5F5F5F5F5F5F5F5F5F5F5F5F5F5F5F5F5F5F5F5F5F5F5F5F5F5F5F5F5
310
F5F5F5F5F5F5E2E2F5F5F5F5F5F5F5F5F5F5F5F5F5F5F5F5F5F5F5F5F5F5F5F5F5F5F5F5F5F5F5F5F5F5F5F5F5F5F5F5F5F5F5F5F5F5F5F5F5F5F5F5F5F5F5F5F5F5F5F5F5F5F5F5F5F5F5F5F5F5F5F5F5F5F5F5F5F5F5F5F5F5F5F5F5F5F5F5F5F5F5F5F5F5F5F5F5F5F5F5F5F5F5F5F5F5F5F5F5F5F5F5F5F5F5F5F5F5F5
310
F5F5F5F5F5F5F5F5F5F5F5F5F5F5F5F5F5F5F5F5F5F5F5F5F5F5F5F5F5F5F5F5F5F5F5F5F5F5F5F5F5F5F5F5F5F5F5F5F5F5F5F5F5F5F5F5F5F5F5E2E2F5F5F5F5F5F5F5F5F5F5F5F5F5F5F5F5F5F5F5F5F5F5F5F5F5F5F5F5F5F5F5F5F5F5F5F5F5F5F5F5F5F5F5F5F5F5F5F5F5F5F5F5F5F5F5F5F5F5F5F5F5F5F5F5F5F5
310
F5F5F5F5F5F5F5F5F5F5F5F5F5F5F5F5F5F5F5F5F5F5F5F5F5F5F5F5F5F5F5F5F5F5F5F5F5F5F5F5F5F5F5F5F5F5F5F5F5F5F5F5F5F5F5F5F5F5F5F5F5F5F5F5F5F5F5F5F5F5F5F5F5F5F5F5F5F5F5F5F5F5F5F5F5F5F5F5F5F5F5F5F5F5F5F5F5F5F5F5F5F5F5F5F5F5F5F5F5F5F5F5E2E2F5F5F5F5F5F5F5F5F5F5F5F5F5
310
F5F5F5F5F5F5F5F5F5F5F5F5F5F5F5F5F5F5F5F5F5F5F5F5F5F5F5F5F5F5F5F5F5F5F5F5F5F5F5F5F5F5F5F5F5F5F5F5F5F5F5F5F5F5F5F5F5F5F5F5F5F5F5F5F5F5F5F5F5F5F5F5F5F5F5F5F5F5F5F5F5F5F5F5F5F5F5F5F5F5F5F5F5F5F5F5F5F5F5F5F5F5F5F5F5F5F5F5F5F5F5F5F5F5F5F5F5F5F5F5F5F5F5F5F5F5F5
310
F5F5F5F5F5F5F5F5F5F5F5F5F5F5F5F5F5F5F5F5F5F5F5F5F5F5F5F5F5F5F5F5F5F5F5F5F5F5E2E2F5F5F5F5F5F5F5F5F5F5F5F5F5F5F5F5F5F5F5F5F5F5F5F5F5F5F5F5F5F5F5F5F5F5F5F5F5F5F5F5F5F5F5F5F5F5F5F5F5F5F5F5F5F5F5F5F5F5F5F5F5F5F5F5F5F5F5F5F5F5F5F5F5F5F5F5F5F5F5F5F5F5F5F5F5F5F5
310
F5F5F5F5F5F5F5F5F5F5F5F5F5F5F5F5F5F5F5F5F5F5F5F5F5F5F5F5F5F5F5F5F5F5F5F5F5F5F5F5F5F5F5F5F5F5F5F5F5F5F5F5F5F5F5F5F5F5F5F5F5F5F5F5F5F5F5F5F5F5F5F5F5F5F5F5F5F5F5F5F5F5F5F5F5F5F5F5F5F5F5E2E2F5F5F5F5F5F5F5F5F5F5F5F5F5F5F5F5F5F5F5F5F5F5F5F5F5F5F5F5F5F5F5F5F5F5
310
F5F5F5F5F5F5F5F5F5F5F5F5F5F5F5F5F5F5F5F5F5F5F5F5F5F5F5F5F5F5F5F5F5F5F5F5F5F5F5F5F5F5F5F5F5F5F5F5F5F5F5F5F5F5F5F5F5F5F5F5F5F5F5F5F5F5F5F5F5F5F5F5F5F5F5F5F5F5F5F5F5F5F5F5F5F5F5F5F5F5F5F5F5F5F5F5F5F5F5F5F5F5F5F5F5F5F5F5F5F5F5F5F5F5F5F5F5F5F5F5F5F5F5F5F5F5F5
310
F5F5F5F5F5F5F5F5F5F5F5F5F5F5F5F5F5E2E2F5F5F5F5F5F5F5F5F5F5F5F5F5F5F5F5F5F5F5F5F5F5F5F5F5F5F5F5F5F5F5F5F5F5F5F5F5F5F5F5F5F5F5F5F5F5F5F5F5F5F5F5F5F5F5F5F5F5F5F5F5F5F5F5F5F5F5F5F5F5F5F5F5F5F5F5F5F5F5F5F5F5F5F5F5F5F5F5F5F5F5F5F5F5F5F5F5F5F5F5F5F5F5F5F5F5F5F5
310
F5F5F5F5F5F5F5F5F5F5F5F5F5F5F5F5F5F5F5F5F5F5F5F5F5F5F5F5F5F5F5F5F5F5F5F5F5F5F5F5F5F5F5F5F5F5F5F5F5F5F5F5F5F5F5F5F5F5F5F5F5F5F5F5F5F5F5F5F5F5E2E2F5F5F5F5F5F5F5F5F5F5F5F5F5F5F5F5F5F5F5F5F5F5F5F5F5F5F5F5F5F5F5F5F5F5F5F5F5F5F5F5F5F5F5F5F5F5F5F5F5F5F5F5F5F5F5
310
F5F5F5F5F5F5F5F5F5F5F5F5F5F5F5F5F5F5F5F5F5F5F5F5F5F5F5F5F5F5F5F5F5F5F5F5F5F5F5F5F5F5F5F5F5F5F5F5F5F5F5F5F5F5F5F5F5F5F5F5F5F5F5F5F5F5F5F5F5F5F5F5F5F5F5F5F5F5F5F5F5F5F5F5F5F5F5F5F5F5F5F5F5F5F5F5F5F5F5F5F5F5F5F5F5F5F5F5F5F5F5F5F5F5F5F5F5F5F5F5F5F5F5E2E2F5F5
310
F5E2F5F5F5F5F5F5F5F5F5F5F5F5F5F5F5F5F5F5F5F5F5F5F5F5F5F5F5F5F5F5F5F5F5F5F5F5F5F5F5F5F5F5F5F5F5F5F5F5F5F5F5F5F5F5F5F5F5F5F5F5F5F5F5F5F5F5F5F5F5F5F5F5F5F5F5F5F5F5F5F5F5F5F5F5F5F5F5F5F5F5F5F5F5F5F5F5F5F5F5F5F5F5F5F5F5F5F5F5F5F5F5F5F5F5F5F5F5F5F5F5F5F5F5F5F5
310
F5F5F5F5F5F5F5F5F5F5F5F5F5F5F5F5F5F5F5F5F5F5F5F5F5F5F5F5F5F5F5F5F5F5F5F5F5F5F5F5F5F5F5F5F5E2F5F5F5E2E2F5F5F5E2F5F5F5F5F5F5F5F5F5F5F5F5F5F5F5F5F5F5F5F5F5F5F5F5F5F5F5F5F5F5F5F5F5F5F5F5F5F5F5F5F5F5F5F5F5F5F5F5F5F5F5F5F5F5F5F5F5F5F5F5F5F5F5F5F5F5F5F5F5F5F5F5
310
F5F5F5F5F5F5F5F5F5F5F5F5F5F5F5F5F5F5F5F5F5F5F5F5F5F5F5F5F5F5F5F5F5F5F5F5F5F5F5F5F5F5F5F5F5F5F5F5F5F5F5F5F5F5F5F5F5F5F5F5F5F5F5F5F5F5F5F5F5F5F5F5F5F5F5F5F5F5F5F5F5F5F5F5F5F5F5F5F5F5F5F5F5F5F5F5F5F5E2F5F5F5E2E2F5F5F5E2F5F5F5F5F5F5F5F5F5F5F5F5F5F5F5F5F5F5F5
310
F5F5F5F5F5F5F5F5F5F5F5F5F5F5F5F5F5F5F5F5F5F5F5F5F5F5F5F5F5F5F5F5F5F5F5F5F5F5F5F5F5F5F5F5F5F5F5F5F5F5F5F5F5F5F5F5F5F5F5F5F5F5F5F5F5F5F5F5F5F5F5F5F5F5F5F5F5F5F5F5F5F5F5F5F5F5F5F5F5F5F5F5F5F5F5F5F5F5F5F5F5F5F5F5F5F5F5F5F5F5F5F5F5F5F5F5F5F5F5F5F5F5F5F5F5F5F5
310
F5F5F5F5F5F5F5F5F5F5F5F5F5F5F5F5F5F5F5F5F5F5F5F5E2F5F5F5E2E2F5F5F5E2F5F5F5F5F5F5F5F5F5F5F5F5F5F5F5F5F5F5F5F5F5F5F5F5F5F5F5F5F5F5F5F5F5F5F5F5F5F5F5F5F5F5F5F5F5F5F5F5F5F5F5F5F5F5F5F5F5F5F5F5F5F5F5F5F5F5F5F5F5F5F5F5F5F5F5F5F5F5F5F5F5F5F5F5F5F5F5F5F5F5F5F5F5
310
F5F5F5F5F5F5F5F5F5F5F5F5F5F5F5F5F5F5F5F5F5F5F5F5F5F5F5F5F5F5F5F5F5F5F5F5F5F5F5F5F5F5F5F5F5F5F5F5F5F5F5F5F5F5F5F5F5F5F5F5F5F5F5F5F5F5F5F5F5F5F5F5F5F5F5F5F5E2F5F5F5E2E2F5F5F5E2F5F5F5F5F5F5F5F5F5F5F5F5F5F5F5F5F5F5F5F5F5F5F5F5F5F5F5F5F5F5F5F5F5F5F5F5F5F5F5F5
310
F5F5F5F5F5F5F5F5F5F5F5F5F5F5F5F5F5F5F5F5F5F5F5F5F5F5F5F5F5F5F5F5F5F5F5F5F5F5F5F5F5F5F5F5F5F5F5F5F5F5F5F5F5F5F5F5F5F5F5F5F5F5F5F5F5F5F5F5F5F5F5F5F5F5F5F5F5F5F5F5F5F5F5F5F5F5F5F5F5F5F5F5F5F5F5F5F5F5F5F5F5F5F5F5F5F5F5F5F5F5F5F5F5F5F5F5F5F5F5F5F5F5F5F5F5F5F5
310
F5F5F5E2F5F5F5E2E2F5F5F5E2F5F5F5F5F5F5F5F5F5F5F5F5F5F5F5F5F5F5F5F5F5F5F5F5F5F5F5F5F5F5F5F5F5F5F5F5F5F5F5F5F5F5F5F5F5F5F5F5F5F5F5F5F5F5F5F5F5F5F5F5F5F5F5F5F5F5F5F5F5F5F5F5F5F5F5F5F5F5F5F5F5F5F5F5F5F5F5F5F5F5F5F5F5F5F5F5F5F5F5F5F5F5F5F5F5F5F5F5F5F5F5F5F5F5
310
F5F5F5F5F5F5F5F5F5F5F5F5F5F5F5F5F5F5F5F5F5F5F5F5F5F5F5F5F5F5F5F5F5F5F5F5F5F5F5F5F5F5F5F5F5F5F5F5F5F5F5F5F5F5F5F5E2F5F5F5E2E2F5F5F5E2F5F5F5F5F5F5F5F5F5F5F5F5F5F5F5F5F5F5F5F5F5F5F5F5F5F5F5F5F5F5F5F5F5F5F5F5F5F5F5F5F5F5F5F5F5F5F5F5F5F5F5F5F5F5F5F5F5F5F5F5F5
310
F5F5F5F5F5F5F5F5F5F5F5F5F5F5F5F5F5F5F5F5F5F5F5F5F5F5F5F5F5F5F5F5F5F5F5F5F5F5F5F5F5F5F5F5F5F5F5F5F5F5F5F5F5F5F5F5F5F5F5F5F5F5F5F5F5F5F5F5F5F5F5F5F5F5F5F5F5F5F5F5F5F5F5F5F5F5F5F5F5F5F5F5F5F5F5F5F5F5F5F5F5F5F5F5F5F5F5F5F5E2F5F5F5E2E2F5F5F5E2F5F5F5F5F5F5F5F5
310
F5F5F5F5F5F5F5F5F5F5F5F5F5F5F5F5F5F5F5F5F5F5F5F5F5F5F5F5F5F5F5F5F5F5F5F5F5F5F5F5F5F5F5F5F5F5F5F5F5F5F5F5F5F5F5F5F5F5F5F5F5F5F5F5F5F5F5F5F5F5F5F5F5F5F5F5F5F5F5F5F5F5F5F5F5F5F5F5F5F5F5F5F5F5F5F5F5F5F5F5F5F5F5F5F5F5F5F5F5F5F5F5F5F5F5F5F5F5F5F5F5F5F5F5F5F5F5
310
F5F5F5F5F5F5F5F5F5F5F5F5F5F5F5F5F5F5F5F5F5F5F5F5F5F5F5F5F5F5F5F5F5F5F5E2F5F5F5E2E2F5F5F5E2F5F5F5F5F5F5F5F5F5F5F5F5F5F5F5F5F5F5F5F5F5F5F5F5F5F5F5F5F5F5F5F5F5F5F5F5F5F5F5F5F5F5F5F5F5F5F5F5F5F5F5F5F5F5F5F5F5F5F5F5F5F5F5F5F5F5F5F5F5F5F5F5F5F5F5F5F5F5F5F5F5F5
310
F5F5F5F5F5F5F5F5F5F5F5F5F5F5F5F5F5F5F5F5F5F5F5F5F5F5F5F5F5F5F5F5F5F5F5F5F5F5F5F5F5F5F5F5F5F5F5F5F5F5F5F5F5F5F5F5F5F5F5F5F5F5F5F5F5F5F5F5F5F5F5F5F5F5F5F5F5F5F5F5F5F5F5F5F5F5F5F5E2F5F5F5E2E2F5F5F5E2F5F5F5F5F5F5F5F5F5F5F5F5F5F5F5F5F5F5F5F5F5F5F5F5F5F5F5F5F5
310
F5F5F5F5F5F5F5F5F5F5F5F5F5F5F5F5F5F5F5F5F5F5F5F5F5F5F5F5F5F5F5F5F5F5F5F5F5F5F5F5F5F5F5F5F5F5F5F5F5F5F5F5F5F5F5F5F5F5F5F5F5F5F5F5F5F5F5F5F5F5F5F5F5F5F5F5F5F5F5F5F5F5F5F5F5F5F5F5F5F5F5F5F5F5F5F5F5F5F5F5F5F5F5F5F5F5F5F5F5F5F5F5F5F5F5F5F5F5F5F5F5F5F5F5F5F5F5
310
F5F5F5F5F5F5F5F5F5F5F5F5F5F5E2F5F5F5E2E2F5F5F5E2F5F5F5F5F5F5F5F5F5F5F5F5F5F5F5F5F5F5F5F5F5F5F5F5F5F5F5F5F5F5F5F5F5F5F5F5F5F5F5F5F5F5F5F5F5F5F5F5F5F5F5F5F5F5F5F5F5F5F5F5F5F5F5F5F5F5F5F5F5F5F5F5F5F5F5F5F5F5F5F5F5F5F5F5F5F5F5F5F5F5F5F5F5F5F5F5F5F5F5F5F5F5F5
310
F5F5F5F5F5F5F5F5F5F5F5F5F5F5F5F5F5F5F5F5F5F5F5F5F5F5F5F5F5F5F5F5F5F5F5F5F5F5F5F5F5F5F5F5F5F5F5F5F5F5F5F5F5F5F5F5F5F5F5F5F5F5F5F5F5F5F5E2F5F5F5E2E2F5F5F5E2F5F5F5F5F5F5F5F5F5F5F5F5F5F5F5F5F5F5F5F5F5F5F5F5F5F5F5F5F5F5F5F5F5F5F5F5F5F5F5F5F5F5F5F5F5F5F5F5F5F5
310
F5F5F5F5F5F5F5F5F5F5F5F5F5F5F5F5F5F5F5F5F5F5F5F5F5F5F5F5F5F5F5F5F5F5F5F5F5F5F5F5F5F5F5F5F5F5F5F5F5F5F5F5F5F5F5F5F5F5F5F5F5F5F5F5F5F5F5F5F5F5F5F5F5F5F5F5F5F5F5F5F5F5F5F5F5F5F5F5F5F5F5F5F5F5F5F5F5F5F5F5F5F5F5F5F5F5F5F5F5F5F5F5F5F5F5F5F5F5F5F5E2F5F5F5E2E2F5
310
F5F5E2F5F5F5F5F5F5F5F5F5F5F5F5F5F5F5F5F5F5F5F5F5F5F5F5F5F5F5F5F5F5F5F5F5F5F5F5F5F5F5F5F5F5F5F5F5F5F5F5F5F5F5F5F5F5F5F5F5F5F5F5F5F5F5F5F5F5F5F5F5F5F5F5F5F5F5F5F5F5F5F5F5F5F5F5F5F5F5F5F5F5F5F5F5F5F5F5F5F5F5F5F5F5F5F5F5F5F5F5F5F5F5F5F5F5F5F5F5F5F5F5F5F5F5F5
310
F5F5F5F5F5F5F5F5F5F5F5F5F5F5F5F5F5F5F5F5F5F5F5F5F5F5F5F5F5F5F5F5F5F5F5F5F5F5F5F5F5F5F5F5F5F5E2F5F5F5E2E2F5F5F5E2F5F5F5F5F5F5F5F5F5F5F5F5F5F5F5F5F5F5F5F5F5F5F5F5F5F5F5F5F5F5F5F5F5F5F5F5F5F5F5F5F5F5F5F5F5F5F5F5F5F5F5F5F5F5F5F5F5F5F5F5F5F5F5F5F5F5F5F5F5F5F5
310
F5F5F5F5F5F5F5F5F5F5F5F5F5F5F5F5F5F5F5F5F5F5F5F5F5F5F5F5F5F5F5F5F5F5F5F5F5F5F5F5F5F5F5F5F5F5F5F5F5F5F5F5F5F5F5F5F5F5F5F5F5F5F5F5F5F5F5F5F5F5F5F5F5F5F5F5F5F5F5F5F5F5F5F5F5F5F5F5F5F5F5F5F5F5F5F5F5F5F5E2F5F5F5E2E2F5F5F5E2F5F5F5F5F5F5F5F5F5F5F5F5F5F5F5F5F5F5
310
F5F5F5F5F5F5F5F5F5F5F5F5F5F5F5F5F5F5F5F5F5F5F5F5F5F5F5F5F5F5F5F5F5F5F5F5F5F5F5F5F5F5F5F5F5F5F5F5F5F5F5F5F5F5F5F5F5F5F5F5F5F5F5F5F5F5F5F5F5F5F5F5F5F5F5F5F5F5F5F5F5F5F5F5F5F5F5F5F5F5F5F5F5F5F5F5F5F5F5F5F5F5F5F5F5F5F5F5F5F5F5F5F5F5F5F5F5F5F5F5F5F5F5F5F5F5F5
310
F5F5F5F5F5F5F5F5F5F5F5F5F5F5F5F5F5F5F5F5F5F5F5F5F5E2F5F5F5E2E2F5F5F5E2F5F5F5F5F5F5F5F5F5F5F5F5F5F5F5F5F5F5F5F5F5F5F5F5F5F5F5F5F5F5F5F5F5F5F5F5F5F5F5F5F5F5F5F5F5F5F5F5F5F5F5F5F5F5F5F5F5F5F5F5F5F5F5F5F5F5F5F5F5F5F5F5F5F5F5F5F5F5F5F5F5F5F5F5F5F5F5F5F5F5F5F5
310
F5F5F5F5F5F5F5F5F5F5F5F5F5F5F5F5F5F5F5F5F5F5F5F5F5F5F5F5F5F5F5F5F5F5F5F5F5F5F5F5F5F5F5F5F5F5F5F5F5F5F5F5F5F5F5F5F5F5F5F5F5F5F5F5F5F5F5F5F5F5F5F5F5F5F5F5F5F5E2F5F5F5E2E2F5F5F5F5F5F5F5F5F5F5F5F5F5F5F5F5F5F5F5F5F5F5F5F5F5F5F5F5F5F5F5F5F5F5F5F5F5F5F5F5F5F5F5
310
F5F5F5F5F5F5F5F5F5F5F5F5F5F5F5F5F5F5F5F5F5F5F5F5F5F5F5F5F5F5F5F5F5F5F5F5F5F5F5F5F5F5F5F5F5F5F5F5F5F5F5F5F5F5F5F5F5F5F5F5F5F5F5F5F5F5F5F5F5F5F5F5F5F5F5F5F5F5F5F5F5F5F5F5F5F5F5F5F5F5F5F5F5F5F5F5F5F5F5F5F5F5F5F5F5F5F5F5F5F5F5F5F5F5F5F5F5F5F5F5F5F5F5F5F5F5F5
310
F5F5F5F5F5F5F5F5E2E2F5F5F5F5F5F5F5F5F5F5F5F5F5F5F5F5F5F5F5F5F5F5F5F5F5F5F5F5F5F5F5F5F5F5F5F5F5F5F5F5F5F5F5F5F5F5F5F5F5F5F5F5F5F5F5F5F5F5F5F5F5F5F5F5F5F5F5F5F5F5F5F5F5F5F5F5F5F5F5F5F5F5F5F5F5F5F5F5F5F5F5F5F5F5F5F5F5F5F5F5F5F5F5F5F5F5F5F5F5F5F5F5F5F5F5F5F5
310
F5F5F5F5F5F5F5F5F5F5F5F5F5F5F5F5F5F5F5F5F5F5F5F5F5F5F5F5F5F5F5F5F5F5F5F5F5F5F5F5F5F5F5F5F5F5F5F5F5F5F5F5F5F5F5F5F5F5F5F5F5E2E2F5F5F5F5F5F5F5F5F5F5F5F5F5F5F5F5F5F5F5F5F5F5F5F5F5F5F5F5F5F5F5F5F5F5F5F5F5F5F5F5F5F5F5F5F5F5F5F5F5F5F5F5F5F5F5F5F5F5F5F5F5F5F5F5
310
F5F5F5F5F5F5F5F5F5F5F5F5F5F5F5F5F5F5F5F5F5F5F5F5F5F5F5F5F5F5F5F5F5F5F5F5F5F5F5F5F5F5F5F5F5F5F5F5F5F5F5F5F5F5F5F5F5F5F5F5F5F5F5F5F5F5F5F5F5F5F5F5F5F5F5F5F5F5F5F5F5F5F5F5F5F5F5F5F5F5F5F5F5F5F5F5F5F5F5F5F5F5F5F5F5F5F5F5F5F5F5F5F5F5E2E2F5F5F5F5F5F5F5F5F5F5F5
310
F5F5F5F5F5F5F5F5F5F5F5F5F5F5F5F5F5F5F5F5F5F5F5F5F5F5F5F5F5F5F5F5F5F5F5F5F5F5F5F5F5F5F5F5F5F5F5F5F5F5F5F5F5F5F5F5F5F5F5F5F5F5F5F5F5F5F5F5F5F5F5F5F5F5F5F5F5F5F5F5F5F5F5F5F5F5F5F5F5F5F5F5F5F5F5F5F5F5F5F5F5F5F5F5F5F5F5F5F5F5F5F5F5F5F5F5F5F5F5F5F5F5F5F5F5F5F5
310
F5F5F5F5F5F5F5F5F5F5F5F5F5F5F5F5F5F5F5F5F5F5F5F5F5F5F5F5F5F5F5F5F5F5F5F5F5F5F5F5E2E2F5F5F5F5F5F5F5F5F5F5F5F5F5F5F5F5F5F5F5F5F5F5F5F5F5F5F5F5F5F5F5F5F5F5F5F5F5F5F5F5F5F5F5F5F5F5F5F5F5F5F5F5F5F5F5F5F5F5F5F5F5F5F5F5F5F5F5F5F5F5F5F5F5F5F5F5F5F5F5F5F5F5F5F5F5
310
F5F5F5F5F5F5F5F5F5F5F5F5F5F5F5F5F5F5F5F5F5F5F5F5F5F5F5F5F5F5F5F5F5F5F5F5F5F5F5F5F5F5F5F5F5F5F5F5F5F5F5F5F5F5F5F5F5F5F5F5F5F5F5F5F5F5F5F5F5F5F5F5F5F5F5F5F5F5F5F5F5F5F5F5F5F5F5F5F5F5F5F5F5E2E2F5F5F5F5F5F5F5F5F5F5F5F5F5F5F5F5F5F5F5F5F5F5F5F5F5F5F5F5F5F5F5F5
310
F5F5F5F5F5F5F5F5F5F5F5F5F5F5F5F5F5F5F5F5F5F5F5F5F5F5F5F5F5F5F5F5F5F5F5F5F5F5F5F5F5F5F5F5F5F5F5F5F5F5F5F5F5F5F5F5F5F5F5F5F5F5F5F5F5F5F5F5F5F5F5F5F5F5F5F5F5F5F5F5F5F5F5F5F5F5F5F5F5F5F5F5F5F5F5F5F5F5F5F5F5F5F5F5F5F5F5F5F5F5F5F5F5F5F5F5F5F5F5F5F5F5F5F5F5F5F5
310
F5F5F5F5F5F5F5F5F5F5F5F5F5F5F5F5F5F5F5E2E2F5F5F5F5F5F5F5F5F5F5F5F5F5F5F5F5F5F5F5F5F5F5F5F5F5F5F5F5F5F5F5F5F5F5F5F5F5F5F5F5F5F5F5F5F5F5F5F5F5F5F5F5F5F5F5F5F5F5F5F5F5F5F5F5F5F5F5F5F5F5F5F5F5F5F5F5F5F5F5F5F5F5F5F5F5F5F5F5F5F5F5F5F5F5F5F5F5F5F5F5F5F5F5F5F5F5
310
F5F5F5F5F5F5F5F5F5F5F5F5F5F5F5F5F5F5F5F5F5F5F5F5F5F5F5F5F5F5F5F5F5F5F5F5F5F5F5F5F5F5F5F5F5F5F5F5F5F5F5F5F5F5F5F5F5F5F5F5F5F5F5F5F5F5F5F5F5F5F5F5E2E2F5F5F5F5F5F5F5F5F5F5F5F5F5F5F5F5F5F5F5F5F5F5F5F5F5F5F5F5F5F5F5F5F5F5F5F5F5F5F5F5F5F5F5F5F5F5F5F5F5F5F5F5F5
310
F5F5F5F5F5F5F5F5F5F5F5F5F5F5F5F5F5F5F5F5F5F5F5F5F5F5F5F5F5F5F5F5F5F5F5F5F5F5F5F5F5F5F5F5F5F5F5F5F5F5F5F5F5F5F5F5F5F5F5F5F5F5F5F5F5F5F5F5F5F5F5F5F5F5F5F5F5F5F5F5F5F5F5F5F5F5F5F5F5F5F5F5F5F5F5F5F5F5F5F5F5F5F5F5F5F5F5F5F5F5F5F5F5F5F5F5F5F5F5F5F5F5F5F5F5E2E2
310
F5F5F5F5F5F5F5F5F5F5F5F5F5F5F5F5F5F5F5F5F5F5F5F5F5F5F5F5F5F5F5F5F5F5F5F5F5F5F5F5F5F5F5F5F5F5F5F5F5F5F5F5F5F5F5F5F5F5F5F5F5F5F5F5F5F5F5F5F5F5F5F5F5F5F5F5F5F5F5F5F5F5F5F5F5F5F5F5F5F5F5F5F5F5F5F5F5F5F5F5F5F5F5F5F5F5F5F5F5F5F5F5F5F5F5F5F5F5F5F5F5F5F5F5F5F5F5
310
F5F5F5F5F5F5F5F5F5F5F5F5F5F5F5F5F5F5F5F5F5F5F5F5F5F5F5F5F5F5F5F5F5F5F5F5F5F5F5F5F5F5F5F5F5F5F5F5F5F5F5E2E2F5F5F5F5F5F5F5F5F5F5F5F5F5F5F5F5F5F5F5F5F5F5F5F5F5F5F5F5F5F5F5F5F5F5F5F5F5F5F5F5F5F5F5F5F5F5F5F5F5F5F5F5F5F5F5F5F5F5F5F5F5F5F5F5F5F5F5F5F5F5F5F5F5F5
310
F5F5F5F5F5F5F5F5F5F5F5F5F5F5F5F5F5F5F5F5F5F5F5F5F5F5F5F5F5F5F5F5F5F5F5F5F5F5F5F5F5F5F5F5F5F5F5F5F5F5F5F5F5F5F5F5F5F5F5F5F5F5F5F5F5F5F5F5F5F5F5F5F5F5F5F5F5F5F5F5F5F5F5F5F5F5F5F5F5F5F5F5F5F5F5F5F5F5F5F5F5F5F5F5E2E2F5F5F5E2F5F5F5F5F5F5F5F5F5F5F5F5F5F5F5F5F5
310
F5F5F5F5F5F5F5F5F5F5F5F5F5F5F5F5F5F5F5F5F5F5F5F5F5F5F5F5F5F5F5F5F5F5F5F5F5F5F5F5F5F5F5F5F5F5F5F5F5F5F5F5F5F5F5F5F5F5F5F5F5F5F5F5F5F5F5F5F5F5F5F5F5F5F5F5F5F5F5F5F5F5F5F5F5F5F5F5F5F5F5F5F5F5F5F5F5F5F5F5F5F5F5F5F5F5F5F5F5F5F5F5F5F5F5F5F5F5F5F5F5F5F5F5F5F5F5
310
F5F5F5F5F5F5F5F5F5F5F5F5F5F5F5F5F5F5F5F5F5F5F5F5F5F5E2F5F5F5E2E2F5F5F5E2F5F5F5F5F5F5F5F5F5F5F5F5F5F5F5F5F5F5F5F5F5F5F5F5F5F5F5F5F5F5F5F5F5F5F5F5F5F5F5F5F5F5F5F5F5F5F5F5F5F5F5F5F5F5F5F5F5F5F5F5F5F5F5F5F5F5F5F5F5F5F5F5F5F5F5F5F5F5F5F5F5F5F5F5F5F5F5F5F5F5F5
310
F5F5F5F5F5F5F5F5F5F5F5F5F5F5F5F5F5F5F5F5F5F5F5F5F5F5F5F5F5F5F5F5F5F5F5F5F5F5F5F5F5F5F5F5F5F5F5F5F5F5F5F5F5F5F5F5F5F5F5F5F5F5F5F5F5F5F5F5F5F5F5F5F5F5F5F5F5F5F5E2F5F5F5E2E2F5F5F5E2F5F5F5F5F5F5F5F5F5F5F5F5F5F5F5F5F5F5F5F5F5F5F5F5F5F5F5F5F5F5F5F5F5F5F5F5F5F5
310
F5F5F5F5F5F5F5F5F5F5F5F5F5F5F5F5F5F5F5F5F5F5F5F5F5F5F5F5F5F5F5F5F5F5F5F5F5F5F5F5F5F5F5F5F5F5F5F5F5F5F5F5F5F5F5F5F5F5F5F5F5F5F5F5F5F5F5F5F5F5F5F5F5F5F5F5F5F5F5F5F5F5F5F5F5F5F5F5F5F5F5F5F5F5F5F5F5F5F5F5F5F5F5F5F5F5F5F5F5F5F5F5F5F5F5F5F5F5F5F5F5F5F5F5F5F5F5
310
F5F5F5F5F5E2F5F5F5E2E2F5F5F5E2F5F5F5F5F5F5F5F5F5F5F5F5F5F5F5F5F5F5F5F5F5F5F5F5F5F5F5F5F5F5F5F5F5F5F5F5F5F5F5F5F5F5F5F5F5F5F5F5F5F5F5F5F5F5F5F5F5F5F5F5F5F5F5F5F5F5F5F5F5F5F5F5F5F5F5F5F5F5F5F5F5F5F5F5F5F5F5F5F5F5F5F5F5F5F5F5F5F5F5F5F5F5F5F5F5F5F5F5F5F5F5F5
310
F5F5F5F5F5F5F5F5F5F5F5F5F5F5F5F5F5F5F5F5F5F5F5F5F5F5F5F5F5F5F5F5F5F5F5F5F5F5F5F5F5F5F5F5F5F5F5F5F5F5F5F5F5F5F5F5F5F5E2F5F5F5E2E2F5F5F5E2F5F5F5F5F5F5F5F5F5F5F5F5F5F5F5F5F5F5F5F5F5F5F5F5F5F5F5F5F5F5F5F5F5F5F5F5F5F5F5F5F5F5F5F5F5F5F5F5F5F5F5F5F5F5F5F5F5F5F5
310
F5F5F5F5F5F5F5F5F5F5F5F5F5F5F5F5F5F5F5F5F5F5F5F5F5F5F5F5F5F5F5F5F5F5F5F5F5F5F5F5F5F5F5F5F5F5F5F5F5F5F5F5F5F5F5F5F5F5F5F5F5F5F5F5F5F5F5F5F5F5F5F5F5F5F5F5F5F5F5F5F5F5F5F5F5F5F5F5F5F5F5F5F5F5F5F5F5F5F5F5F5F5F5F5F5F5F5F5F5F5F5E2F5F5F5E2E2F5F5F5E2F5F5F5F5F5F5
310
F5F5F5F5F5F5F5F5F5F5F5F5F5F5F5F5F5F5F5F5F5F5F5F5F5F5F5F5F5F5F5F5F5F5F5F5F5F5F5F5F5F5F5F5F5F5F5F5F5F5F5F5F5F5F5F5F5F5F5F5F5F5F5F5F5F5F5F5F5F5F5F5F5F5F5F5F5F5F5F5F5F5F5F5F5F5F5F5F5F5F5F5F5F5F5F5F5F5F5F5F5F5F5F5F5F5F5F5F5F5F5F5F5F5F5F5F5F5F5F5F5F5F5F5F5F5F5
310
F5F5F5F5F5F5F5F5F5F5F5F5F5F5F5F5F5F5F5F5F5F5F5F5F5F5F5F5F5F5F5F5F5F5F5F5F5E2F5F5F5E2E2F5F5F5E2F5F5F5F5F5F5F5F5F5F5F5F5F5F5F5F5F5F5F5F5F5F5F5F5F5F5F5F5F5F5F5F5F5F5F5F5F5F5F5F5F5F5F5F5F5F5F5F5F5F5F5F5F5F5F5F5F5F5F5F5F5F5F5F5F5F5F5F5F5F5F5F5F5F5F5F5F5F5F5F5
310
F5F5F5F5F5F5F5F5F5F5F5F5F5F5F5F5F5F5F5F5F5F5F5F5F5F5F5F5F5F5F5F5F5F5F5F5F5F5F5F5F5F5F5F5F5F5F5F5F5F5F5F5F5F5F5F5F5F5F5F5F5F5F5F5F5F5F5F5F5F5F5F5F5F5F5F5F5F5F5F5F5F5F5F5F5F5F5F5F5F5E2F5F5F5E2E2F5F5F5E2F5F5F5F5F5F5F5F5F5F5F5F5F5F5F5F5F5F5F5F5F5F5F5F5F5F5F5
310
F5F5F5F5F5F5F5F5F5F5F5F5F5F5F5F5F5F5F5F5F5F5F5F5F5F5F5F5F5F5F5F5F5F5F5F5F5F5F5F5F5F5F5F5F5F5F5F5F5F5F5F5F5F5F5F5F5F5F5F5F5F5F5F5F5F5F5F5F5F5F5F5F5F5F5F5F5F5F5F5F5F5F5F5F5F5F5F5F5F5F5F5F5F5F5F5F5F5F5F5F5F5F5F5F5F5F5F5F5F5F5F5F5F5F5F5F5F5F5F5F5F5F5F5F5F5F5
310
F5F5F5F5F5F5F5F5F5F5F5F5F5F5F5F5E2F5F5F5E2E2F5F5F5E2F5F5F5F5F5F5F5F5F5F5F5F5F5F5F5F5F5F5F5F5F5F5F5F5F5F5F5F5F5F5F5F5F5F5F5F5F5F5F5F5F5F5F5F5F5F5F5F5F5F5F5F5F5F5F5F5F5F5F5F5F5F5F5F5F5F5F5F5F5F5F5F5F5F5F5F5F5F5F5F5F5F5F5F5F5F5F5F5F5F5F5F5F5F5F5F5F5F5F5F5F5
310
F5F5F5F5F5F5F5F5F5F5F5F5F5F5F5F5F5F5F5F5F5F5F5F5F5F5F5F5F5F5F5F5F5F5F5F5F5F5F5F5F5F5F5F5F5F5F5F5F5F5F5F5F5F5F5F5F5F5F5F5F5F5F5F5F5F5F5F5F5E2F5F5F5E2E2F5F5F5E2F5F5F5F5F5F5F5F5F5F5F5F5F5F5F5F5F5F5F5F5F5F5F5F5F5F5F5F5F5F5F5F5F5F5F5F5F5F5F5F5F5F5F5F5F5F5F5F5
310
F5F5F5F5F5F5F5F5F5F5F5F5F5F5F5F5F5F5F5F5F5F5F5F5F5F5F5F5F5F5F5F5F5F5F5F5F5F5F5F5F5F5F5F5F5F5F5F5F5F5F5F5F5F5F5F5F5F5F5F5F5F5F5F5F5F5F5F5F5F5F5F5F5F5F5F5F5F5F5F5F5F5F5F5F5F5F5F5F5F5F5F5F5F5F5F5F5F5F5F5F5F5F5F5F5F5F5F5F5F5F5F5F5F5F5F5F5F5F5F5F5F5E2F5F5F5E2
310
E2F5F5F5E2F5F5F5F5F5F5F5F5F5F5F5F5F5F5F5F5F5F5F5F5F5F5F5F5F5F5F5F5F5F5F5F5F5F5F5F5F5F5F5F5F5F5F5F5F5F5F5F5F5F5F5F5F5F5F5F5F5F5F5F5F5F5F5F5F5F5F5F5F5F5F5F5F5F5F5F5F5F5F5F5F5F5F5F5F5F5F5F5F5F5F5F5F5F5F5F5F5F5F5F5F5F5F5F5F5F5F5F5F5F5F5F5F5F5F5F5F5F5F5F5F5F5
310
F5F5F5F5F5F5F5F5F5F5F5F5F5F5F5F5F5F5F5F5F5F5F5F5F5F5F5F5F5F5F5F5F5F5F5F5F5F5F5F5F5F5F5F5F5F5F5F5E2F5F5F5E2E2F5F5F5E2F5F5F5F5F5F5F5F5F5F5F5F5F5F5F5F5F5F5F5F5F5F5F5F5F5F5F5F5F5F5F5F5F5F5F5F5F5F5F5F5F5F5F5F5F5F5F5F5F5F5F5F5F5F5F5F5F5F5F5F5F5F5F5F5F5F5F5F5F5
310
F5F5F5F5F5F5F5F5F5F5F5F5F5F5F5F5F5F5F5F5F5F5F5F5F5F5F5F5F5F5F5F5F5F5F5F5F5F5F5F5F5F5F5F5F5F5F5F5F5F5F5F5F5F5F5F5F5F5F5F5F5F5F5F5F5F5F5F5F5F5F5F5F5F5F5F5F5F5F5F5F5F5F5F5F5F5F5F5F5F5F5F5F5F5F5F5F5F5F5F5F5E2F5F5F5E2E2F5F5F5E2F5F5F5F5F5F5F5F5F5F5F5F5F5F5F5F5
310
F5F5F5F5F5F5F5F5F5F5F5F5F5F5F5F5F5F5F5F5F5F5F5F5F5F5F5F5F5F5F5F5F5F5F5F5F5F5F5F5F5F5F5F5F5F5F5F5F5F5F5F5F5F5F5F5F5F5F5F5F5F5F5F5F5F5F5F5F5F5F5F5F5F5F5F5F5F5F5F5F5F5F5F5F5F5F5F5F5F5F5F5F5F5F5F5F5F5F5F5F5F5F5F5F5F5F5F5F5F5F5F5F5F5F5F5F5F5F5F5F5F5F5F5F5F5F5
310
F5F5F5F5F5F5F5F5F5F5F5F5F5F5F5F5F5F5F5F5F5F5F5F5F5F5F5E2F5F5F5E2E2F5F5F5E2F5F5F5F5F5F5F5F5F5F5F5F5F5F5F5F5F5F5F5F5F5F5F5F5F5F5F5F5F5F5F5F5F5F5F5F5F5F5F5F5F5F5F5F5F5F5F5F5F5F5F5F5F5F5F5F5F5F5F5F5F5F5F5F5F5F5F5F5F5F5F5F5F5F5F5F5F5F5F5F5F5F5F5F5F5F5F5F5F5F5
310
F5F5F5F5F5F5F5F5F5F5F5F5F5F5F5F5F5F5F5F5F5F5F5F5F5F5F5F5F5F5F5F5F5F5F5F5F5F5F5F5F5F5F5F5F5F5F5F5F5F5F5F5F5F5F5F5F5F5F5F5F5F5F5F5F5F5F5F5F5F5F5F5F5F5F5F5F5F5F5F5E2F5F5F5E2E2F5F5F5E2F5F5F5F5F5F5F5F5F5F5F5F5F5F5F5F5F5F5F5F5F5F5F5F5F5F5F5F5F5F5F5F5F5F5F5F5F5
310
F5F5F5F5F5F5F5F5F5F5F5F5F5F5F5F5F5F5F5F5F5F5F5F5F5F5F5F5F5F5F5F5F5F5F5F5F5F5F5F5F5F5F5F5F5F5F5F5F5F5F5F5F5F5F5F5F5F5F5F5F5F5F5F5F5F5F5F5F5F5F5F5F5F5F5F5F5F5F5F5F5F5F5F5F5F5F5F5F5F5F5F5F5F5F5F5F5F5F5F5F5F5F5F5F5F5F5F5F5F5F5F5F5F5F5F5F5F5F5F5F5F5F5F5F5F5F5
310
F5F5F5F5F5F5E2F5F5F5E2E2F5F5F5E2F5F5F5F5F5F5F5F5F5F5F5F5F5F5F5F5F5F5F5F5F5F5F5F5F5F5F5F5F5F5F5F5F5F5F5F5F5F5F5F5F5F5F5F5F5F5F5F5F5F5F5F5F5F5F5F5F5F5F5F5F5F5F5F5F5F5F5F5F5F5F5F5F5F5F5F5F5F5F5F5F5F5F5F5F5F5F5F5F5F5F5F5F5F5F5F5F5F5F5F5F5F5F5F5F5F5F5F5F5F5F5
310
F5F5F5F5F5F5F5F5F5F5F5F5F5F5F5F5F5F5F5F5F5F5F5F5F5F5F5F5F5F5F5F5F5F5F5F5F5F5F5F5F5F5F5F5F5F5F5F5F5F5F5F5F5F5F5F5F5F5F5E2F5F5F5E2E2F5F5F5F5F5F5F5F5F5F5F5F5F5F5F5F5F5F5F5F5F5F5F5F5F5F5F5F5F5F5F5F5F5F5F5F5F5F5F5F5F5F5F5F5F5F5F5F5F5F5F5F5F5F5F5F5F5F5F5F5F5F5
310
F5F5F5F5F5F5F5F5F5F5F5F5F5F5F5F5F5F5F5F5F5F5F5F5F5F5F5F5F5F5F5F5F5F5F5F5F5F5F5F5F5F5F5F5F5F5F5F5F5F5F5F5F5F5F5F5F5F5F5F5F5F5F5F5F5F5F5F5F5F5F5F5F5F5F5F5F5F5F5F5F5F5F5F5F5F5F5F5F5F5F5F5F5F5F5F5F5F5F5F5F5F5F5F5F5F5F5F5F5F5F5F5F5F5F5F5E2E2F5F5F5F5F5F5F5F5F5
310
F5F5F5F5F5F5F5F5F5F5F5F5F5F5F5F5F5F5F5F5F5F5F5F5F5F5F5F5F5F5F5F5F5F5F5F5F5F5F5F5F5F5F5F5F5F5F5F5F5F5F5F5F5F5F5F5F5F5F5F5F5F5F5F5F5F5F5F5F5F5F5F5F5F5F5F5F5F5F5F5F5F5F5F5F5F5F5F5F5F5F5F5F5F5F5F5F5F5F5F5F5F5F5F5F5F5F5F5F5F5F5F5F5F5F5F5F5F5F5F5F5F5F5F5F5F5F5
310
F5F5F5F5F5F5F5F5F5F5F5F5F5F5F5F5F5F5F5F5F5F5F5F5F5F5F5F5F5F5F5F5F5F5F5F5F5F5F5F5F5F5E2E2F5F5F5F5F5F5F5F5F5F5F5F5F5F5F5F5F5F5F5F5F5F5F5F5F5F5F5F5F5F5F5F5F5F5F5F5F5F5F5F5F5F5F5F5F5F5F5F5F5F5F5F5F5F5F5F5F5F5F5F5F5F5F5F5F5F5F5F5F5F5F5F5F5F5F5F5F5F5F5F5F5F5F5
310
F5F5F5F5F5F5F5F5F5F5F5F5F5F5F5F5F5F5F5F5F5F5F5F5F5F5F5F5F5F5F5F5F5F5F5F5F5F5F5F5F5F5F5F5F5F5F5F5F5F5F5F5F5F5F5F5F5F5F5F5F5F5F5F5F5F5F5F5F5F5F5F5F5F5F5F5F5F5F5F5F5F5F5F5F5F5F5F5F5F5F5F5F5F5F5E2E2F5F5F5F5F5F5F5F5F5F5F5F5F5F5F5F5F5F5F5F5F5F5F5F5F5F5F5F5F5F5
310
F5F5F5F5F5F5F5F5F5F5F5F5F5F5F5F5F5F5F5F5F5F5F5F5F5F5F5F5F5F5F5F5F5F5F5F5F5F5F5F5F5F5F5F5F5F5F5F5F5F5F5F5F5F5F5F5F5F5F5F5F5F5F5F5F5F5F5F5F5F5F5F5F5F5F5F5F5F5F5F5F5F5F5F5F5F5F5F5F5F5F5F5F5F5F5F5F5F5F5F5F5F5F5F5F5F5F5F5F5F5F5F5F5F5F5F5F5F5F5F5F5F5F5F5F5F5F5
310
F5F5F5F5F5F5F5F5F5F5F5F5F5F5F5F5F5F5F5F5F5E2E2F5F5F5F5F5F5F5F5F5F5F5F5F5F5F5F5F5F5F5F5F5F5F5F5F5F5F5F5F5F5F5F5F5F5F5F5F5F5F5F5F5F5F5F5F5F5F5F5F5F5F5F5F5F5F5F5F5F5F5F5F5F5F5F5F5F5F5F5F5F5F5F5F5F5F5F5F5F5F5F5F5F5F5F5F5F5F5F5F5F5F5F5F5F5F5F5F5F5F5F5F5F5F5F5
310
F5F5F5F5F5F5F5F5F5F5F5F5F5F5F5F5F5F5F5F5F5F5F5F5F5F5F5F5F5F5F5F5F5F5F5F5F5F5F5F5F5F5F5F5F5F5F5F5F5F5F5F5F5F5F5F5F5F5F5F5F5F5F5F5F5F5F5F5F5F5F5F5F5F5E2E2F5F5F5F5F5F5F5F5F5F5F5F5F5F5F5F5F5F5F5F5F5F5F5F5F5F5F5F5F5F5F5F5F5F5F5F5F5F5F5F5F5F5F5F5F5F5F5F5F5F5F5
310
F5F5F5F5F5F5F5F5F5F5F5F5F5F5F5F5F5F5F5F5F5F5F5F5F5F5F5F5F5F5F5F5F5F5F5F5F5F5F5F5F5F5F5F5F5F5F5F5F5F5F5F5F5F5F5F5F5F5F5F5F5F5F5F5F5F5F5F5F5F5F5F5F5F5F5F5F5F5F5F5F5F5F5F5F5F5F5F5F5F5F5F5F5F5F5F5F5F5F5F5F5F5F5F5F5F5F5F5F5F5F5F5F5F5F5F5F5F5F5F5F5F5F5F5F5F5F5
310
E2E2F5F5F5F5F5F5F5F5F5F5F5F5F5F5F5F5F5F5F5F5F5F5F5F5F5F5F5F5F5F5F5F5F5F5F5F5F5F5F5F5F5F5F5F5F5F5F5F5F5F5F5F5F5F5F5F5F5F5F5F5F5F5F5F5F5F5F5F5F5F5F5F5F5F5F5F5F5F5F5F5F5F5F5F5F5F5F5F5F5F5F5F5F5F5F5F5F5F5F5F5F5F5F5F5F5F5F5F5F5F5F5F5F5F5F5F5F5F5F5F5F5F5F5F5F5
310
F5F5F5F5F5F5F5F5F5F5F5F5F5F5F5F5F5F5F5F5F5F5F5F5F5F5F5F5F5F5F5F5F5F5F5F5F5F5F5F5F5F5F5F5F5F5F5F5F5F5F5F5F5E2E2F5F5F5F5F5F5F5F5F5F5F5F5F5F5F5F5F5F5F5F5F5F5F5F5F5F5F5F5F5F5F5F5F5F5F5F5F5F5F5F5F5F5F5F5F5F5F5F5F5F5F5F5F5F5F5F5F5F5F5F5F5F5F5F5F5F5F5F5F5F5F5F5
310
F5F5F5F5F5F5F5F5F5F5F5F5F5F5F5F5F5F5F5F5F5F5F5F5F5F5F5F5F5F5F5F5F5F5F5F5F5F5F5F5F5F5F5F5F5F5F5F5F5F5F5F5F5F5F5F5F5F5F5F5F5F5F5F5F5F5F5F5F5F5F5F5F5F5F5F5F5F5F5F5F5F5F5F5F5F5F5F5F5F5F5F5F5F5F5F5F5F5F5F5F5F5F5F5F5F5E2E2F5F5F5F5F5F5F5F5F5F5F5F5F5F5F5F5F5F5F5
310
F5F5F5F5F5F5F5F5F5F5F5F5F5F5F5F5F5F5F5F5F5F5F5F5F5F5F5F5F5F5F5F5F5F5F5F5F5F5F5F5F5F5F5F5F5F5F5F5F5F5F5F5F5F5F5F5F5F5F5F5F5F5F5F5F5F5F5F5F5F5F5F5F5F5F5F5F5F5F5F5F5F5F5F5F5F5F5F5F5F5F5F5F5F5F5F5F5F5F5F5F5F5F5F5F5F5F5F5F5F5F5F5F5F5F5F5F5F5F5F5F5F5F5F5F5F5F5
310
F5F5F5F5F5F5F5F5F5F5F5F5F5F5F5F5F5F5F5F5F5F5F5F5F5F5F5F5F5F5F5F5E2E2F5F5F5E2F5F5F5F5F5F5F5F5F5F5F5F5F5F5F5F5F5F5F5F5F5F5F5F5F5F5F5F5F5F5F5F5F5F5F5F5F5F5F5F5F5F5F5F5F5F5F5F5F5F5F5F5F5F5F5F5F5F5F5F5F5F5F5F5F5F5F5F5F5F5F5F5F5F5F5F5F5F5F5F5F5F5F5F5F5F5F5F5F5
310
F5F5F5F5F5F5F5F5F5F5F5F5F5F5F5F5F5F5F5F5F5F5F5F5F5F5F5F5F5F5F5F5F5F5F5F5F5F5F5F5F5F5F5F5F5F5F5F5F5F5F5F5F5F5F5F5F5F5F5F5F5F5F5F5F5F5F5F5F5F5F5F5F5F5F5F5F5F5F5F5F5E2F5F5F5E2E2F5F5F5E2F5F5F5F5F5F5F5F5F5F5F5F5F5F5F5F5F5F5F5F5F5F5F5F5F5F5F5F5F5F5F5F5F5F5F5F5
310
F5F5F5F5F5F5F5F5F5F5F5F5F5F5F5F5F5F5F5F5F5F5F5F5F5F5F5F5F5F5F5F5F5F5F5F5F5F5F5F5F5F5F5F5F5F5F5F5F5F5F5F5F5F5F5F5F5F5F5F5F5F5F5F5F5F5F5F5F5F5F5F5F5F5F5F5F5F5F5F5F5F5F5F5F5F5F5F5F5F5F5F5F5F5F5F5F5F5F5F5F5F5F5F5F5F5F5F5F5F5F5F5F5F5F5F5F5F5F5F5F5F5F5F5F5F5F5
310
F5F5F5F5F5F5F5E2F5F5F5E2E2F5F5F5E2F5F5F5F5F5F5F5F5F5F5F5F5F5F5F5F5F5F5F5F5F5F5F5F5F5F5F5F5F5F5F5F5F5F5F5F5F5F5F5F5F5F5F5F5F5F5F5F5F5F5F5F5F5F5F5F5F5F5F5F5F5F5F5F5F5F5F5F5F5F5F5F5F5F5F5F5F5F5F5F5F5F5F5F5F5F5F5F5F5F5F5F5F5F5F5F5F5F5F5F5F5F5F5F5F5F5F5F5F5F5
310
F5F5F5F5F5F5F5F5F5F5F5F5F5F5F5F5F5F5F5F5F5F5F5F5F5F5F5F5F5F5F5F5F5F5F5F5F5F5F5F5F5F5F5F5F5F5F5F5F5F5F5F5F5F5F5F5F5F5F5F5E2F5F5F5E2E2F5F5F5E2F5F5F5F5F5F5F5F5F5F5F5F5F5F5F5F5F5F5F5F5F5F5F5F5F5F5F5F5F5F5F5F5F5F5F5F5F5F5F5F5F5F5F5F5F5F5F5F5F5F5F5F5F5F5F5F5F5
310
F5F5F5F5F5F5F5F5F5F5F5F5F5F5F5F5F5F5F5F5F5F5F5F5F5F5F5F5F5F5F5F5F5F5F5F5F5F5F5F5F5F5F5F5F5F5F5F5F5F5F5F5F5F5F5F5F5F5F5F5F5F5F5F5F5F5F5F5F5F5F5F5F5F5F5F5F5F5F5F5F5F5F5F5F5F5F5F5F5F5F5F5F5F5F5F5F5F5F5F5F5F5F5F5F5F5F5F5F5F5F5F5F5E2F5F5F5E2E2F5F5F5E2F5F5F5F5
310
F5F5F5F5F5F5F5F5F5F5F5F5F5F5F5F5F5F5F5F5F5F5F5F5F5F5F5F5F5F5F5F5F5F5F5F5F5F5F5F5F5F5F5F5F5F5F5F5F5F5F5F5F5F5F5F5F5F5F5F5F5F5F5F5F5F5F5F5F5F5F5F5F5F5F5F5F5F5F5F5F5F5F5F5F5F5F5F5F5F5F5F5F5F5F5F5F5F5F5F5F5F5F5F5F5F5F5F5F5F5F5F5F5F5F5F5F5F5F5F5F5F5F5F5F5F5F5
310
F5F5F5F5F5F5F5F5F5F5F5F5F5F5F5F5F5F5F5F5F5F5F5F5F5F5F5F5F5F5F5F5F5F5F5F5F5F5F5E2F5F5F5E2E2F5F5F5E2F5F5F5F5F5F5F5F5F5F5F5F5F5F5F5F5F5F5F5F5F5F5F5F5F5F5F5F5F5F5F5F5F5F5F5F5F5F5F5F5F5F5F5F5F5F5F5F5F5F5F5F5F5F5F5F5F5F5F5F5F5F5F5F5F5F5F5F5F5F5F5F5F5F5F5F5F5F5
310
F5F5F5F5F5F5F5F5F5F5F5F5F5F5F5F5F5F5F5F5F5F5F5F5F5F5F5F5F5F5F5F5F5F5F5F5F5F5F5F5F5F5F5F5F5F5F5F5F5F5F5F5F5F5F5F5F5F5F5F5F5F5F5F5F5F5F5F5F5F5F5F5F5F5F5F5F5F5F5F5F5F5F5F5F5F5F5F5F5F5F5F5E2F5F5F5E2E2F5F5F5E2F5F5F5F5F5F5F5F5F5F5F5F5F5F5F5F5F5F5F5F5F5F5F5F5F5
310
F5F5F5F5F5F5F5F5F5F5F5F5F5F5F5F5F5F5F5F5F5F5F5F5F5F5F5F5F5F5F5F5F5F5F5F5F5F5F5F5F5F5F5F5F5F5F5F5F5F5F5F5F5F5F5F5F5F5F5F5F5F5F5F5F5F5F5F5F5F5F5F5F5F5F5F5F5F5F5F5F5F5F5F5F5F5F5F5F5F5F5F5F5F5F5F5F5F5F5F5F5F5F5F5F5F5F5F5F5F5F5F5F5F5F5F5F5F5F5F5F5F5F5F5F5F5F5
310
F5F5F5F5F5F5F5F5F5F5F5F5F5F5F5F5F5F5E2F5F5F5E2E2F5F5F5E2F5F5F5F5F5F5F5F5F5F5F5F5F5F5F5F5F5F5F5F5F5F5F5F5F5F5F5F5F5F5F5F5F5F5F5F5F5F5F5F5F5F5F5F5F5F5F5F5F5F5F5F5F5F5F5F5F5F5F5F5F5F5F5F5F5F5F5F5F5F5F5F5F5F5F5F5F5F5F5F5F5F5F5F5F5F5F5F5F5F5F5F5F5F5F5F5F5F5F5
310
F5F5F5F5F5F5F5F5F5F5F5F5F5F5F5F5F5F5F5F5F5F5F5F5F5F5F5F5F5F5F5F5F5F5F5F5F5F5F5F5F5F5F5F5F5F5F5F5F5F5F5F5F5F5F5F5F5F5F5F5F5F5F5F5F5F5F5F5F5F5F5E2F5F5F5E2E2F5F5F5E2F5F5F5F5F5F5F5F5F5F5F5F5F5F5F5F5F5F5F5F5F5F5F5F5F5F5F5F5F5F5F5F5F5F5F5F5F5F5F5F5F5F5F5F5F5F5
310
F5F5F5F5F5F5F5F5F5F5F5F5F5F5F5F5F5F5F5F5F5F5F5F5F5F5F5F5F5F5F5F5F5F5F5F5F5F5F5F5F5F5F5F5F5F5F5F5F5F5F5F5F5F5F5F5F5F5F5F5F5F5F5F5F5F5F5F5F5F5F5F5F5F5F5F5F5F5F5F5F5F5F5F5F5F5F5F5F5F5F5F5F5F5F5F5F5F5F5F5F5F5F5F5F5F5F5F5F5F5F5F5F5F5F5F5F5F5F5F5F5F5F5F5E2F5F5
310
F5E2E2F5F5F5E2F5F5F5F5F5F5F5F5F5F5F5F5F5F5F5F5F5F5F5F5F5F5F5F5F5F5F5F5F5F5F5F5F5F5F5F5F5F5F5F5F5F5F5F5F5F5F5F5F5F5F5F5F5F5F5F5F5F5F5F5F5F5F5F5F5F5F5F5F5F5F5F5F5F5F5F5F5F5F5F5F5F5F5F5F5F5F5F5F5F5F5F5F5F5F5F5F5F5F5F5F5F5F5F5F5F5F5F5F5F5F5F5F5F5F5F5F5F5F5F5
310
F5F5F5F5F5F5F5F5F5F5F5F5F5F5F5F5F5F5F5F5F5F5F5F5F5F5F5F5F5F5F5F5F5F5F5F5F5F5F5F5F5F5F5F5F5F5F5F5F5F5E2F5F5F5E2E2F5F5F5E2F5F5F5F5F5F5F5F5F5F5F5F5F5F5F5F5F5F5F5F5F5F5F5F5F5F5F5F5F5F5F5F5F5F5F5F5F5F5F5F5F5F5F5F5F5F5F5F5F5F5F5F5F5F5F5F5F5F5F5F5F5F5F5F5F5F5F5
310
F5F5F5F5F5F5F5F5F5F5F5F5F5F5F5F5F5F5F5F5F5F5F5F5F5F5F5F5F5F5F5F5F5F5F5F5F5F5F5F5F5F5F5F5F5F5F5F5F5F5F5F5F5F5F5F5F5F5F5F5F5F5F5F5F5F5F5F5F5F5F5F5F5F5F5F5F5F5F5F5F5F5F5F5F5F5F5F5F5F5F5F5F5F5F5F5F5F5F5F5F5F5F5E2F5F5F5E2E2F5F5F5E2F5F5F5F5F5F5F5F5F5F5F5F5F5F5
310
F5F5F5F5F5F5F5F5F5F5F5F5F5F5F5F5F5F5F5F5F5F5F5F5F5F5F5F5F5F5F5F5F5F5F5F5F5F5F5F5F5F5F5F5F5F5F5F5F5F5F5F5F5F5F5F5F5F5F5F5F5F5F5F5F5F5F5F5F5F5F5F5F5F5F5F5F5F5F5F5F5F5F5F5F5F5F5F5F5F5F5F5F5F5F5F5F5F5F5F5F5F5F5F5F5F5F5F5F5F5F5F5F5F5F5F5F5F5F5F5F5F5F5F5F5F5F5
310
F5F5F5F5F5F5F5F5F5F5F5F5F5F5F5F5F5F5F5F5F5F5F5F5F5F5F5F5F5E2F5F5F5E2E2F5F5F5E2F5F5F5F5F5F5F5F5F5F5F5F5F5F5F5F5F5F5F5F5F5F5F5F5F5F5F5F5F5F5F5F5F5F5F5F5F5F5F5F5F5F5F5F5F5F5F5F5F5F5F5F5F5F5F5F5F5F5F5F5F5F5F5F5F5F5F5F5F5F5F5F5F5F5F5F5F5F5F5F5F5F5F5F5F5F5F5F5
310
F5F5F5F5F5F5F5F5F5F5F5F5F5F5F5F5F5F5F5F5F5F5F5F5F5F5F5F5F5F5F5F5F5F5F5F5F5F5F5F5F5F5F5F5F5F5F5F5F5F5F5F5F5F5F5F5F5F5F5F5F5F5F5F5F5F5F5F5F5F5F5F5F5F5F5F5F5F5F5F5F5F5E2F5F5F5E2E2F5F5F5E2F5F5F5F5F5F5F5F5F5F5F5F5F5F5F5F5F5F5F5F5F5F5F5F5F5F5F5F5F5F5F5F5F5F5F5
310
F5F5F5F5F5F5F5F5F5F5F5F5F5F5F5F5F5F5F5F5F5F5F5F5F5F5F5F5F5F5F5F5F5F5F5F5F5F5F5F5F5F5F5F5F5F5F5F5F5F5F5F5F5F5F5F5F5F5F5F5F5F5F5F5F5F5F5F5F5F5F5F5F5F5F5F5F5F5F5F5F5F5F5F5F5F5F5F5F5F5F5F5F5F5F5F5F5F5F5F5F5F5F5F5F5F5F5F5F5F5F5F5F5F5F5F5F5F5F5F5F5F5F5F5F5F5F5
310
F5F5F5F5F5F5F5F5E2F5F5F5E2E2F5F5F5E2F5F5F5F5F5F5F5F5F5F5F5F5F5F5F5F5F5F5F5F5F5F5F5F5F5F5F5F5F5F5F5F5F5F5F5F5F5F5F5F5F5F5F5F5F5F5F5F5F5F5F5F5F5F5F5F5F5F5F5F5F5F5F5F5F5F5F5F5F5F5F5F5F5F5F5F5F5F5F5F5F5F5F5F5F5F5F5F5F5F5F5F5F5F5F5F5F5F5F5F5F5F5F5F5F5F5F5F5F5
310
F5F5F5F5F5F5F5F5F5F5F5F5F5F5F5F5F5F5F5F5F5F5F5F5F5F5F5F5F5F5F5F5F5F5F5F5F5F5F5F5F5F5F5F5F5F5F5F5F5F5F5F5F5F5F5F5F5F5F5F5F5E2F5F5F5E2E2F5F5F5E2F5F5F5F5F5F5F5F5F5F5F5F5F5F5F5F5F5F5F5F5F5F5F5F5F5F5F5F5F5F5F5F5F5F5F5F5F5F5F5F5F5F5F5F5F5F5F5F5F5F5F5F5F5F5F5F5
310
F5F5F5F5F5F5F5F5F5F5F5F5F5F5F5F5F5F5F5F5F5F5F5F5F5F5F5F5F5F5F5F5F5F5F5F5F5F5F5F5F5F5F5F5F5F5F5F5F5F5F5F5F5F5F5F5F5F5F5F5F5F5F5F5F5F5F5F5F5F5F5F5F5F5F5F5F5F5F5F5F5F5F5F5F5F5F5F5F5F5F5F5F5F5F5F5F5F5F5F5F5F5F5F5F5F5F5F5F5F5F5F5F5F5E2F5F5F5E2E2F5F5F5F5F5F5F5
310
F5F5F5F5F5F5F5F5F5F5F5F5F5F5F5F5F5F5F5F5F5F5F5F5F5F5F5F5F5F5F5F5F5F5F5F5F5F5F5F5F5F5F5F5F5F5F5F5F5F5F5F5F5F5F5F5F5F5F5F5F5F5F5F5F5F5F5F5F5F5F5F5F5F5F5F5F5F5F5F5F5F5F5F5F5F5F5F5F5F5F5F5F5F5F5F5F5F5F5F5F5F5F5F5F5F5F5F5F5F5F5F5F5F5F5F5F5F5F5F5F5F5F5F5F5F5F5
310
F5F5F5F5F5F5F5F5F5F5F5F5F5F5F5F5F5F5F5F5F5F5F5F5F5F5F5F5F5F5F5F5F5F5F5F5F5F5F5F5F5F5F5F5E2E2F5F5F5F5F5F5F5F5F5F5F5F5F5F5F5F5F5F5F5F5F5F5F5F5F5F5F5F5F5F5F5F5F5F5F5F5F5F5F5F5F5F5F5F5F5F5F5F5F5F5F5F5F5F5F5F5F5F5F5F5F5F5F5F5F5F5F5F5F5F5F5F5F5F5F5F5F5F5F5F5F5
310
F5F5F5F5F5F5F5F5F5F5F5F5F5F5F5F5F5F5F5F5F5F5F5F5F5F5F5F5F5F5F5F5F5F5F5F5F5F5F5F5F5F5F5F5F5F5F5F5F5F5F5F5F5F5F5F5F5F5F5F5F5F5F5F5F5F5F5F5F5F5F5F5F5F5F5F5F5F5F5F5F5F5F5F5F5F5F5F5F5F5F5F5F5F5F5F5F5E2E2F5F5F5F5F5F5F5F5F5F5F5F5F5F5F5F5F5F5F5F5F5F5F5F5F5F5F5F5
310
F5F5F5F5F5F5F5F5F5F5F5F5F5F5F5F5F5F5F5F5F5F5F5F5F5F5F5F5F5F5F5F5F5F5F5F5F5F5F5F5F5F5F5F5F5F5F5F5F5F5F5F5F5F5F5F5F5F5F5F5F5F5F5F5F5F5F5F5F5F5F5F5F5F5F5F5F5F5F5F5F5F5F5F5F5F5F5F5F5F5F5F5F5F5F5F5F5F5F5F5F5F5F5F5F5F5F5F5F5F5F5F5F5F5F5F5F5F5F5F5F5F5F5F5F5F5F5
310
F5F5F5F5F5F5F5F5F5F5F5F5F5F5F5F5F5F5F5F5F5F5F5E2E2F5F5F5F5F5F5F5F5F5F5F5F5F5F5F5F5F5F5F5F5F5F5F5F5F5F5F5F5F5F5F5F5F5F5F5F5F5F5F5F5F5F5F5F5F5F5F5F5F5F5F5F5F5F5F5F5F5F5F5F5F5F5F5F5F5F5F5F5F5F5F5F5F5F5F5F5F5F5F5F5F5F5F5F5F5F5F5F5F5F5F5F5F5F5F5F5F5F5F5F5F5F5
310
F5F5F5F5F5F5F5F5F5F5F5F5F5F5F5F5F5F5F5F5F5F5F5F5F5F5F5F5F5F5F5F5F5F5F5F5F5F5F5F5F5F5F5F5F5F5F5F5F5F5F5F5F5F5F5F5F5F5F5F5F5F5F5F5F5F5F5F5F5F5F5F5F5F5F5F5E2E2F5F5F5F5F5F5F5F5F5F5F5F5F5F5F5F5F5F5F5F5F5F5F5F5F5F5F5F5F5F5F5F5F5F5F5F5F5F5F5F5F5F5F5F5F5F5F5F5F5
310
F5F5F5F5F5F5F5F5F5F5F5F5F5F5F5F5F5F5F5F5F5F5F5F5F5F5F5F5F5F5F5F5F5F5F5F5F5F5F5F5F5F5F5F5F5F5F5F5F5F5F5F5F5F5F5F5F5F5F5F5F5F5F5F5F5F5F5F5F5F5F5F5F5F5F5F5F5F5F5F5F5F5F5F5F5F5F5F5F5F5F5F5F5F5F5F5F5F5F5F5F5F5F5F5F5F5F5F5F5F5F5F5F5F5F5F5F5F5F5F5F5F5F5F5F5F5F5
310
F5F5E2E2F5F5F5F5F5F5F5F5F5F5F5F5F5F5F5F5F5F5F5F5F5F5F5F5F5F5F5F5F5F5F5F5F5F5F5F5F5F5F5F5F5F5F5F5F5F5F5F5F5F5F5F5F5F5F5F5F5F5F5F5F5F5F5F5F5F5F5F5F5F5F5F5F5F5F5F5F5F5F5F5F5F5F5F5F5F5F5F5F5F5F5F5F5F5F5F5F5F5F5F5F5F5F5F5F5F5F5F5F5F5F5F5F5F5F5F5F5F5F5F5F5F5F5
310
F5F5F5F5F5F5F5F5F5F5F5F5F5F5F5F5F5F5F5F5F5F5F5F5F5F5F5F5F5F5F5F5F5F5F5F5F5F5F5F5F5F5F5F5F5F5F5F5F5F5F5F5F5F5F5E2E2F5F5F5F5F5F5F5F5F5F5F5F5F5F5F5F5F5F5F5F5F5F5F5F5F5F5F5F5F5F5F5F5F5F5F5F5F5F5F5F5F5F5F5F5F5F5F5F5F5F5F5F5F5F5F5F5F5F5F5F5F5F5F5F5F5F5F5F5F5F5
310
F5F5F5F5F5F5F5F5F5F5F5F5F5F5F5F5F5F5F5F5F5F5F5F5F5F5F5F5F5F5F5F5F5F5F5F5F5F5F5F5F5F5F5F5F5F5F5F5F5F5F5F5F5F5F5F5F5F5F5F5F5F5F5F5F5F5F5F5F5F5F5F5F5F5F5F5F5F5F5F5F5F5F5F5F5F5F5F5F5F5F5F5F5F5F5F5F5F5F5F5F5F5F5F5F5F5F5F5E2E2F5F5F5F5F5F5F5F5F5F5F5F5F5F5F5F5F5
310
F5F5F5F5F5F5F5F5F5F5F5F5F5F5F5F5F5F5F5F5F5F5F5F5F5F5F5F5F5F5F5F5F5F5F5F5F5F5F5F5F5F5F5F5F5F5F5F5F5F5F5F5F5F5F5F5F5F5F5F5F5F5F5F5F5F5F5F5F5F5F5F5F5F5F5F5F5F5F5F5F5F5F5F5F5F5F5F5F5F5F5F5F5F5F5F5F5F5F5F5F5F5F5F5F5F5F5F5F5F5F5F5F5F5F5F5F5F5F5F5F5F5F5F5F5F5F5
310
F5F5F5F5F5F5F5F5F5F5F5F5F5F5F5F5F5F5F5F5F5F5F5F5F5F5F5F5F5F5F5F5F5F5E2E2F5F5F5F5F5F5F5F5F5F5F5F5F5F5F5F5F5F5F5F5F5F5F5F5F5F5F5F5F5F5F5F5F5F5F5F5F5F5F5F5F5F5F5F5F5F5F5F5F5F5F5F5F5F5F5F5F5F5F5F5F5F5F5F5F5F5F5F5F5F5F5F5F5F5F5F5F5F5F5F5F5F5F5F5F5F5F5F5F5F5F5
310
F5F5F5F5F5F5F5F5F5F5F5F5F5F5F5F5F5F5F5F5F5F5F5F5F5F5F5F5F5F5F5F5F5F5F5F5F5F5F5F5F5F5F5F5F5F5F5F5F5F5F5F5F5F5F5F5F5F5F5F5F5F5F5F5F5F5F5F5F5F5F5F5F5F5F5F5F5F5F5F5F5F5F5F5F5F5F5E2E2F5F5F5F5F5F5F5F5F5F5F5F5F5F5F5F5F5F5F5F5F5F5F5F5F5F5F5F5F5F5F5F5F5F5F5F5F5F5
310
F5F5F5F5F5F5F5F5F5F5F5F5F5F5F5F5F5F5F5F5F5F5F5F5F5F5F5F5F5F5F5F5F5F5F5F5F5F5F5F5F5F5F5F5F5F5F5F5F5F5F5F5F5F5F5F5F5F5F5F5F5F5F5F5F5F5F5F5F5F5F5F5F5F5F5F5F5F5F5F5F5F5F5F5F5F5F5F5F5F5F5F5F5F5F5F5F5F5F5F5F5F5F5F5F5F5F5F5F5F5F5F5F5F5F5F5F5F5F5F5F5F5F5F5F5F5F5
310
F5F5F5F5F5F5F5F5F5F5F5F5F5E2E2F5F5F5E2F5F5F5F5F5F5F5F5F5F5F5F5F5F5F5F5F5F5F5F5F5F5F5F5F5F5F5F5F5F5F5F5F5F5F5F5F5F5F5F5F5F5F5F5F5F5F5F5F5F5F5F5F5F5F5F5F5F5F5F5F5F5F5F5F5F5F5F5F5F5F5F5F5F5F5F5F5F5F5F5F5F5F5F5F5F5F5F5F5F5F5F5F5F5F5F5F5F5F5F5F5F5F5F5F5F5F5F5
310
F5F5F5F5F5F5F5F5F5F5F5F5F5F5F5F5F5F5F5F5F5F5F5F5F5F5F5F5F5F5F5F5F5F5F5F5F5F5F5F5F5F5F5F5F5F5F5F5F5F5F5F5F5F5F5F5F5F5F5F5F5F5E2F5F5F5E2E2F5F5F5E2F5F5F5F5F5F5F5F5F5F5F5F5F5F5F5F5F5F5F5F5F5F5F5F5F5F5F5F5F5F5F5F5F5F5F5F5F5F5F5F5F5F5F5F5F5F5F5F5F5F5F5F5F5F5F5
310
F5F5F5F5F5F5F5F5F5F5F5F5F5F5F5F5F5F5F5F5F5F5F5F5F5F5F5F5F5F5F5F5F5F5F5F5F5F5F5F5F5F5F5F5F5F5F5F5F5F5F5F5F5F5F5F5F5F5F5F5F5F5F5F5F5F5F5F5F5F5F5F5F5F5F5F5F5F5F5F5F5F5F5F5F5F5F5F5F5F5F5F5F5F5F5F5F5F5F5F5F5F5F5F5F5F5F5F5F5F5F5F5F5F5F5E2F5F5F5E2E2F5F5F5E2F5F5
310
F5F5F5F5F5F5F5F5F5F5F5F5F5F5F5F5F5F5F5F5F5F5F5F5F5F5F5F5F5F5F5F5F5F5F5F5F5F5F5F5F5F5F5F5F5F5F5F5F5F5F5F5F5F5F5F5F5F5F5F5F5F5F5F5F5F5F5F5F5F5F5F5F5F5F5F5F5F5F5F5F5F5F5F5F5F5F5F5F5F5F5F5F5F5F5F5F5F5F5F5F5F5F5F5F5F5F5F5F5F5F5F5F5F5F5F5F5F5F5F5F5F5F5F5F5F5F5
310
F5F5F5F5F5F5F5F5F5F5F5F5F5F5F5F5F5F5F5F5F5F5F5F5F5F5F5F5F5F5F5F5F5F5F5F5F5F5F5F5F5E2F5F5F5E2E2F5F5F5E2F5F5F5F5F5F5F5F5F5F5F5F5F5F5F5F5F5F5F5F5F5F5F5F5F5F5F5F5F5F5F5F5F5F5F5F5F5F5F5F5F5F5F5F5F5F5F5F5F5F5F5F5F5F5F5F5F5F5F5F5F5F5F5F5F5F5F5F5F5F5F5F5F5F5F5F5
310
F5F5F5F5F5F5F5F5F5F5F5F5F5F5F5F5F5F5F5F5F5F5F5F5F5F5F5F5F5F5F5F5F5F5F5F5F5F5F5F5F5F5F5F5F5F5F5F5F5F5F5F5F5F5F5F5F5F5F5F5F5F5F5F5F5F5F5F5F5F5F5F5F5F5F5F5F5F5F5F5F5F5F5F5F5F5F5F5F5F5F5F5F5F5E2F5F5F5E2E2F5F5F5E2F5F5F5F5F5F5F5F5F5F5F5F5F5F5F5F5F5F5F5F5F5F5F5
310
F5F5F5F5F5F5F5F5F5F5F5F5F5F5F5F5F5F5F5F5F5F5F5F5F5F5F5F5F5F5F5F5F5F5F5F5F5F5F5F5F5F5F5F5F5F5F5F5F5F5F5F5F5F5F5F5F5F5F5F5F5F5F5F5F5F5F5F5F5F5F5F5F5F5F5F5F5F5F5F5F5F5F5F5F5F5F5F5F5F5F5F5F5F5F5F5F5F5F5F5F5F5F5F5F5F5F5F5F5F5F5F5F5F5F5F5F5F5F5F5F5F5F5F5F5F5F5
310
F5F5F5F5F5F5F5F5F5F5F5F5F5F5F5F5F5F5F5F5E2F5F5F5E2E2F5F5F5E2F5F5F5F5F5F5F5F5F5F5F5F5F5F5F5F5F5F5F5F5F5F5F5F5F5F5F5F5F5F5F5F5F5F5F5F5F5F5F5F5F5F5F5F5F5F5F5F5F5F5F5F5F5F5F5F5F5F5F5F5F5F5F5F5F5F5F5F5F5F5F5F5F5F5F5F5F5F5F5F5F5F5F5F5F5F5F5F5F5F5F5F5F5F5F5F5F5
310
F5F5F5F5F5F5F5F5F5F5F5F5F5F5F5F5F5F5F5F5F5F5F5F5F5F5F5F5F5F5F5F5F5F5F5F5F5F5F5F5F5F5F5F5F5F5F5F5F5F5F5F5F5F5F5F5F5F5F5F5F5F5F5F5F5F5F5F5F5F5F5F5F5E2F5F5F5E2E2F5F5F5E2F5F5F5F5F5F5F5F5F5F5F5F5F5F5F5F5F5F5F5F5F5F5F5F5F5F5F5F5F5F5F5F5F5F5F5F5F5F5F5F5F5F5F5F5
310
F5F5F5F5F5F5F5F5F5F5F5F5F5F5F5F5F5F5F5F5F5F5F5F5F5F5F5F5F5F5F5F5F5F5F5F5F5F5F5F5F5F5F5F5F5F5F5F5F5F5F5F5F5F5F5F5F5F5F5F5F5F5F5F5F5F5F5F5F5F5F5F5F5F5F5F5F5F5F5F5F5F5F5F5F5F5F5F5F5F5F5F5F5F5F5F5F5F5F5F5F5F5F5F5F5F5F5F5F5F5F5F5F5F5F5F5F5F5F5F5F5F5F5F5F5F5E2
310
F5F5F5E2E2F5F5F5E2F5F5F5F5F5F5F5F5F5F5F5F5F5F5F5F5F5F5F5F5F5F5F5F5F5F5F5F5F5F5F5F5F5F5F5F5F5F5F5F5F5F5F5F5F5F5F5F5F5F5F5F5F5F5F5F5F5F5F5F5F5F5F5F5F5F5F5F5F5F5F5F5F5F5F5F5F5F5F5F5F5F5F5F5F5F5F5F5F5F5F5F5F5F5F5F5F5F5F5F5F5F5F5F5F5F5F5F5F5F5F5F5F5F5F5F5F5F5
310
F5F5F5F5F5F5F5F5F5F5F5F5F5F5F5F5F5F5F5F5F5F5F5F5F5F5F5F5F5F5F5F5F5F5F5F5F5F5F5F5F5F5F5F5F5F5F5F5F5F5F5F5E2F5F5F5E2E2F5F5F5E2F5F5F5F5F5F5F5F5F5F5F5F5F5F5F5F5F5F5F5F5F5F5F5F5F5F5F5F5F5F5F5F5F5F5F5F5F5F5F5F5F5F5F5F5F5F5F5F5F5F5F5F5F5F5F5F5F5F5F5F5F5F5F5F5F5
310
F5F5F5F5F5F5F5F5F5F5F5F5F5F5F5F5F5F5F5F5F5F5F5F5F5F5F5F5F5F5F5F5F5F5F5F5F5F5F5F5F5F5F5F5F5F5F5F5F5F5F5F5F5F5F5F5F5F5F5F5F5F5F5F5F5F5F5F5F5F5F5F5F5F5F5F5F5F5F5F5F5F5F5F5F5F5F5F5F5F5F5F5F5F5F5F5F5F5F5F5F5F5F5F5F5E2F5F5F5E2E2F5F5F5E2F5F5F5F5F5F5F5F5F5F5F5F5
310
F5F5F5F5F5F5F5F5F5F5F5F5F5F5F5F5F5F5F5F5F5F5F5F5F5F5F5F5F5F5F5F5F5F5F5F5F5F5F5F5F5F5F5F5F5F5F5F5F5F5F5F5F5F5F5F5F5F5F5F5F5F5F5F5F5F5F5F5F5F5F5F5F5F5F5F5F5F5F5F5F5F5F5F5F5F5F5F5F5F5F5F5F5F5F5F5F5F5F5F5F5F5F5F5F5F5F5F5F5F5F5F5F5F5F5F5F5F5F5F5F5F5F5F5F5F5F5
310
F5F5F5F5F5F5F5F5F5F5F5F5F5F5F5F5F5F5F5F5F5F5F5F5F5F5F5F5F5F5F5E2F5F5F5E2E2F5F5F5E2F5F5F5F5F5F5F5F5F5F5F5F5F5F5F5F5F5F5F5F5F5F5F5F5F5F5F5F5F5F5F5F5F5F5F5F5F5F5F5F5F5F5F5F5F5F5F5F5F5F5F5F5F5F5F5F5F5F5F5F5F5F5F5F5F5F5F5F5F5F5F5F5F5F5F5F5F5F5F5F5F5F5F5F5F5F5
310
F5F5F5F5F5F5F5F5F5F5F5F5F5F5F5F5F5F5F5F5F5F5F5F5F5F5F5F5F5F5F5F5F5F5F5F5F5F5F5F5F5F5F5F5F5F5F5F5F5F5F5F5F5F5F5F5F5F5F5F5F5F5F5F5F5F5F5F5F5F5F5F5F5F5F5F5F5F5F5F5F5F5F5F5E2F5F5F5E2E2F5F5F5E2F5F5F5F5F5F5F5F5F5F5F5F5F5F5F5F5F5F5F5F5F5F5F5F5F5F5F5F5F5F5F5F5F5
310
F5F5F5F5F5F5F5F5F5F5F5F5F5F5F5F5F5F5F5F5F5F5F5F5F5F5F5F5F5F5F5F5F5F5F5F5F5F5F5F5F5F5F5F5F5F5F5F5F5F5F5F5F5F5F5F5F5F5F5F5F5F5F5F5F5F5F5F5F5F5F5F5F5F5F5F5F5F5F5F5F5F5F5F5F5F5F5F5F5F5F5F5F5F5F5F5F5F5F5F5F5F5F5F5F5F5F5F5F5F5F5F5F5F5F5F5F5F5F5F5F5F5F5F5F5F5F5
310
F5F5F5F5F5F5F5F5F5F5E2F5F5F5E2E2F5F5F5E2F5F5F5F5F5F5F5F5F5F5F5F5F5F5F5F5F5F5F5F5F5F5F5F5F5F5F5F5F5F5F5F5F5F5F5F5F5F5F5F5F5F5F5F5F5F5F5F5F5F5F5F5F5F5F5F5F5F5F5F5F5F5F5F5F5F5F5F5F5F5F5F5F5F5F5F5F5F5F5F5F5F5F5F5F5F5F5F5F5F5F5F5F5F5F5F5F5F5F5F5F5F5F5F5F5F5F5
310
F5F5F5F5F5F5F5F5F5F5F5F5F5F5F5F5F5F5F5F5F5F5F5F5F5F5F5F5F5F5F5F5F5F5F5F5F5F5F5F5F5F5F5F5F5F5F5F5F5F5F5F5F5F5F5F5F5F5F5F5F5F5F5E2F5F5F5E2E2F5F5F5E2F5F5F5F5F5F5F5F5F5F5F5F5F5F5F5F5F5F5F5F5F5F5F5F5F5F5F5F5F5F5F5F5F5F5F5F5F5F5F5F5F5F5F5F5F5F5F5F5F5F5F5F5F5F5
310
F5F5F5F5F5F5F5F5F5F5F5F5F5F5F5F5F5F5F5F5F5F5F5F5F5F5F5F5F5F5F5F5F5F5F5F5F5F5F5F5F5F5F5F5F5F5F5F5F5F5F5F5F5F5F5F5F5F5F5F5F5F5F5F5F5F5F5F5F5F5F5F5F5F5F5F5F5F5F5F5F5F5F5F5F5F5F5F5F5F5F5F5F5F5F5F5F5F5F5F5F5F5F5F5F5F5F5F5F5F5F5F5F5F5F5F5E2F5F5F5E2E2F5F5F5E2F5
310
F5F5F5F5F5F5F5F5F5F5F5F5F5F5F5F5F5F5F5F5F5F5F5F5F5F5F5F5F5F5F5F5F5F5F5F5F5F5F5F5F5F5F5F5F5F5F5F5F5F5F5F5F5F5F5F5F5F5F5F5F5F5F5F5F5F5F5F5F5F5F5F5F5F5F5F5F5F5F5F5F5F5F5F5F5F5F5F5F5F5F5F5F5F5F5F5F5F5F5F5F5F5F5F5F5F5F5F5F5F5F5F5F5F5F5F5F5F5F5F5F5F5F5F5F5F5F5
310
F5F5F5F5F5F5F5F5F5F5F5F5F5F5F5F5F5F5F5F5F5F5F5F5F5F5F5F5F5F5F5F5F5F5F5F5F5F5F5F5F5F5E2F5F5F5E2E2F5F5F5E2F5F5F5F5F5F5F5F5F5F5F5F5F5F5F5F5F5F5F5F5F5F5F5F5F5F5F5F5F5F5F5F5F5F5F5F5F5F5F5F5F5F5F5F5F5F5F5F5F5F5F5F5F5F5F5F5F5F5F5F5F5F5F5F5F5F5F5F5F5F5F5F5F5F5F5
310
F5F5F5F5F5F5F5F5F5F5F5F5F5F5F5F5F5F5F5F5F5F5F5F5F5F5F5F5F5F5F5F5F5F5F5F5F5F5F5F5F5F5F5F5F5F5F5F5F5F5F5F5F5F5F5F5F5F5F5F5F5F5F5F5F5F5F5F5F5F5F5F5F5F5F5F5F5F5F5F5F5F5F5F5F5F5F5F5F5F5F5F5F5F5F5E2F5F5F5E2E2F5F5F5F5F5F5F5F5F5F5F5F5F5F5F5F5F5F5F5F5F5F5F5F5F5F5
310
F5F5F5F5F5F5F5F5F5F5F5F5F5F5F5F5F5F5F5F5F5F5F5F5F5F5F5F5F5F5F5F5F5F5F5F5F5F5F5F5F5F5F5F5F5F5F5F5F5F5F5F5F5F5F5F5F5F5F5F5F5F5F5F5F5F5F5F5F5F5F5F5F5F5F5F5F5F5F5F5F5F5F5F5F5F5F5F5F5F5F5F5F5F5F5F5F5F5F5F5F5F5F5F5F5F5F5F5F5F5F5F5F5F5F5F5F5F5F5F5F5F5F5F5F5F5F5
310
F5F5F5F5F5F5F5F5F5F5F5F5F5F5F5F5F5F5F5F5F5F5F5F5F5E2E2F5F5F5F5F5F5F5F5F5F5F5F5F5F5F5F5F5F5F5F5F5F5F5F5F5F5F5F5F5F5F5F5F5F5F5F5F5F5F5F5F5F5F5F5F5F5F5F5F5F5F5F5F5F5F5F5F5F5F5F5F5F5F5F5F5F5F5F5F5F5F5F5F5F5F5F5F5F5F5F5F5F5F5F5F5F5F5F5F5F5F5F5F5F5F5F5F5F5F5F5
310
F5F5F5F5F5F5F5F5F5F5F5F5F5F5F5F5F5F5F5F5F5F5F5F5F5F5F5F5F5F5F5F5F5F5F5F5F5F5F5F5F5F5F5F5F5F5F5F5F5F5F5F5F5F5F5F5F5F5F5F5F5F5F5F5F5F5F5F5F5F5F5F5F5F5F5F5F5F5E2E2F5F5F5F5F5F5F5F5F5F5F5F5F5F5F5F5F5F5F5F5F5F5F5F5F5F5F5F5F5F5F5F5F5F5F5F5F5F5F5F5F5F5F5F5F5F5F5
310
F5F5F5F5F5F5F5F5F5F5F5F5F5F5F5F5F5F5F5F5F5F5F5F5F5F5F5F5F5F5F5F5F5F5F5F5F5F5F5F5F5F5F5F5F5F5F5F5F5F5F5F5F5F5F5F5F5F5F5F5F5F5F5F5F5F5F5F5F5F5F5F5F5F5F5F5F5F5F5F5F5F5F5F5F5F5F5F5F5F5F5F5F5F5F5F5F5F5F5F5F5F5F5F5F5F5F5F5F5F5F5F5F5F5F5F5F5F5F5F5F5F5F5F5F5F5F5
310
F5F5F5F5E2E2F5F5F5F5F5F5F5F5F5F5F5F5F5F5F5F5F5F5F5F5F5F5F5F5F5F5F5F5F5F5F5F5F5F5F5F5F5F5F5F5F5F5F5F5F5F5F5F5F5F5F5F5F5F5F5F5F5F5F5F5F5F5F5F5F5F5F5F5F5F5F5F5F5F5F5F5F5F5F5F5F5F5F5F5F5F5F5F5F5F5F5F5F5F5F5F5F5F5F5F5F5F5F5F5F5F5F5F5F5F5F5F5F5F5F5F5F5F5F5F5F5
310
F5F5F5F5F5F5F5F5F5F5F5F5F5F5F5F5F5F5F5F5F5F5F5F5F5F5F5F5F5F5F5F5F5F5F5F5F5F5F5F5F5F5F5F5F5F5F5F5F5F5F5F5F5F5F5F5F5E2E2F5F5F5F5F5F5F5F5F5F5F5F5F5F5F5F5F5F5F5F5F5F5F5F5F5F5F5F5F5F5F5F5F5F5F5F5F5F5F5F5F5F5F5F5F5F5F5F5F5F5F5F5F5F5F5F5F5F5F5F5F5F5F5F5F5F5F5F5
310
F5F5F5F5F5F5F5F5F5F5F5F5F5F5F5F5F5F5F5F5F5F5F5F5F5F5F5F5F5F5F5F5F5F5F5F5F5F5F5F5F5F5F5F5F5F5F5F5F5F5F5F5F5F5F5F5F5F5F5F5F5F5F5F5F5F5F5F5F5F5F5F5F5F5F5F5F5F5F5F5F5F5F5F5F5F5F5F5F5F5F5F5F5F5F5F5F5F5F5F5F5F5F5F5F5F5F5F5F5F5E2E2F5F5F5F5F5F5F5F5F5F5F5F5F5F5F5
310
F5F5F5F5F5F5F5F5F5F5F5F5F5F5F5F5F5F5F5F5F5F5F5F5F5F5F5F5F5F5F5F5F5F5F5F5F5F5F5F5F5F5F5F5F5F5F5F5F5F5F5F5F5F5F5F5F5F5F5F5F5F5F5F5F5F5F5F5F5F5F5F5F5F5F5F5F5F5F5F5F5F5F5F5F5F5F5F5F5F5F5F5F5F5F5F5F5F5F5F5F5F5F5F5F5F5F5F5F5F5F5F5F5F5F5F5F5F5F5F5F5F5F5F5F5F5F5
310
F5F5F5F5F5F5F5F5F5F5F5F5F5F5F5F5F5F5F5F5F5F5F5F5F5F5F5F5F5F5F5F5F5F5F5F5E2E2F5F5F5F5F5F5F5F5F5F5F5F5F5F5F5F5F5F5F5F5F5F5F5F5F5F5F5F5F5F5F5F5F5F5F5F5F5F5F5F5F5F5F5F5F5F5F5F5F5F5F5F5F5F5F5F5F5F5F5F5F5F5F5F5F5F5F5F5F5F5F5F5F5F5F5F5F5F5F5F5F5F5F5F5F5F5F5F5F5
310
F5F5F5F5F5F5F5F5F5F5F5F5F5F5F5F5F5F5F5F5F5F5F5F5F5F5F5F5F5F5F5F5F5F5F5F5F5F5F5F5F5F5F5F5F5F5F5F5F5F5F5F5F5F5F5F5F5F5F5F5F5F5F5F5F5F5F5F5F5F5F5F5F5F5F5F5F5F5F5F5F5F5F5F5F5F5F5F5F5E2E2F5F5F5F5F5F5F5F5F5F5F5F5F5F5F5F5F5F5F5F5F5F5F5F5F5F5F5F5F5F5F5F5F5F5F5F5
310
F5F5F5F5F5F5F5F5F5F5F5F5F5F5F5F5F5F5F5F5F5F5F5F5F5F5F5F5F5F5F5F5F5F5F5F5F5F5F5F5F5F5F5F5F5F5F5F5F5F5F5F5F5F5F5F5F5F5F5F5F5F5F5F5F5F5F5F5F5F5F5F5F5F5F5F5F5F5F5F5F5F5F5F5F5F5F5F5F5F5F5F5F5F5F5F5F5F5F5F5F5F5F5F5F5F5F5F5F5F5F5F5F5F5F5F5F5F5F5F5F5F5F5F5F5F5F5
310
F5F5F5F5F5F5F5F5F5F5F5F5F5F5F5E2E2F5F5F5F5F5F5F5F5F5F5F5F5F5F5F5F5F5F5F5F5F5F5F5F5F5F5F5F5F5F5F5F5F5F5F5F5F5F5F5F5F5F5F5F5F5F5F5F5F5F5F5F5F5F5F5F5F5F5F5F5F5F5F5F5F5F5F5F5F5F5F5F5F5F5F5F5F5F5F5F5F5F5F5F5F5F5F5F5F5F5F5F5F5F5F5F5F5F5F5F5F5F5F5F5F5F5F5F5F5F5
310
F5F5F5F5F5F5F5F5F5F5F5F5F5F5F5F5F5F5F5F5F5F5F5F5F5F5F5F5F5F5F5F5F5F5F5F5F5F5F5F5F5F5F5F5F5F5F5F5F5F5F5F5F5F5F5F5F5F5F5F5F5F5F5F5F5F5F5F5E2E2F5F5F5E2F5F5F5F5F5F5F5F5F5F5F5F5F5F5F5F5F5F5F5F5F5F5F5F5F5F5F5F5F5F5F5F5F5F5F5F5F5F5F5F5F5F5F5F5F5F5F5F5F5F5F5F5F5
310
F5F5F5F5F5F5F5F5F5F5F5F5F5F5F5F5F5F5F5F5F5F5F5F5F5F5F5F5F5F5F5F5F5F5F5F5F5F5F5F5F5F5F5F5F5F5F5F5F5F5F5F5F5F5F5F5F5F5F5F5F5F5F5F5F5F5F5F5F5F5F5F5F5F5F5F5F5F5F5F5F5F5F5F5F5F5F5F5F5F5F5F5F5F5F5F5F5F5F5F5F5F5F5F5F5F5F5F5F5F5F5F5F5F5F5F5F5E2F5F5F5E2E2F5F5F5E2
310
F5F5F5F5F5F5F5F5F5F5F5F5F5F5F5F5F5F5F5F5F5F5F5F5F5F5F5F5F5F5F5F5F5F5F5F5F5F5F5F5F5F5F5F5F5F5F5F5F5F5F5F5F5F5F5F5F5F5F5F5F5F5F5F5F5F5F5F5F5F5F5F5F5F5F5F5F5F5F5F5F5F5F5F5F5F5F5F5F5F5F5F5F5F5F5F5F5F5F5F5F5F5F5F5F5F5F5F5F5F5F5F5F5F5F5F5F5F5F5F5F5F5F5F5F5F5F5
310
F5F5F5F5F5F5F5F5F5F5F5F5F5F5F5F5F5F5F5F5F5F5F5F5F5F5F5F5F5F5F5F5F5F5F5F5F5F5F5F5F5F5F5E2F5F5F5E2E2F5F5F5E2F5F5F5F5F5F5F5F5F5F5F5F5F5F5F5F5F5F5F5F5F5F5F5F5F5F5F5F5F5F5F5F5F5F5F5F5F5F5F5F5F5F5F5F5F5F5F5F5F5F5F5F5F5F5F5F5F5F5F5F5F5F5F5F5F5F5F5F5F5F5F5F5F5F5
310
F5F5F5F5F5F5F5F5F5F5F5F5F5F5F5F5F5F5F5F5F5F5F5F5F5F5F5F5F5F5F5F5F5F5F5F5F5F5F5F5F5F5F5F5F5F5F5F5F5F5F5F5F5F5F5F5F5F5F5F5F5F5F5F5F5F5F5F5F5F5F5F5F5F5F5F5F5F5F5F5F5F5F5F5F5F5F5F5F5F5F5F5F5F5F5F5E2F5F5F5E2E2F5F5F5E2F5F5F5F5F5F5F5F5F5F5F5F5F5F5F5F5F5F5F5F5F5
310
F5F5F5F5F5F5F5F5F5F5F5F5F5F5F5F5F5F5F5F5F5F5F5F5F5F5F5F5F5F5F5F5F5F5F5F5F5F5F5F5F5F5F5F5F5F5F5F5F5F5F5F5F5F5F5F5F5F5F5F5F5F5F5F5F5F5F5F5F5F5F5F5F5F5F5F5F5F5F5F5F5F5F5F5F5F5F5F5F5F5F5F5F5F5F5F5F5F5F5F5F5F5F5F5F5F5F5F5F5F5F5F5F5F5F5F5F5F5F5F5F5F5F5F5F5F5F5
310
F5F5F5F5F5F5F5F5F5F5F5F5F5F5F5F5F5F5F5F5F5F5E2F5F5F5E2E2F5F5F5E2F5F5F5F5F5F5F5F5F5F5F5F5F5F5F5F5F5F5F5F5F5F5F5F5F5F5F5F5F5F5F5F5F5F5F5F5F5F5F5F5F5F5F5F5F5F5F5F5F5F5F5F5F5F5F5F5F5F5F5F5F5F5F5F5F5F5F5F5F5F5F5F5F5F5F5F5F5F5F5F5F5F5F5F5F5F5F5F5F5F5F5F5F5F5F5
310
F5F5F5F5F5F5F5F5F5F5F5F5F5F5F5F5F5F5F5F5F5F5F5F5F5F5F5F5F5F5F5F5F5F5F5F5F5F5F5F5F5F5F5F5F5F5F5F5F5F5F5F5F5F5F5F5F5F5F5F5F5F5F5F5F5F5F5F5F5F5F5F5F5F5F5E2F5F5F5E2E2F5F5F5E2F5F5F5F5F5F5F5F5F5F5F5F5F5F5F5F5F5F5F5F5F5F5F5F5F5F5F5F5F5F5F5F5F5F5F5F5F5F5F5F5F5F5
310
F5F5F5F5F5F5F5F5F5F5F5F5F5F5F5F5F5F5F5F5F5F5F5F5F5F5F5F5F5F5F5F5F5F5F5F5F5F5F5F5F5F5F5F5F5F5F5F5F5F5F5F5F5F5F5F5F5F5F5F5F5F5F5F5F5F5F5F5F5F5F5F5F5F5F5F5F5F5F5F5F5F5F5F5F5F5F5F5F5F5F5F5F5F5F5F5F5F5F5F5F5F5F5F5F5F5F5F5F5F5F5F5F5F5F5F5F5F5F5F5F5F5F5F5F5F5F5
310
F5E2F5F5F5E2E2F5F5F5E2F5F5F5F5F5F5F5F5F5F5F5F5F5F5F5F5F5F5F5F5F5F5F5F5F5F5F5F5F5F5F5F5F5F5F5F5F5F5F5F5F5F5F5F5F5F5F5F5F5F5F5F5F5F5F5F5F5F5F5F5F5F5F5F5F5F5F5F5F5F5F5F5F5F5F5F5F5F5F5F5F5F5F5F5F5F5F5F5F5F5F5F5F5F5F5F5F5F5F5F5F5F5F5F5F5F5F5F5F5F5F5F5F5F5F5F5
310
F5F5F5F5F5F5F5F5F5F5F5F5F5F5F5F5F5F5F5F5F5F5F5F5F5F5F5F5F5F5F5F5F5F5F5F5F5F5F5F5F5F5F5F5F5F5F5F5F5F5F5F5F5F5E2F5F5F5E2E2F5F5F5E2F5F5F5F5F5F5F5F5F5F5F5F5F5F5F5F5F5F5F5F5F5F5F5F5F5F5F5F5F5F5F5F5F5F5F5F5F5F5F5F5F5F5F5F5F5F5F5F5F5F5F5F5F5F5F5F5F5F5F5F5F5F5F5
310
F5F5F5F5F5F5F5F5F5F5F5F5F5F5F5F5F5F5F5F5F5F5F5F5F5F5F5F5F5F5F5F5F5F5F5F5F5F5F5F5F5F5F5F5F5F5F5F5F5F5F5F5F5F5F5F5F5F5F5F5F5F5F5F5F5F5F5F5F5F5F5F5F5F5F5F5F5F5F5F5F5F5F5F5F5F5F5F5F5F5F5F5F5F5F5F5F5F5F5F5F5F5F5F5F5F5F5E2F5F5F5E2E2F5F5F5E2E2E2E2E2E2E2E2F5F5F5
310
F5F5F5F5F5F5E2E2E2E2E2E2E2E2E2E2E2E2E2E2E2E2F5F5F5F5F5F5F5F5F5E2E2E2E2E2E2E2E2E2E2E2E2E2E2E2F5F5F5F5F5F5F5F5F5E2E2E2E2E2E2E2E2E2E2E2E2E2E2E2E2F5F5F5F5F5F5F5F5E2E2E2E2E2E2E2E2E2E2E2E2E2E2E2E2F5F5F5F5F5F5F5F5F5E2E2E2E2E2E2E2E2E2E2E2E2E2E2E2F5F5F5F5F5F5F5F5
310
F5E2E2E2E2E2E2E2E2E2E2E2E2E2E2E2E2F5F5F5F5F5F5F5F5F5E2E2E2E2E2E2E2E2F5F5F5E2E2F5F5F5F5F5F5F5F5F5F5F5F5F5F5F5F5F5F5F5F5F5F5F5F5F5F5F5F5F5F5F5F5F5F5F5F5F5F5F5F5F5F5F5F5F5F5F5F5F5F5F5F5F5F5F5F5F5F5F5F5F5F5F5F5F5F5F5F5F5F5F5F5F5F5F5F5F5F5F5F5F5F5F5F5F5F5F5F5
310
F5F5F5F5F5F5F5F5F5F5F5F5F5F5F5F5F5F5F5F5F5F5F5F5F5F5F5F5F5F5F5F5F5F5F5F5F5F5F5F5F5F5F5F5F5F5F5F5F5F5F5F5F5F5F5F5F5F5F5F5F5F5F5F5F5F5F5F5F5F5F5F5F5F5F5F5F5F5F5F5F5F5F5F5F5F5F5F5F5F5E2E2F5F5F5F5F5F5F5F5F5F5F5F5F5F5F5F5F5F5F5F5F5F5F5F5F5F5F5F5F5F5F5F5F5F5F5
310
F5F5F5F5F5F5F5F5F5F5F5F5F5F5F5F5F5F5F5F5F5F5F5F5F5F5F5F5F5F5F5F5F5F5F5F5F5F5F5F5F5F5F5F5F5F5F5F5F5F5F5F5F5F5F5F5F5F5F5F5F5F5F5F5F5F5F5F5F5F5F5F5F5F5F5F5F5F5F5F5F5F5F5F5F5F5F5F5F5F5F5F5F5F5F5F5F5F5F5F5F5F5F5F5F5F5F5F5F5F5F5F5F5F5F5F5F5F5F5F5F5F5F5F5F5F5F5
310
F5F5F5F5F5F5F5F5F5F5F5F5F5F5F5F5E2E2F5F5F5F5F5F5F5F5F5F5F5F5F5F5F5F5F5F5F5F5F5F5F5F5F5F5F5F5F5F5F5F5F5F5F5F5F5F5F5F5F5F5F5F5F5F5F5F5F5F5F5F5F5F5F5F5F5F5F5F5F5F5F5F5F5F5F5F5F5F5F5F5F5F5F5F5F5F5F5F5F5F5F5F5F5F5F5F5F5F5F5F5F5F5F5F5F5F5F5F5F5F5F5F5F5F5F5F5F5
310
F5F5F5F5F5F5F5F5F5F5F5F5F5F5F5F5F5F5F5F5F5F5F5F5F5F5F5F5F5F5F5F5F5F5F5F5F5F5F5F5F5F5F5F5F5F5F5F5F5F5F5F5F5F5F5F5F5F5F5F5F5F5F5F5F5F5F5F5F5E2E2F5F5F5F5F5F5F5F5F5F5F5F5F5F5F5F5F5F5F5F5F5F5F5F5F5F5F5F5F5F5F5F5F5F5F5F5F5F5F5F5F5F5F5F5F5F5F5F5F5F5F5F5F5F5F5F5
310
F5F5F5F5F5F5F5F5F5F5F5F5F5F5F5F5F5F5F5F5F5F5F5F5F5F5F5F5F5F5F5F5F5F5F5F5F5F5F5F5F5F5F5F5F5F5F5F5F5F5F5F5F5F5F5F5F5F5F5F5F5F5F5F5F5F5F5F5F5F5F5F5F5F5F5F5F5F5F5F5F5F5F5F5F5F5F5F5F5F5F5F5F5F5F5F5F5F5F5F5F5F5F5F5F5F5F5F5F5F5F5F5F5F5F5F5F5F5F5F5F5F5E2E2E2E2E2
310
E2E2E2E2E2E2E2E2E2E2E2E2E2E2E2E2E2E2E2E2E2E2E2E2E2E2E2E2E2E2E2E2E2E2E2E2E2E2E2E2E2E2E2E2E2E2E2E2E2E2E2E2E2E2E2E2E2E2E2E2E2E2E2E2E2E2E2E2E2E2E2E2E2E2E2E2E2E2E2E2E2E2E2E2E2E2E2E2E2E2E2E2E2E2E2E2E2E2E2E2E2E2E2E2E2E2E2E2E2E2E2E2E2E2E2E2E2E2E2E2E2E2E2E2E2E2E2
310
E2E2E2E2E2E2E2E2E2E2E2E2E2E2E2E2E2E2E2E2E2E2E2E2E2E2E2E2E2E2E2E2E2E2E2E2E2E2E2E2E2E2E2E2E2E2E2E2E2
  0
XRECORD
  5
1F9F
102
{ACAD_REACTORS
330
1F9E
102
}
330
1F9E
100
AcDbXrecord
280
     1
102
SHADEPLOT
 70
     0
102
SHADEPLOTRESLEVEL
 70
     2
102
SHADEPLOTCUSTOMDPI
 70
   300
  0
ENDSEC
  0
EOF
