  0
SECTION
  2
HEADER
  9
$ACADVER
  1
AC1015
  9
$ACADMAINTVER
 70
    20
  9
$DWGCODEPAGE
  3
ANSI_1252
  9
$INSBASE
 10
0.0
 20
0.0
 30
0.0
  9
$EXTMIN
 10
0.0
 20
-0.0000000000000063
 30
0.0
  9
$EXTMAX
 10
11.00000000000012
 20
8.500000000000001
 30
0.0
  9
$LIMMIN
 10
0.0
 20
0.0
  9
$LIMMAX
 10
17.0
 20
11.0
  9
$ORTHOMODE
 70
     1
  9
$REGENMODE
 70
     1
  9
$FILLMODE
 70
     1
  9
$QTEXTMODE
 70
     0
  9
$MIRRTEXT
 70
     1
  9
$LTSCALE
 40
1.0
  9
$ATTMODE
 70
     1
  9
$TEXTSIZE
 40
0.12
  9
$TRACEWID
 40
0.05
  9
$TEXTSTYLE
  7
outline drawings
  9
$CLAYER
  8
0
  9
$CELTYPE
  6
BYLAYER
  9
$CECOLOR
 62
   256
  9
$CELTSCALE
 40
1.0
  9
$DISPSILH
 70
     0
  9
$DIMSCALE
 40
1.0
  9
$DIMASZ
 40
0.125
  9
$DIMEXO
 40
0.0625
  9
$DIMDLI
 40
0.38
  9
$DIMRND
 40
0.0
  9
$DIMDLE
 40
0.0
  9
$DIMEXE
 40
0.18
  9
$DIMTP
 40
0.0
  9
$DIMTM
 40
0.0
  9
$DIMTXT
 40
0.18
  9
$DIMCEN
 40
0.09
  9
$DIMTSZ
 40
0.0
  9
$DIMTOL
 70
     0
  9
$DIMLIM
 70
     0
  9
$DIMTIH
 70
     1
  9
$DIMTOH
 70
     1
  9
$DIMSE1
 70
     0
  9
$DIMSE2
 70
     0
  9
$DIMTAD
 70
     0
  9
$DIMZIN
 70
     0
  9
$DIMBLK
  1

  9
$DIMASO
 70
     1
  9
$DIMSHO
 70
     1
  9
$DIMPOST
  1
 mm\X
  9
$DIMAPOST
  1
 in
  9
$DIMALT
 70
     1
  9
$DIMALTD
 70
     2
  9
$DIMALTF
 40
0.0393700787
  9
$DIMLFAC
 40
25.4
  9
$DIMTOFL
 70
     0
  9
$DIMTVP
 40
0.0
  9
$DIMTIX
 70
     0
  9
$DIMSOXD
 70
     0
  9
$DIMSAH
 70
     0
  9
$DIMBLK1
  1

  9
$DIMBLK2
  1

  9
$DIMSTYLE
  2
Outline Drawings
  9
$DIMCLRD
 70
     0
  9
$DIMCLRE
 70
     0
  9
$DIMCLRT
 70
     0
  9
$DIMTFAC
 40
1.0
  9
$DIMGAP
 40
0.09
  9
$DIMJUST
 70
     0
  9
$DIMSD1
 70
     0
  9
$DIMSD2
 70
     0
  9
$DIMTOLJ
 70
     1
  9
$DIMTZIN
 70
     0
  9
$DIMALTZ
 70
     0
  9
$DIMALTTZ
 70
     0
  9
$DIMUPT
 70
     0
  9
$DIMDEC
 70
     0
  9
$DIMTDEC
 70
     0
  9
$DIMALTU
 70
     2
  9
$DIMALTTD
 70
     2
  9
$DIMTXSTY
  7
outline drawings
  9
$DIMAUNIT
 70
     0
  9
$DIMADEC
 70
     0
  9
$DIMALTRND
 40
0.0
  9
$DIMAZIN
 70
     0
  9
$DIMDSEP
 70
    46
  9
$DIMATFIT
 70
     3
  9
$DIMFRAC
 70
     0
  9
$DIMLDRBLK
  1

  9
$DIMLUNIT
 70
     2
  9
$DIMLWD
 70
    -2
  9
$DIMLWE
 70
    -2
  9
$DIMTMOVE
 70
     0
  9
$LUNITS
 70
     2
  9
$LUPREC
 70
     4
  9
$SKETCHINC
 40
0.1
  9
$FILLETRAD
 40
0.125
  9
$AUNITS
 70
     0
  9
$AUPREC
 70
     0
  9
$MENU
  1
.
  9
$ELEVATION
 40
0.0
  9
$PELEVATION
 40
0.0
  9
$THICKNESS
 40
0.0
  9
$LIMCHECK
 70
     0
  9
$CHAMFERA
 40
0.125
  9
$CHAMFERB
 40
0.125
  9
$CHAMFERC
 40
1.0
  9
$CHAMFERD
 40
0.0
  9
$SKPOLY
 70
     1
  9
$TDCREATE
 40
2453727.421006238
  9
$TDUCREATE
 40
2453727.587672905
  9
$TDUPDATE
 40
2453854.470737824
  9
$TDUUPDATE
 40
2453854.637404491
  9
$TDINDWG
 40
0.1241332407
  9
$TDUSRTIMER
 40
0.1241330556
  9
$USRTIMER
 70
     1
  9
$ANGBASE
 50
0.0
  9
$ANGDIR
 70
     0
  9
$PDMODE
 70
     0
  9
$PDSIZE
 40
0.0
  9
$PLINEWID
 40
0.0
  9
$SPLFRAME
 70
     0
  9
$SPLINETYPE
 70
     6
  9
$SPLINESEGS
 70
     8
  9
$HANDSEED
  5
1815
  9
$SURFTAB1
 70
     6
  9
$SURFTAB2
 70
     6
  9
$SURFTYPE
 70
     6
  9
$SURFU
 70
     6
  9
$SURFV
 70
     6
  9
$UCSBASE
  2

  9
$UCSNAME
  2

  9
$UCSORG
 10
0.0
 20
0.0
 30
0.0
  9
$UCSXDIR
 10
1.0
 20
0.0
 30
0.0
  9
$UCSYDIR
 10
0.0
 20
1.0
 30
0.0
  9
$UCSORTHOREF
  2

  9
$UCSORTHOVIEW
 70
     0
  9
$UCSORGTOP
 10
0.0
 20
0.0
 30
0.0
  9
$UCSORGBOTTOM
 10
0.0
 20
0.0
 30
0.0
  9
$UCSORGLEFT
 10
0.0
 20
0.0
 30
0.0
  9
$UCSORGRIGHT
 10
0.0
 20
0.0
 30
0.0
  9
$UCSORGFRONT
 10
0.0
 20
0.0
 30
0.0
  9
$UCSORGBACK
 10
0.0
 20
0.0
 30
0.0
  9
$PUCSBASE
  2

  9
$PUCSNAME
  2

  9
$PUCSORG
 10
0.0
 20
0.0
 30
0.0
  9
$PUCSXDIR
 10
1.0
 20
0.0
 30
0.0
  9
$PUCSYDIR
 10
0.0
 20
1.0
 30
0.0
  9
$PUCSORTHOREF
  2

  9
$PUCSORTHOVIEW
 70
     0
  9
$PUCSORGTOP
 10
0.0
 20
0.0
 30
0.0
  9
$PUCSORGBOTTOM
 10
0.0
 20
0.0
 30
0.0
  9
$PUCSORGLEFT
 10
0.0
 20
0.0
 30
0.0
  9
$PUCSORGRIGHT
 10
0.0
 20
0.0
 30
0.0
  9
$PUCSORGFRONT
 10
0.0
 20
0.0
 30
0.0
  9
$PUCSORGBACK
 10
0.0
 20
0.0
 30
0.0
  9
$USERI1
 70
     0
  9
$USERI2
 70
     0
  9
$USERI3
 70
     0
  9
$USERI4
 70
     0
  9
$USERI5
 70
     0
  9
$USERR1
 40
0.0
  9
$USERR2
 40
0.0
  9
$USERR3
 40
0.0
  9
$USERR4
 40
0.0
  9
$USERR5
 40
0.0
  9
$WORLDVIEW
 70
     1
  9
$SHADEDGE
 70
     3
  9
$SHADEDIF
 70
    70
  9
$TILEMODE
 70
     1
  9
$MAXACTVP
 70
    48
  9
$PINSBASE
 10
0.0
 20
0.0
 30
0.0
  9
$PLIMCHECK
 70
     0
  9
$PEXTMIN
 10
1.000000000000000E+20
 20
1.000000000000000E+20
 30
1.000000000000000E+20
  9
$PEXTMAX
 10
-1.000000000000000E+20
 20
-1.000000000000000E+20
 30
-1.000000000000000E+20
  9
$PLIMMIN
 10
-0.2500002402958907
 20
-0.2499999962453767
  9
$PLIMMAX
 10
10.74999951940821
 20
8.249999763458731
  9
$UNITMODE
 70
     0
  9
$VISRETAIN
 70
     1
  9
$PLINEGEN
 70
     0
  9
$PSLTSCALE
 70
     1
  9
$TREEDEPTH
 70
  3020
  9
$CMLSTYLE
  2
STANDARD
  9
$CMLJUST
 70
     0
  9
$CMLSCALE
 40
1.0
  9
$PROXYGRAPHICS
 70
     1
  9
$MEASUREMENT
 70
     0
  9
$CELWEIGHT
370
    -1
  9
$ENDCAPS
280
     0
  9
$JOINSTYLE
280
     0
  9
$LWDISPLAY
290
     0
  9
$INSUNITS
 70
     1
  9
$HYPERLINKBASE
  1

  9
$STYLESHEET
  1

  9
$XEDIT
290
     1
  9
$CEPSNTYPE
380
     0
  9
$PSTYLEMODE
290
     1
  9
$FINGERPRINTGUID
  2
{A9A2E012-4CEE-4C8F-8310-F012569D63E6}
  9
$VERSIONGUID
  2
{E56D89F9-9131-45D6-B64F-FA47B99BCFC4}
  9
$EXTNAMES
290
     1
  9
$PSVPSCALE
 40
0.0
  9
$OLESTARTUP
290
     0
  0
ENDSEC
  0
SECTION
  2
CLASSES
  0
CLASS
  1
ACMESTATEMGR
  2
AcMeStateMgr
  3
AcMeServices
 90
        0
280
     0
281
     0
  0
CLASS
  1
ACMESCOPE
  2
AcMeScope
  3
AcMeServices
 90
        0
280
     0
281
     0
  0
CLASS
  1
ACMECOMMANDHISTORY
  2
AcMeCommandHistory
  3
AcMeServices
 90
        0
280
     0
281
     0
  0
CLASS
  1
ACRFINSADJUSTERMGR
  2
AcRfInsAdjusterMgr
  3
AcMeServices
 90
        0
280
     0
281
     0
  0
CLASS
  1
ACMEDRAWINGMAN
  2
AcMeDrawingMan
  3
AcMeServices
 90
        0
280
     0
281
     0
  0
CLASS
  1
AMATTR
  2
AcMeAttribute
  3
AcMeServices
 90
    32768
280
     0
281
     0
  0
CLASS
  1
ACMEBOMCOLUMN
  2
AcMeBOMColumn
  3
AcMeServices
 90
    32768
280
     0
281
     0
  0
CLASS
  1
ACMEBOMCONF
  2
AcMeBOMConf
  3
AcMeServices
 90
    32768
280
     0
281
     0
  0
CLASS
  1
ACMEBOMTABLE
  2
AcMeBOMTable
  3
AcMeServices
 90
    32768
280
     0
281
     0
  0
CLASS
  1
ACMEBOMENTRY
  2
AcMeBOMEntry
  3
AcMeServices
 90
    32768
280
     0
281
     0
  0
CLASS
  1
ACMEVIEW
  2
AcMeView
  3
AcMeServices
 90
    32768
280
     0
281
     0
  0
CLASS
  1
ACGREFMASTER
  2
AcGrefMaster
  3
AcAttribServices
 90
        0
280
     0
281
     0
  0
CLASS
  1
AMIMASTER
  2
AmiMaster
  3
AmiServices
 90
        0
280
     0
281
     0
  0
CLASS
  1
ACASGREFMASTER
  2
AcAsGrefMaster
  3
AutoSurfResolverServices
 90
        0
280
     0
281
     0
  0
CLASS
  1
ADAPPL
  2
AcAdAppl
  3
DesignerServices
 90
        0
280
     0
281
     0
  0
CLASS
  1
DEPMGR
  2
AcAdDepMgr
  3
DesignerServices
 90
        0
280
     0
281
     0
  0
CLASS
  1
PARAMMGR
  2
AcAdParamMgr
  3
DesignerServices
 90
        0
280
     0
281
     0
  0
CLASS
  1
PARAMSCOPE
  2
AcAdParamScope
  3
DesignerServices
 90
        0
280
     0
281
     0
  0
CLASS
  1
ACIMSYSVARMAN
  2
AcImSysVarManager
  3
AcMeServices
 90
        0
280
     0
281
     0
  0
CLASS
  1
ACIMINTSYSVAR
  2
AcImIntSysVar
  3
AcMeServices
 90
        0
280
     0
281
     0
  0
CLASS
  1
ACIMREALSYSVAR
  2
AcImRealSysVar
  3
AcMeServices
 90
        0
280
     0
281
     0
  0
CLASS
  1
ACIMSTRSYSVAR
  2
AcImStrSysVar
  3
AcMeServices
 90
        0
280
     0
281
     0
  0
CLASS
  1
NAMEDAPPL
  2
AcAdNamedAppl
  3
DesignerServices
 90
        0
280
     0
281
     0
  0
CLASS
  1
ADHNTMPLT
  2
AdHoleNoteTemplateMgr
  3
DesignerServices
 90
    32768
280
     0
281
     0
  0
CLASS
  1
AM_HNTEMPLATE_MGR_NAME
  2
AdHoleNoteTemplateMgrName
  3
DesignerServices
 90
    32768
280
     0
281
     0
  0
CLASS
  1
ACADGREFMODULE
  2
AcAdGrefModule
  3
AdGrefServices
 90
        0
280
     0
281
     0
  0
CLASS
  1
AM_DRAWING_MGR
  2
AcDmDwgMgr
  3
AcMechDwgViewMgmt
 90
        0
280
     0
281
     0
  0
CLASS
  1
AM_DWG_DOCUMENT
  2
AcDmDwgDocument
  3
AcMechDwgViewMgmt
 90
        0
280
     0
281
     0
  0
CLASS
  1
AM_DWG_SHEET
  2
AcDmSheet
  3
AcMechDwgViewMgmt
 90
        0
280
     0
281
     0
  0
CLASS
  1
AM_VIEWDIMPARMAP
  2
AcDmViewDimParMap
  3
AcMechDwgViewMgmt
 90
        0
280
     0
281
     0
  0
CLASS
  1
AM_DWGMGR_NAME
  2
AcDmDwgMgrName
  3
AcMechDwgViewMgmt
 90
        0
280
     0
281
     0
  0
CLASS
  1
ACAMPROJECT
  2
AcAmProject
  3
DesignerAssemblies
 90
        0
280
     0
281
     0
  0
CLASS
  1
ACAMGRCOMPSET
  2
AcAmGrCompSet
  3
DesignerAssemblies
 90
    32768
280
     0
281
     0
  0
CLASS
  1
ACAMGRCOMPDEFSET
  2
AcAmGrCompDefSet
  3
DesignerAssemblies
 90
        0
280
     0
281
     0
  0
CLASS
  1
ACAMGRCOMPDEF
  2
AcAmGrCompDef
  3
DesignerAssemblies
 90
        0
280
     0
281
     0
  0
CLASS
  1
ACCMCONTEXT
  2
AcCmContext
  3
DesignerAssemblies
 90
        0
280
     0
281
     0
  0
CLASS
  1
ACAMCOMPDEF
  2
AcAmCompDef
  3
DesignerAssemblies
 90
        0
280
     0
281
     0
  0
CLASS
  1
ACAMCOMPDEFMGR
  2
AcAmCompDefMgr
  3
DesignerAssemblies
 90
        0
280
     0
281
     0
  0
CLASS
  1
AMCONTEXTMGR
  2
AcAmContextMgr
  3
DesignerAssemblies
 90
        0
280
     0
281
     0
  0
CLASS
  1
ACAMCONTEXTMODELER
  2
AcAmContextModeler
  3
DesignerAssemblies
 90
        0
280
     0
281
     0
  0
CLASS
  1
ACDMVIEWGEOM
  2
AcDmViewGeometry
  3
AcMechDwgViewMgmt
 90
        0
280
     0
281
     1
  0
CLASS
  1
CBROWSERAPPOBJECT
  2
CBrowserAppObject
  3
McadcomServices
 90
        0
280
     0
281
     0
  0
CLASS
  1
IM_STATIC_MAN
  2
AcImStaticVarManager
  3
AcMeServices
 90
        0
280
     0
281
     0
  0
CLASS
  1
ASAPP
  2
AcAsAppObject
  3
AutoSurfServices
 90
        0
280
     0
281
     0
  0
CLASS
  1
ACIMDBLSTATICVAR
  2
AcImDblStaticVar
  3
AcMeServices
 90
        0
280
     0
281
     0
  0
CLASS
  1
ACIMSTRSTATICVAR
  2
AcImStrStaticVar
  3
AcMeServices
 90
        0
280
     0
281
     0
  0
CLASS
  1
ACIMINTSTATICVAR
  2
AcImIntStaticVar
  3
AcMeServices
 90
        0
280
     0
281
     0
  0
CLASS
  1
CATALOGSTATE
  2
AcAmCatalogState
  3
DesignerAssemblies
 90
        0
280
     0
281
     0
  0
CLASS
  1
DM_PLACEHOLDER
  2
AcDmSelsetPlaceholder
  3
AcMechDwgViewMgmt
 90
        0
280
     0
281
     0
  0
CLASS
  1
DICTIONARYVAR
  2
AcDbDictionaryVar
  3
ObjectDBX Classes
 90
        0
280
     0
281
     0
  0
CLASS
  1
ACMSTANDARDJIS
  2
AcmStandardJIS
  3
"Amdt_StdImp|Product Description: AutoCAD Mechanical 2004 DX|Company: Autodesk"
 90
    32768
280
     0
281
     0
  0
CLASS
  1
ACMSTANDARDANSI
  2
AcmStandardANSI
  3
"Amdt_StdImp|Product Description: AutoCAD Mechanical 2004 DX|Company: Autodesk"
 90
        0
280
     0
281
     0
  0
CLASS
  1
ACMSTANDARDBSI
  2
AcmStandardBSI
  3
"Amdt_StdImp|Product Description: AutoCAD Mechanical 2004 DX|Company: Autodesk"
 90
    32768
280
     0
281
     0
  0
CLASS
  1
ACMSTANDARDDIN
  2
AcmStandardDIN
  3
"Amdt_StdImp|Product Description: AutoCAD Mechanical 2004 DX|Company: Autodesk"
 90
    32768
280
     0
281
     0
  0
CLASS
  1
ACMSTANDARDISO
  2
AcmStandardISO
  3
"Amdt_StdImp|Product Description: AutoCAD Mechanical 2004 DX|Company: Autodesk"
 90
    32768
280
     0
281
     0
  0
CLASS
  1
LAYER_INDEX
  2
AcDbLayerIndex
  3
ObjectDBX Classes
 90
        0
280
     0
281
     0
  0
CLASS
  1
IDBUFFER
  2
AcDbIdBuffer
  3
ObjectDBX Classes
 90
        0
280
     0
281
     0
  0
CLASS
  1
ACDBDICTIONARYWDFLT
  2
AcDbDictionaryWithDefault
  3
ObjectDBX Classes
 90
        0
280
     0
281
     0
  0
CLASS
  1
ACDBPLACEHOLDER
  2
AcDbPlaceHolder
  3
ObjectDBX Classes
 90
        0
280
     0
281
     0
  0
CLASS
  1
LAYOUT
  2
AcDbLayout
  3
ObjectDBX Classes
 90
        0
280
     0
281
     0
  0
CLASS
  1
ACME_DOCUMENT
  2
AcMeDbDoc
  3
AcMeServices
 90
        0
280
     0
281
     0
  0
CLASS
  1
AMGSETTINGSOBJ
  2
AmgSettingsObj
  3
"AcadM|Product Description: AutoCAD Mechanical 2000|Company: Autodesk"
 90
        0
280
     0
281
     0
  0
CLASS
  1
AMGOBJPROPCFG
  2
AmgObjPropCfg
  3
"AmgLay|Product Description: AutoCAD Mechanical 2000|Company: Autodesk"
 90
        1
280
     0
281
     0
  0
CLASS
  1
ACDBENTITYCACHE
  2
AcMeEntityCache
  3
AcMeServices
 90
        0
280
     0
281
     0
  0
CLASS
  1
GSMANAGER
  2
AcMeGSManager
  3
AcMeServices
 90
        0
280
     0
281
     0
  0
CLASS
  1
AMDTINTERNALREACTOR
  2
AmdtInternalReactor
  3
AcMeServices
 90
        0
280
     0
281
     0
  0
CLASS
  1
ACME_DATABASE
  2
AcMeDbDatabase
  3
AcMeServices
 90
        0
280
     0
281
     0
  0
CLASS
  1
ACGREFACADMASTER
  2
AcGrefacadMaster
  3
AcGrefServices
 90
        0
280
     0
281
     0
  0
CLASS
  1
AMDTMENUSTATEMGR
  2
AmdtMenuStateMgr
  3
McadcomServices
 90
        0
280
     0
281
     0
  0
CLASS
  1
AMDTMCOMMENUSTATE
  2
AmdtMcomMenuState
  3
McadcomServices
 90
        0
280
     0
281
     0
  0
CLASS
  1
MAPIADMODULE
  2
MApiAdModule
  3
MApiAdServices
 90
        0
280
     0
281
     0
  0
CLASS
  1
AMDTDMMENUSTATE
  2
AmdtDmMenuState
  3
AcMechDwgViewMgmt
 90
        0
280
     0
281
     0
  0
CLASS
  1
AMDTADMENUSTATE
  2
AmdtAdMenuState
  3
DesignerServices
 90
        0
280
     0
281
     0
  0
CLASS
  1
AMDTAMMENUSTATE
  2
AmdtAmMenuState
  3
DesignerAssemblies
 90
        0
280
     0
281
     0
  0
CLASS
  1
ACMDATADICTIONARY
  2
AcmDataDictionary
  3
"AcmSymBB|Product Description: AutoCAD Mechanical 2004 DX|Company: Autodesk"
 90
        0
280
     0
281
     0
  0
CLASS
  1
ACMDATAENTRYBLOCK
  2
AcmDataEntryBlock
  3
"AcmSymBB|Product Description: AutoCAD Mechanical 2004 DX|Company: Autodesk"
 90
        0
280
     0
281
     0
  0
CLASS
  1
AMDTBROWSERDBTAB
  2
AmdtBrowserDbTab
  3
McadcomServices
 90
        0
280
     0
281
     0
  0
CLASS
  1
ACAMGFILTERDAT
  2
AcAmgFilterDat
  3
"AcadM|Product Description: AutoCAD Mechanical 2000|Company: Autodesk"
 90
        0
280
     0
281
     0
  0
CLASS
  1
MAPIAMMOUDLE
  2
MApiAmModule
  3
MApiAmServices
 90
        0
280
     0
281
     0
  0
CLASS
  1
AMDTMAPISURFMOUDULE
  2
AmdtMApiSurfModule
  3
MApiSurfServices
 90
        0
280
     0
281
     0
  0
CLASS
  1
ACMSURFSTANDARDANSI
  2
AcmSurfTextStdANSI
  3
"Amdt_StdImp|Product Description: AutoCAD Mechanical 2004 DX|Company: Autodesk"
 90
        0
280
     0
281
     0
  0
CLASS
  1
ACMFCFSTANDARDANSI
  2
AcmFCFStdANSI
  3
"Amdt_StdImp|Product Description: AutoCAD Mechanical 2004 DX|Company: Autodesk"
 90
        0
280
     0
281
     0
  0
CLASS
  1
ACMWELDSTANDARDANSI
  2
AcmWeldingStdANSI
  3
"Amdt_StdImp|Product Description: AutoCAD Mechanical 2004 DX|Company: Autodesk"
 90
        0
280
     0
281
     0
  0
CLASS
  1
ACMIDSTANDARDANSI
  2
AcmIdStdANSI
  3
"Amdt_StdImp|Product Description: AutoCAD Mechanical 2004 DX|Company: Autodesk"
 90
        0
280
     0
281
     0
  0
CLASS
  1
ACMDATUMSTANDARDANSI
  2
AcmDatumStdANSI
  3
"Amdt_StdImp|Product Description: AutoCAD Mechanical 2004 DX|Company: Autodesk"
 90
        0
280
     0
281
     0
  0
CLASS
  1
ACMBOMSTANDARDANSI
  2
AcmBOMStdANSI
  3
"Amdt_StdImp|Product Description: AutoCAD Mechanical 2004 DX|Company: Autodesk"
 90
        0
280
     0
281
     0
  0
CLASS
  1
ACAMGLAYSTD
  2
AcAmgLayStd
  3
"AcAmgLayStd|Product Description: AutoCAD Mechanical 2000|Company: Autodesk"
 90
        0
280
     0
281
     0
  0
CLASS
  1
ACAMGDIMSTD
  2
AcAmgDimStd
  3
"AcAmgDimStd|Product Description: AutoCAD Mechanical 2000|Company: Autodesk"
 90
        0
280
     0
281
     0
  0
CLASS
  1
ACAMGTITLESTD
  2
AcAmgTitleStd
  3
"TITLEAPP"
 90
        0
280
     0
281
     0
  0
CLASS
  1
ACMDETAILSTANDARDANSI
  2
AmdtDetailSymStdANSI
  3
"Amdt_StdImp|Product Description: AutoCAD Mechanical 2004 DX|Company: Autodesk"
 90
        0
280
     0
281
     0
  0
CLASS
  1
ACMSECTIONSTANDARDANSI
  2
AmdtSectionSymStdANSI
  3
"Amdt_StdImp|Product Description: AutoCAD Mechanical 2004 DX|Company: Autodesk"
 90
        0
280
     0
281
     0
  0
CLASS
  1
ACMCENTERLINESTANDARDANSI
  2
AmdtCenterLineStdANSI
  3
"Amdt_StdImp|Product Description: AutoCAD Mechanical 2004 DX|Company: Autodesk"
 90
        0
280
     0
281
     0
  0
CLASS
  1
ACMTHREADLINESTANDARDANSI
  2
AmdtThreadLineStdANSI
  3
"Amdt_StdImp|Product Description: AutoCAD Mechanical 2004 DX|Company: Autodesk"
 90
        0
280
     0
281
     0
  0
CLASS
  1
ACMSURFSTANDARDBSI
  2
AcmSurfTextStdBSI
  3
"Amdt_StdImp|Product Description: AutoCAD Mechanical 2004 DX|Company: Autodesk"
 90
    32768
280
     0
281
     0
  0
CLASS
  1
ACMFCFSTANDARDBSI
  2
AcmFCFStdBSI
  3
"Amdt_StdImp|Product Description: AutoCAD Mechanical 2004 DX|Company: Autodesk"
 90
    32768
280
     0
281
     0
  0
CLASS
  1
ACMWELDSTANDARDBSI
  2
AcmWeldingStdBSI
  3
"Amdt_StdImp|Product Description: AutoCAD Mechanical 2004 DX|Company: Autodesk"
 90
    32768
280
     0
281
     0
  0
CLASS
  1
ACMIDSTANDARDBSI
  2
AcmIdStdBSI
  3
"Amdt_StdImp|Product Description: AutoCAD Mechanical 2004 DX|Company: Autodesk"
 90
    32768
280
     0
281
     0
  0
CLASS
  1
ACMDATUMSTANDARDBSI
  2
AcmDatumStdBSI
  3
"Amdt_StdImp|Product Description: AutoCAD Mechanical 2004 DX|Company: Autodesk"
 90
    32768
280
     0
281
     0
  0
CLASS
  1
ACMBOMSTANDARDBSI
  2
AcmBOMStdBSI
  3
"Amdt_StdImp|Product Description: AutoCAD Mechanical 2004 DX|Company: Autodesk"
 90
    32768
280
     0
281
     0
  0
CLASS
  1
ACMDETAILSTANDARDBSI
  2
AmdtDetailSymStdBSI
  3
"Amdt_StdImp|Product Description: AutoCAD Mechanical 2004 DX|Company: Autodesk"
 90
    32768
280
     0
281
     0
  0
CLASS
  1
ACMSECTIONSTANDARDBSI
  2
AmdtSectionSymStdBSI
  3
"Amdt_StdImp|Product Description: AutoCAD Mechanical 2004 DX|Company: Autodesk"
 90
    32768
280
     0
281
     0
  0
CLASS
  1
ACMCENTERLINESTANDARDBSI
  2
AmdtCenterLineStdBSI
  3
"Amdt_StdImp|Product Description: AutoCAD Mechanical 2004 DX|Company: Autodesk"
 90
    32768
280
     0
281
     0
  0
CLASS
  1
ACMTHREADLINESTANDARDBSI
  2
AmdtThreadLineStdBSI
  3
"Amdt_StdImp|Product Description: AutoCAD Mechanical 2004 DX|Company: Autodesk"
 90
    32768
280
     0
281
     0
  0
CLASS
  1
AMDTEDGESTANDARDDIN
  2
AmdtEdgeStdDIN
  3
"Amdt_StdImp|Product Description: AutoCAD Mechanical 2004 DX|Company: Autodesk"
 90
    32768
280
     0
281
     0
  0
CLASS
  1
ACMSURFSTANDARDDIN
  2
AcmSurfTextStdDIN
  3
"Amdt_StdImp|Product Description: AutoCAD Mechanical 2004 DX|Company: Autodesk"
 90
    32768
280
     0
281
     0
  0
CLASS
  1
ACMFCFSTANDARDDIN
  2
AcmFCFStdDIN
  3
"Amdt_StdImp|Product Description: AutoCAD Mechanical 2004 DX|Company: Autodesk"
 90
    32768
280
     0
281
     0
  0
CLASS
  1
ACMWELDSTANDARDDIN
  2
AcmWeldingStdDIN
  3
"Amdt_StdImp|Product Description: AutoCAD Mechanical 2004 DX|Company: Autodesk"
 90
    32768
280
     0
281
     0
  0
CLASS
  1
ACMIDSTANDARDDIN
  2
AcmIdStdDIN
  3
"Amdt_StdImp|Product Description: AutoCAD Mechanical 2004 DX|Company: Autodesk"
 90
    32768
280
     0
281
     0
  0
CLASS
  1
ACMDATUMSTANDARDDIN
  2
AcmDatumStdDIN
  3
"Amdt_StdImp|Product Description: AutoCAD Mechanical 2004 DX|Company: Autodesk"
 90
    32768
280
     0
281
     0
  0
CLASS
  1
ACMBOMSTANDARDDIN
  2
AcmBOMStdDIN
  3
"Amdt_StdImp|Product Description: AutoCAD Mechanical 2004 DX|Company: Autodesk"
 90
    32768
280
     0
281
     0
  0
CLASS
  1
ACMDETAILSTANDARDDIN
  2
AmdtDetailSymStdDIN
  3
"Amdt_StdImp|Product Description: AutoCAD Mechanical 2004 DX|Company: Autodesk"
 90
    32768
280
     0
281
     0
  0
CLASS
  1
ACMSECTIONSTANDARDDIN
  2
AmdtSectionSymStdDIN
  3
"Amdt_StdImp|Product Description: AutoCAD Mechanical 2004 DX|Company: Autodesk"
 90
    32768
280
     0
281
     0
  0
CLASS
  1
ACMCENTERLINESTANDARDDIN
  2
AmdtCenterLineStdDIN
  3
"Amdt_StdImp|Product Description: AutoCAD Mechanical 2004 DX|Company: Autodesk"
 90
    32768
280
     0
281
     0
  0
CLASS
  1
ACMTHREADLINESTANDARDDIN
  2
AmdtThreadLineStdDIN
  3
"Amdt_StdImp|Product Description: AutoCAD Mechanical 2004 DX|Company: Autodesk"
 90
    32768
280
     0
281
     0
  0
CLASS
  1
ACMSURFSTANDARDISO
  2
AcmSurfTextStdISO
  3
"Amdt_StdImp|Product Description: AutoCAD Mechanical 2004 DX|Company: Autodesk"
 90
    32768
280
     0
281
     0
  0
CLASS
  1
ACMFCFSTANDARDISO
  2
AcmFCFStdISO
  3
"Amdt_StdImp|Product Description: AutoCAD Mechanical 2004 DX|Company: Autodesk"
 90
    32768
280
     0
281
     0
  0
CLASS
  1
ACMWELDSTANDARDISO
  2
AcmWeldingStdISO
  3
"Amdt_StdImp|Product Description: AutoCAD Mechanical 2004 DX|Company: Autodesk"
 90
    32768
280
     0
281
     0
  0
CLASS
  1
ACMIDSTANDARDISO
  2
AcmIdStdISO
  3
"Amdt_StdImp|Product Description: AutoCAD Mechanical 2004 DX|Company: Autodesk"
 90
    32768
280
     0
281
     0
  0
CLASS
  1
ACMDATUMSTANDARDISO
  2
AcmDatumStdISO
  3
"Amdt_StdImp|Product Description: AutoCAD Mechanical 2004 DX|Company: Autodesk"
 90
    32768
280
     0
281
     0
  0
CLASS
  1
ACMBOMSTANDARDISO
  2
AcmBOMStdISO
  3
"Amdt_StdImp|Product Description: AutoCAD Mechanical 2004 DX|Company: Autodesk"
 90
    32768
280
     0
281
     0
  0
CLASS
  1
AMDTEDGESTANDARDISO
  2
AmdtEdgeStdISO
  3
"Amdt_StdImp|Product Description: AutoCAD Mechanical 2004 DX|Company: Autodesk"
 90
    32768
280
     0
281
     0
  0
CLASS
  1
ACMDETAILSTANDARDISO
  2
AmdtDetailSymStdISO
  3
"Amdt_StdImp|Product Description: AutoCAD Mechanical 2004 DX|Company: Autodesk"
 90
    32768
280
     0
281
     0
  0
CLASS
  1
ACMSECTIONSTANDARDISO
  2
AmdtSectionSymStdISO
  3
"Amdt_StdImp|Product Description: AutoCAD Mechanical 2004 DX|Company: Autodesk"
 90
    32768
280
     0
281
     0
  0
CLASS
  1
ACMCENTERLINESTANDARDISO
  2
AmdtCenterLineStdISO
  3
"Amdt_StdImp|Product Description: AutoCAD Mechanical 2004 DX|Company: Autodesk"
 90
    32768
280
     0
281
     0
  0
CLASS
  1
ACMTHREADLINESTANDARDISO
  2
AmdtThreadLineStdISO
  3
"Amdt_StdImp|Product Description: AutoCAD Mechanical 2004 DX|Company: Autodesk"
 90
    32768
280
     0
281
     0
  0
CLASS
  1
ACMSURFSTANDARDJIS
  2
AcmSurfTextStdJIS
  3
"Amdt_StdImp|Product Description: AutoCAD Mechanical 2004 DX|Company: Autodesk"
 90
    32768
280
     0
281
     0
  0
CLASS
  1
ACMFCFSTANDARDJIS
  2
AcmFCFStdJIS
  3
"Amdt_StdImp|Product Description: AutoCAD Mechanical 2004 DX|Company: Autodesk"
 90
    32768
280
     0
281
     0
  0
CLASS
  1
ACMWELDSTANDARDJIS
  2
AcmWeldingStdJIS
  3
"Amdt_StdImp|Product Description: AutoCAD Mechanical 2004 DX|Company: Autodesk"
 90
    32768
280
     0
281
     0
  0
CLASS
  1
ACMIDSTANDARDJIS
  2
AcmIdStdJIS
  3
"Amdt_StdImp|Product Description: AutoCAD Mechanical 2004 DX|Company: Autodesk"
 90
    32768
280
     0
281
     0
  0
CLASS
  1
ACMDATUMSTANDARDJIS
  2
AcmDatumStdJIS
  3
"Amdt_StdImp|Product Description: AutoCAD Mechanical 2004 DX|Company: Autodesk"
 90
    32768
280
     0
281
     0
  0
CLASS
  1
ACMBOMSTANDARDJIS
  2
AcmBOMStdJIS
  3
"Amdt_StdImp|Product Description: AutoCAD Mechanical 2004 DX|Company: Autodesk"
 90
    32768
280
     0
281
     0
  0
CLASS
  1
ACMDETAILSTANDARDJIS
  2
AmdtDetailSymStdJIS
  3
"Amdt_StdImp|Product Description: AutoCAD Mechanical 2004 DX|Company: Autodesk"
 90
    32768
280
     0
281
     0
  0
CLASS
  1
ACMSECTIONSTANDARDJIS
  2
AmdtSectionSymStdJIS
  3
"Amdt_StdImp|Product Description: AutoCAD Mechanical 2004 DX|Company: Autodesk"
 90
    32768
280
     0
281
     0
  0
CLASS
  1
ACMCENTERLINESTANDARDJIS
  2
AmdtCenterLineStdJIS
  3
"Amdt_StdImp|Product Description: AutoCAD Mechanical 2004 DX|Company: Autodesk"
 90
    32768
280
     0
281
     0
  0
CLASS
  1
ACMTHREADLINESTANDARDJIS
  2
AmdtThreadLineStdJIS
  3
"Amdt_StdImp|Product Description: AutoCAD Mechanical 2004 DX|Company: Autodesk"
 90
    32768
280
     0
281
     0
  0
CLASS
  1
ACMNOTESTANDARDANSI
  2
AmdtNoteStdANSI
  3
"Amdt_StdImp|Product Description: AutoCAD Mechanical 2004 DX|Company: Autodesk"
 90
        0
280
     0
281
     0
  0
CLASS
  1
ACAMGHOLECHARTSTDANSI
  2
AcAmgHoleChartStdANSI
  3
ACMSYMBB_MODULE_NAME
 90
        0
280
     0
281
     0
  0
CLASS
  1
TABLESTYLE
  2
AcDbTableStyle
  3
ObjectDBX Classes
 90
     2047
280
     0
281
     0
  0
CLASS
  1
AMDTNOTETEMPLATEDB
  2
AmdtNoteTemplateDB
  3
AMDT_STDIMP_MODULE_NAME
 90
        0
280
     0
281
     0
  0
CLASS
  1
SORTENTSTABLE
  2
AcDbSortentsTable
  3
ObjectDBX Classes
 90
        0
280
     0
281
     0
  0
CLASS
  1
IMAGE
  2
AcDbRasterImage
  3
ISM
 90
      127
280
     0
281
     1
  0
CLASS
  1
IMAGEDEF_REACTOR
  2
AcDbRasterImageDefReactor
  3
ISM
 90
        1
280
     0
281
     0
  0
CLASS
  1
IMAGEDEF
  2
AcDbRasterImageDef
  3
ISM
 90
        0
280
     0
281
     0
  0
CLASS
  1
RASTERVARIABLES
  2
AcDbRasterVariables
  3
ISM
 90
        0
280
     0
281
     0
  0
CLASS
  1
VAACXREFPANELOBJECT
  2
VaAcXREFPanelObject
  3
VAAC_ADDIN
 90
        0
280
     0
281
     0
  0
CLASS
  1
VAACIMAGEINVENTORY
  2
VaAcImageInventory
  3
VAAC_ADDIN
 90
        0
280
     0
281
     0
  0
ENDSEC
  0
SECTION
  2
TABLES
  0
TABLE
  2
VPORT
  5
8
330
0
100
AcDbSymbolTable
 70
     3
  0
VPORT
  5
1805
330
8
100
AcDbSymbolTableRecord
100
AcDbViewportTableRecord
  2
*Active
 70
     0
 10
0.0
 20
0.0
 11
1.0
 21
1.0
 12
5.500003906630914
 22
4.250125849118375
 13
0.0
 23
0.0
 14
0.125
 24
0.125
 15
1.0
 25
1.0
 16
0.0
 26
0.0
 36
1.0
 17
0.0
 27
0.0
 37
0.0
 40
8.549528879141746
 41
1.387234042553191
 42
50.0
 43
0.0
 44
0.0
 50
0.0
 51
0.0
 71
     0
 72
 20000
 73
     1
 74
     1
 75
     0
 76
     0
 77
     0
 78
     0
281
     0
 65
     0
110
0.0
120
0.0
130
0.0
111
1.0
121
0.0
131
0.0
112
0.0
122
1.0
132
0.0
 79
     0
146
0.0
  0
ENDTAB
  0
TABLE
  2
LTYPE
  5
5
330
0
100
AcDbSymbolTable
 70
    36
  0
LTYPE
  5
13
330
5
100
AcDbSymbolTableRecord
100
AcDbLinetypeTableRecord
  2
BYBLOCK
 70
     0
  3

 72
    65
 73
     0
 40
0.0
  0
LTYPE
  5
14
330
5
100
AcDbSymbolTableRecord
100
AcDbLinetypeTableRecord
  2
BYLAYER
 70
     0
  3

 72
    65
 73
     0
 40
0.0
  0
LTYPE
  5
15
330
5
100
AcDbSymbolTableRecord
100
AcDbLinetypeTableRecord
  2
CONTINUOUS
 70
     0
  3
Solid line
 72
    65
 73
     0
 40
0.0
  0
LTYPE
  5
8C
330
5
100
AcDbSymbolTableRecord
100
AcDbLinetypeTableRecord
  2
HIDDEN
 70
     0
  3
__ __ __ __ __ __ __ __ __ __ __ __ __ __ __ __
 72
    65
 73
     2
 40
0.375
 49
0.25
 74
     0
 49
-0.125
 74
     0
  0
LTYPE
  5
8E
330
5
100
AcDbSymbolTableRecord
100
AcDbLinetypeTableRecord
  2
PHANTOM2
 70
     0
  3
___ _ _ ___ _ _ ___ _ _ ___ _ _ ___ _ _ ___ _ _
 72
    65
 73
     6
 40
1.25
 49
0.625
 74
     0
 49
-0.125
 74
     0
 49
0.125
 74
     0
 49
-0.125
 74
     0
 49
0.125
 74
     0
 49
-0.125
 74
     0
  0
LTYPE
  5
99
330
5
100
AcDbSymbolTableRecord
100
AcDbLinetypeTableRecord
  2
CENTER
 70
     0
  3
____ _ ____ _ ____ _ ____ _ ____ _ ____ _ ____ 
 72
    65
 73
     4
 40
2.0
 49
1.25
 74
     0
 49
-0.25
 74
     0
 49
0.25
 74
     0
 49
-0.25
 74
     0
  0
LTYPE
  5
F2
330
5
100
AcDbSymbolTableRecord
100
AcDbLinetypeTableRecord
  2
ASULTYPE
 70
     0
  3
Solid line
 72
    65
 73
     2
 40
3.0
 49
2.5
 74
     0
 49
0.5
 74
     0
  0
LTYPE
  5
F3
330
5
100
AcDbSymbolTableRecord
100
AcDbLinetypeTableRecord
  2
ASVLTYPE
 70
     0
  3
__ __ __ __ __ __ __ __ __ __ __ __ __ __ __ __ __ __ __ __ __
 72
    65
 73
     2
 40
0.75
 49
0.5
 74
     0
 49
-0.25
 74
     0
  0
LTYPE
  5
15C
330
5
100
AcDbSymbolTableRecord
100
AcDbLinetypeTableRecord
  2
AM_ISO02W050
 70
     0
  3
__ __ __ __ __ __ __ __ __ __ __ __ __ __ __
 72
    65
 73
     2
 40
7.5
 49
6.0
 74
     0
 49
-1.5
 74
     0
  0
LTYPE
  5
15D
330
5
100
AcDbSymbolTableRecord
100
AcDbLinetypeTableRecord
  2
AM_ISO08W050
 70
     0
  3
____ . ____ . ____ . ____ . ____ . ____ . ____
 72
    65
 73
     4
 40
18.0
 49
12.0
 74
     0
 49
-1.5
 74
     0
 49
3.0
 74
     0
 49
-1.5
 74
     0
  0
LTYPE
  5
15E
330
5
100
AcDbSymbolTableRecord
100
AcDbLinetypeTableRecord
  2
AM_ISO09W050
 70
     0
  3
_____ . . _____ . . _____ . . ____ .. ____
 72
    65
 73
     6
 40
22.5
 49
12.0
 74
     0
 49
-1.5
 74
     0
 49
3.0
 74
     0
 49
-1.5
 74
     0
 49
3.0
 74
     0
 49
-1.5
 74
     0
  0
LTYPE
  5
15F
330
5
100
AcDbSymbolTableRecord
100
AcDbLinetypeTableRecord
  2
AM_ISO02W050x2
 70
     0
  3
 _ _ _ _ _ _ _ _ _ _ _ _
 72
    65
 73
     2
 40
3.75
 49
3.0
 74
     0
 49
-0.75
 74
     0
  0
LTYPE
  5
160
330
5
100
AcDbSymbolTableRecord
100
AcDbLinetypeTableRecord
  2
AM_ISO08W050x2
 70
     0
  3
__ . __ . __ . __ . __ . __
 72
    65
 73
     4
 40
9.0
 49
6.0
 74
     0
 49
-0.75
 74
     0
 49
1.5
 74
     0
 49
-0.75
 74
     0
  0
LTYPE
  5
163
330
5
100
AcDbSymbolTableRecord
100
AcDbLinetypeTableRecord
  2
amzigzag
 70
     0
  3
/\/-/\/-/\/-/\/-/\/-/\/
 72
    65
 73
     2
 40
11.0001
 49
0.0001
 74
     4
 75
   135
340
162
 46
0.04
 50
0.0
 44
0.0
 45
0.0
 49
-11.0
 74
     0
  0
LTYPE
  5
164
330
5
100
AcDbSymbolTableRecord
100
AcDbLinetypeTableRecord
  2
HIDDEN2
 70
     0
  3
Hidden (.5x) _ _ _ _ _ _ _ _ _ _ _ _ _ _ _ _ _
 72
    65
 73
     2
 40
0.1875
 49
0.125
 74
     0
 49
-0.0625
 74
     0
  0
LTYPE
  5
165
330
5
100
AcDbSymbolTableRecord
100
AcDbLinetypeTableRecord
  2
CENTER2
 70
     0
  3
Center (.5x) ___ _ ___ _ ___ _ ___ _ ___ _ ___
 72
    65
 73
     4
 40
1.125
 49
0.75
 74
     0
 49
-0.125
 74
     0
 49
0.125
 74
     0
 49
-0.125
 74
     0
  0
LTYPE
  5
2A6
330
5
100
AcDbSymbolTableRecord
100
AcDbLinetypeTableRecord
  2
Amconstr
 70
     0
  3
_______________________
 72
    65
 73
     2
 40
9999.0
 49
9999.0
 74
     0
 49
0.0
 74
     0
  0
LTYPE
  5
2B1
330
5
100
AcDbSymbolTableRecord
100
AcDbLinetypeTableRecord
  2
Amzigzag2
 70
     0
  3
/\/-/\/-/\/-/\/-/\/-/\/
 72
    65
 73
     2
 40
0.4401
 49
0.0001
 74
     4
 75
   135
340
162
 46
0.0016
 50
0.0
 44
0.0
 45
0.0
 49
-0.4400000000000001
 74
     0
  0
LTYPE
  5
2B2
330
5
100
AcDbSymbolTableRecord
100
AcDbLinetypeTableRecord
  2
AM_DIN_F_W050
 70
     0
  3
__ __ __ __ __ __ __ __ __ __ __ __ __ __ __
 72
    65
 73
     2
 40
6.25
 49
4.75
 74
     0
 49
-1.5
 74
     0
  0
LTYPE
  5
2B3
330
5
100
AcDbSymbolTableRecord
100
AcDbLinetypeTableRecord
  2
AM_DIN_G_W050
 70
     0
  3
____ . ____ . ____ . ____ . ____ . ____ . ____
 72
    65
 73
     4
 40
13.75
 49
9.75
 74
     0
 49
-1.5
 74
     0
 49
1.0
 74
     0
 49
-1.5
 74
     0
  0
LTYPE
  5
2B4
330
5
100
AcDbSymbolTableRecord
100
AcDbLinetypeTableRecord
  2
AM_DIN_K_W050
 70
     0
  3
_____ . . _____ . . _____ . . ____ .. ____
 72
    65
 73
     6
 40
16.25
 49
9.75
 74
     0
 49
-1.5
 74
     0
 49
1.0
 74
     0
 49
-1.5
 74
     0
 49
1.0
 74
     0
 49
-1.5
 74
     0
  0
LTYPE
  5
2B5
330
5
100
AcDbSymbolTableRecord
100
AcDbLinetypeTableRecord
  2
AM_DIN_G_W050x2
 70
     0
  3
__ . __ . __ . __ . __ . __
 72
    65
 73
     4
 40
6.875
 49
4.75
 74
     0
 49
-0.875
 74
     0
 49
0.375
 74
     0
 49
-0.875
 74
     0
  0
LTYPE
  5
2B6
330
5
100
AcDbSymbolTableRecord
100
AcDbLinetypeTableRecord
  2
AM_DIN_F_W050x2
 70
     0
  3
 _ _ _ _ _ _ _ _ _ _ _ _
 72
    65
 73
     2
 40
3.125
 49
2.25
 74
     0
 49
-0.875
 74
     0
  0
LTYPE
  5
2CC
330
5
100
AcDbSymbolTableRecord
100
AcDbLinetypeTableRecord
  2
ACANSTGBM
 70
     0
  3
__ . . __ . .
 72
    65
 73
     6
 40
9.0
 49
4.0
 74
     0
 49
-1.0
 74
     0
 49
1.0
 74
     0
 49
-1.0
 74
     0
 49
1.0
 74
     0
 49
-1.0
 74
     0
  0
LTYPE
  5
2CD
330
5
100
AcDbSymbolTableRecord
100
AcDbLinetypeTableRecord
  2
ACANSTGLM
 70
     0
  3
_ _ _ _ _
 72
    65
 73
     2
 40
3.0
 49
2.0
 74
     0
 49
-1.0
 74
     0
  0
LTYPE
  5
2E5
330
5
100
AcDbSymbolTableRecord
100
AcDbLinetypeTableRecord
  2
ACBSWELD
 70
     0
  3
_ _ _ _ _
 72
    65
 73
     2
 40
2.0
 49
2.0
 74
     0
 49
-1.0
 74
     0
  0
LTYPE
  5
2E8
330
5
100
AcDbSymbolTableRecord
100
AcDbLinetypeTableRecord
  2
ACBSITGB
 70
     0
  3
__ . . __ . .
 72
    65
 73
     6
 40
9.0
 49
4.0
 74
     0
 49
-1.0
 74
     0
 49
1.0
 74
     0
 49
-1.0
 74
     0
 49
1.0
 74
     0
 49
-1.0
 74
     0
  0
LTYPE
  5
2E9
330
5
100
AcDbSymbolTableRecord
100
AcDbLinetypeTableRecord
  2
ACBSITGL
 70
     0
  3
_ _ _ _ _
 72
    65
 73
     2
 40
3.0
 49
2.0
 74
     0
 49
-1.0
 74
     0
  0
LTYPE
  5
300
330
5
100
AcDbSymbolTableRecord
100
AcDbLinetypeTableRecord
  2
ACDINWELD
 70
     0
  3
_ _ _ _ _
 72
    65
 73
     2
 40
2.0
 49
2.0
 74
     0
 49
-1.0
 74
     0
  0
LTYPE
  5
303
330
5
100
AcDbSymbolTableRecord
100
AcDbLinetypeTableRecord
  2
ACDINTGB
 70
     0
  3
__ . . __ . .
 72
    65
 73
     6
 40
9.0
 49
4.0
 74
     0
 49
-1.0
 74
     0
 49
1.0
 74
     0
 49
-1.0
 74
     0
 49
1.0
 74
     0
 49
-1.0
 74
     0
  0
LTYPE
  5
304
330
5
100
AcDbSymbolTableRecord
100
AcDbLinetypeTableRecord
  2
ACDINTGL
 70
     0
  3
_ _ _ _ _
 72
    65
 73
     2
 40
3.0
 49
2.0
 74
     0
 49
-1.0
 74
     0
  0
LTYPE
  5
31A
330
5
100
AcDbSymbolTableRecord
100
AcDbLinetypeTableRecord
  2
ACISOWELD
 70
     0
  3
_ _ _ _ _
 72
    65
 73
     2
 40
2.0
 49
2.0
 74
     0
 49
-1.0
 74
     0
  0
LTYPE
  5
31D
330
5
100
AcDbSymbolTableRecord
100
AcDbLinetypeTableRecord
  2
ACISOTGB
 70
     0
  3
__ . . __ . .
 72
    65
 73
     6
 40
9.0
 49
4.0
 74
     0
 49
-1.0
 74
     0
 49
1.0
 74
     0
 49
-1.0
 74
     0
 49
1.0
 74
     0
 49
-1.0
 74
     0
  0
LTYPE
  5
31E
330
5
100
AcDbSymbolTableRecord
100
AcDbLinetypeTableRecord
  2
ACISOTGL
 70
     0
  3
_ _ _ _ _
 72
    65
 73
     2
 40
3.0
 49
2.0
 74
     0
 49
-1.0
 74
     0
  0
LTYPE
  5
337
330
5
100
AcDbSymbolTableRecord
100
AcDbLinetypeTableRecord
  2
ACJISTGB
 70
     0
  3
__ . . __ . .
 72
    65
 73
     6
 40
9.0
 49
4.0
 74
     0
 49
-1.0
 74
     0
 49
1.0
 74
     0
 49
-1.0
 74
     0
 49
1.0
 74
     0
 49
-1.0
 74
     0
  0
LTYPE
  5
338
330
5
100
AcDbSymbolTableRecord
100
AcDbLinetypeTableRecord
  2
ACJISTGL
 70
     0
  3
_ _ _ _ _
 72
    65
 73
     2
 40
3.0
 49
2.0
 74
     0
 49
-1.0
 74
     0
  0
LTYPE
  5
3A6
330
5
100
AcDbSymbolTableRecord
100
AcDbLinetypeTableRecord
  2
ACANSTGB
 70
     0
  3
__ . . __ . .
 72
    65
 73
     6
 40
0.35433070866
 49
0.15748031496
 74
     0
 49
-0.03937007874
 74
     0
 49
0.03937007874
 74
     0
 49
-0.03937007874
 74
     0
 49
0.03937007874
 74
     0
 49
-0.03937007874
 74
     0
  0
LTYPE
  5
3A7
330
5
100
AcDbSymbolTableRecord
100
AcDbLinetypeTableRecord
  2
ACANSTGL
 70
     0
  3
_ _ _ _ _
 72
    65
 73
     2
 40
0.11811023622
 49
0.07874015748
 74
     0
 49
-0.03937007874
 74
     0
  0
ENDTAB
  0
TABLE
  2
LAYER
  5
2
102
{ACAD_XDICTIONARY
360
44C
102
}
330
0
100
AcDbSymbolTable
 70
     9
  0
LAYER
  5
F
330
2
100
AcDbSymbolTableRecord
100
AcDbLayerTableRecord
  2
0
 70
     0
 62
     7
  6
CONTINUOUS
370
    -3
390
14F
  0
LAYER
  5
6AA
330
2
100
AcDbSymbolTableRecord
100
AcDbLayerTableRecord
  2
DEFPOINTS
 70
     0
 62
     7
  6
CONTINUOUS
290
     0
370
    -3
390
14F
  0
LAYER
  5
6AB
330
2
100
AcDbSymbolTableRecord
100
AcDbLayerTableRecord
  2
4
 70
     0
 62
    40
  6
CONTINUOUS
370
    -3
390
14F
  0
LAYER
  5
6AC
330
2
100
AcDbSymbolTableRecord
100
AcDbLayerTableRecord
  2
CENTER
 70
     0
 62
     3
  6
CENTER
370
     9
390
14F
  0
LAYER
  5
6AD
330
2
100
AcDbSymbolTableRecord
100
AcDbLayerTableRecord
  2
Hidden
 70
     0
 62
     4
  6
HIDDEN
370
    13
390
14F
  0
LAYER
  5
F01
330
2
100
AcDbSymbolTableRecord
100
AcDbLayerTableRecord
  2
10
 70
     0
 62
     7
  6
CONTINUOUS
370
    -3
390
14F
  0
LAYER
  5
F02
330
2
100
AcDbSymbolTableRecord
100
AcDbLayerTableRecord
  2
L-REV
 70
     0
 62
     4
  6
CONTINUOUS
370
    -3
390
14F
  0
LAYER
  5
F03
330
2
100
AcDbSymbolTableRecord
100
AcDbLayerTableRecord
  2
L1
 70
     0
 62
     7
  6
CONTINUOUS
370
    -3
390
14F
  0
LAYER
  5
11A3
330
2
100
AcDbSymbolTableRecord
100
AcDbLayerTableRecord
  2
dm
 70
     0
 62
     7
  6
CONTINUOUS
370
     9
390
14F
  0
ENDTAB
  0
TABLE
  2
STYLE
  5
3
330
0
100
AcDbSymbolTable
 70
    19
  0
STYLE
  5
10
330
3
100
AcDbSymbolTableRecord
100
AcDbTextStyleTableRecord
  2
STANDARD
 70
     0
 40
0.0
 41
1.0
 50
0.0
 71
     0
 42
0.12
  3
ROMANS.SHX
  4

  0
STYLE
  5
11D
330
3
100
AcDbSymbolTableRecord
100
AcDbTextStyleTableRecord
  2
ADESK1
 70
     0
 40
0.0
 41
1.0
 50
0.0
 71
     0
 42
0.12
  3
romans.shx
  4

  0
STYLE
  5
162
330
3
100
AcDbSymbolTableRecord
100
AcDbTextStyleTableRecord
  2

 70
     1
 40
0.0
 41
1.0
 50
0.0
 71
     0
 42
0.12
  3
ltypeshp.shx
  4

  0
STYLE
  5
2C5
330
3
100
AcDbSymbolTableRecord
100
AcDbTextStyleTableRecord
  2
ACANSTSI
 70
     0
 40
1.0
 41
1.0
 50
0.0
 71
     0
 42
3.5
  3
romans.shx
  4

  0
STYLE
  5
2C8
330
3
100
AcDbSymbolTableRecord
100
AcDbTextStyleTableRecord
  2
ACANSGDT
 70
     0
 40
0.0
 41
1.0
 50
0.0
 71
     0
 42
3.5
  3
amgdt.shx
  4

  0
STYLE
  5
2E0
330
3
100
AcDbSymbolTableRecord
100
AcDbTextStyleTableRecord
  2
ACBSITS
 70
     0
 40
1.0
 41
1.0
 50
0.0
 71
     0
 42
3.5
  3
isocp.shx
  4

  0
STYLE
  5
2E3
330
3
100
AcDbSymbolTableRecord
100
AcDbTextStyleTableRecord
  2
ACBSIGDT
 70
     0
 40
0.0
 41
1.0
 50
0.0
 71
     0
 42
3.5
  3
amgdt.shx
  4

  0
STYLE
  5
2FA
330
3
100
AcDbSymbolTableRecord
100
AcDbTextStyleTableRecord
  2
ACDINTS
 70
     0
 40
1.0
 41
1.0
 50
0.0
 71
     0
 42
3.5
  3
isocp.shx
  4

  0
STYLE
  5
2FE
330
3
100
AcDbSymbolTableRecord
100
AcDbTextStyleTableRecord
  2
ACDINGDT
 70
     0
 40
0.0
 41
1.0
 50
0.0
 71
     0
 42
3.5
  3
amgdt.shx
  4

  0
STYLE
  5
315
330
3
100
AcDbSymbolTableRecord
100
AcDbTextStyleTableRecord
  2
ACISOTS
 70
     0
 40
1.0
 41
1.0
 50
0.0
 71
     0
 42
3.5
  3
isocp.shx
  4

  0
STYLE
  5
318
330
3
100
AcDbSymbolTableRecord
100
AcDbTextStyleTableRecord
  2
ACISOGDT
 70
     0
 40
0.0
 41
1.0
 50
0.0
 71
     0
 42
3.5
  3
amgdt.shx
  4

  0
STYLE
  5
330
330
3
100
AcDbSymbolTableRecord
100
AcDbTextStyleTableRecord
  2
ACJISTS
 70
     0
 40
1.0
 41
1.0
 50
0.0
 71
     0
 42
3.5
  3
isocp.shx
  4
bigfont.shx
  0
STYLE
  5
333
330
3
100
AcDbSymbolTableRecord
100
AcDbTextStyleTableRecord
  2
ACJISGDT
 70
     0
 40
0.0
 41
1.0
 50
0.0
 71
     0
 42
3.5
  3
amgdt.shx
  4

  0
STYLE
  5
39B
330
3
100
AcDbSymbolTableRecord
100
AcDbTextStyleTableRecord
  2
ACANSTS
 70
     0
 40
1.0
 41
1.0
 50
0.0
 71
     0
 42
0.12
  3
romans.shx
  4

  0
STYLE
  5
4CF
330
3
100
AcDbSymbolTableRecord
100
AcDbTextStyleTableRecord
  2
USER1
 70
     0
 40
0.0
 41
1.0
 50
0.0
 71
     0
 42
0.12
  3
TXT.SHX
  4

  0
STYLE
  5
4D0
330
3
100
AcDbSymbolTableRecord
100
AcDbTextStyleTableRecord
  2
USER2
 70
     0
 40
0.0
 41
1.0
 50
0.0
 71
     0
 42
0.12
  3
SIMPLEX.SHX
  4

  0
STYLE
  5
4D1
330
3
100
AcDbSymbolTableRecord
100
AcDbTextStyleTableRecord
  2
USER3
 70
     0
 40
0.0
 41
1.0
 50
0.0
 71
     0
 42
0.12
  3
ITALIC.SHX
  4

  0
STYLE
  5
5AB
330
3
100
AcDbSymbolTableRecord
100
AcDbTextStyleTableRecord
  2
outline drawings
 70
     0
 40
0.0
 41
1.0
 50
0.0
 71
     0
 42
0.12
  3
ARIAL.TTF
  4

1001
ACAD
1000
Arial
1071
       34
  0
STYLE
  5
6AE
330
3
100
AcDbSymbolTableRecord
100
AcDbTextStyleTableRecord
  2
ROMANS
 70
     0
 40
2.5
 41
1.0
 50
0.0
 71
     0
 42
2.5
  3
romans.shx
  4

  0
ENDTAB
  0
TABLE
  2
VIEW
  5
6
330
0
100
AcDbSymbolTable
 70
     3
  0
VIEW
  5
193
330
6
100
AcDbSymbolTableRecord
100
AcDbViewTableRecord
  2
AMDTVIEW1
 70
     0
 40
11.38251346627189
 10
7.263840830449827
 20
5.691256733135946
 41
14.52768166089965
 11
0.0
 21
0.0
 31
1.0
 12
0.0
 22
0.0
 32
0.0
 42
50.0
 43
0.0
 44
0.0
 50
0.0
 71
     0
281
     0
 72
     0
  0
VIEW
  5
194
330
6
100
AcDbSymbolTableRecord
100
AcDbViewTableRecord
  2
AMDTVIEW2
 70
     0
 40
11.38251346627189
 10
7.263840830449827
 20
5.691256733135946
 41
14.52768166089965
 11
0.0
 21
0.0
 31
1.0
 12
0.0
 22
0.0
 32
0.0
 42
50.0
 43
0.0
 44
0.0
 50
0.0
 71
     0
281
     0
 72
     0
  0
VIEW
  5
195
330
6
100
AcDbSymbolTableRecord
100
AcDbViewTableRecord
  2
AMDTVIEW3
 70
     0
 40
11.38251346627189
 10
7.263840830449827
 20
5.691256733135946
 41
14.52768166089965
 11
0.0
 21
0.0
 31
1.0
 12
0.0
 22
0.0
 32
0.0
 42
50.0
 43
0.0
 44
0.0
 50
0.0
 71
     0
281
     0
 72
     0
  0
ENDTAB
  0
TABLE
  2
UCS
  5
7
330
0
100
AcDbSymbolTable
 70
     0
  0
ENDTAB
  0
TABLE
  2
APPID
  5
9
330
0
100
AcDbSymbolTable
 70
    15
  0
APPID
  5
11
330
9
100
AcDbSymbolTableRecord
100
AcDbRegAppTableRecord
  2
ACAD
 70
     0
  0
APPID
  5
9C
330
9
100
AcDbSymbolTableRecord
100
AcDbRegAppTableRecord
  2
AD_DRAW
 70
     0
  0
APPID
  5
B6
330
9
100
AcDbSymbolTableRecord
100
AcDbRegAppTableRecord
  2
DESIGNERASSEMBLIES
 70
     0
  0
APPID
  5
BD
330
9
100
AcDbSymbolTableRecord
100
AcDbRegAppTableRecord
  2
MCAD_NO_VIS
 70
     0
  0
APPID
  5
F4
330
9
100
AcDbSymbolTableRecord
100
AcDbRegAppTableRecord
  2
ASURF_PCURVE_APPNAME
 70
     0
  0
APPID
  5
168
330
9
100
AcDbSymbolTableRecord
100
AcDbRegAppTableRecord
  2
ACAD_TEMP_GRAPHIC
 70
     0
  0
APPID
  5
172
330
9
100
AcDbSymbolTableRecord
100
AcDbRegAppTableRecord
  2
ACATTRIBSERVICES
 70
     0
  0
APPID
  5
18F
330
9
100
AcDbSymbolTableRecord
100
AcDbRegAppTableRecord
  2
ACADM_DIM_EDIT
 70
     0
  0
APPID
  5
19D
330
9
100
AcDbSymbolTableRecord
100
AcDbRegAppTableRecord
  2
GENIUS_GENDIM_13
 70
     0
  0
APPID
  5
19E
330
9
100
AcDbSymbolTableRecord
100
AcDbRegAppTableRecord
  2
GENIUS_GENDTOL_13
 70
     0
  0
APPID
  5
19F
330
9
100
AcDbSymbolTableRecord
100
AcDbRegAppTableRecord
  2
GENIUS_GE3DTOL_13
 70
     0
  0
APPID
  5
2A2
330
9
100
AcDbSymbolTableRecord
100
AcDbRegAppTableRecord
  2
AMG_3D2D_5.0
 70
     0
  0
APPID
  5
3EE
330
9
100
AcDbSymbolTableRecord
100
AcDbRegAppTableRecord
  2
AMDT_DM_ADJ
 70
     0
  0
APPID
  5
4D3
330
9
100
AcDbSymbolTableRecord
100
AcDbRegAppTableRecord
  2
ACAD_DSTYLE_DIMTEXT_FILL
 70
     0
  0
APPID
  5
F04
330
9
100
AcDbSymbolTableRecord
100
AcDbRegAppTableRecord
  2
ACAD_PSEXT
 70
     0
  0
ENDTAB
  0
TABLE
  2
DIMSTYLE
  5
A
330
0
100
AcDbSymbolTable
 70
    36
100
AcDbDimStyleTable
 71
     6
340
606
340
1D
340
2D3
340
322
340
308
340
2ED
  0
DIMSTYLE
105
1D
330
A
100
AcDbSymbolTableRecord
100
AcDbDimStyleTableRecord
  2
STANDARD
 70
     0
340
10
  0
DIMSTYLE
105
2D3
330
A
100
AcDbSymbolTableRecord
100
AcDbDimStyleTableRecord
  2
AM_ANSI
 70
     0
  4
mm
 41
0.1
 42
0.05
 43
0.5
 44
0.1
 47
0.1
 48
0.1
 78
     7
 79
     2
140
0.12
141
0.0
146
0.71
147
0.06
176
   256
177
   256
178
     2
274
     4
284
     7
340
10
371
    -1
372
    -1
  0
DIMSTYLE
105
2D4
330
A
100
AcDbSymbolTableRecord
100
AcDbDimStyleTableRecord
  2
AM_ANSI$3
 70
     0
  4
mm
 41
0.1
 42
0.05
 43
0.5
 44
0.1
 47
0.1
 48
0.1
 78
     7
 79
     2
140
0.12
141
0.0
146
0.71
147
0.06
176
   256
177
   256
178
     2
274
     4
284
     7
288
     1
289
     0
340
10
371
    -1
372
    -1
  0
DIMSTYLE
105
2D5
330
A
100
AcDbSymbolTableRecord
100
AcDbDimStyleTableRecord
  2
AM_ANSI$4
 70
     0
  4
mm
 41
0.1
 42
0.05
 43
0.5
 44
0.1
 47
0.1
 48
0.1
 78
     7
 79
     2
140
0.12
141
0.0
146
0.71
147
0.06
176
   256
177
   256
178
     2
274
     4
284
     7
288
     1
289
     0
340
10
371
    -1
372
    -1
  0
DIMSTYLE
105
2D6
330
A
100
AcDbSymbolTableRecord
100
AcDbDimStyleTableRecord
  2
AM_ANSI$7
 70
     0
  4
mm
 41
0.1
 42
0.05
 43
0.5
 44
0.1
 47
0.1
 48
0.1
 78
     7
 79
     2
140
0.24
141
0.0
146
0.71
147
0.06
176
   256
177
   256
178
     2
274
     4
284
     7
340
10
371
    -1
372
    -1
  0
DIMSTYLE
105
2D7
330
A
100
AcDbSymbolTableRecord
100
AcDbDimStyleTableRecord
  2
AM_ANSI$SF
 70
     0
  4
mm
 41
0.1
 42
0.05
 43
0.5
 44
0.1
 47
0.1
 48
0.1
 75
     1
 76
     1
 78
     7
 79
     2
140
0.12
141
0.0
146
0.71
147
0.06
176
   256
177
   256
178
     2
274
     4
284
     7
340
10
371
    -1
372
    -1
  0
DIMSTYLE
105
2D8
330
A
100
AcDbSymbolTableRecord
100
AcDbDimStyleTableRecord
  2
AM_ANSI$SH
 70
     0
  4
mm
 41
0.1
 42
0.05
 43
0.5
 44
0.1
 47
0.1
 48
0.1
 75
     1
 76
     1
 78
     7
 79
     2
140
0.12
141
0.0
146
0.71
147
0.06
173
     1
176
   256
177
   256
178
     2
274
     4
284
     7
340
10
371
    -1
372
    -1
  0
DIMSTYLE
105
2ED
330
A
100
AcDbSymbolTableRecord
100
AcDbDimStyleTableRecord
  2
AM_BSI
 70
     0
  4
mm
 41
0.1574803149606299
 42
0.05
 43
0.5
 44
0.1
 47
0.1
 48
0.1
 73
     0
 74
     0
 77
     1
 78
     7
 79
     2
140
0.12
141
0.0
146
0.71
147
0.06
172
     1
176
   256
177
   256
178
     2
274
     4
283
     0
284
     7
340
10
371
    -1
372
    -1
  0
DIMSTYLE
105
2EE
330
A
100
AcDbSymbolTableRecord
100
AcDbDimStyleTableRecord
  2
AM_BSI$3
 70
     0
  4
mm
 41
0.1574803149606299
 42
0.05
 43
0.5
 44
0.1
 47
0.1
 48
0.1
 73
     0
 77
     1
 78
     7
 79
     2
140
0.12
141
0.0
146
0.71
147
0.06
176
   256
177
   256
178
     2
274
     4
283
     0
284
     7
288
     1
289
     0
340
10
371
    -1
372
    -1
  0
DIMSTYLE
105
2EF
330
A
100
AcDbSymbolTableRecord
100
AcDbDimStyleTableRecord
  2
AM_BSI$4
 70
     0
  4
mm
 41
0.1574803149606299
 42
0.05
 43
0.5
 44
0.1
 47
0.1
 48
0.1
 73
     0
 77
     1
 78
     7
 79
     2
140
0.12
141
0.0
146
0.71
147
0.06
176
   256
177
   256
178
     2
274
     4
283
     0
284
     7
288
     1
289
     0
340
10
371
    -1
372
    -1
  0
DIMSTYLE
105
2F0
330
A
100
AcDbSymbolTableRecord
100
AcDbDimStyleTableRecord
  2
AM_BSI$6
 70
     0
  4
mm
 41
0.1574803149606299
 42
0.05
 43
0.5
 44
0.1
 47
0.1
 48
0.1
 73
     0
 74
     0
 78
     7
 79
     2
140
0.12
141
0.0
146
0.71
147
0.06
172
     1
176
   256
177
   256
178
     2
274
     4
283
     0
284
     7
340
10
371
    -1
372
    -1
  0
DIMSTYLE
105
2F1
330
A
100
AcDbSymbolTableRecord
100
AcDbDimStyleTableRecord
  2
AM_BSI$7
 70
     0
  4
mm
 41
0.1
 42
0.05
 43
0.5
 44
0.1
 47
0.1
 48
0.1
 73
     0
 74
     0
 77
     1
 78
     7
 79
     2
140
0.24
141
0.0
146
0.71
147
0.06
172
     1
176
   256
177
   256
178
     2
274
     4
283
     0
284
     7
340
10
371
    -1
372
    -1
  0
DIMSTYLE
105
2F2
330
A
100
AcDbSymbolTableRecord
100
AcDbDimStyleTableRecord
  2
AM_BSI$SF
 70
     0
  4
mm
 41
0.1574803149606299
 42
0.05
 43
0.5
 44
0.1
 47
0.1
 48
0.1
 73
     0
 74
     0
 75
     1
 76
     1
 77
     1
 78
     7
 79
     2
140
0.12
141
0.0
146
0.71
147
0.06
172
     1
176
   256
177
   256
178
     2
274
     4
283
     0
284
     7
340
10
371
    -1
372
    -1
  0
DIMSTYLE
105
2F3
330
A
100
AcDbSymbolTableRecord
100
AcDbDimStyleTableRecord
  2
AM_BSI$SH
 70
     0
  4
mm
 41
0.1574803149606299
 42
0.05
 43
0.5
 44
0.1
 47
0.1
 48
0.1
 73
     0
 74
     0
 75
     1
 76
     1
 77
     1
 78
     7
 79
     2
140
0.12
141
0.0
144
2.0
146
0.71
147
0.06
172
     1
173
     1
176
   256
177
   256
178
     2
274
     4
283
     0
284
     7
340
10
371
    -1
372
    -1
  0
DIMSTYLE
105
308
330
A
100
AcDbSymbolTableRecord
100
AcDbDimStyleTableRecord
  2
AM_DIN
 70
     0
  4
mm
 41
0.1
 42
0.05
 43
0.5
 44
0.1
 47
0.1
 48
0.1
 73
     0
 74
     0
 77
     1
 78
     7
 79
     2
140
0.12
141
0.0
146
0.71
147
0.06
172
     1
176
   256
177
   256
178
     2
274
     4
283
     0
284
     7
340
10
371
    -1
372
    -1
  0
DIMSTYLE
105
309
330
A
100
AcDbSymbolTableRecord
100
AcDbDimStyleTableRecord
  2
AM_DIN$3
 70
     0
  4
mm
 41
0.1
 42
0.05
 43
0.5
 44
0.1
 47
0.1
 48
0.1
 73
     0
 77
     1
 78
     7
 79
     2
140
0.12
141
0.0
146
0.71
147
0.06
176
   256
177
   256
178
     2
274
     4
283
     0
284
     7
288
     1
289
     0
340
10
371
    -1
372
    -1
  0
DIMSTYLE
105
30A
330
A
100
AcDbSymbolTableRecord
100
AcDbDimStyleTableRecord
  2
AM_DIN$4
 70
     0
  4
mm
 41
0.1
 42
0.05
 43
0.5
 44
0.1
 47
0.1
 48
0.1
 73
     0
 77
     1
 78
     7
 79
     2
140
0.12
141
0.0
146
0.71
147
0.06
176
   256
177
   256
178
     2
274
     4
283
     0
284
     7
288
     1
289
     0
340
10
371
    -1
372
    -1
  0
DIMSTYLE
105
30B
330
A
100
AcDbSymbolTableRecord
100
AcDbDimStyleTableRecord
  2
AM_DIN$6
 70
     0
  4
mm
 41
0.1
 42
0.05
 43
0.5
 44
0.1
 47
0.1
 48
0.1
 73
     0
 74
     0
 78
     7
 79
     2
140
0.12
141
0.0
146
0.71
147
0.06
172
     1
176
   256
177
   256
178
     2
274
     4
283
     0
284
     7
340
10
371
    -1
372
    -1
  0
DIMSTYLE
105
30C
330
A
100
AcDbSymbolTableRecord
100
AcDbDimStyleTableRecord
  2
AM_DIN$7
 70
     0
  4
mm
 41
0.1
 42
0.05
 43
0.5
 44
0.1
 47
0.1
 48
0.1
 73
     0
 74
     0
 77
     1
 78
     7
 79
     2
140
0.24
141
0.0
146
0.71
147
0.06
172
     1
176
   256
177
   256
178
     2
274
     4
283
     0
284
     7
340
10
371
    -1
372
    -1
  0
DIMSTYLE
105
30D
330
A
100
AcDbSymbolTableRecord
100
AcDbDimStyleTableRecord
  2
AM_DIN$SF
 70
     0
  4
mm
 41
0.1
 42
0.05
 43
0.5
 44
0.1
 47
0.1
 48
0.1
 73
     0
 74
     0
 75
     1
 76
     1
 77
     1
 78
     7
 79
     2
140
0.12
141
0.0
146
0.71
147
0.06
172
     1
176
   256
177
   256
178
     2
274
     4
283
     0
284
     7
340
10
371
    -1
372
    -1
  0
DIMSTYLE
105
30E
330
A
100
AcDbSymbolTableRecord
100
AcDbDimStyleTableRecord
  2
AM_DIN$SH
 70
     0
  4
mm
 41
0.1
 42
0.05
 43
0.5
 44
0.1
 47
0.1
 48
0.1
 73
     0
 74
     0
 75
     1
 76
     1
 77
     1
 78
     7
 79
     2
140
0.12
141
0.0
144
2.0
146
0.71
147
0.06
172
     1
173
     1
176
   256
177
   256
178
     2
274
     4
283
     0
284
     7
340
10
371
    -1
372
    -1
  0
DIMSTYLE
105
322
330
A
100
AcDbSymbolTableRecord
100
AcDbDimStyleTableRecord
  2
AM_ISO
 70
     0
  4
mm
 41
0.1
 42
0.05
 43
0.5
 44
0.1
 47
0.1
 48
0.1
 73
     0
 74
     0
 77
     1
 78
     7
 79
     2
140
0.12
141
0.0
146
0.71
147
0.06
172
     1
176
   256
177
   256
178
     2
274
     4
283
     0
284
     7
340
10
371
    -1
372
    -1
  0
DIMSTYLE
105
323
330
A
100
AcDbSymbolTableRecord
100
AcDbDimStyleTableRecord
  2
AM_ISO$3
 70
     0
  4
mm
 41
0.1
 42
0.05
 43
0.5
 44
0.1
 47
0.1
 48
0.1
 73
     0
 77
     1
 78
     7
 79
     2
140
0.12
141
0.0
146
0.71
147
0.06
176
   256
177
   256
178
     2
274
     4
283
     0
284
     7
288
     1
289
     0
340
10
371
    -1
372
    -1
  0
DIMSTYLE
105
324
330
A
100
AcDbSymbolTableRecord
100
AcDbDimStyleTableRecord
  2
AM_ISO$4
 70
     0
  4
mm
 41
0.1
 42
0.05
 43
0.5
 44
0.1
 47
0.1
 48
0.1
 73
     0
 77
     1
 78
     7
 79
     2
140
0.12
141
0.0
146
0.71
147
0.06
176
   256
177
   256
178
     2
274
     4
283
     0
284
     7
288
     1
289
     0
340
10
371
    -1
372
    -1
  0
DIMSTYLE
105
325
330
A
100
AcDbSymbolTableRecord
100
AcDbDimStyleTableRecord
  2
AM_ISO$6
 70
     0
  4
mm
 41
0.1
 42
0.05
 43
0.5
 44
0.1
 47
0.1
 48
0.1
 73
     0
 74
     0
 78
     7
 79
     2
140
0.12
141
0.0
146
0.71
147
0.06
172
     1
176
   256
177
   256
178
     2
274
     4
283
     0
284
     7
340
10
371
    -1
372
    -1
  0
DIMSTYLE
105
326
330
A
100
AcDbSymbolTableRecord
100
AcDbDimStyleTableRecord
  2
AM_ISO$7
 70
     0
  4
mm
 41
0.1
 42
0.05
 43
0.5
 44
0.1
 47
0.1
 48
0.1
 73
     0
 74
     0
 77
     1
 78
     7
 79
     2
140
0.24
141
0.0
146
0.71
147
0.06
172
     1
176
   256
177
   256
178
     2
274
     4
283
     0
284
     7
340
10
371
    -1
372
    -1
  0
DIMSTYLE
105
327
330
A
100
AcDbSymbolTableRecord
100
AcDbDimStyleTableRecord
  2
AM_ISO$SF
 70
     0
  4
mm
 41
0.1
 42
0.05
 43
0.5
 44
0.1
 47
0.1
 48
0.1
 73
     0
 74
     0
 75
     1
 76
     1
 77
     1
 78
     7
 79
     2
140
0.12
141
0.0
146
0.71
147
0.06
172
     1
176
   256
177
   256
178
     2
274
     4
283
     0
284
     7
340
10
371
    -1
372
    -1
  0
DIMSTYLE
105
328
330
A
100
AcDbSymbolTableRecord
100
AcDbDimStyleTableRecord
  2
AM_ISO$SH
 70
     0
  4
mm
 41
0.1
 42
0.05
 43
0.5
 44
0.1
 47
0.1
 48
0.1
 73
     0
 74
     0
 75
     1
 76
     1
 77
     1
 78
     7
 79
     2
140
0.12
141
0.0
144
2.0
146
0.71
147
0.06
172
     1
173
     1
176
   256
177
   256
178
     2
274
     4
283
     0
284
     7
340
10
371
    -1
372
    -1
  0
DIMSTYLE
105
33C
330
A
100
AcDbSymbolTableRecord
100
AcDbDimStyleTableRecord
  2
AM_JIS
 70
     0
  4
mm
 41
0.1
 42
0.05
 43
0.5
 44
0.1
 47
0.1
 48
0.1
 73
     0
 74
     0
 77
     3
 78
     7
 79
     2
140
0.12
141
0.0
146
0.71
147
0.06
172
     1
176
   256
177
   256
178
     2
274
     4
283
     0
284
     7
340
10
371
    -1
372
    -1
  0
DIMSTYLE
105
33D
330
A
100
AcDbSymbolTableRecord
100
AcDbDimStyleTableRecord
  2
AM_JIS$3
 70
     0
  4
mm
 41
0.1
 42
0.05
 43
0.5
 44
0.1
 47
0.1
 48
0.1
 73
     0
 77
     3
 78
     7
 79
     2
140
0.12
141
0.0
146
0.71
147
0.06
176
   256
177
   256
178
     2
274
     4
283
     0
284
     7
288
     1
289
     0
340
10
371
    -1
372
    -1
  0
DIMSTYLE
105
33E
330
A
100
AcDbSymbolTableRecord
100
AcDbDimStyleTableRecord
  2
AM_JIS$4
 70
     0
  4
mm
 41
0.1
 42
0.05
 43
0.5
 44
0.1
 47
0.1
 48
0.1
 73
     0
 77
     3
 78
     7
 79
     2
140
0.12
141
0.0
146
0.71
147
0.06
176
   256
177
   256
178
     2
274
     4
283
     0
284
     7
288
     1
289
     0
340
10
371
    -1
372
    -1
  0
DIMSTYLE
105
33F
330
A
100
AcDbSymbolTableRecord
100
AcDbDimStyleTableRecord
  2
AM_JIS$6
 70
     0
  4
mm
 41
0.1
 42
0.05
 43
0.5
 44
0.1
 47
0.1
 48
0.1
 73
     0
 74
     0
 78
     7
 79
     2
140
0.12
141
0.0
146
0.71
147
0.06
172
     1
176
   256
177
   256
178
     2
274
     4
283
     0
284
     7
340
10
371
    -1
372
    -1
  0
DIMSTYLE
105
340
330
A
100
AcDbSymbolTableRecord
100
AcDbDimStyleTableRecord
  2
AM_JIS$7
 70
     0
  4
mm
 41
0.1
 42
0.05
 43
0.5
 44
0.1
 47
0.1
 48
0.1
 73
     0
 74
     0
 77
     3
 78
     7
 79
     2
140
0.24
141
0.0
146
0.71
147
0.06
172
     1
176
   256
177
   256
178
     2
274
     4
283
     0
284
     7
340
10
371
    -1
372
    -1
  0
DIMSTYLE
105
341
330
A
100
AcDbSymbolTableRecord
100
AcDbDimStyleTableRecord
  2
AM_JIS$SF
 70
     0
  4
mm
 41
0.1
 42
0.05
 43
0.5
 44
0.1
 47
0.1
 48
0.1
 73
     0
 74
     0
 75
     1
 76
     1
 77
     3
 78
     7
 79
     2
140
0.12
141
0.0
146
0.71
147
0.06
172
     1
176
   256
177
   256
178
     2
274
     4
283
     0
284
     7
340
10
371
    -1
372
    -1
  0
DIMSTYLE
105
342
330
A
100
AcDbSymbolTableRecord
100
AcDbDimStyleTableRecord
  2
AM_JIS$SH
 70
     0
  4
mm
 41
0.1
 42
0.05
 43
0.5
 44
0.1
 47
0.1
 48
0.1
 73
     0
 74
     0
 75
     1
 76
     1
 77
     3
 78
     7
 79
     2
140
0.12
141
0.0
144
2.0
146
0.71
147
0.06
172
     1
173
     1
176
   256
177
   256
178
     2
274
     4
283
     0
284
     7
340
10
371
    -1
372
    -1
  0
DIMSTYLE
105
606
102
{ACAD_REACTORS
330
175E
330
176E
330
177D
330
178C
330
179C
330
17C3
102
}
330
A
100
AcDbSymbolTableRecord
100
AcDbDimStyleTableRecord
  2
Outline Drawings
 70
     0
  3
 mm\X
  4
 in
 41
0.125
143
0.0393700787
144
25.4
170
     1
271
     0
272
     0
340
5AB
  0
ENDTAB
  0
TABLE
  2
BLOCK_RECORD
  5
1
330
0
100
AcDbSymbolTable
 70
    23
  0
BLOCK_RECORD
  5
19
102
{ACAD_XDICTIONARY
360
11F
102
}
330
1
100
AcDbSymbolTableRecord
100
AcDbBlockTableRecord
  2
*MODEL_SPACE
340
152
  0
BLOCK_RECORD
  5
16
330
1
100
AcDbSymbolTableRecord
100
AcDbBlockTableRecord
  2
*PAPER_SPACE
340
153
  0
BLOCK_RECORD
  5
2A7
330
1
100
AcDbSymbolTableRecord
100
AcDbBlockTableRecord
  2
_Open30
340
0
  0
BLOCK_RECORD
  5
2AD
330
1
100
AcDbSymbolTableRecord
100
AcDbBlockTableRecord
  2
GENAXEH
340
0
  0
BLOCK_RECORD
  5
642
330
1
100
AcDbSymbolTableRecord
100
AcDbBlockTableRecord
  2
k
340
0
310
28000000200000002000000001000800000000000004000000000000000000000000000000000000000000004000000080000000FF000000002000004020000080200000FF200000004000004040000080400000FF400000006000004060000080600000FF600000008000004080000080800000FF80000000A0000040A000
310
0080A00000FFA0000000C0000040C0000080C00000FFC0000000FF000040FF000080FF0000FFFF0000000020004000200080002000FF002000002020004020200080202000FF202000004020004040200080402000FF402000006020004060200080602000FF602000008020004080200080802000FF80200000A0200040A0
310
200080A02000FFA0200000C0200040C0200080C02000FFC0200000FF200040FF200080FF2000FFFF2000000040004000400080004000FF004000002040004020400080204000FF204000004040004040400080404000FF404000006040004060400080604000FF604000008040004080400080804000FF80400000A0400040
310
A0400080A04000FFA0400000C0400040C0400080C04000FFC0400000FF400040FF400080FF4000FFFF4000000060004000600080006000FF006000002060004020600080206000FF206000004060004040600080406000FF406000006060004060600080606000FF606000008060004080600080806000FF80600000A06000
310
40A0600080A06000FFA0600000C0600040C0600080C06000FFC0600000FF600040FF600080FF6000FFFF6000000080004000800080008000FF008000002080004020800080208000FF208000004080004040800080408000FF408000006080004060800080608000FF608000008080004080800080808000FF80800000A080
310
0040A0800080A08000FFA0800000C0800040C0800080C08000FFC0800000FF800040FF800080FF8000FFFF80000000A0004000A0008000A000FF00A0000020A0004020A0008020A000FF20A0000040A0004040A0008040A000FF40A0000060A0004060A0008060A000FF60A0000080A0004080A0008080A000FF80A00000A0
310
A00040A0A00080A0A000FFA0A00000C0A00040C0A00080C0A000FFC0A00000FFA00040FFA00080FFA000FFFFA0000000C0004000C0008000C000FF00C0000020C0004020C0008020C000FF20C0000040C0004040C0008040C000FF40C0000060C0004060C0008060C000FF60C0000080C0004080C0008080C000FF80C00000
310
A0C00040A0C00080A0C000FFA0C00000C0C00040C0C00080C0C000FFC0C00000FFC00040FFC00080FFC000FFFFC0000000FF004000FF008000FF00FF00FF000020FF004020FF008020FF00FF20FF000040FF004040FF008040FF00FF40FF000060FF004060FF008060FF00FF60FF000080FF004080FF008080FF00FF80FF00
310
00A0FF0040A0FF0080A0FF00FFA0FF0000C0FF0040C0FF0080C0FF00FFC0FF0000FFFF0040FFFF0080FFFF00FFFFFF0000000000000000000000000000000000000000000000000000000000000000000000000000000000000000000000000000000000000000000000000000000000000000000000000000000000000000
310
00000000000000000000000000000000000000000000000000000000000000000000000000000000000000000000000000000000000000000000000000000000000000000000000000000000000000000000000000000000000000000000000000000000000000000000000000000000000000000000000000000000000000
310
000000000000000000000000000000000000000000000000000000000000000000000000000000000000000000000000000000000000000000000000000000000000000000000000000000000000000000000000007F7F7F7F7F7F7F7F7F7F7F7F7F7F7F7F7F7F7F7F7F7F7F7F7F7F00000000007F7F7F7F7F7F7F7F7F7F7F
310
7F7F7F7F7F7F7F7F7F7F7F7F7F7F7F7F7F0000007F7F7F0000000000000000000000000000000000000000000000007F7F7F00007F007F0000000000000000000000000000000000000000000000007F007F00007F007F0000000000000000000000000000000000000000000000007F007F00007F007F0000000000000000
310
000000000000000000000000000000007F007F0000007F7F7F7F7F0000000000000000000000000000000000000000007F007F0000007F7F00007F0000000000000000000000000000000000000000007F007F000000007F7F7F7F0000000000000000000000000000000000000000007F007F000000000000000000000000
310
00000000000000000000000000000000007F007F00000000000000000000000000000000000000000000000000000000007F007F00000000000000000000000000000000000000000000000000000000007F7F7F0000000000000000000000000000000000000000007F7F7F7F7F7F7F7F7F7F000000000000000000000000
310
000000000000000000007F7F7F7F7F7F7F7F7F000000000000000000000000000000000000000000000000000000000000000000000000000000000000000000000000000000000000000000000000000000000000000000000000000000000000000000000000000000000000000000000000000000000000000000000000
310
00000000000000000000000000000000000000000000000000000000000000000000000000000000000000000000000000000000000000000000000000000000000000000000000000000000000000000000000000000000000000000000000000000000000000000000000000000000000000000000000000000000000000
310
0000000000000000000000000000000000000000000000000000000000000000000000000000000000000000000000000000000000000000
  0
BLOCK_RECORD
  5
659
330
1
100
AcDbSymbolTableRecord
100
AcDbBlockTableRecord
  2
qw
340
0
310
28000000200000002000000001000800000000000004000000000000000000000000000000000000000000004000000080000000FF000000002000004020000080200000FF200000004000004040000080400000FF400000006000004060000080600000FF600000008000004080000080800000FF80000000A0000040A000
310
0080A00000FFA0000000C0000040C0000080C00000FFC0000000FF000040FF000080FF0000FFFF0000000020004000200080002000FF002000002020004020200080202000FF202000004020004040200080402000FF402000006020004060200080602000FF602000008020004080200080802000FF80200000A0200040A0
310
200080A02000FFA0200000C0200040C0200080C02000FFC0200000FF200040FF200080FF2000FFFF2000000040004000400080004000FF004000002040004020400080204000FF204000004040004040400080404000FF404000006040004060400080604000FF604000008040004080400080804000FF80400000A0400040
310
A0400080A04000FFA0400000C0400040C0400080C04000FFC0400000FF400040FF400080FF4000FFFF4000000060004000600080006000FF006000002060004020600080206000FF206000004060004040600080406000FF406000006060004060600080606000FF606000008060004080600080806000FF80600000A06000
310
40A0600080A06000FFA0600000C0600040C0600080C06000FFC0600000FF600040FF600080FF6000FFFF6000000080004000800080008000FF008000002080004020800080208000FF208000004080004040800080408000FF408000006080004060800080608000FF608000008080004080800080808000FF80800000A080
310
0040A0800080A08000FFA0800000C0800040C0800080C08000FFC0800000FF800040FF800080FF8000FFFF80000000A0004000A0008000A000FF00A0000020A0004020A0008020A000FF20A0000040A0004040A0008040A000FF40A0000060A0004060A0008060A000FF60A0000080A0004080A0008080A000FF80A00000A0
310
A00040A0A00080A0A000FFA0A00000C0A00040C0A00080C0A000FFC0A00000FFA00040FFA00080FFA000FFFFA0000000C0004000C0008000C000FF00C0000020C0004020C0008020C000FF20C0000040C0004040C0008040C000FF40C0000060C0004060C0008060C000FF60C0000080C0004080C0008080C000FF80C00000
310
A0C00040A0C00080A0C000FFA0C00000C0C00040C0C00080C0C000FFC0C00000FFC00040FFC00080FFC000FFFFC0000000FF004000FF008000FF00FF00FF000020FF004020FF008020FF00FF20FF000040FF004040FF008040FF00FF40FF000060FF004060FF008060FF00FF60FF000080FF004080FF008080FF00FF80FF00
310
00A0FF0040A0FF0080A0FF00FFA0FF0000C0FF0040C0FF0080C0FF00FFC0FF0000FFFF0040FFFF0080FFFF00FFFFFF0000000000000000000000000000000000000000000000000000000000000000000000000000000000000000000000000000000000000000000000000000000000000000000000000000000000000000
310
00000000000000000000000000000000000000000000000000000000000000000000000000000000000000000000000000000000000000000000000000000000000000000000000000000000000000000000000000000000000000000000000000000000000000000000000000000000000000000000000000000000000000
310
00000000000000000000000000000000000000000000000000000000000000000000000000000000000000000000000000000000000000000000000000000000000000000000000000000000000000000000000000000000000000000000000000000000000000000000000000000000000000000000000000000000000000
310
00000000000000000000000000000000000000000000000000000000000000000000000000000000000000000000000000000000000000000000000000000000000000000000000000000000000000000000000000000000E1E1E1E1E1E1E1E1E1E1E1E1E1E1E1E1E1E1E1E1E1E100000000000000000000E1000000000000
310
0000000000000000000000000000E100000000000000000000E10000000000000000000000000000000000000000E100000000000000000000E10000000000000000000000000000000000000000E100000000000000000000E10000000000000000000000000000000000000000E1000000000000E1E1E1E1E10000000000
310
000000000000000000000000000000E1E1E1E1E10000000000000000000000000000000000000000000000000000000000000000000000000000000000000000000000000000000000000000000000000000000000000000000000000000000000000000000000000000000000000000000000000000000000000000000000
310
00000000000000000000000000000000000000000000000000000000000000000000000000000000000000000000000000000000000000000000000000000000000000000000000000000000000000000000000000000000000000000000000000000000000000000000000000000000000000000000000000000000000000
310
00000000000000000000000000000000000000000000000000000000000000000000000000000000000000000000000000000000000000000000000000000000000000000000000000000000000000000000000000000000000000000000000000000000000000000000000000000000000000000000000000000000000000
310
0000000000000000000000000000000000000000000000000000000000000000000000000000000000000000000000000000000000000000
  0
BLOCK_RECORD
  5
DD6
330
1
100
AcDbSymbolTableRecord
100
AcDbBlockTableRecord
  2
A$C708B5813
340
0
102
{BLKREFS
331
E1B
331
E2E
102
}
  0
BLOCK_RECORD
  5
E19
330
1
100
AcDbSymbolTableRecord
100
AcDbBlockTableRecord
  2
A$C2BF30918
340
0
102
{BLKREFS
331
E57
102
}
  0
BLOCK_RECORD
  5
E1D
330
1
100
AcDbSymbolTableRecord
100
AcDbBlockTableRecord
  2
A$C0832103F
340
0
  0
BLOCK_RECORD
  5
E98
330
1
100
AcDbSymbolTableRecord
100
AcDbBlockTableRecord
  2
A$C5A7A0274
340
0
102
{BLKREFS
331
EFC
102
}
  0
BLOCK_RECORD
  5
ED7
330
1
100
AcDbSymbolTableRecord
100
AcDbBlockTableRecord
  2
A$C497D351A
340
0
  0
BLOCK_RECORD
  5
F05
102
{ACAD_XDICTIONARY
360
F7D
102
}
330
1
100
AcDbSymbolTableRecord
100
AcDbBlockTableRecord
  2
STD50006-8X11
340
0
1001
ACAD
1000
DesignCenter Data
1002
{
1070
     1
1070
     1
1002
}
  0
BLOCK_RECORD
  5
144B
330
1
100
AcDbSymbolTableRecord
100
AcDbBlockTableRecord
  2
A
340
0
102
{BLKREFS
331
1599
102
}
  0
BLOCK_RECORD
  5
1462
330
1
100
AcDbSymbolTableRecord
100
AcDbBlockTableRecord
  2
C
340
0
102
{BLKREFS
331
165E
102
}
  0
BLOCK_RECORD
  5
175F
330
1
100
AcDbSymbolTableRecord
100
AcDbBlockTableRecord
  2
*D17
340
0
  0
BLOCK_RECORD
  5
176F
330
1
100
AcDbSymbolTableRecord
100
AcDbBlockTableRecord
  2
*D18
340
0
  0
BLOCK_RECORD
  5
177E
330
1
100
AcDbSymbolTableRecord
100
AcDbBlockTableRecord
  2
*D19
340
0
  0
BLOCK_RECORD
  5
178D
330
1
100
AcDbSymbolTableRecord
100
AcDbBlockTableRecord
  2
*D20
340
0
  0
BLOCK_RECORD
  5
179D
330
1
100
AcDbSymbolTableRecord
100
AcDbBlockTableRecord
  2
*D21
340
0
  0
BLOCK_RECORD
  5
17C4
330
1
100
AcDbSymbolTableRecord
100
AcDbBlockTableRecord
  2
*D22
340
0
  0
ENDTAB
  0
ENDSEC
  0
SECTION
  2
BLOCKS
  0
BLOCK
  5
1A
330
19
100
AcDbEntity
  8
0
100
AcDbBlockBegin
  2
*MODEL_SPACE
 70
     0
 10
0.0
 20
0.0
 30
0.0
  3
*MODEL_SPACE
  1

  0
ENDBLK
  5
1B
330
19
100
AcDbEntity
  8
0
100
AcDbBlockEnd
  0
BLOCK
  5
17
330
16
100
AcDbEntity
 67
     1
  8
0
100
AcDbBlockBegin
  2
*PAPER_SPACE
 70
     0
 10
0.0
 20
0.0
 30
0.0
  3
*PAPER_SPACE
  1

  0
ENDBLK
  5
18
330
16
100
AcDbEntity
 67
     1
  8
0
100
AcDbBlockEnd
  0
BLOCK
  5
2AB
330
2A7
100
AcDbEntity
  8
0
100
AcDbBlockBegin
  2
_Open30
 70
     0
 10
0.0
 20
0.0
 30
0.0
  3
_Open30
  1

  0
LINE
  5
2A8
330
2A7
100
AcDbEntity
  8
0
  6
ByBlock
 62
     0
370
    -2
100
AcDbLine
 10
-1.0
 20
0.26794919
 30
0.0
 11
0.0
 21
0.0
 31
0.0
  0
LINE
  5
2A9
330
2A7
100
AcDbEntity
  8
0
  6
ByBlock
 62
     0
370
    -2
100
AcDbLine
 10
0.0
 20
0.0
 30
0.0
 11
-1.0
 21
-0.26794919
 31
0.0
  0
LINE
  5
2AA
330
2A7
100
AcDbEntity
  8
0
  6
ByBlock
 62
     0
370
    -2
100
AcDbLine
 10
0.0
 20
0.0
 30
0.0
 11
-1.0
 21
0.0
 31
0.0
  0
ENDBLK
  5
2AC
330
2A7
100
AcDbEntity
  8
0
100
AcDbBlockEnd
  0
BLOCK
  5
2AF
330
2AD
100
AcDbEntity
  8
0
100
AcDbBlockBegin
  2
GENAXEH
 70
     0
 10
0.0
 20
0.0
 30
0.0
  3
GENAXEH
  1

  0
LINE
  5
2AE
330
2AD
100
AcDbEntity
  8
0
100
AcDbLine
 10
-1.0
 20
0.0
 30
0.0
 11
1.0
 21
0.0
 31
0.0
  0
ENDBLK
  5
2B0
330
2AD
100
AcDbEntity
  8
0
100
AcDbBlockEnd
  0
BLOCK
  5
643
330
642
100
AcDbEntity
  8
0
100
AcDbBlockBegin
  2
k
 70
     0
 10
0.0
 20
0.0
 30
0.0
  3
k
  1

  0
LINE
  5
644
330
642
100
AcDbEntity
  8
4
 62
   131
100
AcDbLine
 10
-2332.537766216045
 20
-24.38202179450286
 30
0.0
 11
-2357.537766216045
 21
-24.38202179450263
 31
0.0
  0
LINE
  5
645
330
642
100
AcDbEntity
  8
4
 62
   131
100
AcDbLine
 10
-2332.537766216045
 20
-25.88202179450286
 30
0.0
 11
-2357.537766216045
 21
-25.88202179450286
 31
0.0
  0
ARC
  5
646
330
642
100
AcDbEntity
  8
4
 62
   131
100
AcDbCircle
 10
-2357.537766216045
 20
-20.38202179450286
 30
0.0
 40
3.5
100
AcDbArc
 50
90.0
 51
180.0
  0
ARC
  5
647
330
642
100
AcDbEntity
  8
4
 62
   131
100
AcDbCircle
 10
-2357.537766216045
 20
-20.38202179450286
 30
0.0
 40
2.0
100
AcDbArc
 50
90.0
 51
180.0
  0
ARC
  5
648
330
642
100
AcDbEntity
  8
4
 62
   131
100
AcDbCircle
 10
-2357.537766216045
 20
-22.38202179450263
 30
0.0
 40
3.5
100
AcDbArc
 50
180.0
 51
270.0
  0
ARC
  5
649
330
642
100
AcDbEntity
  8
4
 62
   131
100
AcDbCircle
 10
-2357.537766216045
 20
-22.38202179450263
 30
0.0
 40
2.0
100
AcDbArc
 50
180.0
 51
270.0
  0
LINE
  5
64A
330
642
100
AcDbEntity
  8
4
 62
   131
100
AcDbLine
 10
-2359.537766216044
 20
-20.38202179450286
 30
0.0
 11
-2359.537766216044
 21
-22.38202179450263
 31
0.0
  0
LINE
  5
64B
330
642
100
AcDbEntity
  8
4
 62
   131
100
AcDbLine
 10
-2361.037766216044
 20
-20.38202179450286
 30
0.0
 11
-2361.037766216044
 21
-22.38202179450263
 31
0.0
  0
LINE
  5
64C
330
642
100
AcDbEntity
  8
4
 62
   131
100
AcDbLine
 10
-2356.037766216044
 20
-18.38202179450286
 30
0.0
 11
-2357.537766216045
 21
-18.38202179450286
 31
0.0
  0
LINE
  5
64D
330
642
100
AcDbEntity
  8
4
 62
   131
100
AcDbLine
 10
-2356.037766216044
 20
-16.88202179450286
 30
0.0
 11
-2357.537766216045
 21
-16.88202179450286
 31
0.0
  0
LINE
  5
64E
330
642
100
AcDbEntity
  8
4
 62
   131
100
AcDbLine
 10
-2356.037766216044
 20
-16.88202179450286
 30
0.0
 11
-2356.037766216045
 21
-18.38202179450297
 31
0.0
  0
LINE
  5
64F
330
642
100
AcDbEntity
  8
4
 62
   131
100
AcDbLine
 10
-2330.537766216045
 20
-14.38202179450263
 30
0.0
 11
-2330.537766216044
 21
-22.38202179450275
 31
0.0
  0
LINE
  5
650
330
642
100
AcDbEntity
  8
4
 62
   131
100
AcDbLine
 10
-2329.037766216045
 20
-14.38202179450263
 30
0.0
 11
-2329.037766216044
 21
-22.38202179450275
 31
0.0
  0
ARC
  5
651
330
642
100
AcDbEntity
  8
4
 62
   131
100
AcDbCircle
 10
-2332.537766216045
 20
-22.38202179450286
 30
0.0
 40
3.5
100
AcDbArc
 50
270.0
 51
0.0
  0
ARC
  5
652
330
642
100
AcDbEntity
  8
4
 62
   131
100
AcDbCircle
 10
-2332.537766216045
 20
-22.38202179450286
 30
0.0
 40
2.0
100
AcDbArc
 50
270.0
 51
0.0
  0
LINE
  5
653
330
642
100
AcDbEntity
  8
4
 62
   131
100
AcDbLine
 10
-2332.537766216045
 20
-12.38202179450275
 30
0.0
 11
-2339.537766216045
 21
-12.38202179450275
 31
0.0
  0
LINE
  5
654
330
642
100
AcDbEntity
  8
4
 62
   131
100
AcDbLine
 10
-2332.537766216045
 20
-10.88202179450274
 30
0.0
 11
-2339.537766216045
 21
-10.88202179450274
 31
0.0
  0
LINE
  5
655
330
642
100
AcDbEntity
  8
4
 62
   131
100
AcDbLine
 10
-2339.537766216045
 20
-10.88202179450286
 30
0.0
 11
-2339.537766216045
 21
-12.38202179450275
 31
0.0
  0
ARC
  5
656
330
642
100
AcDbEntity
  8
4
 62
   131
100
AcDbCircle
 10
-2332.537766216045
 20
-14.38202179450275
 30
0.0
 40
3.5
100
AcDbArc
 50
0.0
 51
90.0
  0
ARC
  5
657
330
642
100
AcDbEntity
  8
4
 62
   131
100
AcDbCircle
 10
-2332.537766216045
 20
-14.38202179450275
 30
0.0
 40
2.0
100
AcDbArc
 50
0.0
 51
90.0
  0
ENDBLK
  5
658
330
642
100
AcDbEntity
  8
0
100
AcDbBlockEnd
  0
BLOCK
  5
65A
330
659
100
AcDbEntity
  8
0
100
AcDbBlockBegin
  2
qw
 70
     0
 10
0.0
 20
0.0
 30
0.0
  3
qw
  1

  0
LINE
  5
65B
330
659
100
AcDbEntity
  8
0
 62
   230
100
AcDbLine
 10
-3256.050138115329
 20
851.3654901869042
 30
0.0
 11
-3231.050138115329
 21
851.3654901869038
 31
0.0
  0
LINE
  5
65C
330
659
100
AcDbEntity
  8
0
 62
   230
100
AcDbLine
 10
-3255.550138115329
 20
850.365490186904
 30
0.0
 11
-3231.550138115329
 21
850.3654901869039
 31
0.0
  0
LINE
  5
65D
330
659
100
AcDbEntity
  8
0
 62
   230
100
AcDbLine
 10
-3256.050138115329
 20
851.3654901869042
 30
0.0
 11
-3256.050138115329
 21
856.165490186904
 31
0.0
  0
LINE
  5
65E
330
659
100
AcDbEntity
  8
0
 62
   230
100
AcDbLine
 10
-3257.050138115329
 20
851.8654901869041
 30
0.0
 11
-3257.050138115329
 21
856.165490186904
 31
0.0
  0
ARC
  5
65F
330
659
100
AcDbEntity
  8
0
 62
   230
100
AcDbCircle
 10
-3255.550138115329
 20
851.8654901869041
 30
0.0
 40
1.5
100
AcDbArc
 50
180.0
 51
269.9999999999995
  0
LINE
  5
660
330
659
100
AcDbEntity
  8
0
 62
   230
100
AcDbLine
 10
-3261.050138115329
 20
857.6654901869041
 30
0.0
 11
-3257.550138115329
 21
857.6654901869041
 31
0.0
  0
LINE
  5
661
330
659
100
AcDbEntity
  8
0
 62
   230
100
AcDbLine
 10
-3261.050138115329
 20
856.6654901869041
 30
0.0
 11
-3257.550138115329
 21
856.6654901869041
 31
0.0
  0
LINE
  5
662
330
659
100
AcDbEntity
  8
0
 62
   230
100
AcDbLine
 10
-3261.050138115329
 20
857.6654901869041
 30
0.0
 11
-3261.050138115328
 21
856.6654901869041
 31
0.0
  0
ARC
  5
663
330
659
100
AcDbEntity
  8
0
 62
   230
100
AcDbCircle
 10
-3257.550138115329
 20
856.165490186904
 30
0.0
 40
0.5
100
AcDbArc
 50
0.0
 51
90.0
  0
ARC
  5
664
330
659
100
AcDbEntity
  8
0
 62
   230
100
AcDbCircle
 10
-3257.550138115329
 20
856.165490186904
 30
0.0
 40
1.5
100
AcDbArc
 50
0.0
 51
90.0
  0
LINE
  5
665
330
659
100
AcDbEntity
  8
0
 62
   230
100
AcDbLine
 10
-3229.550138115329
 20
857.6654901869041
 30
0.0
 11
-3226.050138115329
 21
857.6654901869039
 31
0.0
  0
LINE
  5
666
330
659
100
AcDbEntity
  8
0
 62
   230
100
AcDbLine
 10
-3229.550138115329
 20
856.6654901869041
 30
0.0
 11
-3226.050138115329
 21
856.6654901869039
 31
0.0
  0
LINE
  5
667
330
659
100
AcDbEntity
  8
0
 62
   230
100
AcDbLine
 10
-3231.050138115329
 20
851.3654901869038
 30
0.0
 11
-3231.050138115329
 21
856.165490186904
 31
0.0
  0
LINE
  5
668
330
659
100
AcDbEntity
  8
0
 62
   230
100
AcDbLine
 10
-3230.050138115329
 20
851.8654901869039
 30
0.0
 11
-3230.050138115329
 21
856.165490186904
 31
0.0
  0
ARC
  5
669
330
659
100
AcDbEntity
  8
0
 62
   230
100
AcDbCircle
 10
-3231.550138115329
 20
851.8654901869039
 30
0.0
 40
1.5
100
AcDbArc
 50
269.9999999999995
 51
0.0
  0
ARC
  5
66A
330
659
100
AcDbEntity
  8
0
 62
   230
100
AcDbCircle
 10
-3229.550138115329
 20
856.165490186904
 30
0.0
 40
1.5
100
AcDbArc
 50
90.0
 51
180.0
  0
ARC
  5
66B
330
659
100
AcDbEntity
  8
0
 62
   230
100
AcDbCircle
 10
-3229.550138115329
 20
856.165490186904
 30
0.0
 40
0.5
100
AcDbArc
 50
90.0
 51
180.0
  0
LINE
  5
66C
330
659
100
AcDbEntity
  8
0
 62
   230
100
AcDbLine
 10
-3226.050138115329
 20
857.6654901869039
 30
0.0
 11
-3226.050138115328
 21
856.6654901869039
 31
0.0
  0
ENDBLK
  5
66D
330
659
100
AcDbEntity
  8
0
100
AcDbBlockEnd
  0
BLOCK
  5
DD7
330
DD6
100
AcDbEntity
  8
0
100
AcDbBlockBegin
  2
A$C708B5813
 70
     0
 10
0.0
 20
0.0
 30
0.0
  3
A$C708B5813
  1

  0
LINE
  5
DD8
330
DD6
100
AcDbEntity
  8
10
100
AcDbLine
 10
0.2399999692803618
 20
0.2640315084226485
 30
0.0
 11
0.2436013672279564
 21
0.2661107764971518
 31
0.0
  0
CIRCLE
  5
DD9
330
DD6
100
AcDbEntity
  8
10
100
AcDbCircle
 10
0.2399999692803618
 20
0.2640315084226485
 30
0.0
 40
0.0041585361490064
  0
ARC
  5
DDA
330
DD6
100
AcDbEntity
  8
10
100
AcDbCircle
 10
0.2399999692803512
 20
0.2871255191902322
 30
0.0
 40
0.01
100
AcDbArc
 50
240.0
 51
300.0000000000008
  0
ARC
  5
DDB
330
DD6
100
AcDbEntity
  8
10
100
AcDbCircle
 10
0.2399999692803618
 20
0.529612632249878
 30
0.0
 40
0.01
100
AcDbArc
 50
60.00000000000078
 51
119.9999999999996
  0
ARC
  5
DDC
330
DD6
100
AcDbEntity
  8
10
100
AcDbCircle
 10
0.2399999692511088
 20
0.3949160812035983
 30
0.0
 40
0.01
100
AcDbArc
 50
239.9999999674645
 51
300.0000000465846
  0
ARC
  5
DDD
330
DD6
100
AcDbEntity
  8
10
100
AcDbCircle
 10
0.2393667475655192
 20
0.4214564796978131
 30
0.0
 40
0.01
100
AcDbArc
 50
60.0
 51
119.9999999818938
  0
LINE
  5
DDE
330
DD6
100
AcDbEntity
  8
10
100
AcDbLine
 10
0.0249999692803549
 20
0.3997088216822098
 30
0.0
 11
0.2349999692803522
 21
0.2784652651523878
 31
0.0
  0
LINE
  5
DDF
330
DD6
100
AcDbEntity
  8
10
100
AcDbLine
 10
-0.0000000307196402
 20
0.3737280595686747
 30
0.0
 11
-0.0000000307196366
 21
0.1312409465090325
 31
0.0
  0
LINE
  5
DE0
330
DD6
100
AcDbEntity
  8
10
100
AcDbLine
 10
0.0149999692803604
 20
0.3823883136065191
 30
0.0
 11
0.2249999692803613
 21
0.2611447570767011
 31
0.0
  0
LINE
  5
DE1
330
DD6
100
AcDbEntity
  8
10
100
AcDbLine
 10
0.2399999692803618
 20
0.2640315084226485
 30
0.0
 11
0.2399999692803618
 21
0.2598729722736421
 31
0.0
  0
LINE
  5
DE2
330
DD6
100
AcDbEntity
  8
10
100
AcDbLine
 10
0.2363985713327672
 20
0.2661107764971531
 30
0.0
 11
0.2399999692803618
 21
0.2640315084226485
 31
0.0
  0
LINE
  5
DE3
330
DD6
100
AcDbEntity
  8
10
100
AcDbLine
 10
0.2299999692803709
 20
0.1139204384333419
 30
0.0
 11
0.1356921705519909
 21
0.168369071415853
 31
0.0
  0
LINE
  5
DE4
330
DD6
100
AcDbEntity
  8
10
100
AcDbLine
 10
0.2299999692803674
 20
0.1370144492009269
 30
0.0
 11
0.1366506043749744
 21
0.1909097301577374
 31
0.0
  0
LINE
  5
DE5
330
DD6
100
AcDbEntity
  8
10
100
AcDbLine
 10
0.2299999692803709
 20
0.113920438433345
 30
0.0
 11
0.2299999692803674
 21
0.0099973899792092
 31
0.0
  0
LINE
  5
DE6
330
DD6
100
AcDbEntity
  8
10
100
AcDbLine
 10
0.2299999692803638
 20
0.2524845030388567
 30
0.0
 11
0.2299999692803674
 21
0.1370144492009304
 31
0.0
  0
ARC
  5
DE7
330
DD6
100
AcDbEntity
  8
10
100
AcDbCircle
 10
0.1266506043749622
 20
0.1726410827766105
 30
0.0
 40
0.01
100
AcDbArc
 50
239.9999999999996
 51
334.709932108123
  0
LINE
  5
DE8
330
DD6
100
AcDbEntity
  8
10
100
AcDbLine
 10
0.1366506043749744
 20
0.1909097301577414
 30
0.0
 11
0.1366506043749673
 21
0.1985892220820524
 31
0.0
  0
LINE
  5
DE9
330
DD6
100
AcDbEntity
  8
10
100
AcDbLine
 10
0.1216506043749632
 20
0.1639808287387661
 30
0.0
 11
0.0983493341857553
 21
0.177433823354967
 31
0.0
  0
ARC
  5
DEA
330
DD6
100
AcDbEntity
  8
10
100
AcDbCircle
 10
0.1266506043749658
 20
0.1985892220820524
 30
0.0
 40
0.01
100
AcDbArc
 50
0.0
 51
59.99999999999917
  0
LINE
  5
DEB
330
DD6
100
AcDbEntity
  8
10
100
AcDbLine
 10
0.1316506043749648
 20
0.2072494761198969
 30
0.0
 11
0.1083493341857533
 21
0.2207024707360996
 31
0.0
  0
ARC
  5
DEC
330
DD6
100
AcDbEntity
  8
10
100
AcDbCircle
 10
0.1033493341857543
 20
0.1860940773928115
 30
0.0
 40
0.01
100
AcDbArc
 50
180.0
 51
240.0
  0
LINE
  5
DED
330
DD6
100
AcDbEntity
  8
10
100
AcDbLine
 10
0.0933493341857528
 20
0.1860940773928115
 30
0.0
 11
0.0933493341857528
 21
0.2120422166982552
 31
0.0
  0
ARC
  5
DEE
330
DD6
100
AcDbEntity
  8
10
100
AcDbCircle
 10
0.1033493341857543
 20
0.2120422166982552
 30
0.0
 40
0.01
100
AcDbArc
 50
60.0
 51
180.0
  0
ARC
  5
DEF
330
DD6
100
AcDbEntity
  8
10
100
AcDbCircle
 10
0.009999969280365
 20
0.1312409465090325
 30
0.0
 40
0.01
100
AcDbArc
 50
180.0000000000007
 51
240.0000000000003
  0
LINE
  5
DF0
330
DD6
100
AcDbEntity
  8
10
100
AcDbLine
 10
0.0049999692803659
 20
0.1225806924711881
 30
0.0
 11
0.2149999692803668
 21
0.0013371359413648
 31
0.0
  0
ARC
  5
DF1
330
DD6
100
AcDbEntity
  8
10
100
AcDbCircle
 10
0.2199999692803658
 20
0.0099973899792092
 30
0.0
 40
0.01
100
AcDbArc
 50
240.0
 51
0.0
  0
ARC
  5
DF2
330
DD6
100
AcDbEntity
  8
10
100
AcDbCircle
 10
0.2199999692803622
 20
0.2524845030388567
 30
0.0
 40
0.01
100
AcDbArc
 50
0.0000000000007124
 51
60.00000000000078
  0
LINE
  5
DF3
330
DD6
100
AcDbEntity
  8
10
100
AcDbLine
 10
0.0249999692803549
 20
0.4170293297578988
 30
0.0
 11
0.2349999692803628
 21
0.5382728862877224
 31
0.0
  0
ARC
  5
DF4
330
DD6
100
AcDbEntity
  8
10
100
AcDbCircle
 10
0.0299999692803539
 20
0.4083690757200542
 30
0.0
 40
0.01
100
AcDbArc
 50
119.9999999999997
 51
240.0000000000002
  0
LINE
  5
DF5
330
DD6
100
AcDbEntity
  8
10
100
AcDbLine
 10
0.2349999692461928
 20
0.3862558271685934
 30
0.0
 11
0.2116986990911549
 21
0.3997088217818918
 31
0.0
  0
LINE
  5
DF6
330
DD6
100
AcDbEntity
  8
10
100
AcDbLine
 10
0.2116986990911549
 20
0.4170293298575807
 30
0.0
 11
0.2343667475682558
 21
0.4301167337372376
 31
0.0
  0
ARC
  5
DF7
330
DD6
100
AcDbEntity
  8
10
100
AcDbCircle
 10
0.2166986990911539
 20
0.4083690758197364
 30
0.0
 40
0.01
100
AcDbArc
 50
119.9999999999999
 51
240.0
  0
ARC
  5
DF8
330
DD6
100
AcDbEntity
  8
10
100
AcDbCircle
 10
0.0099999692803614
 20
0.3737280595686747
 30
0.0
 40
0.01
100
AcDbArc
 50
60.00000000000071
 51
180.0
  0
LINE
  5
DF9
330
DD6
100
AcDbEntity
  8
10
100
AcDbLine
 10
0.2449999692803502
 20
0.2784652651523878
 30
0.0
 11
0.4549999692803617
 21
0.399708821682216
 31
0.0
  0
LINE
  5
DFA
330
DD6
100
AcDbEntity
  8
10
100
AcDbLine
 10
0.2599999692803685
 20
0.2640315084226534
 30
0.0
 11
0.4499999692803557
 21
0.3737280595686805
 31
0.0
  0
ARC
  5
DFB
330
DD6
100
AcDbEntity
  8
10
100
AcDbCircle
 10
0.4599999692803573
 20
0.3564075514929916
 30
0.0
 40
0.02
100
AcDbArc
 50
0.0000000000006997
 51
119.9999999999999
  0
LINE
  5
DFC
330
DD6
100
AcDbEntity
  8
10
100
AcDbLine
 10
0.3853226110081884
 20
0.1920490020623578
 30
0.0
 11
0.4799999692803604
 21
0.2467110003469632
 31
0.0
  0
LINE
  5
DFD
330
DD6
100
AcDbEntity
  8
10
100
AcDbLine
 10
0.3860173827363553
 20
0.2155441394742277
 30
0.0
 11
0.4799999692803567
 21
0.269805011114542
 31
0.0
  0
ARC
  5
DFE
330
DD6
100
AcDbEntity
  8
10
100
AcDbCircle
 10
0.3766506043749799
 20
0.2120422166982596
 30
0.0
 40
0.01
100
AcDbArc
 50
20.49907611913283
 51
120.0000000000061
  0
LINE
  5
DFF
330
DD6
100
AcDbEntity
  8
10
100
AcDbLine
 10
0.3853226110081849
 20
0.192049002062356
 30
0.0
 11
0.3853226110081813
 21
0.1857245431213443
 31
0.0
  0
LINE
  5
E00
330
DD6
100
AcDbEntity
  8
10
100
AcDbLine
 10
0.4799999692803604
 20
0.2467110003469597
 30
0.0
 11
0.4799999692803639
 21
0.1370144492009322
 31
0.0
  0
LINE
  5
E01
330
DD6
100
AcDbEntity
  8
10
100
AcDbLine
 10
0.4799999692803567
 20
0.3564075514929921
 30
0.0
 11
0.4799999692803567
 21
0.2698050111145451
 31
0.0
  0
ARC
  5
E02
330
DD6
100
AcDbEntity
  8
10
100
AcDbCircle
 10
0.3533493341857579
 20
0.1722355030579732
 30
0.0
 40
0.01
100
AcDbArc
 50
180.0
 51
301.5450923819967
  0
LINE
  5
E03
330
DD6
100
AcDbEntity
  8
10
100
AcDbLine
 10
0.3805543054044094
 20
0.1772022562366846
 30
0.0
 11
0.358581028581991
 21
0.1637132161733139
 31
0.0
  0
LINE
  5
E04
330
DD6
100
AcDbEntity
  8
10
100
AcDbLine
 10
0.3433493341857599
 20
0.1793627247739491
 30
0.0
 11
0.3433493341857563
 21
0.1722355030579732
 31
0.0
  0
ARC
  5
E05
330
DD6
100
AcDbEntity
  8
10
100
AcDbCircle
 10
0.3753226110081798
 20
0.1857245431213443
 30
0.0
 40
0.01
100
AcDbArc
 50
301.5450923819923
 51
0.0
  0
LINE
  5
E06
330
DD6
100
AcDbEntity
  8
10
100
AcDbLine
 10
0.3483493341857553
 20
0.2072494761198902
 30
0.0
 11
0.3716506043749774
 21
0.2207024707361036
 31
0.0
  0
ARC
  5
E07
330
DD6
100
AcDbEntity
  8
10
100
AcDbCircle
 10
0.3533493341857579
 20
0.1985892220820467
 30
0.0
 40
0.01
100
AcDbArc
 50
120.0000000000091
 51
180.0
  0
LINE
  5
E08
330
DD6
100
AcDbEntity
  8
10
100
AcDbLine
 10
0.3433493341857599
 20
0.1793627247739509
 30
0.0
 11
0.3433493341857563
 21
0.1985892220820467
 31
0.0
  0
ARC
  5
E09
330
DD6
100
AcDbEntity
  8
10
100
AcDbCircle
 10
0.2699999692803701
 20
0.2467110003469646
 30
0.0
 40
0.02
100
AcDbArc
 50
120.0000000000001
 51
180.0000000000027
  0
LINE
  5
E0A
330
DD6
100
AcDbEntity
  8
10
100
AcDbLine
 10
0.2499999692803705
 20
0.2467110003469637
 30
0.0
 11
0.2499999692803705
 21
0.0273178980548985
 31
0.0
  0
ARC
  5
E0B
330
DD6
100
AcDbEntity
  8
10
100
AcDbCircle
 10
0.2699999692803701
 20
0.0273178980548989
 30
0.0
 40
0.02
100
AcDbArc
 50
180.0000000000015
 51
300.0000000000004
  0
LINE
  5
E0C
330
DD6
100
AcDbEntity
  8
10
100
AcDbLine
 10
0.2799999692803716
 20
0.0099973899792101
 30
0.0
 11
0.4699999692803658
 21
0.1196939411252429
 31
0.0
  0
ARC
  5
E0D
330
DD6
100
AcDbEntity
  8
10
100
AcDbCircle
 10
0.4599999692803644
 20
0.1370144492009317
 30
0.0
 40
0.02
100
AcDbArc
 50
300.0000000000004
 51
0.0000000000017175
  0
ARC
  5
E0E
330
DD6
100
AcDbEntity
  8
10
100
AcDbCircle
 10
0.2699999692803594
 20
0.2467110003469637
 30
0.0
 40
0.02
100
AcDbArc
 50
120.0000000000008
 51
180.0000000000007
  0
ARC
  5
E0F
330
DD6
100
AcDbEntity
  8
10
100
AcDbCircle
 10
0.4499999692803627
 20
0.4083690757200606
 30
0.0
 40
0.01
100
AcDbArc
 50
300.0000000000008
 51
60.00000000000074
  0
LINE
  5
E10
330
DD6
100
AcDbEntity
  8
10
100
AcDbLine
 10
0.3599999691803148
 20
0.4718776053886781
 30
0.0
 11
0.4549999692803617
 21
0.417029329757905
 31
0.0
  0
LINE
  5
E11
330
DD6
100
AcDbEntity
  8
10
100
AcDbLine
 10
0.2449999692803608
 20
0.5382728862877224
 30
0.0
 11
0.3399999691803188
 21
0.4834246107724695
 31
0.0
  0
LINE
  5
E12
330
DD6
100
AcDbEntity
  8
10
100
AcDbLine
 10
0.2660173827513717
 20
0.4176167338147875
 30
0.0
 11
0.3599999691803148
 21
0.4718776053886781
 31
0.0
  0
LINE
  5
E13
330
DD6
100
AcDbEntity
  8
10
100
AcDbLine
 10
0.2460173826459275
 20
0.429163739137699
 30
0.0
 11
0.3399999691803188
 21
0.4834246107724695
 31
0.0
  0
LINE
  5
E14
330
DD6
100
AcDbEntity
  8
10
100
AcDbLine
 10
0.2460173826459311
 20
0.4291637391376977
 30
0.0
 11
0.2443667475655182
 21
0.4301167337356575
 31
0.0
  0
LINE
  5
E15
330
DD6
100
AcDbEntity
  8
10
100
AcDbLine
 10
0.267668017831781
 20
0.4166637392168293
 30
0.0
 11
0.2660173827513788
 21
0.417616733814787
 31
0.0
  0
LINE
  5
E16
330
DD6
100
AcDbEntity
  8
10
100
AcDbLine
 10
0.2449999692581493
 20
0.3862558271698191
 30
0.0
 11
0.2676680178317312
 21
0.3993432311411684
 31
0.0
  0
ARC
  5
E17
330
DD6
100
AcDbEntity
  8
10
100
AcDbCircle
 10
0.2626680178317322
 20
0.408003485179013
 30
0.0
 40
0.01
100
AcDbArc
 50
299.9999999999999
 51
59.99999999968121
  0
ENDBLK
  5
E18
330
DD6
100
AcDbEntity
  8
0
100
AcDbBlockEnd
  0
BLOCK
  5
E1A
330
E19
100
AcDbEntity
  8
0
100
AcDbBlockBegin
  2
A$C2BF30918
 70
     0
 10
0.0
 20
0.0
 30
0.0
  3
A$C2BF30918
  1

  0
INSERT
  5
E1B
330
E19
100
AcDbEntity
  8
10
100
AcDbBlockReference
  2
A$C708B5813
 10
0.0000000098500248
 20
-0.0001119937962062
 30
0.0
 41
0.75
 42
0.75
 43
0.75
  0
ENDBLK
  5
E1C
330
E19
100
AcDbEntity
  8
0
100
AcDbBlockEnd
  0
BLOCK
  5
E1E
330
E1D
100
AcDbEntity
  8
0
100
AcDbBlockBegin
  2
A$C0832103F
 70
     0
 10
0.0
 20
0.0
 30
0.0
  3
A$C0832103F
  1

  0
MTEXT
  5
E1F
330
E1D
100
AcDbEntity
  8
10
 62
     7
100
AcDbMText
 10
2.082241661529446
 20
-3.025881151812108
 30
0.9200000000000001
 40
0.16
 41
3.80968
 71
     1
 72
     5
  1
CONTROL CONCEPTS CORP.
 73
     1
 44
1.0
1001
ACAD
1000
MTEXTBEGIN
1070
    73
1070
     1
1070
    44
1040
1.0
1070
    74
1070
     0
1000
MTEXTEND
  0
MTEXT
  5
E20
330
E1D
100
AcDbEntity
  8
10
100
AcDbMText
 10
5.499092001902988
 20
4.334063748274236
 30
0.9200000000000001
 40
0.100000008
 41
2.4400001952
 71
     2
 72
     5
  1
Description
  7
ACANSTS
 73
     1
 44
1.0
1001
ACAD
1000
MTEXTBEGIN
1070
    73
1070
     1
1070
    44
1040
1.0
1070
    74
1070
     0
1000
MTEXTEND
  0
MTEXT
  5
E21
330
E1D
100
AcDbEntity
  8
10
100
AcDbMText
 10
6.530968288450296
 20
4.060492297817092
 30
0.9200000000000001
 40
0.100000008
 41
0.0
 71
     5
 72
     5
  1
PART DESCRIPTION (MOLD NUMBER)
  7
ACANSTS
 73
     1
 44
1.0
1001
ACAD
1000
MTEXTBEGIN
1070
    73
1070
     1
1070
    44
1040
1.0
1070
    74
1070
     0
1000
MTEXTEND
  0
LINE
  5
E22
330
E1D
100
AcDbEntity
  8
10
100
AcDbLine
 10
-0.9663256969107603
 20
4.803825690617096
 30
0.9200000000000001
 11
9.641325680136002
 21
4.803825690617093
 31
0.9200000000000001
  0
LINE
  5
E23
330
E1D
100
AcDbEntity
  8
10
100
AcDbLine
 10
3.420610896764576
 20
4.803825690617093
 30
0.9200000000000001
 11
9.641325680136008
 21
4.803825690617093
 31
0.9200000000000001
  0
LINE
  5
E24
330
E1D
100
AcDbEntity
  8
10
100
AcDbLine
 10
3.420610896764576
 20
4.591444721245663
 30
0.9200000000000001
 11
9.641325680136008
 21
4.591444721245663
 31
0.9200000000000001
  0
LINE
  5
E25
330
E1D
100
AcDbEntity
  8
10
100
AcDbLine
 10
9.641325680136008
 20
3.954301813131381
 30
0.9200000000000001
 11
3.420610896764576
 21
3.954301813131381
 31
0.9200000000000001
  0
LINE
  5
E26
330
E1D
100
AcDbEntity
  8
10
100
AcDbLine
 10
3.420610896764576
 20
4.166682782502805
 30
0.9200000000000001
 11
9.641325680136008
 21
4.166682782502805
 31
0.9200000000000001
  0
LINE
  5
E27
330
E1D
100
AcDbEntity
  8
10
100
AcDbLine
 10
3.420610896764576
 20
4.379063751874236
 30
0.9200000000000001
 11
9.641325680136008
 21
4.379063751874236
 31
0.9200000000000001
  0
LINE
  5
E28
330
E1D
100
AcDbEntity
  8
10
100
AcDbLine
 10
-0.9663256969107811
 20
-3.30382568642958
 30
0.9200000000000001
 11
9.641325680136002
 21
-3.303825686429587
 31
0.9200000000000001
  0
LINE
  5
E29
330
E1D
100
AcDbEntity
  8
10
370
    50
100
AcDbLine
 10
-0.9663256969107807
 20
-2.903825686429587
 30
0.9200000000000001
 11
9.641325680136002
 21
-2.903825686429587
 31
0.9200000000000001
  0
LINE
  5
E2A
330
E1D
100
AcDbEntity
  8
10
100
AcDbLine
 10
-0.9663256969107756
 20
4.803825690617101
 30
0.9200000000000001
 11
-0.9663256969107811
 21
-3.303825686429579
 31
0.9200000000000001
  0
CIRCLE
  5
E2B
330
E1D
100
AcDbEntity
  8
10
 62
     1
100
AcDbCircle
 10
-0.9663256969107839
 20
-3.30382568642958
 30
0.9200000000000001
 40
0.1111040097775731
  0
LINE
  5
E2C
330
E1D
100
AcDbEntity
  8
10
100
AcDbLine
 10
-1.162500008387439
 20
-3.30382568642958
 30
0.9200000000000001
 11
-1.162500008387442
 21
-3.499999997906243
 31
0.9200000000000001
  0
LINE
  5
E2D
330
E1D
100
AcDbEntity
  8
10
100
AcDbLine
 10
-1.162500008387442
 20
-3.499999997906243
 30
0.9200000000000001
 11
-0.9663256969107811
 21
-3.499999997906243
 31
0.9200000000000001
  0
INSERT
  5
E2E
330
E1D
100
AcDbEntity
  8
10
100
AcDbBlockReference
  2
A$C708B5813
 10
1.668649617811994
 20
-3.267998077370169
 30
0.9200000000000001
 41
0.6000000000000001
 42
0.6000000000000001
 43
0.6
  0
LINE
  5
E2F
330
E1D
100
AcDbEntity
  8
10
100
AcDbLine
 10
-1.162500008387427
 20
5.000000002093758
 30
0.9200000000000001
 11
-0.9663256969107663
 21
5.000000002093758
 31
0.9200000000000001
  0
LINE
  5
E30
330
E1D
100
AcDbEntity
  8
10
100
AcDbLine
 10
-1.162500008387427
 20
5.000000002093758
 30
0.9200000000000001
 11
-1.162500008387425
 21
4.803825690617093
 31
0.9200000000000001
  0
MTEXT
  5
E31
330
E1D
100
AcDbEntity
  8
10
100
AcDbMText
 10
3.796325212536004
 20
4.708825683017093
 30
0.9200000000000001
 40
0.100000008
 41
0.0
 71
     4
 72
     5
  1
 XXXXX
  7
ACANSTS
 73
     1
 44
1.0
1001
ACAD
1000
MTEXTBEGIN
1070
    73
1070
     1
1070
    44
1040
1.0
1070
    74
1070
     0
1000
MTEXTEND
  0
MTEXT
  5
E32
330
E1D
100
AcDbEntity
  8
10
100
AcDbMText
 10
3.796325212536004
 20
4.496444713645662
 30
0.9200000000000001
 40
0.100000008
 41
2.4400001952
 71
     4
 72
     5
  1
 XXXXX
  7
ACANSTS
 73
     1
 44
1.0
1001
ACAD
1000
MTEXTBEGIN
1070
    73
1070
     1
1070
    44
1040
1.0
1070
    74
1070
     0
1000
MTEXTEND
  0
LINE
  5
E33
330
E1D
100
AcDbEntity
  8
10
100
AcDbLine
 10
3.420610896764576
 20
3.954301813131381
 30
0.9200000000000001
 11
3.420610896764576
 21
4.803825690617093
 31
0.9200000000000001
  0
MTEXT
  5
E34
330
E1D
100
AcDbEntity
  8
10
100
AcDbMText
 10
3.593468053450291
 20
4.758825687017094
 30
0.9200000000000001
 40
0.100000008
 41
0.2857407636
 71
     2
 72
     5
  1
H02
  7
ACANSTS
 73
     1
 44
1.0
1001
ACAD
1000
MTEXTBEGIN
1070
    73
1070
     1
1070
    44
1040
1.0
1070
    74
1070
     0
1000
MTEXTEND
  0
MTEXT
  5
E35
330
E1D
100
AcDbEntity
  8
10
100
AcDbMText
 10
3.593468053450291
 20
4.546444717645663
 30
0.9200000000000001
 40
0.100000008
 41
0.2857407636
 71
     2
 72
     5
  1
H01
  7
ACANSTS
 73
     1
 44
1.0
1001
ACAD
1000
MTEXTBEGIN
1070
    73
1070
     1
1070
    44
1040
1.0
1070
    74
1070
     0
1000
MTEXTEND
  0
MTEXT
  5
E36
330
E1D
100
AcDbEntity
  8
10
100
AcDbMText
 10
3.593468053450291
 20
4.334063748274236
 30
0.9200000000000001
 40
0.100000008
 41
0.2857143085714286
 71
     2
 72
     5
  1
Item
  7
ACANSTS
 73
     1
 44
1.0
1001
ACAD
1000
MTEXTBEGIN
1070
    73
1070
     1
1070
    44
1040
1.0
1070
    74
1070
     0
1000
MTEXTEND
  0
LINE
  5
E37
330
E1D
100
AcDbEntity
  8
10
100
AcDbLine
 10
3.766325210136006
 20
4.591444721245663
 30
0.9200000000000001
 11
3.766325210136006
 21
4.379063751874236
 31
0.9200000000000001
  0
LINE
  5
E38
330
E1D
100
AcDbEntity
  8
10
100
AcDbLine
 10
3.766325210136006
 20
4.379063751874236
 30
0.9200000000000001
 11
3.766325210136006
 21
4.166682782502805
 31
0.9200000000000001
  0
LINE
  5
E39
330
E1D
100
AcDbEntity
  8
10
100
AcDbLine
 10
3.766325210136006
 20
4.803825690617093
 30
0.9200000000000001
 11
3.766325210136006
 21
4.591444721245663
 31
0.9200000000000001
  0
LINE
  5
E3A
330
E1D
100
AcDbEntity
  8
10
100
AcDbLine
 10
9.641325680136002
 20
4.803825690617093
 30
0.9200000000000001
 11
9.641325680136002
 21
-3.303825686429587
 31
0.9200000000000001
  0
LINE
  5
E3B
330
E1D
100
AcDbEntity
  8
L-REV
100
AcDbLine
 10
9.641325680136008
 20
4.803825690617093
 30
0.9200000000000001
 11
9.641325680136002
 21
-3.303825686429587
 31
0.9200000000000001
  0
LINE
  5
E3C
330
E1D
100
AcDbEntity
  8
L-REV
100
AcDbLine
 10
10.041325680136
 20
-3.303825686429587
 30
0.9200000000000001
 11
10.041325680136
 21
4.803825690617096
 31
0.9200000000000001
  0
LINE
  5
E3D
330
E1D
100
AcDbEntity
  8
L-REV
100
AcDbLine
 10
10.441325680136
 20
-3.303825686429587
 30
0.9200000000000001
 11
10.44132568013601
 21
4.803825690617096
 31
0.9200000000000001
  0
LINE
  5
E3E
330
E1D
100
AcDbEntity
  8
L-REV
100
AcDbLine
 10
12.44132568013599
 20
-3.303825686429587
 30
0.9200000000000001
 11
12.441325680136
 21
4.803825690617096
 31
0.9200000000000001
  0
LINE
  5
E3F
330
E1D
100
AcDbEntity
  8
L-REV
100
AcDbLine
 10
12.84132568013599
 20
-3.303825686429587
 30
0.9200000000000001
 11
12.841325680136
 21
4.803825690617096
 31
0.9200000000000001
  0
LINE
  5
E40
330
E1D
100
AcDbEntity
  8
L-REV
100
AcDbLine
 10
9.641325680136006
 20
-0.9961743093829069
 30
0.9200000000000001
 11
12.84132568013601
 21
-0.9961743093829069
 31
0.9200000000000001
  0
LINE
  5
E41
330
E1D
100
AcDbEntity
  8
L-REV
100
AcDbLine
 10
9.641325680136006
 20
-2.996174309382903
 30
0.9200000000000001
 11
12.841325680136
 21
-2.996174309382908
 31
0.9200000000000001
  0
LINE
  5
E42
330
E1D
100
AcDbEntity
  8
L-REV
100
AcDbLine
 10
9.641325680136006
 20
-2.796174309382904
 30
0.9200000000000001
 11
12.841325680136
 21
-2.796174309382908
 31
0.9200000000000001
  0
LINE
  5
E43
330
E1D
100
AcDbEntity
  8
L-REV
100
AcDbLine
 10
9.641325680136006
 20
-2.596174309382904
 30
0.9200000000000001
 11
12.841325680136
 21
-2.596174309382909
 31
0.9200000000000001
  0
LINE
  5
E44
330
E1D
100
AcDbEntity
  8
L-REV
100
AcDbLine
 10
9.641325680136006
 20
-2.196174309382904
 30
0.9200000000000001
 11
12.841325680136
 21
-2.196174309382909
 31
0.9200000000000001
  0
LINE
  5
E45
330
E1D
100
AcDbEntity
  8
L-REV
100
AcDbLine
 10
9.641325680136006
 20
-1.796174309382904
 30
0.9200000000000001
 11
12.841325680136
 21
-1.796174309382909
 31
0.9200000000000001
  0
LINE
  5
E46
330
E1D
100
AcDbEntity
  8
L-REV
100
AcDbLine
 10
9.641325680136006
 20
-1.396174309382906
 30
0.9200000000000001
 11
12.841325680136
 21
-1.396174309382906
 31
0.9200000000000001
  0
LINE
  5
E47
330
E1D
100
AcDbEntity
  8
L-REV
100
AcDbLine
 10
9.641325680136006
 20
-2.396174309382904
 30
0.9200000000000001
 11
12.841325680136
 21
-2.396174309382908
 31
0.9200000000000001
  0
LINE
  5
E48
330
E1D
100
AcDbEntity
  8
L-REV
100
AcDbLine
 10
9.641325680136006
 20
-1.996174309382904
 30
0.9200000000000001
 11
12.841325680136
 21
-1.996174309382908
 31
0.9200000000000001
  0
LINE
  5
E49
330
E1D
100
AcDbEntity
  8
L-REV
100
AcDbLine
 10
9.641325680136006
 20
-1.596174309382904
 30
0.9200000000000001
 11
12.841325680136
 21
-1.596174309382909
 31
0.9200000000000001
  0
LINE
  5
E4A
330
E1D
100
AcDbEntity
  8
L-REV
100
AcDbLine
 10
9.641325680136006
 20
-1.196174309382906
 30
0.9200000000000001
 11
12.841325680136
 21
-1.196174309382906
 31
0.9200000000000001
  0
LINE
  5
E4B
330
E1D
100
AcDbEntity
  8
L-REV
100
AcDbLine
 10
12.84132568013599
 20
-3.303825686429587
 30
0.9200000000000001
 11
9.641325680136002
 21
-3.303825686429587
 31
0.9200000000000001
  0
MTEXT
  5
E4C
330
E1D
100
AcDbEntity
  8
10
 62
     1
100
AcDbMText
 10
7.337136490274709
 20
-3.174516684749863
 30
0.9200000000000001
 40
0.1
 41
1.86752
 71
     1
 72
     5
  1
1.0:1.0
 73
     1
 44
1.0
1001
ACAD
1000
MTEXTBEGIN
1070
    73
1070
     1
1070
    44
1040
1.0
1070
    74
1070
     0
1000
MTEXTEND
  0
MTEXT
  5
E4D
330
E1D
100
AcDbEntity
  8
10
 62
     7
100
AcDbMText
 10
7.292380721294657
 20
-2.607654143428681
 30
0.9200000000000001
 40
0.072
 41
3.6
 71
     1
 72
     5
  1
\LDRAWN BY:
 73
     1
 44
1.0
1001
ACAD
1000
MTEXTBEGIN
1070
    73
1070
     1
1070
    44
1040
1.0
1070
    74
1070
     0
1000
MTEXTEND
  0
MTEXT
  5
E4E
330
E1D
100
AcDbEntity
  8
10
 62
     1
100
AcDbMText
 10
7.337136490274709
 20
-2.774516684749864
 30
0.9200000000000001
 40
0.1
 41
1.86752
 71
     1
 72
     5
  1
INITIALS
 73
     1
 44
1.0
1001
ACAD
1000
MTEXTBEGIN
1070
    73
1070
     1
1070
    44
1040
1.0
1070
    74
1070
     0
1000
MTEXTEND
  0
LINE
  5
E4F
330
E1D
100
AcDbEntity
  8
10
370
    50
100
AcDbLine
 10
5.641325680136003
 20
-1.703825686429588
 30
0.9200000000000001
 11
9.641325680136002
 21
-1.703825686429588
 31
0.9200000000000001
  0
LINE
  5
E50
330
E1D
100
AcDbEntity
  8
10
100
AcDbLine
 10
7.316325680136004
 20
-2.478825686429588
 30
0.9200000000000001
 11
9.566325680136003
 21
-2.478825686429588
 31
0.9200000000000001
  0
LINE
  5
E51
330
E1D
100
AcDbEntity
  8
10
100
AcDbLine
 10
7.316325680136004
 20
-1.728825686429589
 30
0.9200000000000001
 11
9.566325680136003
 21
-1.728825686429589
 31
0.9200000000000001
  0
LINE
  5
E52
330
E1D
100
AcDbEntity
  8
10
370
    50
100
AcDbLine
 10
7.241325680136003
 20
-2.503825686429586
 30
0.9200000000000001
 11
9.641325680136002
 21
-2.503825686429586
 31
0.9200000000000001
  0
LINE
  5
E53
330
E1D
100
AcDbEntity
  8
10
370
    50
100
AcDbLine
 10
5.641325680136003
 20
-1.703825686429588
 30
0.9200000000000001
 11
5.641325680136003
 21
-2.903825686429587
 31
0.9200000000000001
  0
MTEXT
  5
E54
330
E1D
100
AcDbEntity
  8
10
 62
     7
100
AcDbMText
 10
6.477356989457232
 20
-1.777553007134571
 30
0.9200000000000001
 40
0.072
 41
0.0
 71
     2
 72
     5
  1
{\LTOLERANCE:\P\P}  .XX +/- 0.02\P .XXX +/- 0.005\P.XXXX +/- 0.001\PANGLES +/- 0.5 DEG\P\PUNLESS OTHERWISE \PSPECIFIED
 73
     1
 44
1.0
1001
ACAD
1000
MTEXTBEGIN
1070
    73
1070
     1
1070
    44
1040
1.0
1070
    74
1070
     0
1000
MTEXTEND
  0
LINE
  5
E55
330
E1D
100
AcDbEntity
  8
10
370
    50
100
AcDbLine
 10
7.241325680136003
 20
-1.703825686429588
 30
0.9200000000000001
 11
7.241325680136003
 21
-3.303825686429588
 31
0.9200000000000001
  0
MTEXT
  5
E56
330
E1D
100
AcDbEntity
  8
10
 62
     7
100
AcDbMText
 10
5.582369377705323
 20
-2.927099139905942
 30
0.9200000000000001
 40
0.08
 41
5.440000000000001
 71
     1
 72
     5
  1
P.O. BOX 496\P664 STATE STREET\PBEAVER, PA 15009
 73
     1
 44
1.0
1001
ACAD
1000
MTEXTBEGIN
1070
    73
1070
     1
1070
    44
1040
1.0
1070
    74
1070
     0
1000
MTEXTEND
  0
INSERT
  5
E57
330
E1D
100
AcDbEntity
  8
10
100
AcDbBlockReference
  2
A$C2BF30918
 10
6.864341287565771
 20
-3.267908482333203
 30
0.9200000000000001
 41
0.8
 42
0.8
 43
0.8000000000000001
  0
MTEXT
  5
E58
330
E1D
100
AcDbEntity
  8
10
 62
     7
100
AcDbMText
 10
7.279886554832522
 20
-2.978228759978683
 30
0.9200000000000001
 40
0.072
 41
3.6
 71
     1
 72
     5
  1
\LSCALE:
 73
     1
 44
1.0
1001
ACAD
1000
MTEXTBEGIN
1070
    73
1070
     1
1070
    44
1040
1.0
1070
    74
1070
     0
1000
MTEXTEND
  0
ARC
  5
E59
330
E1D
100
AcDbEntity
  8
10
100
AcDbCircle
 10
7.316325680136004
 20
-1.778825686429588
 30
0.9200000000000001
 40
0.05
100
AcDbArc
 50
90.0
 51
180.0
  0
LINE
  5
E5A
330
E1D
100
AcDbEntity
  8
10
100
AcDbLine
 10
7.266325680136003
 20
-1.778825686429588
 30
0.9200000000000001
 11
7.266325680136003
 21
-2.428825686429588
 31
0.9200000000000001
  0
ARC
  5
E5B
330
E1D
100
AcDbEntity
  8
10
100
AcDbCircle
 10
7.316325680136004
 20
-2.428825686429588
 30
0.9200000000000001
 40
0.05
100
AcDbArc
 50
180.0
 51
270.0
  0
MTEXT
  5
E5C
330
E1D
100
AcDbEntity
  8
10
 62
     7
100
AcDbMText
 10
7.315778493502831
 20
-1.795315425001196
 30
0.9200000000000001
 40
0.072
 41
0.0
 71
     1
 72
     5
  1
{\LTITLE:}
 73
     1
 44
1.0
1001
ACAD
1000
MTEXTBEGIN
1070
    73
1070
     1
1070
    44
1040
1.0
1070
    74
1070
     0
1000
MTEXTEND
  0
MTEXT
  5
E5D
330
E1D
100
AcDbEntity
  8
10
 62
     1
100
AcDbMText
 10
7.312319225186522
 20
-1.949477205123434
 30
0.9200000000000001
 40
0.1
 41
1.86752
 71
     1
 72
     5
  1
TITLE
 73
     1
 44
1.0
1001
ACAD
1000
MTEXTBEGIN
1070
    73
1070
     1
1070
    44
1040
1.0
1070
    74
1070
     0
1000
MTEXTEND
  0
LINE
  5
E5E
330
E1D
100
AcDbEntity
  8
10
370
    50
100
AcDbLine
 10
8.041325680136003
 20
-2.503825686429586
 30
0.9200000000000001
 11
8.041325680136003
 21
-3.303825686429587
 31
0.9200000000000001
  0
MTEXT
  5
E5F
330
E1D
100
AcDbEntity
  8
10
 62
     7
100
AcDbMText
 10
8.319354886227062
 20
-2.971072892355071
 30
0.9200000000000001
 40
0.072
 41
3.6
 71
     1
 72
     5
  1
\LDRAWING NO.
 73
     1
 44
1.0
1001
ACAD
1000
MTEXTBEGIN
1070
    73
1070
     1
1070
    44
1040
1.0
1070
    74
1070
     0
1000
MTEXTEND
  0
MTEXT
  5
E60
330
E1D
100
AcDbEntity
  8
10
 62
     1
100
AcDbMText
 10
8.292244409137353
 20
-3.174516684749863
 30
0.9200000000000001
 40
0.1
 41
1.86752
 71
     1
 72
     5
  1
DRWG NUMBER
 73
     1
 44
1.0
1001
ACAD
1000
MTEXTBEGIN
1070
    73
1070
     1
1070
    44
1040
1.0
1070
    74
1070
     0
1000
MTEXTEND
  0
MTEXT
  5
E61
330
E1D
100
AcDbEntity
  8
10
 62
     1
100
AcDbMText
 10
8.292244409137353
 20
-2.774516684749864
 30
0.9200000000000001
 40
0.1
 41
1.86752
 71
     1
 72
     5
  1
DATE
 73
     1
 44
1.0
1001
ACAD
1000
MTEXTBEGIN
1070
    73
1070
     1
1070
    44
1040
1.0
1070
    74
1070
     0
1000
MTEXTEND
  0
MTEXT
  5
E62
330
E1D
100
AcDbEntity
  8
L-REV
100
AcDbMText
 10
9.71787386841223
 20
-3.171362050493581
 30
0.9200000000000001
 40
0.072
 41
0.0
 71
     1
 72
     5
  1
REV#
 73
     1
 44
1.0
1001
ACAD
1000
MTEXTBEGIN
1070
    73
1070
     1
1070
    44
1040
1.0
1070
    74
1070
     0
1000
MTEXTEND
  0
MTEXT
  5
E63
330
E1D
100
AcDbEntity
  8
10
 62
     7
100
AcDbMText
 10
8.330259821535518
 20
-2.595162852580749
 30
0.9200000000000001
 40
0.072
 41
3.6
 71
     1
 72
     5
  1
\LDATE:
 73
     1
 44
1.0
1001
ACAD
1000
MTEXTBEGIN
1070
    73
1070
     1
1070
    44
1040
1.0
1070
    74
1070
     0
1000
MTEXTEND
  0
ARC
  5
E64
330
E1D
100
AcDbEntity
  8
10
100
AcDbCircle
 10
9.566325680136003
 20
-1.778825686429588
 30
0.9200000000000001
 40
0.05
100
AcDbArc
 50
0.0
 51
90.0
  0
LINE
  5
E65
330
E1D
100
AcDbEntity
  8
10
100
AcDbLine
 10
9.616325680136004
 20
-1.778825686429588
 30
0.9200000000000001
 11
9.616325680136004
 21
-2.428825686429588
 31
0.9200000000000001
  0
ARC
  5
E66
330
E1D
100
AcDbEntity
  8
10
100
AcDbCircle
 10
9.566325680136003
 20
-2.428825686429588
 30
0.9200000000000001
 40
0.05
100
AcDbArc
 50
270.0
 51
0.0
  0
MTEXT
  5
E67
330
E1D
100
AcDbEntity
  8
L-REV
100
AcDbMText
 10
12.52052670670902
 20
-3.171362050493584
 30
0.9200000000000001
 40
0.072
 41
0.0
 71
     1
 72
     5
  1
DATE
 73
     1
 44
1.0
1001
ACAD
1000
MTEXTBEGIN
1070
    73
1070
     1
1070
    44
1040
1.0
1070
    74
1070
     0
1000
MTEXTEND
  0
MTEXT
  5
E68
330
E1D
100
AcDbEntity
  8
L-REV
100
AcDbMText
 10
11.08467206669906
 20
-3.163722909274858
 30
0.9200000000000001
 40
0.072
 41
0.0
 71
     1
 72
     5
  1
DESCRIPTION
 73
     1
 44
1.0
1001
ACAD
1000
MTEXTBEGIN
1070
    73
1070
     1
1070
    44
1040
1.0
1070
    74
1070
     0
1000
MTEXTEND
  0
MTEXT
  5
E69
330
E1D
100
AcDbEntity
  8
L-REV
100
AcDbMText
 10
10.18091351179044
 20
-3.171362050493581
 30
0.9200000000000001
 40
0.072
 41
0.0
 71
     1
 72
     5
  1
BY
 73
     1
 44
1.0
1001
ACAD
1000
MTEXTBEGIN
1070
    73
1070
     1
1070
    44
1040
1.0
1070
    74
1070
     0
1000
MTEXTEND
  0
LINE
  5
E6A
330
E1D
100
AcDbEntity
  8
10
100
AcDbLine
 10
12.84135136865934
 20
-3.499999997906246
 30
0.9200000000000001
 11
13.03752568013601
 21
-3.499999997906249
 31
0.9200000000000001
  0
LINE
  5
E6B
330
E1D
100
AcDbEntity
  8
10
100
AcDbLine
 10
13.037525680136
 20
-3.499999997906249
 30
0.9200000000000001
 11
13.037525680136
 21
-3.303825686429586
 31
0.9200000000000001
  0
LINE
  5
E6C
330
E1D
100
AcDbEntity
  8
L-REV
100
AcDbLine
 10
9.641325680136008
 20
4.803825690617093
 30
0.9200000000000001
 11
12.84132568013601
 21
4.803825690617093
 31
0.9200000000000001
  0
LINE
  5
E6D
330
E1D
100
AcDbEntity
  8
L-REV
100
AcDbLine
 10
9.641325680136008
 20
4.403825690617094
 30
0.9200000000000001
 11
12.84132568013601
 21
4.403825690617094
 31
0.9200000000000001
  0
LINE
  5
E6E
330
E1D
100
AcDbEntity
  8
L-REV
100
AcDbLine
 10
9.641325680136008
 20
4.603825690617093
 30
0.9200000000000001
 11
12.84132568013601
 21
4.603825690617093
 31
0.9200000000000001
  0
LINE
  5
E6F
330
E1D
100
AcDbEntity
  8
L-REV
100
AcDbLine
 10
9.641325680136006
 20
3.803825690617093
 30
0.9200000000000001
 11
12.84132568013601
 21
3.803825690617093
 31
0.9200000000000001
  0
LINE
  5
E70
330
E1D
100
AcDbEntity
  8
L-REV
100
AcDbLine
 10
9.641325680136008
 20
4.203825690617091
 30
0.9200000000000001
 11
12.84132568013601
 21
4.203825690617091
 31
0.9200000000000001
  0
LINE
  5
E71
330
E1D
100
AcDbEntity
  8
L-REV
100
AcDbLine
 10
9.641325680136006
 20
4.003825690617093
 30
0.9200000000000001
 11
12.84132568013601
 21
4.003825690617093
 31
0.9200000000000001
  0
LINE
  5
E72
330
E1D
100
AcDbEntity
  8
L-REV
100
AcDbLine
 10
9.641325680136006
 20
3.603825690617094
 30
0.9200000000000001
 11
12.84132568013601
 21
3.603825690617094
 31
0.9200000000000001
  0
LINE
  5
E73
330
E1D
100
AcDbEntity
  8
L-REV
100
AcDbLine
 10
9.641325680136008
 20
3.403825690617095
 30
0.9200000000000001
 11
12.84132568013601
 21
3.403825690617095
 31
0.9200000000000001
  0
LINE
  5
E74
330
E1D
100
AcDbEntity
  8
L-REV
100
AcDbLine
 10
9.641325680136006
 20
3.803825690617093
 30
0.9200000000000001
 11
12.84132568013601
 21
3.803825690617093
 31
0.9200000000000001
  0
LINE
  5
E75
330
E1D
100
AcDbEntity
  8
L-REV
100
AcDbLine
 10
9.641325680136006
 20
0.6038256906170929
 30
0.9200000000000001
 11
12.84132568013601
 21
0.6038256906170947
 31
0.9200000000000001
  0
LINE
  5
E76
330
E1D
100
AcDbEntity
  8
L-REV
100
AcDbLine
 10
9.641325680136006
 20
1.00382569061709
 30
0.9200000000000001
 11
12.84132568013601
 21
1.003825690617093
 31
0.9200000000000001
  0
LINE
  5
E77
330
E1D
100
AcDbEntity
  8
L-REV
100
AcDbLine
 10
9.641325680136006
 20
0.403825690617092
 30
0.9200000000000001
 11
12.84132568013601
 21
0.4038256906170937
 31
0.9200000000000001
  0
LINE
  5
E78
330
E1D
100
AcDbEntity
  8
L-REV
100
AcDbLine
 10
9.641325680136006
 20
0.803825690617092
 30
0.9200000000000001
 11
12.84132568013601
 21
0.8038256906170937
 31
0.9200000000000001
  0
LINE
  5
E79
330
E1D
100
AcDbEntity
  8
L-REV
100
AcDbLine
 10
9.641325680136006
 20
1.40382569061709
 30
0.9200000000000001
 11
12.84132568013601
 21
1.403825690617094
 31
0.9200000000000001
  0
LINE
  5
E7A
330
E1D
100
AcDbEntity
  8
L-REV
100
AcDbLine
 10
9.641325680136006
 20
1.803825690617093
 30
0.9200000000000001
 11
12.84132568013601
 21
1.803825690617093
 31
0.9200000000000001
  0
LINE
  5
E7B
330
E1D
100
AcDbEntity
  8
L-REV
100
AcDbLine
 10
9.641325680136006
 20
2.203825690617095
 30
0.9200000000000001
 11
12.84132568013601
 21
2.203825690617095
 31
0.9200000000000001
  0
LINE
  5
E7C
330
E1D
100
AcDbEntity
  8
L-REV
100
AcDbLine
 10
9.641325680136006
 20
2.603825690617094
 30
0.9200000000000001
 11
12.84132568013601
 21
2.603825690617094
 31
0.9200000000000001
  0
LINE
  5
E7D
330
E1D
100
AcDbEntity
  8
L-REV
100
AcDbLine
 10
9.641325680136008
 20
3.003825690617093
 30
0.9200000000000001
 11
12.84132568013601
 21
3.003825690617093
 31
0.9200000000000001
  0
LINE
  5
E7E
330
E1D
100
AcDbEntity
  8
L-REV
100
AcDbLine
 10
9.641325680136006
 20
1.203825690617092
 30
0.9200000000000001
 11
12.84132568013601
 21
1.203825690617095
 31
0.9200000000000001
  0
LINE
  5
E7F
330
E1D
100
AcDbEntity
  8
L-REV
100
AcDbLine
 10
9.641325680136006
 20
1.603825690617093
 30
0.9200000000000001
 11
12.84132568013601
 21
1.603825690617093
 31
0.9200000000000001
  0
LINE
  5
E80
330
E1D
100
AcDbEntity
  8
L-REV
100
AcDbLine
 10
9.641325680136006
 20
2.003825690617093
 30
0.9200000000000001
 11
12.84132568013601
 21
2.003825690617093
 31
0.9200000000000001
  0
LINE
  5
E81
330
E1D
100
AcDbEntity
  8
L-REV
100
AcDbLine
 10
9.641325680136006
 20
2.403825690617095
 30
0.9200000000000001
 11
12.84132568013601
 21
2.403825690617095
 31
0.9200000000000001
  0
LINE
  5
E82
330
E1D
100
AcDbEntity
  8
L-REV
100
AcDbLine
 10
9.641325680136006
 20
2.803825690617093
 30
0.9200000000000001
 11
12.84132568013601
 21
2.803825690617093
 31
0.9200000000000001
  0
LINE
  5
E83
330
E1D
100
AcDbEntity
  8
L-REV
100
AcDbLine
 10
9.641325680136008
 20
3.203825690617096
 30
0.9200000000000001
 11
12.84132568013601
 21
3.203825690617096
 31
0.9200000000000001
  0
LINE
  5
E84
330
E1D
100
AcDbEntity
  8
L-REV
100
AcDbLine
 10
9.641325680136006
 20
0.2038256906170925
 30
0.9200000000000001
 11
12.84132568013601
 21
0.2038256906170943
 31
0.9200000000000001
  0
LINE
  5
E85
330
E1D
100
AcDbEntity
  8
L-REV
100
AcDbLine
 10
9.641325680136006
 20
-0.1961743093829078
 30
0.9200000000000001
 11
12.84132568013601
 21
-0.1961743093829078
 31
0.9200000000000001
  0
LINE
  5
E86
330
E1D
100
AcDbEntity
  8
L-REV
100
AcDbLine
 10
9.641325680136006
 20
0.0038256906170933
 30
0.9200000000000001
 11
12.84132568013601
 21
0.0038256906170933
 31
0.9200000000000001
  0
LINE
  5
E87
330
E1D
100
AcDbEntity
  8
L-REV
100
AcDbLine
 10
9.641325680136006
 20
-0.5961743093829082
 30
0.9200000000000001
 11
12.84132568013601
 21
-0.5961743093829082
 31
0.9200000000000001
  0
LINE
  5
E88
330
E1D
100
AcDbEntity
  8
L-REV
100
AcDbLine
 10
9.641325680136006
 20
-0.7961743093829075
 30
0.9200000000000001
 11
12.84132568013601
 21
-0.7961743093829075
 31
0.9200000000000001
  0
LINE
  5
E89
330
E1D
100
AcDbEntity
  8
L-REV
100
AcDbLine
 10
9.641325680136006
 20
-0.3961743093829071
 30
0.9200000000000001
 11
12.84132568013601
 21
-0.3961743093829071
 31
0.9200000000000001
  0
MTEXT
  5
E8A
330
E1D
100
AcDbEntity
  8
10
100
AcDbMText
 10
7.774120572183917
 20
4.334063748274236
 30
0.9200000000000001
 40
0.100000008
 41
1.3466667744
 71
     2
 72
     5
  1
Material
  7
ACANSTS
 73
     1
 44
1.0
1001
ACAD
1000
MTEXTBEGIN
1070
    73
1070
     1
1070
    44
1040
1.0
1070
    74
1070
     0
1000
MTEXTEND
  0
MTEXT
  5
E8B
330
E1D
100
AcDbEntity
  8
10
100
AcDbMText
 10
7.774120572183917
 20
4.758825687017091
 30
0.9200000000000001
 40
0.100000008
 41
1.3466667744
 71
     2
 72
     5
  1
VALOX 357
  7
ACANSTS
 73
     1
 44
1.0
1001
ACAD
1000
MTEXTBEGIN
1070
    73
1070
     1
1070
    44
1040
1.0
1070
    74
1070
     0
1000
MTEXTEND
  0
MTEXT
  5
E8C
330
E1D
100
AcDbEntity
  8
10
100
AcDbMText
 10
7.774120572183917
 20
4.546444717645661
 30
0.9200000000000001
 40
0.100000008
 41
1.3466667744
 71
     2
 72
     5
  1
VALOX 357
  7
ACANSTS
 73
     1
 44
1.0
1001
ACAD
1000
MTEXTBEGIN
1070
    73
1070
     1
1070
    44
1040
1.0
1070
    74
1070
     0
1000
MTEXTEND
  0
LINE
  5
E8D
330
E1D
100
AcDbEntity
  8
10
100
AcDbLine
 10
6.91948030350847
 20
4.591444721245663
 30
0.9200000000000001
 11
6.91948030350847
 21
4.379063751874236
 31
0.9200000000000001
  0
LINE
  5
E8E
330
E1D
100
AcDbEntity
  8
10
100
AcDbLine
 10
6.91948030350847
 20
4.379063751874236
 30
0.9200000000000001
 11
6.91948030350847
 21
4.166682782502805
 31
0.9200000000000001
  0
LINE
  5
E8F
330
E1D
100
AcDbEntity
  8
10
100
AcDbLine
 10
6.91948030350847
 20
4.803825690617093
 30
0.9200000000000001
 11
6.91948030350847
 21
4.591444721245663
 31
0.9200000000000001
  0
MTEXT
  5
E90
330
E1D
100
AcDbEntity
  8
10
100
AcDbMText
 10
9.05473143528666
 20
4.758825687017091
 30
0.9200000000000001
 40
0.100000008
 41
0.9241667406000001
 71
     2
 72
     5
  1
RED
  7
ACANSTS
 73
     1
 44
1.0
1001
ACAD
1000
MTEXTBEGIN
1070
    73
1070
     1
1070
    44
1040
1.0
1070
    74
1070
     0
1000
MTEXTEND
  0
MTEXT
  5
E91
330
E1D
100
AcDbEntity
  8
10
100
AcDbMText
 10
9.05473143528666
 20
4.546444717645661
 30
0.9200000000000001
 40
0.100000008
 41
0.9241667406000001
 71
     2
 72
     5
  1
GREEN
  7
ACANSTS
 73
     1
 44
1.0
1001
ACAD
1000
MTEXTBEGIN
1070
    73
1070
     1
1070
    44
1040
1.0
1070
    74
1070
     0
1000
MTEXTEND
  0
MTEXT
  5
E92
330
E1D
100
AcDbEntity
  8
10
100
AcDbMText
 10
9.05473143528666
 20
4.334063748274236
 30
0.9200000000000001
 40
0.100000008
 41
0.9241667406000001
 71
     2
 72
     5
  1
Color
  7
ACANSTS
 73
     1
 44
1.0
1001
ACAD
1000
MTEXTBEGIN
1070
    73
1070
     1
1070
    44
1040
1.0
1070
    74
1070
     0
1000
MTEXTEND
  0
LINE
  5
E93
330
E1D
100
AcDbEntity
  8
10
100
AcDbLine
 10
8.477453961783922
 20
4.166682782502805
 30
0.9200000000000001
 11
8.477453961783918
 21
4.803825690617093
 31
0.9200000000000001
  0
LINE
  5
E94
330
E1D
100
AcDbEntity
  8
10
100
AcDbLine
 10
9.641325680136008
 20
4.803825690617093
 30
0.9200000000000001
 11
9.641325680136008
 21
3.954301813131381
 31
0.9200000000000001
  0
LINE
  5
E95
330
E1D
100
AcDbEntity
  8
10
100
AcDbLine
 10
12.84135136865934
 20
5.000000002093758
 30
0.9200000000000001
 11
13.03752568013601
 21
5.000000002093758
 31
0.9200000000000001
  0
LINE
  5
E96
330
E1D
100
AcDbEntity
  8
10
100
AcDbLine
 10
13.037525680136
 20
5.000000002093758
 30
0.9200000000000001
 11
13.037525680136
 21
4.803825690617096
 31
0.9200000000000001
  0
ENDBLK
  5
E97
330
E1D
100
AcDbEntity
  8
0
100
AcDbBlockEnd
  0
BLOCK
  5
E99
330
E98
100
AcDbEntity
  8
0
 62
     1
100
AcDbBlockBegin
  2
A$C5A7A0274
 70
     0
 10
0.0
 20
0.0
 30
0.0
  3
A$C5A7A0274
  1

  0
ELLIPSE
  5
E9A
330
E98
100
AcDbEntity
  8
0
100
AcDbEllipse
 10
0.9687500026610942
 20
1.555786541996389
 30
0.0
 11
-0.0441941738241592
 21
0.0
 31
0.0
210
0.0
220
0.0
230
1.0
 40
0.5773502691896219
 41
7.068583470577034
 42
8.63937979737193
  0
ELLIPSE
  5
E9B
330
E98
100
AcDbEntity
  8
0
100
AcDbEllipse
 10
0.9687500026610962
 20
1.158858231928521
 30
0.0
 11
-0.0441941738241592
 21
0.0
 31
0.0
210
0.0
220
0.0
230
1.0
 40
0.5773502691896219
 41
0.7853981633974491
 42
2.356194490192344
  0
ELLIPSE
  5
E9C
330
E98
100
AcDbEntity
  8
0
100
AcDbEllipse
 10
0.9687500026610942
 20
2.16922120301037
 30
0.0
 11
-0.0441941738241592
 21
0.0
 31
0.0
210
0.0
220
0.0
230
1.0
 40
0.5773502691896219
 41
3.926990816987241
 42
5.497787143782136
  0
LINE
  5
E9D
330
E98
100
AcDbEntity
  8
0
100
AcDbLine
 10
1.375000002661094
 20
1.970757047976435
 30
0.0
 11
0.9687500026610951
 21
1.736208501118149
 31
0.0
  0
ELLIPSE
  5
E9E
330
E98
100
AcDbEntity
  8
0
100
AcDbEllipse
 10
0.3750000026610971
 20
0.9603940768945895
 30
0.0
 11
0.0220970869120795
 21
-0.0382732772309876
 31
0.0
210
0.0
220
0.0
230
0.9999999999999998
 40
0.5773502691896241
 41
8.639379797371937
 42
10.21017612416682
  0
ELLIPSE
  5
E9F
330
E98
100
AcDbEntity
  8
0
100
AcDbEllipse
 10
0.5000000026610964
 20
0.8882252932458861
 30
0.0
 11
0.0220970869120795
 21
-0.0382732772309876
 31
0.0
210
0.0
220
0.0
230
0.9999999999999998
 40
0.5773502691896241
 41
7.068583470577034
 42
8.639379797371937
  0
ELLIPSE
  5
EA0
330
E98
100
AcDbEntity
  8
0
100
AcDbEllipse
 10
0.5000000026610955
 20
0.6717189422997773
 30
0.0
 11
0.0220970869120795
 21
-0.0382732772309876
 31
0.0
210
0.0
220
0.0
230
0.9999999999999998
 40
0.5773502691896241
 41
5.497787143782145
 42
7.068583470577058
  0
ELLIPSE
  5
EA1
330
E98
100
AcDbEntity
  8
0
100
AcDbEllipse
 10
0.3750000026610962
 20
0.74388772594848
 30
0.0
 11
0.0220970869120795
 21
-0.0382732772309876
 31
0.0
210
0.0
220
0.0
230
0.9999999999999998
 40
0.5773502691896241
 41
3.926990816987241
 42
5.497787143782145
  0
ELLIPSE
  5
EA2
330
E98
100
AcDbEntity
  8
0
100
AcDbEllipse
 10
0.0312500026610962
 20
0.5454235709145463
 30
0.0
 11
0.0220970869120795
 21
-0.0382732772309876
 31
0.0
210
0.0
220
0.0
230
0.9999999999999998
 40
0.5773502691896241
 41
3.926990816987241
 42
5.497787143782145
  0
ELLIPSE
  5
EA3
330
E98
100
AcDbEntity
  8
0
100
AcDbEllipse
 10
0.9062500026610942
 20
0.0402420853736236
 30
0.0
 11
0.0220970869120795
 21
-0.0382732772309876
 31
0.0
210
0.0
220
0.0
230
0.9999999999999998
 40
0.5773502691896241
 41
5.497787143782145
 42
7.068583470577034
  0
ELLIPSE
  5
EA4
330
E98
100
AcDbEntity
  8
0
100
AcDbEllipse
 10
0.9062500026610981
 20
1.050605056455468
 30
0.0
 11
0.0220970869120795
 21
-0.0382732772309876
 31
0.0
210
0.0
220
0.0
230
0.9999999999999998
 40
0.5773502691896241
 41
7.068583470577034
 42
8.639379797371937
  0
ELLIPSE
  5
EA5
330
E98
100
AcDbEntity
  8
0
100
AcDbEllipse
 10
0.0312500026610962
 20
1.555786541996391
 30
0.0
 11
0.0220970869120795
 21
-0.0382732772309876
 31
0.0
210
0.0
220
0.0
230
0.9999999999999998
 40
0.5773502691896241
 41
2.356194490192351
 42
3.926990816987241
  0
ELLIPSE
  5
EA6
330
E98
100
AcDbEntity
  8
0
100
AcDbEllipse
 10
0.9062500026610962
 20
1.736208501118149
 30
0.0
 11
-0.0441941738241592
 21
0.0
 31
0.0
210
0.0
220
0.0
230
1.0
 40
0.5773502691896219
 41
3.926990816987228
 42
5.497787143782136
  0
ELLIPSE
  5
EA7
330
E98
100
AcDbEntity
  8
0
100
AcDbEllipse
 10
0.7812500026610945
 20
1.664039717469445
 30
0.0
 11
-0.0441941738241592
 21
0.0
 31
0.0
210
0.0
220
0.0
230
1.0
 40
0.5773502691896219
 41
5.497787143782136
 42
7.068583470577034
  0
ELLIPSE
  5
EA8
330
E98
100
AcDbEntity
  8
0
100
AcDbEllipse
 10
0.0937500026610954
 20
1.664039717469446
 30
0.0
 11
-0.0441941738241592
 21
0.0
 31
0.0
210
0.0
220
0.0
230
1.0
 40
0.5773502691896219
 41
5.497787143782136
 42
7.068583470577034
  0
LINE
  5
EA9
330
E98
100
AcDbEntity
  8
0
100
AcDbLine
 10
0.9062500026610942
 20
0.004157693549272
 30
0.0
 11
0.0312500026610962
 21
0.5093391790901947
 31
0.0
  0
LINE
  5
EAA
330
E98
100
AcDbEntity
  8
0
100
AcDbLine
 10
0.9375000026610972
 20
0.4552125913536669
 30
0.0
 11
0.5312500026610955
 21
0.6897611382119524
 31
0.0
  0
LINE
  5
EAB
330
E98
100
AcDbEntity
  8
0
100
AcDbLine
 10
0.9375000026610972
 20
0.4552125913536669
 30
0.0
 11
0.9375000026610942
 21
0.0221998894614475
 31
0.0
  0
LINE
  5
EAC
330
E98
100
AcDbEntity
  8
0
100
AcDbLine
 10
0.0625000026610954
 20
1.682081913381621
 30
0.0
 11
0.9375000026610942
 21
2.187263398922544
 31
0.0
  0
LINE
  5
EAD
330
E98
100
AcDbEntity
  8
0
100
AcDbLine
 10
0.9062500026610981
 20
1.086689448279819
 30
0.0
 11
0.0312500026610962
 21
1.591870933820743
 31
0.0
  0
LINE
  5
EAE
330
E98
100
AcDbEntity
  8
0
100
AcDbLine
 10
0.0000000026610962
 20
1.573828737908566
 30
0.0
 11
0.0000000026610962
 21
0.5634657668267225
 31
0.0
  0
LINE
  5
EAF
330
E98
100
AcDbEntity
  8
0
100
AcDbLine
 10
0.9375000026610962
 20
1.140816036016345
 30
0.0
 11
0.0625000026610954
 21
1.645997521557269
 31
0.0
  0
LINE
  5
EB0
330
E98
100
AcDbEntity
  8
0
100
AcDbLine
 10
0.3437500026610971
 20
0.9784362728067655
 30
0.0
 11
0.3437500026610962
 21
0.7619299218606562
 31
0.0
  0
LINE
  5
EB1
330
E98
100
AcDbEntity
  8
0
100
AcDbLine
 10
0.5000000026610955
 20
0.6356345504754257
 30
0.0
 11
0.3750000026610962
 21
0.7078033341241285
 31
0.0
  0
LINE
  5
EB2
330
E98
100
AcDbEntity
  8
0
100
AcDbLine
 10
0.5000000026610964
 20
0.924309685070238
 30
0.0
 11
0.3750000026610971
 21
0.9964784687189411
 31
0.0
  0
LINE
  5
EB3
330
E98
100
AcDbEntity
  8
0
100
AcDbLine
 10
0.9375000026610981
 20
1.032562860543291
 30
0.0
 11
0.9375000026610972
 21
0.5995501586510719
 31
0.0
  0
LINE
  5
EB4
330
E98
100
AcDbEntity
  8
0
100
AcDbLine
 10
0.9375000026610972
 20
0.5995501586510719
 30
0.0
 11
0.5312500026610964
 21
0.8340987055093583
 31
0.0
  0
LINE
  5
EB5
330
E98
100
AcDbEntity
  8
0
100
AcDbLine
 10
0.5312500026610955
 20
0.6536767463876007
 30
0.0
 11
0.5312500026610955
 21
0.6897611382119524
 31
0.0
  0
LINE
  5
EB6
330
E98
100
AcDbEntity
  8
0
100
AcDbLine
 10
0.5312500026610964
 20
0.8701830973337099
 30
0.0
 11
0.5312500026610964
 21
0.8340987055093588
 31
0.0
  0
LINE
  5
EB7
330
E98
100
AcDbEntity
  8
0
100
AcDbLine
 10
0.8750000026610962
 20
1.754250697030324
 30
0.0
 11
0.7500000026610945
 21
1.68208191338162
 31
0.0
  0
LINE
  5
EB8
330
E98
100
AcDbEntity
  8
0
100
AcDbLine
 10
0.9375000026610942
 20
1.537744346084215
 30
0.0
 11
0.7500000026610955
 21
1.645997521557269
 31
0.0
  0
LINE
  5
EB9
330
E98
100
AcDbEntity
  8
0
100
AcDbLine
 10
0.9375000026610962
 20
1.754250697030324
 30
0.0
 11
0.9687500026610951
 21
1.736208501118149
 31
0.0
  0
ELLIPSE
  5
EBA
330
E98
100
AcDbEntity
  8
0
100
AcDbEllipse
 10
1.375000002661095
 20
0.8521409014215347
 30
0.0
 11
-0.0220970869120792
 21
-0.0382732772309871
 31
0.0
210
0.0
220
0.0
230
1.0
 40
0.5773502691896315
 41
3.926990816987227
 42
5.497787143782118
  0
ELLIPSE
  5
EBB
330
E98
100
AcDbEntity
  8
0
100
AcDbEllipse
 10
1.500000002661095
 20
0.924309685070238
 30
0.0
 11
-0.0220970869120792
 21
-0.0382732772309871
 31
0.0
210
0.0
220
0.0
230
1.0
 40
0.5773502691896315
 41
8.639379797371912
 42
10.21017612416681
  0
ELLIPSE
  5
EBC
330
E98
100
AcDbEntity
  8
0
100
AcDbEllipse
 10
1.500000002661098
 20
0.707803334124127
 30
0.0
 11
-0.0220970869120792
 21
-0.0382732772309871
 31
0.0
210
0.0
220
0.0
230
1.0
 40
0.5773502691896315
 41
7.068583470577022
 42
8.63937979737193
  0
ELLIPSE
  5
EBD
330
E98
100
AcDbEntity
  8
0
100
AcDbEllipse
 10
1.375000002661095
 20
0.6356345504754235
 30
0.0
 11
-0.0220970869120792
 21
-0.0382732772309871
 31
0.0
210
0.0
220
0.0
230
1.0
 40
0.5773502691896315
 41
5.497787143782124
 42
7.068583470577022
  0
ELLIPSE
  5
EBE
330
E98
100
AcDbEntity
  8
0
100
AcDbEllipse
 10
1.031250002661096
 20
0.0402420853736238
 30
0.0
 11
-0.0220970869120792
 21
-0.0382732772309871
 31
0.0
210
0.0
220
0.0
230
1.0
 40
0.5773502691896315
 41
5.497787143782124
 42
7.068583470577022
  0
ELLIPSE
  5
EBF
330
E98
100
AcDbEntity
  8
0
100
AcDbEllipse
 10
1.906250002661098
 20
0.5454235709145462
 30
0.0
 11
-0.0220970869120792
 21
-0.0382732772309871
 31
0.0
210
0.0
220
0.0
230
1.0
 40
0.5773502691896315
 41
0.7853981633974354
 42
2.356194490192331
  0
ELLIPSE
  5
EC0
330
E98
100
AcDbEntity
  8
0
100
AcDbEllipse
 10
1.906250002661097
 20
1.55578654199639
 30
0.0
 11
-0.0220970869120792
 21
-0.0382732772309871
 31
0.0
210
0.0
220
0.0
230
1.0
 40
0.5773502691896315
 41
2.356194490192337
 42
3.926990816987227
  0
ELLIPSE
  5
EC1
330
E98
100
AcDbEntity
  8
0
100
AcDbEllipse
 10
1.031250002661098
 20
1.050605056455469
 30
0.0
 11
-0.0220970869120792
 21
-0.0382732772309871
 31
0.0
210
0.0
220
0.0
230
1.0
 40
0.5773502691896315
 41
3.926990816987227
 42
5.497787143782105
  0
ELLIPSE
  5
EC2
330
E98
100
AcDbEntity
  8
0
100
AcDbEllipse
 10
1.093750002661096
 20
1.627955325645093
 30
0.0
 11
-0.0441941738241592
 21
0.0
 31
0.0
210
0.0
220
0.0
230
1.0
 40
0.5773502691896219
 41
2.356194490192316
 42
3.926990816987241
  0
ELLIPSE
  5
EC3
330
E98
100
AcDbEntity
  8
0
100
AcDbEllipse
 10
1.843750002661097
 20
1.664039717469445
 30
0.0
 11
-0.0441941738241592
 21
0.0
 31
0.0
210
0.0
220
0.0
230
1.0
 40
0.5773502691896219
 41
2.356194490192344
 42
3.926990816987241
  0
LINE
  5
EC4
330
E98
100
AcDbEntity
  8
0
100
AcDbLine
 10
1.031250002661096
 20
0.004157693549272
 30
0.0
 11
1.906250002661098
 21
0.5093391790901946
 31
0.0
  0
LINE
  5
EC5
330
E98
100
AcDbEntity
  8
0
100
AcDbLine
 10
1.000000002661097
 20
1.032562860543292
 30
0.0
 11
1.000000002661096
 21
0.0221998894614484
 31
0.0
  0
LINE
  5
EC6
330
E98
100
AcDbEntity
  8
0
100
AcDbLine
 10
1.875000002661097
 20
1.68208191338162
 30
0.0
 11
1.500000002661094
 21
1.89858826432773
 31
0.0
  0
LINE
  5
EC7
330
E98
100
AcDbEntity
  8
0
100
AcDbLine
 10
1.500000002661094
 20
1.89858826432773
 30
0.0
 11
1.093750002661096
 21
1.664039717469446
 31
0.0
  0
LINE
  5
EC8
330
E98
100
AcDbEntity
  8
0
100
AcDbLine
 10
1.531250002661097
 20
0.7619299218606546
 30
0.0
 11
1.937500002661098
 21
0.9964784687189403
 31
0.0
  0
LINE
  5
EC9
330
E98
100
AcDbEntity
  8
0
100
AcDbLine
 10
1.531250002661097
 20
0.9062674891580615
 30
0.0
 11
1.937500002661098
 21
1.140816036016347
 31
0.0
  0
LINE
  5
ECA
330
E98
100
AcDbEntity
  8
0
100
AcDbLine
 10
1.031250002661098
 20
1.086689448279819
 30
0.0
 11
1.906250002661097
 21
1.591870933820743
 31
0.0
  0
LINE
  5
ECB
330
E98
100
AcDbEntity
  8
0
100
AcDbLine
 10
1.000000002661096
 20
1.140816036016345
 30
0.0
 11
1.875000002661097
 21
1.645997521557269
 31
0.0
  0
LINE
  5
ECC
330
E98
100
AcDbEntity
  8
0
100
AcDbLine
 10
1.375000002661095
 20
0.5995501586510719
 30
0.0
 11
1.500000002661098
 21
0.6717189422997754
 31
0.0
  0
LINE
  5
ECD
330
E98
100
AcDbEntity
  8
0
100
AcDbLine
 10
1.375000002661095
 20
0.8882252932458861
 30
0.0
 11
1.500000002661095
 21
0.9603940768945887
 31
0.0
  0
LINE
  5
ECE
330
E98
100
AcDbEntity
  8
0
100
AcDbLine
 10
1.343750002661095
 20
0.8340987055093592
 30
0.0
 11
1.343750002661095
 21
0.6175923545632482
 31
0.0
  0
LINE
  5
ECF
330
E98
100
AcDbEntity
  8
0
100
AcDbLine
 10
1.531250002661097
 20
0.7619299218606548
 30
0.0
 11
1.531250002661098
 21
0.725845530036303
 31
0.0
  0
LINE
  5
ED0
330
E98
100
AcDbEntity
  8
0
100
AcDbLine
 10
1.531250002661095
 20
0.9423518809824143
 30
0.0
 11
1.531250002661095
 21
0.9062674891580611
 31
0.0
  0
LINE
  5
ED1
330
E98
100
AcDbEntity
  8
0
100
AcDbLine
 10
1.093750002661097
 20
1.664039717469446
 30
0.0
 11
1.125000002661096
 21
1.645997521557269
 31
0.0
  0
LINE
  5
ED2
330
E98
100
AcDbEntity
  8
0
100
AcDbLine
 10
1.125000002661094
 20
1.609913129732918
 30
0.0
 11
1.000000002661094
 21
1.537744346084215
 31
0.0
  0
LINE
  5
ED3
330
E98
100
AcDbEntity
  8
0
100
AcDbLine
 10
1.937500002661097
 20
1.573828737908566
 30
0.0
 11
1.937500002661098
 21
1.140816036016347
 31
0.0
  0
LINE
  5
ED4
330
E98
100
AcDbEntity
  8
0
100
AcDbLine
 10
1.937500002661098
 20
0.9964784687189403
 30
0.0
 11
1.937500002661098
 21
0.5634657668267216
 31
0.0
  0
LINE
  5
ED5
330
E98
100
AcDbEntity
  8
0
100
AcDbLine
 10
1.375000002661094
 20
1.970757047976435
 30
0.0
 11
1.000000002661094
 21
2.187263398922544
 31
0.0
  0
ENDBLK
  5
ED6
330
E98
100
AcDbEntity
  8
0
 62
     1
100
AcDbBlockEnd
  0
BLOCK
  5
ED8
330
ED7
100
AcDbEntity
  8
0
100
AcDbBlockBegin
  2
A$C497D351A
 70
     0
 10
0.0
 20
0.0
 30
0.0
  3
A$C497D351A
  1

  0
MTEXT
  5
ED9
330
ED7
100
AcDbEntity
  8
10
 62
     7
100
AcDbMText
 10
4.187358927777895
 20
0.4002719483440039
 30
0.0
 40
0.085
 41
5.78
 71
     1
 72
     5
  1
P.O. BOX 496\P664 STATE STREET\PBEAVER, PA 15009
 73
     1
 44
1.0
1001
ACAD
1000
MTEXTBEGIN
1070
    73
1070
     1
1070
    44
1040
1.0
1070
    74
1070
     0
1000
MTEXTEND
  0
LINE
  5
EDA
330
ED7
100
AcDbEntity
  8
10
370
    50
100
AcDbLine
 10
-0.0000000090042569
 20
0.4249999926626417
 30
0.0
 11
-0.0000000090042569
 21
-0.0000000073373645
 31
0.0
  0
MTEXT
  5
EDB
330
ED7
100
AcDbEntity
  8
10
 62
     7
100
AcDbMText
 10
0.468473229341023
 20
0.2698346584247493
 30
0.0
 40
0.10625
 41
4.047785
 71
     1
 72
     5
  1
C3CONTROLS by CONTROL CONCEPTS CORP.
 73
     1
 44
1.0
1001
ACAD
1000
MTEXTBEGIN
1070
    73
1070
     1
1070
    44
1040
1.0
1070
    74
1070
     0
1000
MTEXTEND
  0
CIRCLE
  5
EDC
330
ED7
100
AcDbEntity
  8
0
100
AcDbCircle
 10
0.2185977116542841
 20
0.2198417898065244
 30
0.0
 40
0.185385
  0
ARC
  5
EDD
330
ED7
100
AcDbEntity
  8
0
100
AcDbCircle
 10
0.2185977116542841
 20
0.2198417898065244
 30
0.0
 40
0.16674609375
100
AcDbArc
 50
129.16671071612
 51
230.8332892838798
  0
ARC
  5
EDE
330
ED7
100
AcDbEntity
  8
0
100
AcDbCircle
 10
0.2185977116542841
 20
0.2198417898065244
 30
0.0
 40
0.13447265625
100
AcDbArc
 50
129.16671071612
 51
230.8332892838798
  0
ARC
  5
EDF
330
ED7
100
AcDbEntity
  8
0
100
AcDbCircle
 10
0.2925454467943724
 20
0.2736308523065247
 30
0.0
 40
0.0753046875
100
AcDbArc
 50
314.4153085971927
 51
36.03187907247066
  0
ARC
  5
EE0
330
ED7
100
AcDbEntity
  8
0
100
AcDbCircle
 10
0.2925454467943724
 20
0.2736308523065247
 30
0.0
 40
0.04303125
100
AcDbArc
 50
270.0
 51
36.03187907247066
  0
ARC
  5
EE1
330
ED7
100
AcDbEntity
  8
0
100
AcDbCircle
 10
0.2925454467943724
 20
0.1660527273065249
 30
0.0
 40
0.04303125
100
AcDbArc
 50
323.9681209275293
 51
90.0
  0
ARC
  5
EE2
330
ED7
100
AcDbEntity
  8
0
100
AcDbCircle
 10
0.2185977116542841
 20
0.2198417898065244
 30
0.0
 40
0.13447265625
100
AcDbArc
 50
309.1667107161201
 51
323.9681209275293
  0
ARC
  5
EE3
330
ED7
100
AcDbEntity
  8
0
100
AcDbCircle
 10
0.2831445866542843
 20
0.1406055528890331
 30
0.0
 40
0.064546875
100
AcDbArc
 50
179.9999999999998
 51
309.1667107161201
  0
ARC
  5
EE4
330
ED7
100
AcDbEntity
  8
0
100
AcDbCircle
 10
0.1540508366542848
 20
0.1406055528890331
 30
0.0
 40
0.0322734375
100
AcDbArc
 50
230.8332892838798
 51
0.0000000000001018
  0
ARC
  5
EE5
330
ED7
100
AcDbEntity
  8
0
100
AcDbCircle
 10
0.1540508366542848
 20
0.1406055528890331
 30
0.0
 40
0.064546875
100
AcDbArc
 50
230.8332892838798
 51
0.0000000000001018
  0
ARC
  5
EE6
330
ED7
100
AcDbEntity
  8
0
100
AcDbCircle
 10
0.2831445866542843
 20
0.1406055528890331
 30
0.0
 40
0.0322734375
100
AcDbArc
 50
179.9999999999998
 51
309.1667107161201
  0
LINE
  5
EE7
330
ED7
100
AcDbEntity
  8
0
100
AcDbLine
 10
0.2717824031197458
 20
0.2305996023065244
 30
0.0
 11
0.2925454467943724
 21
0.2305996023065244
 31
0.0
  0
LINE
  5
EE8
330
ED7
100
AcDbEntity
  8
0
100
AcDbLine
 10
0.2717824031197458
 20
0.2090839773065243
 30
0.0
 11
0.2925454467943724
 21
0.2090839773065243
 31
0.0
  0
LINE
  5
EE9
330
ED7
100
AcDbEntity
  8
0
100
AcDbLine
 10
0.2717824031197458
 20
0.2305996023065244
 30
0.0
 11
0.2717824031197458
 21
0.2090839773065243
 31
0.0
  0
LINE
  5
EEA
330
ED7
100
AcDbEntity
  8
0
100
AcDbLine
 10
0.1863242741542848
 20
0.1621211778890341
 30
0.0
 11
0.2185977116542841
 21
0.1621211778890341
 31
0.0
  0
LINE
  5
EEB
330
ED7
100
AcDbEntity
  8
0
100
AcDbLine
 10
0.1863242741542848
 20
0.1406055528890331
 30
0.0
 11
0.1863242741542848
 21
0.1621211778890341
 31
0.0
  0
LINE
  5
EEC
330
ED7
100
AcDbEntity
  8
0
100
AcDbLine
 10
0.2508711491542841
 20
0.1406055528890331
 30
0.0
 11
0.2508711491542841
 21
0.1621211778890341
 31
0.0
  0
LINE
  5
EED
330
ED7
100
AcDbEntity
  8
0
100
AcDbLine
 10
0.2185977116542841
 20
0.1406055528890331
 30
0.0
 11
0.2185977116542841
 21
0.1621211778890341
 31
0.0
  0
LINE
  5
EEE
330
ED7
100
AcDbEntity
  8
0
100
AcDbLine
 10
0.2185977116542841
 20
0.1621211778890341
 30
0.0
 11
0.2508711491542841
 21
0.1621211778890341
 31
0.0
  0
ARC
  5
EEF
330
ED7
100
AcDbEntity
  8
0
100
AcDbCircle
 10
0.2185977116542841
 20
0.2198417898065244
 30
0.0
 40
0.16674609375
100
AcDbArc
 50
309.1667107161201
 51
323.9681209275293
  0
ARC
  5
EF0
330
ED7
100
AcDbEntity
  8
0
100
AcDbCircle
 10
0.2925454467943724
 20
0.1660527273065249
 30
0.0
 40
0.0753046875
100
AcDbArc
 50
323.9681209275293
 51
45.58469140280712
  0
ARC
  5
EF1
330
ED7
100
AcDbEntity
  8
0
100
AcDbCircle
 10
0.2185977116542841
 20
0.2198417898065244
 30
0.0
 40
0.13447265625
100
AcDbArc
 50
36.03187907247066
 51
50.83328928387988
  0
ARC
  5
EF2
330
ED7
100
AcDbEntity
  8
0
100
AcDbCircle
 10
0.2831445866542843
 20
0.2990780267240156
 30
0.0
 40
0.064546875
100
AcDbArc
 50
50.83328928387988
 51
180.0
  0
ARC
  5
EF3
330
ED7
100
AcDbEntity
  8
0
100
AcDbCircle
 10
0.1540508366542848
 20
0.2990780267240156
 30
0.0
 40
0.0322734375
100
AcDbArc
 50
0.0
 51
129.16671071612
  0
ARC
  5
EF4
330
ED7
100
AcDbEntity
  8
0
100
AcDbCircle
 10
0.1540508366542848
 20
0.2990780267240156
 30
0.0
 40
0.064546875
100
AcDbArc
 50
0.0
 51
129.16671071612
  0
LINE
  5
EF5
330
ED7
100
AcDbEntity
  8
0
100
AcDbLine
 10
0.1863242741542848
 20
0.2775624017240155
 30
0.0
 11
0.2185977116542841
 21
0.2775624017240155
 31
0.0
  0
LINE
  5
EF6
330
ED7
100
AcDbEntity
  8
0
100
AcDbLine
 10
0.1863242741542848
 20
0.2990780267240156
 30
0.0
 11
0.1863242741542848
 21
0.2775624017240155
 31
0.0
  0
LINE
  5
EF7
330
ED7
100
AcDbEntity
  8
0
100
AcDbLine
 10
0.2508711491542841
 20
0.2990780267240156
 30
0.0
 11
0.2508711491542841
 21
0.2775624017240155
 31
0.0
  0
LINE
  5
EF8
330
ED7
100
AcDbEntity
  8
0
100
AcDbLine
 10
0.2185977116542841
 20
0.2990780267240156
 30
0.0
 11
0.2185977116542841
 21
0.2775624017240155
 31
0.0
  0
LINE
  5
EF9
330
ED7
100
AcDbEntity
  8
0
100
AcDbLine
 10
0.2185977116542841
 20
0.2775624017240155
 30
0.0
 11
0.2508711491542841
 21
0.2775624017240155
 31
0.0
  0
ARC
  5
EFA
330
ED7
100
AcDbEntity
  8
0
100
AcDbCircle
 10
0.2831445866542843
 20
0.2990780267240156
 30
0.0
 40
0.0322734375
100
AcDbArc
 50
50.83328928387988
 51
180.0
  0
ARC
  5
EFB
330
ED7
100
AcDbEntity
  8
0
100
AcDbCircle
 10
0.2185977116542841
 20
0.2198417898065244
 30
0.0
 40
0.16674609375
100
AcDbArc
 50
36.0318790724706
 51
50.83328928387988
  0
INSERT
  5
EFC
330
ED7
100
AcDbEntity
  8
10
 62
     1
100
AcDbBlockReference
  2
A$C5A7A0274
 10
5.548059539119257
 20
0.0331957830881047
 30
0.0
 41
0.159375
 42
0.1593749999999998
 43
0.159375
  0
ENDBLK
  5
EFD
330
ED7
100
AcDbEntity
  8
0
100
AcDbBlockEnd
  0
BLOCK
  5
F7E
330
F05
100
AcDbEntity
  8
0
100
AcDbBlockBegin
  2
STD50006-8X11
 70
     0
 10
0.0
 20
0.0
 30
0.0
  3
STD50006-8X11
  1

  0
MTEXT
  5
F06
330
F05
100
AcDbEntity
  8
10
100
AcDbMText
 10
6.66159201029043
 20
7.834063746180479
 30
0.0
 40
0.100000008
 41
2.4400001952
 71
     2
 72
     5
  1
Description
  7
ACANSTS
 73
     1
 44
1.0
1001
ACAD
1000
MTEXTBEGIN
1070
    73
1070
     1
1070
    44
1040
1.0
1070
    74
1070
     0
1000
MTEXTEND
  0
MTEXT
  5
F07
330
F05
100
AcDbEntity
  8
10
100
AcDbMText
 10
7.693468296837739
 20
7.560492295723335
 30
0.0
 40
0.100000008
 41
0.0
 71
     5
 72
     5
  1
PART DESCRIPTION (MOLD NUMBER)
  7
ACANSTS
 73
     1
 44
1.0
1001
ACAD
1000
MTEXTBEGIN
1070
    73
1070
     1
1070
    44
1040
1.0
1070
    74
1070
     0
1000
MTEXTEND
  0
LINE
  5
F08
330
F05
100
AcDbEntity
  8
10
100
AcDbLine
 10
0.1961743114766824
 20
8.303825688523339
 30
0.0
 11
10.80382568852344
 21
8.303825688523335
 31
0.0
  0
LINE
  5
F09
330
F05
100
AcDbEntity
  8
10
100
AcDbLine
 10
4.583110905152018
 20
8.303825688523335
 30
0.0
 11
10.80382568852345
 21
8.303825688523335
 31
0.0
  0
LINE
  5
F0A
330
F05
100
AcDbEntity
  8
10
100
AcDbLine
 10
4.583110905152018
 20
8.091444719151906
 30
0.0
 11
10.80382568852345
 21
8.091444719151906
 31
0.0
  0
LINE
  5
F0B
330
F05
100
AcDbEntity
  8
10
100
AcDbLine
 10
10.80382568852345
 20
7.454301811037624
 30
0.0
 11
4.583110905152018
 21
7.454301811037624
 31
0.0
  0
LINE
  5
F0C
330
F05
100
AcDbEntity
  8
10
100
AcDbLine
 10
4.583110905152018
 20
7.666682780409049
 30
0.0
 11
10.80382568852345
 21
7.666682780409049
 31
0.0
  0
LINE
  5
F0D
330
F05
100
AcDbEntity
  8
10
100
AcDbLine
 10
4.583110905152018
 20
7.879063749780479
 30
0.0
 11
10.80382568852345
 21
7.879063749780479
 31
0.0
  0
LINE
  5
F0E
330
F05
100
AcDbEntity
  8
10
100
AcDbLine
 10
0.1961743114766616
 20
0.1961743114766623
 30
0.0
 11
10.80382568852344
 21
0.1961743114766557
 31
0.0
  0
LINE
  5
F0F
330
F05
100
AcDbEntity
  8
10
100
AcDbLine
 10
0.1961743114766672
 20
8.303825688523344
 30
0.0
 11
0.1961743114766616
 21
0.1961743114766623
 31
0.0
  0
CIRCLE
  5
F10
330
F05
100
AcDbEntity
  8
10
 62
     1
100
AcDbCircle
 10
0.1961743114766589
 20
0.1961743114766623
 30
0.0
 40
0.1111040097775731
  0
LINE
  5
F11
330
F05
100
AcDbEntity
  8
10
100
AcDbLine
 10
0.0000000000000029
 20
0.1961743114766623
 30
0.0
 11
0.0
 21
0.0
 31
0.0
  0
LINE
  5
F12
330
F05
100
AcDbEntity
  8
10
100
AcDbLine
 10
0.0
 20
0.0
 30
0.0
 11
0.1961743114766616
 21
-0.0000000000000004
 31
0.0
  0
LINE
  5
F13
330
F05
100
AcDbEntity
  8
10
100
AcDbLine
 10
0.0000000000000149
 20
8.500000000000001
 30
0.0
 11
0.1961743114766764
 21
8.500000000000001
 31
0.0
  0
LINE
  5
F14
330
F05
100
AcDbEntity
  8
10
100
AcDbLine
 10
0.0000000000000149
 20
8.500000000000001
 30
0.0
 11
0.0000000000000178
 21
8.303825688523335
 31
0.0
  0
MTEXT
  5
F15
330
F05
100
AcDbEntity
  8
10
100
AcDbMText
 10
4.958825220923447
 20
8.208825680923336
 30
0.0
 40
0.100000008
 41
0.0
 71
     4
 72
     5
  1
 XXXXX
  7
ACANSTS
 73
     1
 44
1.0
1001
ACAD
1000
MTEXTBEGIN
1070
    73
1070
     1
1070
    44
1040
1.0
1070
    74
1070
     0
1000
MTEXTEND
  0
MTEXT
  5
F16
330
F05
100
AcDbEntity
  8
10
100
AcDbMText
 10
4.958825220923447
 20
7.996444711551905
 30
0.0
 40
0.100000008
 41
2.4400001952
 71
     4
 72
     5
  1
 XXXXX
  7
ACANSTS
 73
     1
 44
1.0
1001
ACAD
1000
MTEXTBEGIN
1070
    73
1070
     1
1070
    44
1040
1.0
1070
    74
1070
     0
1000
MTEXTEND
  0
LINE
  5
F17
330
F05
100
AcDbEntity
  8
10
100
AcDbLine
 10
4.583110905152018
 20
7.454301811037624
 30
0.0
 11
4.583110905152018
 21
8.303825688523335
 31
0.0
  0
MTEXT
  5
F18
330
F05
100
AcDbEntity
  8
10
100
AcDbMText
 10
4.755968061837734
 20
8.258825684923337
 30
0.0
 40
0.100000008
 41
0.2857407636
 71
     2
 72
     5
  1
H02
  7
ACANSTS
 73
     1
 44
1.0
1001
ACAD
1000
MTEXTBEGIN
1070
    73
1070
     1
1070
    44
1040
1.0
1070
    74
1070
     0
1000
MTEXTEND
  0
MTEXT
  5
F19
330
F05
100
AcDbEntity
  8
10
100
AcDbMText
 10
4.755968061837734
 20
8.046444715551906
 30
0.0
 40
0.100000008
 41
0.2857407636
 71
     2
 72
     5
  1
H01
  7
ACANSTS
 73
     1
 44
1.0
1001
ACAD
1000
MTEXTBEGIN
1070
    73
1070
     1
1070
    44
1040
1.0
1070
    74
1070
     0
1000
MTEXTEND
  0
MTEXT
  5
F1A
330
F05
100
AcDbEntity
  8
10
100
AcDbMText
 10
4.755968061837734
 20
7.834063746180479
 30
0.0
 40
0.100000008
 41
0.2857143085714286
 71
     2
 72
     5
  1
Item
  7
ACANSTS
 73
     1
 44
1.0
1001
ACAD
1000
MTEXTBEGIN
1070
    73
1070
     1
1070
    44
1040
1.0
1070
    74
1070
     0
1000
MTEXTEND
  0
LINE
  5
F1B
330
F05
100
AcDbEntity
  8
10
100
AcDbLine
 10
4.928825218523449
 20
8.091444719151906
 30
0.0
 11
4.928825218523449
 21
7.879063749780479
 31
0.0
  0
LINE
  5
F1C
330
F05
100
AcDbEntity
  8
10
100
AcDbLine
 10
4.928825218523449
 20
7.879063749780479
 30
0.0
 11
4.928825218523449
 21
7.666682780409049
 31
0.0
  0
LINE
  5
F1D
330
F05
100
AcDbEntity
  8
10
100
AcDbLine
 10
4.928825218523449
 20
8.303825688523335
 30
0.0
 11
4.928825218523449
 21
8.091444719151906
 31
0.0
  0
LINE
  5
F1E
330
F05
100
AcDbEntity
  8
10
100
AcDbLine
 10
10.80382568852344
 20
8.303825688523335
 30
0.0
 11
10.80382568852344
 21
0.1961743114766557
 31
0.0
  0
LINE
  5
F1F
330
F05
100
AcDbEntity
  8
L-REV
100
AcDbLine
 10
10.80382568852345
 20
8.303825688523335
 30
0.0
 11
10.80382568852344
 21
0.1961743114766557
 31
0.0
  0
LINE
  5
F20
330
F05
100
AcDbEntity
  8
L-REV
100
AcDbLine
 10
11.20382568852344
 20
0.1961743114766557
 30
0.0
 11
11.20382568852344
 21
8.303825688523339
 31
0.0
  0
LINE
  5
F21
330
F05
100
AcDbEntity
  8
L-REV
100
AcDbLine
 10
11.60382568852344
 20
0.1961743114766557
 30
0.0
 11
11.60382568852345
 21
8.303825688523339
 31
0.0
  0
LINE
  5
F22
330
F05
100
AcDbEntity
  8
L-REV
100
AcDbLine
 10
13.60382568852343
 20
0.1961743114766557
 30
0.0
 11
13.60382568852344
 21
8.303825688523339
 31
0.0
  0
LINE
  5
F23
330
F05
100
AcDbEntity
  8
L-REV
100
AcDbLine
 10
14.00382568852343
 20
0.1961743114766557
 30
0.0
 11
14.00382568852344
 21
8.303825688523339
 31
0.0
  0
LINE
  5
F24
330
F05
100
AcDbEntity
  8
L-REV
100
AcDbLine
 10
10.80382568852345
 20
2.503825688523336
 30
0.0
 11
14.00382568852345
 21
2.503825688523336
 31
0.0
  0
LINE
  5
F25
330
F05
100
AcDbEntity
  8
L-REV
100
AcDbLine
 10
10.80382568852345
 20
0.5038256885233397
 30
0.0
 11
14.00382568852344
 21
0.5038256885233348
 31
0.0
  0
LINE
  5
F26
330
F05
100
AcDbEntity
  8
L-REV
100
AcDbLine
 10
10.80382568852345
 20
0.7038256885233385
 30
0.0
 11
14.00382568852344
 21
0.7038256885233345
 31
0.0
  0
LINE
  5
F27
330
F05
100
AcDbEntity
  8
L-REV
100
AcDbLine
 10
10.80382568852345
 20
0.9038256885233391
 30
0.0
 11
14.00382568852344
 21
0.9038256885233341
 31
0.0
  0
LINE
  5
F28
330
F05
100
AcDbEntity
  8
L-REV
100
AcDbLine
 10
10.80382568852345
 20
1.303825688523339
 30
0.0
 11
14.00382568852344
 21
1.303825688523334
 31
0.0
  0
LINE
  5
F29
330
F05
100
AcDbEntity
  8
L-REV
100
AcDbLine
 10
10.80382568852345
 20
1.703825688523338
 30
0.0
 11
14.00382568852344
 21
1.703825688523334
 31
0.0
  0
LINE
  5
F2A
330
F05
100
AcDbEntity
  8
L-REV
100
AcDbLine
 10
10.80382568852345
 20
2.103825688523336
 30
0.0
 11
14.00382568852344
 21
2.103825688523336
 31
0.0
  0
LINE
  5
F2B
330
F05
100
AcDbEntity
  8
L-REV
100
AcDbLine
 10
10.80382568852345
 20
1.103825688523338
 30
0.0
 11
14.00382568852344
 21
1.103825688523334
 31
0.0
  0
LINE
  5
F2C
330
F05
100
AcDbEntity
  8
L-REV
100
AcDbLine
 10
10.80382568852345
 20
1.503825688523339
 30
0.0
 11
14.00382568852344
 21
1.503825688523335
 31
0.0
  0
LINE
  5
F2D
330
F05
100
AcDbEntity
  8
L-REV
100
AcDbLine
 10
10.80382568852345
 20
1.903825688523339
 30
0.0
 11
14.00382568852344
 21
1.903825688523333
 31
0.0
  0
LINE
  5
F2E
330
F05
100
AcDbEntity
  8
L-REV
100
AcDbLine
 10
10.80382568852345
 20
2.303825688523336
 30
0.0
 11
14.00382568852344
 21
2.303825688523336
 31
0.0
  0
LINE
  5
F2F
330
F05
100
AcDbEntity
  8
L-REV
100
AcDbLine
 10
14.00382568852343
 20
0.1961743114766557
 30
0.0
 11
10.80382568852344
 21
0.1961743114766557
 31
0.0
  0
MTEXT
  5
F30
330
F05
100
AcDbEntity
  8
L-REV
100
AcDbMText
 10
10.88037387679967
 20
0.3286379474126613
 30
0.0
 40
0.072
 41
0.0
 71
     1
 72
     5
  1
REV#
 73
     1
 44
1.0
1001
ACAD
1000
MTEXTBEGIN
1070
    73
1070
     1
1070
    44
1040
1.0
1070
    74
1070
     0
1000
MTEXTEND
  0
MTEXT
  5
F31
330
F05
100
AcDbEntity
  8
L-REV
100
AcDbMText
 10
13.68302671509646
 20
0.3286379474126591
 30
0.0
 40
0.072
 41
0.0
 71
     1
 72
     5
  1
DATE
 73
     1
 44
1.0
1001
ACAD
1000
MTEXTBEGIN
1070
    73
1070
     1
1070
    44
1040
1.0
1070
    74
1070
     0
1000
MTEXTEND
  0
MTEXT
  5
F32
330
F05
100
AcDbEntity
  8
L-REV
100
AcDbMText
 10
12.2471720750865
 20
0.3362770886313844
 30
0.0
 40
0.072
 41
0.0
 71
     1
 72
     5
  1
DESCRIPTION
 73
     1
 44
1.0
1001
ACAD
1000
MTEXTBEGIN
1070
    73
1070
     1
1070
    44
1040
1.0
1070
    74
1070
     0
1000
MTEXTEND
  0
MTEXT
  5
F33
330
F05
100
AcDbEntity
  8
L-REV
100
AcDbMText
 10
11.34341352017788
 20
0.3286379474126613
 30
0.0
 40
0.072
 41
0.0
 71
     1
 72
     5
  1
BY
 73
     1
 44
1.0
1001
ACAD
1000
MTEXTBEGIN
1070
    73
1070
     1
1070
    44
1040
1.0
1070
    74
1070
     0
1000
MTEXTEND
  0
LINE
  5
F34
330
F05
100
AcDbEntity
  8
10
100
AcDbLine
 10
14.00385137704678
 20
-0.0000000000000036
 30
0.0
 11
14.20002568852345
 21
-0.0000000000000067
 31
0.0
  0
LINE
  5
F35
330
F05
100
AcDbEntity
  8
10
100
AcDbLine
 10
14.20002568852344
 20
-0.0000000000000067
 30
0.0
 11
14.20002568852344
 21
0.196174311476657
 31
0.0
  0
LINE
  5
F36
330
F05
100
AcDbEntity
  8
L-REV
100
AcDbLine
 10
10.80382568852345
 20
8.303825688523335
 30
0.0
 11
14.00382568852345
 21
8.303825688523335
 31
0.0
  0
LINE
  5
F37
330
F05
100
AcDbEntity
  8
L-REV
100
AcDbLine
 10
10.80382568852345
 20
7.903825688523337
 30
0.0
 11
14.00382568852345
 21
7.903825688523337
 31
0.0
  0
LINE
  5
F38
330
F05
100
AcDbEntity
  8
L-REV
100
AcDbLine
 10
10.80382568852345
 20
8.103825688523336
 30
0.0
 11
14.00382568852345
 21
8.103825688523336
 31
0.0
  0
LINE
  5
F39
330
F05
100
AcDbEntity
  8
L-REV
100
AcDbLine
 10
10.80382568852345
 20
7.303825688523336
 30
0.0
 11
14.00382568852345
 21
7.303825688523336
 31
0.0
  0
LINE
  5
F3A
330
F05
100
AcDbEntity
  8
L-REV
100
AcDbLine
 10
10.80382568852345
 20
7.703825688523334
 30
0.0
 11
14.00382568852345
 21
7.703825688523334
 31
0.0
  0
LINE
  5
F3B
330
F05
100
AcDbEntity
  8
L-REV
100
AcDbLine
 10
10.80382568852345
 20
7.503825688523336
 30
0.0
 11
14.00382568852345
 21
7.503825688523336
 31
0.0
  0
LINE
  5
F3C
330
F05
100
AcDbEntity
  8
L-REV
100
AcDbLine
 10
10.80382568852345
 20
7.103825688523337
 30
0.0
 11
14.00382568852345
 21
7.103825688523337
 31
0.0
  0
LINE
  5
F3D
330
F05
100
AcDbEntity
  8
L-REV
100
AcDbLine
 10
10.80382568852345
 20
6.903825688523339
 30
0.0
 11
14.00382568852345
 21
6.903825688523339
 31
0.0
  0
LINE
  5
F3E
330
F05
100
AcDbEntity
  8
L-REV
100
AcDbLine
 10
10.80382568852345
 20
7.303825688523336
 30
0.0
 11
14.00382568852345
 21
7.303825688523336
 31
0.0
  0
LINE
  5
F3F
330
F05
100
AcDbEntity
  8
L-REV
100
AcDbLine
 10
10.80382568852345
 20
4.103825688523336
 30
0.0
 11
14.00382568852345
 21
4.103825688523338
 31
0.0
  0
LINE
  5
F40
330
F05
100
AcDbEntity
  8
L-REV
100
AcDbLine
 10
10.80382568852345
 20
4.503825688523334
 30
0.0
 11
14.00382568852345
 21
4.503825688523336
 31
0.0
  0
LINE
  5
F41
330
F05
100
AcDbEntity
  8
L-REV
100
AcDbLine
 10
10.80382568852345
 20
3.903825688523335
 30
0.0
 11
14.00382568852345
 21
3.903825688523336
 31
0.0
  0
LINE
  5
F42
330
F05
100
AcDbEntity
  8
L-REV
100
AcDbLine
 10
10.80382568852345
 20
4.303825688523335
 30
0.0
 11
14.00382568852345
 21
4.303825688523336
 31
0.0
  0
LINE
  5
F43
330
F05
100
AcDbEntity
  8
L-REV
100
AcDbLine
 10
10.80382568852345
 20
4.903825688523333
 30
0.0
 11
14.00382568852345
 21
4.903825688523338
 31
0.0
  0
LINE
  5
F44
330
F05
100
AcDbEntity
  8
L-REV
100
AcDbLine
 10
10.80382568852345
 20
5.303825688523335
 30
0.0
 11
14.00382568852345
 21
5.303825688523335
 31
0.0
  0
LINE
  5
F45
330
F05
100
AcDbEntity
  8
L-REV
100
AcDbLine
 10
10.80382568852345
 20
5.703825688523338
 30
0.0
 11
14.00382568852345
 21
5.703825688523338
 31
0.0
  0
LINE
  5
F46
330
F05
100
AcDbEntity
  8
L-REV
100
AcDbLine
 10
10.80382568852345
 20
6.103825688523337
 30
0.0
 11
14.00382568852345
 21
6.103825688523337
 31
0.0
  0
LINE
  5
F47
330
F05
100
AcDbEntity
  8
L-REV
100
AcDbLine
 10
10.80382568852345
 20
6.503825688523336
 30
0.0
 11
14.00382568852345
 21
6.503825688523336
 31
0.0
  0
LINE
  5
F48
330
F05
100
AcDbEntity
  8
L-REV
100
AcDbLine
 10
10.80382568852345
 20
4.703825688523335
 30
0.0
 11
14.00382568852345
 21
4.703825688523338
 31
0.0
  0
LINE
  5
F49
330
F05
100
AcDbEntity
  8
L-REV
100
AcDbLine
 10
10.80382568852345
 20
5.103825688523337
 30
0.0
 11
14.00382568852345
 21
5.103825688523337
 31
0.0
  0
LINE
  5
F4A
330
F05
100
AcDbEntity
  8
L-REV
100
AcDbLine
 10
10.80382568852345
 20
5.503825688523336
 30
0.0
 11
14.00382568852345
 21
5.503825688523336
 31
0.0
  0
LINE
  5
F4B
330
F05
100
AcDbEntity
  8
L-REV
100
AcDbLine
 10
10.80382568852345
 20
5.903825688523339
 30
0.0
 11
14.00382568852345
 21
5.903825688523339
 31
0.0
  0
LINE
  5
F4C
330
F05
100
AcDbEntity
  8
L-REV
100
AcDbLine
 10
10.80382568852345
 20
6.303825688523336
 30
0.0
 11
14.00382568852345
 21
6.303825688523336
 31
0.0
  0
LINE
  5
F4D
330
F05
100
AcDbEntity
  8
L-REV
100
AcDbLine
 10
10.80382568852345
 20
6.703825688523339
 30
0.0
 11
14.00382568852345
 21
6.703825688523339
 31
0.0
  0
LINE
  5
F4E
330
F05
100
AcDbEntity
  8
L-REV
100
AcDbLine
 10
10.80382568852345
 20
3.703825688523335
 30
0.0
 11
14.00382568852345
 21
3.703825688523337
 31
0.0
  0
LINE
  5
F4F
330
F05
100
AcDbEntity
  8
L-REV
100
AcDbLine
 10
10.80382568852345
 20
3.303825688523335
 30
0.0
 11
14.00382568852345
 21
3.303825688523335
 31
0.0
  0
LINE
  5
F50
330
F05
100
AcDbEntity
  8
L-REV
100
AcDbLine
 10
10.80382568852345
 20
3.503825688523336
 30
0.0
 11
14.00382568852345
 21
3.503825688523336
 31
0.0
  0
LINE
  5
F51
330
F05
100
AcDbEntity
  8
L-REV
100
AcDbLine
 10
10.80382568852345
 20
2.903825688523335
 30
0.0
 11
14.00382568852345
 21
2.903825688523335
 31
0.0
  0
LINE
  5
F52
330
F05
100
AcDbEntity
  8
L-REV
100
AcDbLine
 10
10.80382568852345
 20
2.703825688523335
 30
0.0
 11
14.00382568852345
 21
2.703825688523335
 31
0.0
  0
LINE
  5
F53
330
F05
100
AcDbEntity
  8
L-REV
100
AcDbLine
 10
10.80382568852345
 20
3.103825688523336
 30
0.0
 11
14.00382568852345
 21
3.103825688523336
 31
0.0
  0
MTEXT
  5
F54
330
F05
100
AcDbEntity
  8
10
100
AcDbMText
 10
8.936620580571361
 20
7.834063746180479
 30
0.0
 40
0.100000008
 41
1.3466667744
 71
     2
 72
     5
  1
Material
  7
ACANSTS
 73
     1
 44
1.0
1001
ACAD
1000
MTEXTBEGIN
1070
    73
1070
     1
1070
    44
1040
1.0
1070
    74
1070
     0
1000
MTEXTEND
  0
MTEXT
  5
F55
330
F05
100
AcDbEntity
  8
10
100
AcDbMText
 10
8.936620580571361
 20
8.258825684923333
 30
0.0
 40
0.100000008
 41
1.3466667744
 71
     2
 72
     5
  1
VALOX 357
  7
ACANSTS
 73
     1
 44
1.0
1001
ACAD
1000
MTEXTBEGIN
1070
    73
1070
     1
1070
    44
1040
1.0
1070
    74
1070
     0
1000
MTEXTEND
  0
MTEXT
  5
F56
330
F05
100
AcDbEntity
  8
10
100
AcDbMText
 10
8.936620580571361
 20
8.046444715551904
 30
0.0
 40
0.100000008
 41
1.3466667744
 71
     2
 72
     5
  1
VALOX 357
  7
ACANSTS
 73
     1
 44
1.0
1001
ACAD
1000
MTEXTBEGIN
1070
    73
1070
     1
1070
    44
1040
1.0
1070
    74
1070
     0
1000
MTEXTEND
  0
LINE
  5
F57
330
F05
100
AcDbEntity
  8
10
100
AcDbLine
 10
8.081980311895913
 20
8.091444719151906
 30
0.0
 11
8.081980311895913
 21
7.879063749780479
 31
0.0
  0
LINE
  5
F58
330
F05
100
AcDbEntity
  8
10
100
AcDbLine
 10
8.081980311895913
 20
7.879063749780479
 30
0.0
 11
8.081980311895913
 21
7.666682780409049
 31
0.0
  0
LINE
  5
F59
330
F05
100
AcDbEntity
  8
10
100
AcDbLine
 10
8.081980311895913
 20
8.303825688523335
 30
0.0
 11
8.081980311895913
 21
8.091444719151906
 31
0.0
  0
MTEXT
  5
F5A
330
F05
100
AcDbEntity
  8
10
100
AcDbMText
 10
10.2172314436741
 20
8.258825684923333
 30
0.0
 40
0.100000008
 41
0.9241667406000001
 71
     2
 72
     5
  1
RED
  7
ACANSTS
 73
     1
 44
1.0
1001
ACAD
1000
MTEXTBEGIN
1070
    73
1070
     1
1070
    44
1040
1.0
1070
    74
1070
     0
1000
MTEXTEND
  0
MTEXT
  5
F5B
330
F05
100
AcDbEntity
  8
10
100
AcDbMText
 10
10.2172314436741
 20
8.046444715551904
 30
0.0
 40
0.100000008
 41
0.9241667406000001
 71
     2
 72
     5
  1
GREEN
  7
ACANSTS
 73
     1
 44
1.0
1001
ACAD
1000
MTEXTBEGIN
1070
    73
1070
     1
1070
    44
1040
1.0
1070
    74
1070
     0
1000
MTEXTEND
  0
MTEXT
  5
F5C
330
F05
100
AcDbEntity
  8
10
100
AcDbMText
 10
10.2172314436741
 20
7.834063746180479
 30
0.0
 40
0.100000008
 41
0.9241667406000001
 71
     2
 72
     5
  1
Color
  7
ACANSTS
 73
     1
 44
1.0
1001
ACAD
1000
MTEXTBEGIN
1070
    73
1070
     1
1070
    44
1040
1.0
1070
    74
1070
     0
1000
MTEXTEND
  0
LINE
  5
F5D
330
F05
100
AcDbEntity
  8
10
100
AcDbLine
 10
9.639953970171365
 20
7.666682780409049
 30
0.0
 11
9.639953970171362
 21
8.303825688523335
 31
0.0
  0
LINE
  5
F5E
330
F05
100
AcDbEntity
  8
10
100
AcDbLine
 10
10.80382568852345
 20
8.303825688523335
 30
0.0
 11
10.80382568852345
 21
7.454301811037624
 31
0.0
  0
LINE
  5
F5F
330
F05
100
AcDbEntity
  8
10
100
AcDbLine
 10
14.00385137704678
 20
8.500000000000001
 30
0.0
 11
14.20002568852345
 21
8.500000000000001
 31
0.0
  0
LINE
  5
F60
330
F05
100
AcDbEntity
  8
10
100
AcDbLine
 10
14.20002568852344
 20
8.500000000000001
 30
0.0
 11
14.20002568852344
 21
8.303825688523339
 31
0.0
  0
MTEXT
  5
F61
330
F05
100
AcDbEntity
  8
10
 62
     7
100
AcDbMText
 10
7.825787782870921
 20
1.484327851128144
 30
0.0
 40
0.045
 41
0.0
 71
     2
 72
     5
  1
{\fArial|b0|i0|c0|p34;\LTOLERANCE:\P\P\l  .XX +/- 0.02\P .XXX +/- 0.005\P.XXXX +/- 0.001\PANGLES +/- 0.5 DEG\P\H0.7778x;\P\H1.286x;UNLESS OTHERWISE \PSPECIFIED}
 73
     1
 44
1.0
1001
ACAD
1000
MTEXTBEGIN
1070
    73
1070
     1
1070
    44
1040
1.0
1070
    74
1070
     0
1000
MTEXTEND
  0
MTEXT
  5
F62
102
{ACAD_XDICTIONARY
360
180D
102
}
330
F05
100
AcDbEntity
  8
10
 62
     7
100
AcDbMText
 10
8.534103697292026
 20
1.023538202411762
 30
0.0
 40
0.05
 41
2.061478375197692
 71
     1
 72
     5
  1
{\fArial|b0|i0|c0|p34;P.O. BOX 496        BEAVER, PA 15009         \C256;www.c3controls.com}
 73
     1
 44
1.0
1001
ACAD
1000
MTEXTBEGIN
1070
    73
1070
     1
1070
    44
1040
1.0
1070
    74
1070
     0
1000
MTEXTEND
  0
IMAGE
  5
F63
330
F05
100
AcDbEntity
  8
10
 92
      140
310
8C000000010000008400000006000000050000001D4DB43CD40D2140EA516FE0E8D0F03F00000000000000001D4DB43CD40D21409E88EA39A15FF73F0000000000000000A5DE49F1B31D25409E88EA39A15FF73F0000000000000000A5DE49F1B31D2540EA516FE0E8D0F03F00000000000000001D4DB43CD40D2140EA516F
310
E0E8D0F03F0000000000000000
100
AcDbRasterImage
 90
        0
 10
8.527009865769793
 20
1.051003338526351
 30
0.0
 11
0.0091076395148456
 21
0.0
 31
0.0
 12
0.0
 22
0.0091076395148456
 32
0.0
 13
223.0
 23
45.0
340
F81
 70
     7
280
     0
281
    50
282
    50
283
     0
360
F64
 71
     1
 91
        2
 14
-0.5
 24
-0.5
 14
222.5
 24
44.5
  0
LINE
  5
F65
330
F05
100
AcDbEntity
  8
10
100
AcDbLine
 10
8.303825688523446
 20
0.9461743114766555
 30
0.0
 11
10.80382568852344
 21
0.9461743114766555
 31
0.0
  0
MTEXT
  5
F66
330
F05
100
AcDbEntity
  8
10
100
AcDbMText
 10
7.810416917469382
 20
0.4951779088847244
 30
0.0
 40
0.05
 41
0.9934087710540634
 71
     5
 72
     5
  1
{\fArial|b0|i0|c0|p34;\C7;This drawing is the property of \C5;c3\C7;controls.  The drawing may not be copied, used or disclosed, for any purpose except as authorized in writing by \C5;c3\C7;controls.}
  7
ADESK1
 73
     1
 44
1.0
1001
ACAD
1000
MTEXTBEGIN
1070
    73
1070
     1
1070
    44
1040
1.0
1070
    74
1070
     0
1000
MTEXTEND
  0
LINE
  5
F67
330
F05
100
AcDbEntity
  8
10
100
AcDbLine
 10
10.80382568852344
 20
0.4461743114766557
 30
0.0
 11
8.303825688523446
 21
0.4461743114766557
 31
0.0
  0
LINE
  5
F68
330
F05
100
AcDbEntity
  8
10
100
AcDbLine
 10
7.303825688523446
 20
0.1961743114766557
 30
0.0
 11
10.80382568852344
 21
0.1961743114766557
 31
0.0
  0
MTEXT
  5
F69
330
F05
100
AcDbEntity
  8
10
100
AcDbMText
 10
8.328668770674212
 20
0.9235976724297451
 30
0.0
 40
0.045
 41
0.4329439054016504
 71
     1
 72
     5
  1
{\fArial|b0|i0|c0|p34;\LDescription\l:}
  7
ADESK1
 73
     1
 44
1.0
1001
ACAD
1000
MTEXTBEGIN
1070
    73
1070
     1
1070
    44
1040
1.0
1070
    74
1070
     0
1000
MTEXTEND
  0
LINE
  5
F6A
330
F05
100
AcDbEntity
  8
10
100
AcDbLine
 10
9.553825688523446
 20
0.1961743114766557
 30
0.0
 11
8.303825688523446
 21
0.1961743114766557
 31
0.0
  0
MTEXT
  5
F6B
330
F05
100
AcDbEntity
  8
10
100
AcDbMText
 10
8.32802284328801
 20
0.2868720012243906
 30
0.0
 40
0.045
 41
0.1920968035785435
 71
     1
 72
     5
  1
{\fArial|b0|i0|c0|p34;\LDate\l:}
  7
ADESK1
 73
     1
 44
1.0
1001
ACAD
1000
MTEXTBEGIN
1070
    73
1070
     1
1070
    44
1040
1.0
1070
    74
1070
     0
1000
MTEXTEND
  0
LINE
  5
F6C
330
F05
100
AcDbEntity
  8
10
100
AcDbLine
 10
8.303825688523446
 20
0.4461743114766557
 30
0.0
 11
8.303825688523446
 21
0.5711743114766557
 31
0.0
  0
MTEXT
  5
F6D
330
F05
100
AcDbEntity
  8
10
100
AcDbMText
 10
8.324337016104422
 20
0.4118389523115078
 30
0.0
 40
0.045
 41
0.3748785207666998
 71
     1
 72
     5
  1
{\fArial|b0|i0|c0|p34;\LDrawn By\l:}
  7
ADESK1
 73
     1
 44
1.0
1001
ACAD
1000
MTEXTBEGIN
1070
    73
1070
     1
1070
    44
1040
1.0
1070
    74
1070
     0
1000
MTEXTEND
  0
LINE
  5
F6E
330
F05
100
AcDbEntity
  8
10
100
AcDbLine
 10
7.303825688523446
 20
0.8211743114766555
 30
0.0
 11
8.303825688523446
 21
0.8211743114766555
 31
0.0
  0
MTEXT
  5
F6F
330
F05
100
AcDbEntity
  8
10
100
AcDbMText
 10
9.068976160632743
 20
0.2871257996165633
 30
0.0
 40
0.045
 41
0.1651821716154203
 71
     1
 72
     5
  1
{\fArial|b0|i0|c0|p34;\LScale\l:}
  7
ADESK1
 73
     1
 44
1.0
1001
ACAD
1000
MTEXTBEGIN
1070
    73
1070
     1
1070
    44
1040
1.0
1070
    74
1070
     0
1000
MTEXTEND
  0
MTEXT
  5
F70
330
F05
100
AcDbEntity
  8
10
100
AcDbMText
 10
9.576446267369348
 20
0.4208917298119937
 30
0.0
 40
0.045
 41
0.6519284424069412
 71
     1
 72
     5
  1
{\fArial|b0|i0|c0|p34;\LDrawing Number\l:}
  7
ADESK1
 73
     1
 44
1.0
1001
ACAD
1000
MTEXTBEGIN
1070
    73
1070
     1
1070
    44
1040
1.0
1070
    74
1070
     0
1000
MTEXTEND
  0
LINE
  5
F71
330
F05
100
AcDbEntity
  8
10
100
AcDbLine
 10
7.303825688523446
 20
1.508674311476655
 30
0.0
 11
7.303825688523446
 21
0.1961743114766557
 31
0.0
  0
LINE
  5
F72
330
F05
100
AcDbEntity
  8
10
100
AcDbLine
 10
7.303825688523446
 20
1.508674311476655
 30
0.0
 11
10.80382568852344
 21
1.508674311476659
 31
0.0
  0
LINE
  5
F73
330
F05
100
AcDbEntity
  8
10
100
AcDbLine
 10
10.80382568852344
 20
1.508674311476659
 30
0.0
 11
10.80382568852344
 21
0.1961743114766557
 31
0.0
  0
LINE
  5
F74
330
F05
100
AcDbEntity
  8
10
100
AcDbLine
 10
8.303825688523446
 20
1.508674311476655
 30
0.0
 11
8.303825688523446
 21
0.1961743114766557
 31
0.0
  0
LINE
  5
F75
330
F05
100
AcDbEntity
  8
10
100
AcDbLine
 10
9.553825688523446
 20
0.4461743114766557
 30
0.0
 11
9.553825688523446
 21
0.1961743114766557
 31
0.0
  0
LINE
  5
F76
330
F05
100
AcDbEntity
  8
10
100
AcDbLine
 10
8.303825688523446
 20
0.3211743114766556
 30
0.0
 11
9.553825688523446
 21
0.3211743114766556
 31
0.0
  0
MTEXT
  5
F77
102
{ACAD_XDICTIONARY
360
180F
102
}
330
F05
100
AcDbEntity
  8
10
100
AcDbMText
 10
8.640777345549317
 20
0.4112478786675263
 30
0.0
 40
0.075
 41
0.8858571826804109
 71
     1
 72
     5
  1
{\fArial|b0|i0|c0|p34;  NAME}
  7
ADESK1
 73
     1
 44
1.0
1001
ACAD
1000
MTEXTBEGIN
1070
    73
1070
     1
1070
    44
1040
1.0
1070
    74
1070
     0
1000
MTEXTEND
  0
MTEXT
  5
F78
330
F05
100
AcDbEntity
  8
10
100
AcDbMText
 10
8.777374242347999
 20
0.2546743126943283
 30
0.0
 40
0.06
 41
0.5240277777777779
 71
     5
 72
     5
  1
{\fArial|b0|i0|c0|p34;MM-DD-YYYY}
  7
ADESK1
 73
     1
 44
1.0
1001
ACAD
1000
MTEXTBEGIN
1070
    73
1070
     1
1070
    44
1040
1.0
1070
    74
1070
     0
1000
MTEXTEND
  0
MTEXT
  5
F79
330
F05
100
AcDbEntity
  8
10
100
AcDbMText
 10
8.342268264633609
 20
0.8135691678395481
 30
0.0
 40
0.1
 41
2.39057925170068
 71
     1
 72
     5
  1
{\fArial|b0|i0|c0|p34;DESCRIPTION}
  7
ADESK1
 73
     1
 44
1.0
1001
ACAD
1000
MTEXTBEGIN
1070
    73
1070
     1
1070
    44
1040
1.0
1070
    74
1070
     0
1000
MTEXTEND
  0
MTEXT
  5
F7A
330
F05
100
AcDbEntity
  8
10
100
AcDbMText
 10
10.21942521872159
 20
0.2688981892586812
 30
0.0
 40
0.125
 41
1.015727699530516
 71
     5
 72
     5
  1
{\fArial|b0|i0|c0|p34;XXXXXXXX}
  7
ADESK1
 73
     1
 44
1.0
1001
ACAD
1000
MTEXTBEGIN
1070
    73
1070
     1
1070
    44
1040
1.0
1070
    74
1070
     0
1000
MTEXTEND
  0
MTEXT
  5
F7B
330
F05
100
AcDbEntity
  8
10
100
AcDbMText
 10
9.389563639441231
 20
0.2573750034360827
 30
0.0
 40
0.06
 41
0.1329061784897025
 71
     5
 72
     5
  1
{\fArial|b0|i0|c0|p34;1:1}
  7
ADESK1
 73
     1
 44
1.0
1001
ACAD
1000
MTEXTBEGIN
1070
    73
1070
     1
1070
    44
1040
1.0
1070
    74
1070
     0
1000
MTEXTEND
  0
LINE
  5
F7C
330
F05
100
AcDbEntity
  8
10
100
AcDbLine
 10
9.053825688523446
 20
0.3211743114766556
 30
0.0
 11
9.053825688523446
 21
0.1961743114766557
 31
0.0
  0
ENDBLK
  5
F7F
330
F05
100
AcDbEntity
  8
0
100
AcDbBlockEnd
  0
BLOCK
  5
144C
330
144B
100
AcDbEntity
  8
0
100
AcDbBlockBegin
  2
A
 70
     0
 10
0.0
 20
0.0
 30
0.0
  3
A
  1

  0
LINE
  5
144D
330
144B
100
AcDbEntity
  8
0
 62
     6
100
AcDbLine
 10
16.54930526124189
 20
13.5278395721474
 30
0.0
 11
40.54930526124144
 21
13.52783957214717
 31
0.0
  0
LINE
  5
144E
330
144B
100
AcDbEntity
  8
0
 62
     6
100
AcDbLine
 10
16.54930526124144
 20
12.52783957214729
 30
0.0
 11
40.54930526124144
 21
12.52783957214729
 31
0.0
  0
ARC
  5
144F
330
144B
100
AcDbEntity
  8
0
 62
     6
100
AcDbCircle
 10
14.54930526124144
 20
18.32783957214724
 30
0.0
 40
0.5
100
AcDbArc
 50
0.0
 51
90.0
  0
ARC
  5
1450
330
144B
100
AcDbEntity
  8
0
 62
     6
100
AcDbCircle
 10
16.54930526124189
 20
14.0278395721474
 30
0.0
 40
0.5
100
AcDbArc
 50
179.9999999999945
 51
270.0
  0
ARC
  5
1451
330
144B
100
AcDbEntity
  8
0
 62
     6
100
AcDbCircle
 10
16.54930526124144
 20
14.02783957214728
 30
0.0
 40
1.5
100
AcDbArc
 50
180.0
 51
269.9999999999998
  0
ARC
  5
1452
330
144B
100
AcDbEntity
  8
0
 62
     6
100
AcDbCircle
 10
14.5493052612419
 20
18.32783957214735
 30
0.0
 40
1.5
100
AcDbArc
 50
359.9999999999959
 51
90.0
  0
LINE
  5
1453
330
144B
100
AcDbEntity
  8
0
 62
     6
100
AcDbLine
 10
15.04930526124144
 20
18.32783957214724
 30
0.0
 11
15.04930526124144
 21
14.02783957214728
 31
0.0
  0
LINE
  5
1454
330
144B
100
AcDbEntity
  8
0
 62
     6
100
AcDbLine
 10
11.04930526124189
 20
18.82783957214735
 30
0.0
 11
14.54930526124144
 21
18.82783957214724
 31
0.0
  0
LINE
  5
1455
330
144B
100
AcDbEntity
  8
0
 62
     6
100
AcDbLine
 10
16.0493052612419
 20
18.32783957214724
 30
0.0
 11
16.0493052612419
 21
14.0278395721474
 31
0.0
  0
LINE
  5
1456
330
144B
100
AcDbEntity
  8
0
 62
     6
100
AcDbLine
 10
11.04930526124189
 20
19.82783957214735
 30
0.0
 11
11.04930526124189
 21
18.82783957214724
 31
0.0
  0
LINE
  5
1457
330
144B
100
AcDbEntity
  8
0
 62
     6
100
AcDbLine
 10
11.04930526124189
 20
19.82783957214735
 30
0.0
 11
14.5493052612419
 21
19.82783957214735
 31
0.0
  0
ARC
  5
1458
330
144B
100
AcDbEntity
  8
0
 62
     6
100
AcDbCircle
 10
40.54930526124144
 20
14.02783957214717
 30
0.0
 40
0.5
100
AcDbArc
 50
269.9999999999998
 51
0.0
  0
ARC
  5
1459
330
144B
100
AcDbEntity
  8
0
 62
     6
100
AcDbCircle
 10
42.5493052612419
 20
18.32783957214713
 30
0.0
 40
0.5
100
AcDbArc
 50
90.0
 51
179.9999999999945
  0
ARC
  5
145A
330
144B
100
AcDbEntity
  8
0
 62
     6
100
AcDbCircle
 10
40.54930526124144
 20
14.02783957214728
 30
0.0
 40
1.5
100
AcDbArc
 50
270.0
 51
359.9999999999959
  0
ARC
  5
145B
330
144B
100
AcDbEntity
  8
0
 62
     6
100
AcDbCircle
 10
42.54930526124144
 20
18.32783957214735
 30
0.0
 40
1.5
100
AcDbArc
 50
89.9999999999987
 51
179.9999999999958
  0
LINE
  5
145C
330
144B
100
AcDbEntity
  8
0
 62
     6
100
AcDbLine
 10
42.54930526124144
 20
19.82783957214735
 30
0.0
 11
46.04930526124144
 21
19.82783957214724
 31
0.0
  0
LINE
  5
145D
330
144B
100
AcDbEntity
  8
0
 62
     6
100
AcDbLine
 10
42.04930526124189
 20
18.32783957214713
 30
0.0
 11
42.04930526124144
 21
14.02783957214717
 31
0.0
  0
LINE
  5
145E
330
144B
100
AcDbEntity
  8
0
 62
     6
100
AcDbLine
 10
41.04930526124144
 20
18.32783957214747
 30
0.0
 11
41.04930526124144
 21
14.02783957214717
 31
0.0
  0
LINE
  5
145F
330
144B
100
AcDbEntity
  8
0
 62
     6
100
AcDbLine
 10
46.04930526124144
 20
19.82783957214724
 30
0.0
 11
46.04930526124099
 21
18.82783957214712
 31
0.0
  0
LINE
  5
1460
330
144B
100
AcDbEntity
  8
0
 62
     6
100
AcDbLine
 10
42.5493052612419
 20
18.82783957214712
 30
0.0
 11
46.04930526124144
 21
18.82783957214724
 31
0.0
  0
ENDBLK
  5
1461
330
144B
100
AcDbEntity
  8
0
100
AcDbBlockEnd
  0
BLOCK
  5
1463
330
1462
100
AcDbEntity
  8
0
100
AcDbBlockBegin
  2
C
 70
     0
 10
0.0
 20
0.0
 30
0.0
  3
C
  1

  0
ARC
  5
1464
330
1462
100
AcDbEntity
  8
0
 62
     3
100
AcDbCircle
 10
17.99999999999954
 20
-8.000000000000113
 30
0.0
 40
3.5
100
AcDbArc
 50
0.0
 51
90.0
  0
ARC
  5
1465
330
1462
100
AcDbEntity
  8
0
 62
     3
100
AcDbCircle
 10
17.99999999999954
 20
-8.000000000000113
 30
0.0
 40
2.0
100
AcDbArc
 50
0.0
 51
90.0
  0
LINE
  5
1466
330
1462
100
AcDbEntity
  8
0
 62
     3
100
AcDbLine
 10
-9.0
 20
-2.0
 30
0.0
 11
-9.0
 21
-9.999999999999886
 31
0.0
  0
LINE
  5
1467
330
1462
100
AcDbEntity
  8
0
 62
     3
100
AcDbLine
 10
-10.5
 20
-2.0
 30
0.0
 11
-10.5
 21
-9.999999999999886
 31
0.0
  0
LINE
  5
1468
330
1462
100
AcDbEntity
  8
0
 62
     3
100
AcDbLine
 10
-7.0
 20
-13.49999999999977
 30
0.0
 11
17.99999999999909
 21
-13.5
 31
0.0
  0
LINE
  5
1469
330
1462
100
AcDbEntity
  8
0
 62
     3
100
AcDbLine
 10
-7.0
 20
-11.99999999999988
 30
0.0
 11
17.99999999999909
 21
-11.99999999999988
 31
0.0
  0
ARC
  5
146A
330
1462
100
AcDbEntity
  8
0
 62
     3
100
AcDbCircle
 10
-7.0
 20
-9.999999999999886
 30
0.0
 40
3.5
100
AcDbArc
 50
180.0
 51
269.9999999999998
  0
ARC
  5
146B
330
1462
100
AcDbEntity
  8
0
 62
     3
100
AcDbCircle
 10
-7.0
 20
-9.999999999999886
 30
0.0
 40
2.0
100
AcDbArc
 50
180.0
 51
269.9999999999998
  0
ARC
  5
146C
330
1462
100
AcDbEntity
  8
0
 62
     3
100
AcDbCircle
 10
17.99999999999909
 20
-9.999999999999886
 30
0.0
 40
3.5
100
AcDbArc
 50
269.9999999999998
 51
0.0
  0
ARC
  5
146D
330
1462
100
AcDbEntity
  8
0
 62
     3
100
AcDbCircle
 10
17.99999999999909
 20
-9.999999999999886
 30
0.0
 40
2.0
100
AcDbArc
 50
269.9999999999998
 51
0.0
  0
LINE
  5
146E
330
1462
100
AcDbEntity
  8
0
 62
     3
100
AcDbLine
 10
19.99999999999954
 20
-8.000000000000113
 30
0.0
 11
19.99999999999909
 21
-9.999999999999886
 31
0.0
  0
LINE
  5
146F
330
1462
100
AcDbEntity
  8
0
 62
     3
100
AcDbLine
 10
21.49999999999909
 20
-8.000000000000113
 30
0.0
 11
21.49999999999955
 21
-9.999999999999431
 31
0.0
  0
LINE
  5
1470
330
1462
100
AcDbEntity
  8
0
 62
     3
100
AcDbLine
 10
-7.0
 20
0.0
 30
0.0
 11
-0.0000000000004547
 21
0.0
 31
0.0
  0
LINE
  5
1471
330
1462
100
AcDbEntity
  8
0
 62
     3
100
AcDbLine
 10
-7.0
 20
1.5
 30
0.0
 11
-0.0000000000004547
 21
1.5
 31
0.0
  0
ARC
  5
1472
330
1462
100
AcDbEntity
  8
0
 62
     3
100
AcDbCircle
 10
-7.0
 20
-2.0
 30
0.0
 40
3.5
100
AcDbArc
 50
90.0
 51
180.0
  0
ARC
  5
1473
330
1462
100
AcDbEntity
  8
0
 62
     3
100
AcDbCircle
 10
-7.0
 20
-2.0
 30
0.0
 40
2.0
100
AcDbArc
 50
90.0
 51
180.0
  0
LINE
  5
1474
330
1462
100
AcDbEntity
  8
0
 62
     3
100
AcDbLine
 10
16.50000000000045
 20
-6.0
 30
0.0
 11
17.99999999999954
 21
-6.000000000000113
 31
0.0
  0
LINE
  5
1475
330
1462
100
AcDbEntity
  8
0
 62
     3
100
AcDbLine
 10
16.50000000000045
 20
-4.499999999999886
 30
0.0
 11
17.99999999999954
 21
-4.499999999999886
 31
0.0
  0
LINE
  5
1476
330
1462
100
AcDbEntity
  8
0
 62
     3
100
AcDbLine
 10
-0.0000000000004547
 20
1.5
 30
0.0
 11
0.0
 21
0.0
 31
0.0
  0
LINE
  5
1477
330
1462
100
AcDbEntity
  8
0
 62
     3
100
AcDbLine
 10
16.5
 20
-4.5
 30
0.0
 11
16.5
 21
-6.0
 31
0.0
  0
ENDBLK
  5
1478
330
1462
100
AcDbEntity
  8
0
100
AcDbBlockEnd
  0
BLOCK
  5
176C
330
175F
100
AcDbEntity
  8
0
100
AcDbBlockBegin
  2
*D17
 70
     1
 10
0.0
 20
0.0
 30
0.0
  3
*D17
  1

  0
LINE
  5
1760
330
175F
100
AcDbEntity
  8
0
 62
     0
370
    -2
100
AcDbLine
 10
2.063865402079305
 20
6.598257698685995
 30
0.0
 11
1.53779288095405
 21
6.598257698685996
 31
0.0
  0
LINE
  5
1761
330
175F
100
AcDbEntity
  8
0
 62
     0
370
    -2
100
AcDbLine
 10
2.063865402079301
 20
6.204556911686013
 30
0.0
 11
1.53779288095405
 21
6.204556911686013
 31
0.0
  0
LINE
  5
1762
330
175F
100
AcDbEntity
  8
0
 62
     0
370
    -2
100
AcDbLine
 10
1.71779288095405
 20
6.723257698685996
 30
0.0
 11
1.71779288095405
 21
6.848257698685996
 31
0.0
  0
LINE
  5
1763
330
175F
100
AcDbEntity
  8
0
 62
     0
370
    -2
100
AcDbLine
 10
1.71779288095405
 20
6.079556911686013
 30
0.0
 11
1.71779288095405
 21
5.954556911686013
 31
0.0
  0
LINE
  5
1764
330
175F
100
AcDbEntity
  8
0
 62
     0
370
    -2
100
AcDbLine
 10
1.71779288095405
 20
5.954556911686013
 30
0.0
 11
1.59279288095405
 21
5.954556911686013
 31
0.0
  0
SOLID
  5
1765
330
175F
100
AcDbEntity
  8
0
 62
     0
100
AcDbTrace
 10
1.696959547620717
 20
6.723257698685996
 30
0.0
 11
1.738626214287383
 21
6.723257698685996
 31
0.0
 12
1.71779288095405
 22
6.598257698685996
 32
0.0
 13
1.71779288095405
 23
6.598257698685996
 33
0.0
  0
SOLID
  5
1766
330
175F
100
AcDbEntity
  8
0
 62
     0
100
AcDbTrace
 10
1.696959547620717
 20
6.079556911686013
 30
0.0
 11
1.738626214287383
 21
6.079556911686013
 31
0.0
 12
1.71779288095405
 22
6.204556911686013
 32
0.0
 13
1.71779288095405
 23
6.204556911686013
 33
0.0
  0
MTEXT
  5
1767
330
175F
100
AcDbEntity
  8
0
 62
     0
100
AcDbMText
 10
1.072131216561143
 20
6.136460049475918
 30
0.0
 40
0.18
 41
0.0
 71
     5
 72
     1
  1
\A1;10 mm
  7
outline drawings
 73
     1
 44
1.0
1001
ACAD
1000
MTEXTBEGIN
1070
    73
1070
     1
1070
    44
1040
1.0
1070
    74
1070
     0
1000
MTEXTEND
  0
MTEXT
  5
1768
330
175F
100
AcDbEntity
  8
0
 62
     0
100
AcDbMText
 10
1.072131216561143
 20
5.749202205001157
 30
0.0
 40
0.18
 41
0.0
 71
     5
 72
     1
  1
\A1;[0.39 in]
  7
outline drawings
 73
     1
 44
1.0
1001
ACAD
1000
MTEXTBEGIN
1070
    73
1070
     1
1070
    44
1040
1.0
1070
    74
1070
     0
1000
MTEXTEND
  0
POINT
  5
1769
330
175F
100
AcDbEntity
  8
DEFPOINTS
 62
     0
100
AcDbPoint
 10
2.126365402079305
 20
6.598257698685995
 30
0.0
  0
POINT
  5
176A
330
175F
100
AcDbEntity
  8
DEFPOINTS
 62
     0
100
AcDbPoint
 10
2.126365402079301
 20
6.204556911686013
 30
0.0
  0
POINT
  5
176B
330
175F
100
AcDbEntity
  8
DEFPOINTS
 62
     0
100
AcDbPoint
 10
1.71779288095405
 20
6.204556911686013
 30
0.0
  0
ENDBLK
  5
176D
330
175F
100
AcDbEntity
  8
0
100
AcDbBlockEnd
  0
BLOCK
  5
177B
330
176F
100
AcDbEntity
  8
0
100
AcDbBlockBegin
  2
*D18
 70
     1
 10
0.0
 20
0.0
 30
0.0
  3
*D18
  1

  0
LINE
  5
17B8
330
176F
100
AcDbEntity
  8
0
 62
     0
370
    -2
100
AcDbLine
 10
2.126365402079309
 20
6.660757698685994
 30
0.0
 11
2.126365402079309
 21
7.463236981855452
 31
0.0
  0
LINE
  5
17B9
330
176F
100
AcDbEntity
  8
0
 62
     0
370
    -2
100
AcDbLine
 10
3.89801894357931
 20
6.660757698685817
 30
0.0
 11
3.89801894357931
 21
7.463236981855452
 31
0.0
  0
LINE
  5
17BA
330
176F
100
AcDbEntity
  8
0
 62
     0
370
    -2
100
AcDbLine
 10
2.251365402079309
 20
7.283236981855452
 30
0.0
 11
2.491530508436404
 21
7.283236981855452
 31
0.0
  0
LINE
  5
17BB
330
176F
100
AcDbEntity
  8
0
 62
     0
370
    -2
100
AcDbLine
 10
3.77301894357931
 20
7.283236981855452
 30
0.0
 11
3.532853837222215
 21
7.283236981855452
 31
0.0
  0
SOLID
  5
17BC
330
176F
100
AcDbEntity
  8
0
 62
     0
100
AcDbTrace
 10
2.251365402079309
 20
7.304070315188785
 30
0.0
 11
2.251365402079309
 21
7.262403648522119
 31
0.0
 12
2.126365402079309
 22
7.283236981855452
 32
0.0
 13
2.126365402079309
 23
7.283236981855452
 33
0.0
  0
SOLID
  5
17BD
330
176F
100
AcDbEntity
  8
0
 62
     0
100
AcDbTrace
 10
3.77301894357931
 20
7.304070315188785
 30
0.0
 11
3.77301894357931
 21
7.262403648522119
 31
0.0
 12
3.89801894357931
 22
7.283236981855452
 32
0.0
 13
3.89801894357931
 23
7.283236981855452
 33
0.0
  0
MTEXT
  5
17BE
330
176F
100
AcDbEntity
  8
0
 62
     0
100
AcDbMText
 10
3.012192172829309
 20
7.464771770395698
 30
0.0
 40
0.18
 41
0.0
 71
     5
 72
     1
  1
\A1;45 mm
  7
outline drawings
 73
     1
 44
1.0
1001
ACAD
1000
MTEXTBEGIN
1070
    73
1070
     1
1070
    44
1040
1.0
1070
    74
1070
     0
1000
MTEXTEND
  0
MTEXT
  5
17BF
330
176F
100
AcDbEntity
  8
0
 62
     0
100
AcDbMText
 10
3.012192172829309
 20
7.077882275170596
 30
0.0
 40
0.18
 41
0.0
 71
     5
 72
     1
  1
\A1;[1.77 in]
  7
outline drawings
 73
     1
 44
1.0
1001
ACAD
1000
MTEXTBEGIN
1070
    73
1070
     1
1070
    44
1040
1.0
1070
    74
1070
     0
1000
MTEXTEND
  0
POINT
  5
17C0
330
176F
100
AcDbEntity
  8
DEFPOINTS
 62
     0
100
AcDbPoint
 10
2.126365402079309
 20
6.598257698685994
 30
0.0
  0
POINT
  5
17C1
330
176F
100
AcDbEntity
  8
DEFPOINTS
 62
     0
100
AcDbPoint
 10
3.89801894357931
 20
6.598257698685817
 30
0.0
  0
POINT
  5
17C2
330
176F
100
AcDbEntity
  8
DEFPOINTS
 62
     0
100
AcDbPoint
 10
3.89801894357931
 20
7.283236981855452
 30
0.0
  0
ENDBLK
  5
177C
330
176F
100
AcDbEntity
  8
0
100
AcDbBlockEnd
  0
BLOCK
  5
178A
330
177E
100
AcDbEntity
  8
0
100
AcDbBlockBegin
  2
*D19
 70
     1
 10
0.0
 20
0.0
 30
0.0
  3
*D19
  1

  0
LINE
  5
177F
330
177E
100
AcDbEntity
  8
0
 62
     0
370
    -2
100
AcDbLine
 10
6.233795012822115
 20
6.660757698685767
 30
0.0
 11
6.233795012822115
 21
7.440448083794244
 31
0.0
  0
LINE
  5
1780
330
177E
100
AcDbEntity
  8
0
 62
     0
370
    -2
100
AcDbLine
 10
8.005448554322116
 20
6.660757698685767
 30
0.0
 11
8.005448554322116
 21
7.440448083794244
 31
0.0
  0
LINE
  5
1781
330
177E
100
AcDbEntity
  8
0
 62
     0
370
    -2
100
AcDbLine
 10
6.358795012822115
 20
7.260448083794244
 30
0.0
 11
6.59896011917921
 21
7.260448083794244
 31
0.0
  0
LINE
  5
1782
330
177E
100
AcDbEntity
  8
0
 62
     0
370
    -2
100
AcDbLine
 10
7.880448554322116
 20
7.260448083794244
 30
0.0
 11
7.640283447965021
 21
7.260448083794244
 31
0.0
  0
SOLID
  5
1783
330
177E
100
AcDbEntity
  8
0
 62
     0
100
AcDbTrace
 10
6.358795012822115
 20
7.281281417127577
 30
0.0
 11
6.358795012822115
 21
7.239614750460911
 31
0.0
 12
6.233795012822115
 22
7.260448083794244
 32
0.0
 13
6.233795012822115
 23
7.260448083794244
 33
0.0
  0
SOLID
  5
1784
330
177E
100
AcDbEntity
  8
0
 62
     0
100
AcDbTrace
 10
7.880448554322116
 20
7.281281417127577
 30
0.0
 11
7.880448554322116
 21
7.239614750460911
 31
0.0
 12
8.005448554322116
 22
7.260448083794244
 32
0.0
 13
8.005448554322116
 23
7.260448083794244
 33
0.0
  0
MTEXT
  5
1785
330
177E
100
AcDbEntity
  8
0
 62
     0
100
AcDbMText
 10
7.119621783572116
 20
7.44198287233449
 30
0.0
 40
0.18
 41
0.0
 71
     5
 72
     1
  1
\A1;45 mm
  7
outline drawings
 73
     1
 44
1.0
1001
ACAD
1000
MTEXTBEGIN
1070
    73
1070
     1
1070
    44
1040
1.0
1070
    74
1070
     0
1000
MTEXTEND
  0
MTEXT
  5
1786
330
177E
100
AcDbEntity
  8
0
 62
     0
100
AcDbMText
 10
7.119621783572116
 20
7.055093377109388
 30
0.0
 40
0.18
 41
0.0
 71
     5
 72
     1
  1
\A1;[1.77 in]
  7
outline drawings
 73
     1
 44
1.0
1001
ACAD
1000
MTEXTBEGIN
1070
    73
1070
     1
1070
    44
1040
1.0
1070
    74
1070
     0
1000
MTEXTEND
  0
POINT
  5
1787
330
177E
100
AcDbEntity
  8
DEFPOINTS
 62
     0
100
AcDbPoint
 10
6.233795012822115
 20
6.598257698685767
 30
0.0
  0
POINT
  5
1788
330
177E
100
AcDbEntity
  8
DEFPOINTS
 62
     0
100
AcDbPoint
 10
8.005448554322116
 20
6.598257698685767
 30
0.0
  0
POINT
  5
1789
330
177E
100
AcDbEntity
  8
DEFPOINTS
 62
     0
100
AcDbPoint
 10
8.005448554322116
 20
7.260448083794244
 30
0.0
  0
ENDBLK
  5
178B
330
177E
100
AcDbEntity
  8
0
100
AcDbBlockEnd
  0
BLOCK
  5
179A
330
178D
100
AcDbEntity
  8
0
100
AcDbBlockBegin
  2
*D20
 70
     1
 10
0.0
 20
0.0
 30
0.0
  3
*D20
  1

  0
LINE
  5
178E
330
178D
100
AcDbEntity
  8
0
 62
     0
370
    -2
100
AcDbLine
 10
6.171295012822112
 20
6.598257698685768
 30
0.0
 11
5.618822235155967
 21
6.598257698685769
 31
0.0
  0
LINE
  5
178F
330
178D
100
AcDbEntity
  8
0
 62
     0
370
    -2
100
AcDbLine
 10
6.17129501282211
 20
6.204556911685785
 30
0.0
 11
5.618822235155967
 21
6.204556911685786
 31
0.0
  0
LINE
  5
1790
330
178D
100
AcDbEntity
  8
0
 62
     0
370
    -2
100
AcDbLine
 10
5.798822235155967
 20
6.723257698685769
 30
0.0
 11
5.798822235155967
 21
6.848257698685769
 31
0.0
  0
LINE
  5
1791
330
178D
100
AcDbEntity
  8
0
 62
     0
370
    -2
100
AcDbLine
 10
5.798822235155967
 20
6.079556911685786
 30
0.0
 11
5.798822235155966
 21
5.954556911685786
 31
0.0
  0
LINE
  5
1792
330
178D
100
AcDbEntity
  8
0
 62
     0
370
    -2
100
AcDbLine
 10
5.798822235155966
 20
5.954556911685786
 30
0.0
 11
5.673822235155966
 21
5.954556911685786
 31
0.0
  0
SOLID
  5
1793
330
178D
100
AcDbEntity
  8
0
 62
     0
100
AcDbTrace
 10
5.777988901822634
 20
6.723257698685769
 30
0.0
 11
5.8196555684893
 21
6.723257698685769
 31
0.0
 12
5.798822235155967
 22
6.598257698685769
 32
0.0
 13
5.798822235155967
 23
6.598257698685769
 33
0.0
  0
SOLID
  5
1794
330
178D
100
AcDbEntity
  8
0
 62
     0
100
AcDbTrace
 10
5.777988901822634
 20
6.079556911685786
 30
0.0
 11
5.8196555684893
 21
6.079556911685786
 31
0.0
 12
5.798822235155967
 22
6.204556911685786
 32
0.0
 13
5.798822235155967
 23
6.204556911685786
 33
0.0
  0
MTEXT
  5
1795
330
178D
100
AcDbEntity
  8
0
 62
     0
100
AcDbMText
 10
5.153160570763059
 20
6.136460049475691
 30
0.0
 40
0.18
 41
0.0
 71
     5
 72
     1
  1
\A1;10 mm
  7
outline drawings
 73
     1
 44
1.0
1001
ACAD
1000
MTEXTBEGIN
1070
    73
1070
     1
1070
    44
1040
1.0
1070
    74
1070
     0
1000
MTEXTEND
  0
MTEXT
  5
1796
330
178D
100
AcDbEntity
  8
0
 62
     0
100
AcDbMText
 10
5.153160570763059
 20
5.749202205000931
 30
0.0
 40
0.18
 41
0.0
 71
     5
 72
     1
  1
\A1;[0.39 in]
  7
outline drawings
 73
     1
 44
1.0
1001
ACAD
1000
MTEXTBEGIN
1070
    73
1070
     1
1070
    44
1040
1.0
1070
    74
1070
     0
1000
MTEXTEND
  0
POINT
  5
1797
330
178D
100
AcDbEntity
  8
DEFPOINTS
 62
     0
100
AcDbPoint
 10
6.233795012822112
 20
6.598257698685768
 30
0.0
  0
POINT
  5
1798
330
178D
100
AcDbEntity
  8
DEFPOINTS
 62
     0
100
AcDbPoint
 10
6.23379501282211
 20
6.204556911685785
 30
0.0
  0
POINT
  5
1799
330
178D
100
AcDbEntity
  8
DEFPOINTS
 62
     0
100
AcDbPoint
 10
5.798822235155967
 20
6.204556911685786
 30
0.0
  0
ENDBLK
  5
179B
330
178D
100
AcDbEntity
  8
0
100
AcDbBlockEnd
  0
BLOCK
  5
17A9
330
179D
100
AcDbEntity
  8
0
100
AcDbBlockBegin
  2
*D21
 70
     1
 10
0.0
 20
0.0
 30
0.0
  3
*D21
  1

  0
LINE
  5
17AC
330
179D
100
AcDbEntity
  8
0
 62
     0
370
    -2
100
AcDbLine
 10
2.361109496264305
 20
4.512317699677625
 30
0.0
 11
0.9336682721891024
 21
4.512317699677626
 31
0.0
  0
LINE
  5
17AD
330
179D
100
AcDbEntity
  8
0
 62
     0
370
    -2
100
AcDbLine
 10
2.388668551354303
 20
2.522160221392641
 30
0.0
 11
0.9336682721891019
 21
2.522160221392641
 31
0.0
  0
LINE
  5
17AE
330
179D
100
AcDbEntity
  8
0
 62
     0
370
    -2
100
AcDbLine
 10
1.113668272189102
 20
4.387317699677626
 30
0.0
 11
1.113668272189102
 21
3.904496805009894
 31
0.0
  0
LINE
  5
17AF
330
179D
100
AcDbEntity
  8
0
 62
     0
370
    -2
100
AcDbLine
 10
1.113668272189102
 20
2.647160221392641
 30
0.0
 11
1.113668272189102
 21
3.129981116060372
 31
0.0
  0
SOLID
  5
17B0
330
179D
100
AcDbEntity
  8
0
 62
     0
100
AcDbTrace
 10
1.092834938855768
 20
4.387317699677626
 30
0.0
 11
1.134501605522435
 21
4.387317699677626
 31
0.0
 12
1.113668272189102
 22
4.512317699677626
 32
0.0
 13
1.113668272189102
 23
4.512317699677626
 33
0.0
  0
SOLID
  5
17B1
330
179D
100
AcDbEntity
  8
0
 62
     0
100
AcDbTrace
 10
1.092834938855768
 20
2.647160221392641
 30
0.0
 11
1.134501605522435
 21
2.647160221392641
 31
0.0
 12
1.113668272189102
 22
2.522160221392641
 32
0.0
 13
1.113668272189102
 23
2.522160221392641
 33
0.0
  0
MTEXT
  5
17B2
330
179D
100
AcDbEntity
  8
0
 62
     0
100
AcDbMText
 10
1.113668272189101
 20
3.699142098325038
 30
0.0
 40
0.18
 41
0.0
 71
     5
 72
     1
  1
\A1;50.5 mm
  7
outline drawings
 73
     1
 44
1.0
1001
ACAD
1000
MTEXTBEGIN
1070
    73
1070
     1
1070
    44
1040
1.0
1070
    74
1070
     0
1000
MTEXTEND
  0
MTEXT
  5
17B3
330
179D
100
AcDbEntity
  8
0
 62
     0
100
AcDbMText
 10
1.113668272189101
 20
3.311884253850277
 30
0.0
 40
0.18
 41
0.0
 71
     5
 72
     1
  1
\A1;[1.99 in]
  7
outline drawings
 73
     1
 44
1.0
1001
ACAD
1000
MTEXTBEGIN
1070
    73
1070
     1
1070
    44
1040
1.0
1070
    74
1070
     0
1000
MTEXTEND
  0
POINT
  5
17B4
330
179D
100
AcDbEntity
  8
DEFPOINTS
 62
     0
100
AcDbPoint
 10
2.423609496264305
 20
4.512317699677625
 30
0.0
  0
POINT
  5
17B5
330
179D
100
AcDbEntity
  8
DEFPOINTS
 62
     0
100
AcDbPoint
 10
2.451168551354303
 20
2.522160221392641
 30
0.0
  0
POINT
  5
17B6
330
179D
100
AcDbEntity
  8
DEFPOINTS
 62
     0
100
AcDbPoint
 10
1.113668272189102
 20
2.522160221392641
 30
0.0
  0
ENDBLK
  5
17AA
330
179D
100
AcDbEntity
  8
0
100
AcDbBlockEnd
  0
BLOCK
  5
17D0
330
17C4
100
AcDbEntity
  8
0
100
AcDbBlockBegin
  2
*D22
 70
     1
 10
0.0
 20
0.0
 30
0.0
  3
*D22
  1

  0
LINE
  5
17D3
330
17C4
100
AcDbEntity
  8
0
 62
     0
370
    -2
100
AcDbLine
 10
6.468539107007132
 20
4.717038997091766
 30
0.0
 11
5.332564655970948
 21
4.717038997091767
 31
0.0
  0
LINE
  5
17D4
330
17C4
100
AcDbEntity
  8
0
 62
     0
370
    -2
100
AcDbLine
 10
6.692175126436127
 20
2.522160221392642
 30
0.0
 11
5.332564655970948
 21
2.522160221392642
 31
0.0
  0
LINE
  5
17D5
330
17C4
100
AcDbEntity
  8
0
 62
     0
370
    -2
100
AcDbLine
 10
5.512564655970948
 20
4.592038997091767
 30
0.0
 11
5.512564655970948
 21
4.006857453716966
 31
0.0
  0
LINE
  5
17D6
330
17C4
100
AcDbEntity
  8
0
 62
     0
370
    -2
100
AcDbLine
 10
5.512564655970948
 20
2.647160221392642
 30
0.0
 11
5.512564655970948
 21
3.232341764767443
 31
0.0
  0
SOLID
  5
17D7
330
17C4
100
AcDbEntity
  8
0
 62
     0
100
AcDbTrace
 10
5.491731322637614
 20
4.592038997091767
 30
0.0
 11
5.533397989304281
 21
4.592038997091767
 31
0.0
 12
5.512564655970948
 22
4.717038997091767
 32
0.0
 13
5.512564655970948
 23
4.717038997091767
 33
0.0
  0
SOLID
  5
17D8
330
17C4
100
AcDbEntity
  8
0
 62
     0
100
AcDbTrace
 10
5.491731322637614
 20
2.647160221392642
 30
0.0
 11
5.533397989304281
 21
2.647160221392642
 31
0.0
 12
5.512564655970948
 22
2.522160221392642
 32
0.0
 13
5.512564655970948
 23
2.522160221392642
 33
0.0
  0
MTEXT
  5
17D9
330
17C4
100
AcDbEntity
  8
0
 62
     0
100
AcDbMText
 10
5.512564655970947
 20
3.80150274703211
 30
0.0
 40
0.18
 41
0.0
 71
     5
 72
     1
  1
\A1;56 mm
  7
outline drawings
 73
     1
 44
1.0
1001
ACAD
1000
MTEXTBEGIN
1070
    73
1070
     1
1070
    44
1040
1.0
1070
    74
1070
     0
1000
MTEXTEND
  0
MTEXT
  5
17DA
330
17C4
100
AcDbEntity
  8
0
 62
     0
100
AcDbMText
 10
5.512564655970947
 20
3.414244902557348
 30
0.0
 40
0.18
 41
0.0
 71
     5
 72
     1
  1
\A1;[2.19 in]
  7
outline drawings
 73
     1
 44
1.0
1001
ACAD
1000
MTEXTBEGIN
1070
    73
1070
     1
1070
    44
1040
1.0
1070
    74
1070
     0
1000
MTEXTEND
  0
POINT
  5
17DB
330
17C4
100
AcDbEntity
  8
DEFPOINTS
 62
     0
100
AcDbPoint
 10
6.531039107007132
 20
4.717038997091766
 30
0.0
  0
POINT
  5
17DC
330
17C4
100
AcDbEntity
  8
DEFPOINTS
 62
     0
100
AcDbPoint
 10
6.754675126436127
 20
2.522160221392642
 30
0.0
  0
POINT
  5
17DD
330
17C4
100
AcDbEntity
  8
DEFPOINTS
 62
     0
100
AcDbPoint
 10
5.512564655970948
 20
2.522160221392642
 30
0.0
  0
ENDBLK
  5
17D1
330
17C4
100
AcDbEntity
  8
0
100
AcDbBlockEnd
  0
ENDSEC
  0
SECTION
  2
ENTITIES
  0
LINE
  5
100B
330
19
100
AcDbEntity
  8
10
100
AcDbLine
 10
0.1961743114766824
 20
8.303825688523339
 30
0.0
 11
10.80382568852344
 21
8.303825688523335
 31
0.0
  0
LINE
  5
1011
330
19
100
AcDbEntity
  8
10
100
AcDbLine
 10
0.1961743114766616
 20
0.1961743114766623
 30
0.0
 11
10.80382568852344
 21
0.1961743114766557
 31
0.0
  0
LINE
  5
1012
330
19
100
AcDbEntity
  8
10
100
AcDbLine
 10
0.1961743114766672
 20
8.303825688523344
 30
0.0
 11
0.1961743114766616
 21
0.1961743114766623
 31
0.0
  0
CIRCLE
  5
1013
330
19
100
AcDbEntity
  8
10
 62
     1
100
AcDbCircle
 10
0.1961743114766589
 20
0.1961743114766623
 30
0.0
 40
0.1111040097775731
  0
LINE
  5
1014
330
19
100
AcDbEntity
  8
10
100
AcDbLine
 10
0.0000000000000029
 20
0.1961743114766623
 30
0.0
 11
0.0
 21
0.0
 31
0.0
  0
LINE
  5
1015
330
19
100
AcDbEntity
  8
10
100
AcDbLine
 10
0.0
 20
0.0
 30
0.0
 11
0.1961743114766616
 21
-0.0000000000000004
 31
0.0
  0
LINE
  5
1016
330
19
100
AcDbEntity
  8
10
100
AcDbLine
 10
0.0000000000000149
 20
8.500000000000001
 30
0.0
 11
0.1961743114766764
 21
8.500000000000001
 31
0.0
  0
LINE
  5
1017
330
19
100
AcDbEntity
  8
10
100
AcDbLine
 10
0.0000000000000149
 20
8.500000000000001
 30
0.0
 11
0.0000000000000178
 21
8.303825688523335
 31
0.0
  0
LINE
  5
1021
330
19
100
AcDbEntity
  8
10
100
AcDbLine
 10
10.80382568852344
 20
8.303825688523335
 30
0.0
 11
10.80382568852344
 21
0.1961743114766557
 31
0.0
  0
LINE
  5
1037
330
19
100
AcDbEntity
  8
10
100
AcDbLine
 10
10.80382568852344
 20
-0.0000000000000032
 30
0.0
 11
11.00000000000012
 21
-0.0000000000000063
 31
0.0
  0
LINE
  5
1038
330
19
100
AcDbEntity
  8
10
100
AcDbLine
 10
11.00000000000011
 20
-0.0000000000000063
 30
0.0
 11
11.00000000000011
 21
0.1961743114766574
 31
0.0
  0
LINE
  5
1062
330
19
100
AcDbEntity
  8
10
100
AcDbLine
 10
10.80382568852344
 20
8.500000000000001
 30
0.0
 11
11.00000000000012
 21
8.500000000000001
 31
0.0
  0
LINE
  5
1063
330
19
100
AcDbEntity
  8
10
100
AcDbLine
 10
11.00000000000011
 20
8.500000000000001
 30
0.0
 11
11.00000000000011
 21
8.303825688523339
 31
0.0
  0
MTEXT
  5
1064
330
19
100
AcDbEntity
  8
10
 62
     7
100
AcDbMText
 10
7.825787782870921
 20
1.484327851128144
 30
0.0
 40
0.045
 41
0.0
 71
     2
 72
     5
  1
{\fArial|b0|i0|c0|p34;\LTOLERANCE:\P\P\l  .XX +/- 0.02\P .XXX +/- 0.005\P.XXXX +/- 0.001\PANGLES +/- 0.5 DEG\P\H0.7778x;\P\H1.286x;UNLESS OTHERWISE \PSPECIFIED}
 73
     1
 44
1.0
1001
ACAD
1000
MTEXTBEGIN
1070
    73
1070
     1
1070
    44
1040
1.0
1070
    74
1070
     0
1000
MTEXTEND
  0
MTEXT
  5
1065
102
{ACAD_XDICTIONARY
360
1811
102
}
330
19
100
AcDbEntity
  8
10
 62
     7
100
AcDbMText
 10
8.534103697292026
 20
1.023538202411762
 30
0.0
 40
0.05
 41
2.061478375197692
 71
     1
 72
     5
  1
{\fArial|b0|i0|c0|p34;P.O. BOX 496        BEAVER, PA 15009         \C256;www.c3controls.com}
 73
     1
 44
1.0
1001
ACAD
1000
MTEXTBEGIN
1070
    73
1070
     1
1070
    44
1040
1.0
1070
    74
1070
     0
1000
MTEXTEND
  0
IMAGE
  5
1066
330
19
100
AcDbEntity
  8
10
 92
      140
310
8C000000010000008400000006000000050000001D4DB43CD40D2140EA516FE0E8D0F03F00000000000000001D4DB43CD40D21409E88EA39A15FF73F0000000000000000A5DE49F1B31D25409E88EA39A15FF73F0000000000000000A5DE49F1B31D2540EA516FE0E8D0F03F00000000000000001D4DB43CD40D2140EA516F
310
E0E8D0F03F0000000000000000
100
AcDbRasterImage
 90
        0
 10
8.527009865769793
 20
1.051003338526351
 30
0.0
 11
0.0091076395148456
 21
0.0
 31
0.0
 12
0.0
 22
0.0091076395148456
 32
0.0
 13
223.0
 23
45.0
340
F81
 70
     7
280
     0
281
    50
282
    50
283
     0
360
1067
 71
     1
 91
        2
 14
-0.5
 24
-0.5
 14
222.5
 24
44.5
  0
LINE
  5
1068
330
19
100
AcDbEntity
  8
10
100
AcDbLine
 10
8.303825688523446
 20
0.9461743114766555
 30
0.0
 11
10.80382568852344
 21
0.9461743114766555
 31
0.0
  0
MTEXT
  5
1069
330
19
100
AcDbEntity
  8
10
100
AcDbMText
 10
7.810416917469382
 20
0.4951779088847244
 30
0.0
 40
0.05
 41
0.9934087710540634
 71
     5
 72
     5
  1
{\fArial|b0|i0|c0|p34;\C7;This drawing is the property of \C5;c3\C7;controls.  The drawing may not be copied, used or disclosed, for any purpose except as authorized in writing by \C5;c3\C7;controls.}
  7
ADESK1
 73
     1
 44
1.0
1001
ACAD
1000
MTEXTBEGIN
1070
    73
1070
     1
1070
    44
1040
1.0
1070
    74
1070
     0
1000
MTEXTEND
  0
LINE
  5
106A
330
19
100
AcDbEntity
  8
10
100
AcDbLine
 10
10.80382568852344
 20
0.4461743114766557
 30
0.0
 11
8.303825688523446
 21
0.4461743114766557
 31
0.0
  0
LINE
  5
106B
330
19
100
AcDbEntity
  8
10
100
AcDbLine
 10
7.303825688523446
 20
0.1961743114766557
 30
0.0
 11
10.80382568852344
 21
0.1961743114766557
 31
0.0
  0
MTEXT
  5
106C
330
19
100
AcDbEntity
  8
10
100
AcDbMText
 10
8.328668770674212
 20
0.9235976724297451
 30
0.0
 40
0.045
 41
0.4329439054016504
 71
     1
 72
     5
  1
{\fArial|b0|i0|c0|p34;\LDescription\l:}
  7
ADESK1
 73
     1
 44
1.0
1001
ACAD
1000
MTEXTBEGIN
1070
    73
1070
     1
1070
    44
1040
1.0
1070
    74
1070
     0
1000
MTEXTEND
  0
LINE
  5
106D
330
19
100
AcDbEntity
  8
10
100
AcDbLine
 10
9.553825688523446
 20
0.1961743114766557
 30
0.0
 11
8.303825688523446
 21
0.1961743114766557
 31
0.0
  0
MTEXT
  5
106E
330
19
100
AcDbEntity
  8
10
100
AcDbMText
 10
8.32802284328801
 20
0.2868720012243906
 30
0.0
 40
0.045
 41
0.1920968035785435
 71
     1
 72
     5
  1
{\fArial|b0|i0|c0|p34;\LDate\l:}
  7
ADESK1
 73
     1
 44
1.0
1001
ACAD
1000
MTEXTBEGIN
1070
    73
1070
     1
1070
    44
1040
1.0
1070
    74
1070
     0
1000
MTEXTEND
  0
LINE
  5
106F
330
19
100
AcDbEntity
  8
10
100
AcDbLine
 10
8.303825688523446
 20
0.4461743114766557
 30
0.0
 11
8.303825688523446
 21
0.5711743114766557
 31
0.0
  0
MTEXT
  5
1070
330
19
100
AcDbEntity
  8
10
100
AcDbMText
 10
8.324337016104422
 20
0.4118389523115078
 30
0.0
 40
0.045
 41
0.3748785207666998
 71
     1
 72
     5
  1
{\fArial|b0|i0|c0|p34;\LDrawn By\l:}
  7
ADESK1
 73
     1
 44
1.0
1001
ACAD
1000
MTEXTBEGIN
1070
    73
1070
     1
1070
    44
1040
1.0
1070
    74
1070
     0
1000
MTEXTEND
  0
LINE
  5
1071
330
19
100
AcDbEntity
  8
10
100
AcDbLine
 10
7.303825688523446
 20
0.8211743114766555
 30
0.0
 11
8.303825688523446
 21
0.8211743114766555
 31
0.0
  0
MTEXT
  5
1072
330
19
100
AcDbEntity
  8
10
100
AcDbMText
 10
9.068976160632743
 20
0.2871257996165633
 30
0.0
 40
0.045
 41
0.1651821716154203
 71
     1
 72
     5
  1
{\fArial|b0|i0|c0|p34;\LScale\l:}
  7
ADESK1
 73
     1
 44
1.0
1001
ACAD
1000
MTEXTBEGIN
1070
    73
1070
     1
1070
    44
1040
1.0
1070
    74
1070
     0
1000
MTEXTEND
  0
MTEXT
  5
1073
330
19
100
AcDbEntity
  8
10
100
AcDbMText
 10
9.576446267369348
 20
0.4208917298119937
 30
0.0
 40
0.045
 41
0.6519284424069412
 71
     1
 72
     5
  1
{\fArial|b0|i0|c0|p34;\LDrawing Number\l:}
  7
ADESK1
 73
     1
 44
1.0
1001
ACAD
1000
MTEXTBEGIN
1070
    73
1070
     1
1070
    44
1040
1.0
1070
    74
1070
     0
1000
MTEXTEND
  0
LINE
  5
1074
330
19
100
AcDbEntity
  8
10
100
AcDbLine
 10
7.303825688523446
 20
1.508674311476655
 30
0.0
 11
7.303825688523446
 21
0.1961743114766557
 31
0.0
  0
LINE
  5
1075
330
19
100
AcDbEntity
  8
10
100
AcDbLine
 10
7.303825688523446
 20
1.508674311476655
 30
0.0
 11
10.80382568852344
 21
1.508674311476659
 31
0.0
  0
LINE
  5
1076
330
19
100
AcDbEntity
  8
10
100
AcDbLine
 10
10.80382568852344
 20
1.508674311476659
 30
0.0
 11
10.80382568852344
 21
0.1961743114766557
 31
0.0
  0
LINE
  5
1077
330
19
100
AcDbEntity
  8
10
100
AcDbLine
 10
8.303825688523446
 20
1.508674311476655
 30
0.0
 11
8.303825688523446
 21
0.1961743114766557
 31
0.0
  0
LINE
  5
1078
330
19
100
AcDbEntity
  8
10
100
AcDbLine
 10
9.553825688523446
 20
0.4461743114766557
 30
0.0
 11
9.553825688523446
 21
0.1961743114766557
 31
0.0
  0
LINE
  5
1079
330
19
100
AcDbEntity
  8
10
100
AcDbLine
 10
8.303825688523446
 20
0.3211743114766556
 30
0.0
 11
9.553825688523446
 21
0.3211743114766556
 31
0.0
  0
MTEXT
  5
107A
102
{ACAD_XDICTIONARY
360
1813
102
}
330
19
100
AcDbEntity
  8
10
100
AcDbMText
 10
8.640777345549317
 20
0.4112478786675263
 30
0.0
 40
0.075
 41
0.8858571826804109
 71
     1
 72
     5
  1
{\fArial|b0|i0|c0|p34;  P. DAMESIMO}
  7
ADESK1
 73
     1
 44
1.0
1001
ACAD
1000
MTEXTBEGIN
1070
    73
1070
     1
1070
    44
1040
1.0
1070
    74
1070
     0
1000
MTEXTEND
  0
MTEXT
  5
107B
330
19
100
AcDbEntity
  8
10
100
AcDbMText
 10
8.777374242347999
 20
0.2546743126943283
 30
0.0
 40
0.06
 41
0.5240277777777779
 71
     5
 72
     5
  1
{\fArial|b0|i0|c0|p34;12-22-2005}
  7
ADESK1
 73
     1
 44
1.0
1001
ACAD
1000
MTEXTBEGIN
1070
    73
1070
     1
1070
    44
1040
1.0
1070
    74
1070
     0
1000
MTEXTEND
  0
MTEXT
  5
107C
330
19
100
AcDbEntity
  8
10
100
AcDbMText
 10
8.342268264633609
 20
0.8135691678395481
 30
0.0
 40
0.1
 41
2.39057925170068
 71
     1
 72
     5
  1
{\fArial|b0|i0|c0|p34;WTB2-W6/10G OUTLINE DIMENSION DRAWING}
  7
ADESK1
 73
     1
 44
1.0
1001
ACAD
1000
MTEXTBEGIN
1070
    73
1070
     1
1070
    44
1040
1.0
1070
    74
1070
     0
1000
MTEXTEND
  0
MTEXT
  5
107D
330
19
100
AcDbEntity
  8
10
100
AcDbMText
 10
10.21942521872159
 20
0.2688981892586812
 30
0.0
 40
0.125
 41
1.015727699530516
 71
     5
 72
     5
  1
{\fArial|b0|i0|c0|p34;25T30011}
  7
ADESK1
 73
     1
 44
1.0
1001
ACAD
1000
MTEXTBEGIN
1070
    73
1070
     1
1070
    44
1040
1.0
1070
    74
1070
     0
1000
MTEXTEND
  0
MTEXT
  5
107E
330
19
100
AcDbEntity
  8
10
100
AcDbMText
 10
9.389563639441231
 20
0.2573750034360827
 30
0.0
 40
0.06
 41
0.1329061784897025
 71
     5
 72
     5
  1
{\fArial|b0|i0|c0|p34;1:1}
  7
ADESK1
 73
     1
 44
1.0
1001
ACAD
1000
MTEXTBEGIN
1070
    73
1070
     1
1070
    44
1040
1.0
1070
    74
1070
     0
1000
MTEXTEND
  0
LINE
  5
107F
330
19
100
AcDbEntity
  8
10
100
AcDbLine
 10
9.053825688523446
 20
0.3211743114766556
 30
0.0
 11
9.053825688523446
 21
0.1961743114766557
 31
0.0
  0
MTEXT
  5
113F
330
19
100
AcDbEntity
  8
0
100
AcDbMText
 10
3.144049755449742
 20
2.012728017003272
 30
0.0
 40
0.12
 41
1.697188655175942
 71
     2
 72
     5
  1
DIN 35
  7
outline drawings
 73
     1
 44
1.0
1001
ACAD
1000
MTEXTBEGIN
1070
    73
1070
     1
1070
    44
1040
1.0
1070
    74
1070
     0
1000
MTEXTEND
  0
LINE
  5
156C
330
19
100
AcDbEntity
  8
0
100
AcDbLine
 10
3.747358443918175
 20
4.18348856241892
 30
0.0
 11
3.676369377375376
 21
4.254477628961666
 31
0.0
  0
LINE
  5
156D
330
19
100
AcDbEntity
  8
0
100
AcDbLine
 10
3.730655134142931
 20
4.308763385760856
 30
0.0
 11
3.694225810057702
 21
4.272334061643954
 31
0.0
  0
ARC
  5
156E
330
19
100
AcDbEntity
  8
0
100
AcDbCircle
 10
3.700032399589591
 20
4.339386120318387
 30
0.0
 40
0.00787401574
100
AcDbArc
 50
45.00000005544631
 51
135.0000000216755
  0
LINE
  5
156F
330
19
100
AcDbEntity
  8
0
100
AcDbLine
 10
3.701168550079298
 20
3.685546046977626
 30
0.0
 11
3.606680361199313
 21
3.685546046977626
 31
0.0
  0
LINE
  5
1570
330
19
100
AcDbEntity
  8
0
100
AcDbLine
 10
3.70116855007928
 20
3.441451559037633
 30
0.0
 11
3.642113432029297
 21
3.441451559037633
 31
0.0
  0
LINE
  5
1571
330
19
100
AcDbEntity
  8
0
100
AcDbLine
 10
3.898018943579316
 20
3.047750772037629
 30
0.0
 11
3.642113432029297
 21
3.167081471837458
 31
0.0
  0
ARC
  5
1572
330
19
100
AcDbEntity
  8
0
100
AcDbCircle
 10
3.697231542209317
 20
2.748440570036108
 30
0.0
 40
0.0393700787
100
AcDbArc
 50
300.0000000000008
 51
0.0
  0
LINE
  5
1573
330
19
100
AcDbEntity
  8
0
100
AcDbLine
 10
3.89801894357928
 20
2.969010614637624
 30
0.0
 11
3.012192172829298
 21
2.969010614637629
 31
0.0
  0
LINE
  5
1580
330
19
100
AcDbEntity
  8
0
100
AcDbLine
 10
2.126365402079297
 20
4.215073605492655
 30
0.0
 11
2.126365402079315
 21
2.969010614637624
 31
0.0
  0
LINE
  5
1581
330
19
100
AcDbEntity
  8
0
100
AcDbLine
 10
2.382270913629298
 20
3.441451559037634
 30
0.0
 11
2.382270913629298
 21
3.167081471837458
 31
0.0
  0
LINE
  5
1582
330
19
100
AcDbEntity
  8
0
100
AcDbLine
 10
3.642113432029297
 20
3.441451559037634
 30
0.0
 11
3.642113432029297
 21
3.167081471837458
 31
0.0
  0
LINE
  5
1583
330
19
100
AcDbEntity
  8
0
100
AcDbLine
 10
2.942995864972756
 20
2.675703528322638
 30
0.0
 11
3.019119021568595
 21
2.675703528322638
 31
0.0
  0
LINE
  5
1584
330
19
100
AcDbEntity
  8
0
100
AcDbLine
 10
3.121405486478182
 20
2.813498803772644
 30
0.0
 11
3.053214509871791
 21
2.695388567672638
 31
0.0
  0
ARC
  5
1585
330
19
100
AcDbEntity
  8
0
100
AcDbCircle
 10
3.019119021568595
 20
2.715073607022638
 30
0.0
 40
0.0393700787
100
AcDbArc
 50
270.0
 51
330.0000000000027
  0
ARC
  5
1587
330
19
100
AcDbEntity
  8
0
100
AcDbCircle
 10
2.880220459262464
 20
2.878459433627641
 30
0.0
 40
0.033464566895
100
AcDbArc
 50
270.0
 51
45.00000000002311
  0
LINE
  5
1588
330
19
100
AcDbEntity
  8
0
100
AcDbLine
 10
2.835026818679315
 20
2.793813764422638
 30
0.0
 11
2.835026818679315
 21
2.843813764371637
 31
0.0
  0
LINE
  5
1589
330
19
100
AcDbEntity
  8
0
100
AcDbLine
 10
2.880220459262464
 20
2.844994866732644
 30
0.0
 11
2.835026818679315
 21
2.844994866732644
 31
0.0
  0
ARC
  5
158A
330
19
100
AcDbEntity
  8
0
100
AcDbCircle
 10
2.942995864972756
 20
2.744601166047638
 30
0.0
 40
0.068897637725
100
AcDbArc
 50
209.9999999999972
 51
270.0
  0
LINE
  5
158B
330
19
100
AcDbEntity
  8
0
100
AcDbLine
 10
2.835026818679315
 20
2.793813764422638
 30
0.0
 11
2.883328760442175
 21
2.710152347185137
 31
0.0
  0
LINE
  5
158D
330
19
100
AcDbEntity
  8
0
100
AcDbLine
 10
2.894081936729311
 20
2.911924000522656
 30
0.0
 11
2.903883481443397
 21
2.902122455808574
 31
0.0
  0
LINE
  5
158E
330
19
100
AcDbEntity
  8
0
100
AcDbLine
 10
2.256286661789323
 20
2.805624788032645
 30
0.0
 11
2.259590203640981
 21
2.809561795902643
 31
0.0
  0
LINE
  5
158F
330
19
100
AcDbEntity
  8
0
100
AcDbLine
 10
2.126365402079315
 20
2.634364945687648
 30
0.0
 11
2.126365402079315
 21
2.946282278780025
 31
0.0
  0
LINE
  5
1590
330
19
100
AcDbEntity
  8
0
100
AcDbLine
 10
2.163766976844327
 20
2.596963370922638
 30
0.0
 11
2.185676312087549
 21
2.596963370922638
 31
0.0
  0
LINE
  5
1591
330
19
100
AcDbEntity
  8
0
100
AcDbLine
 10
2.319278787709318
 20
2.770191717202641
 30
0.0
 11
2.256286661789323
 21
2.770191717202641
 31
0.0
  0
LINE
  5
1592
330
19
100
AcDbEntity
  8
0
100
AcDbLine
 10
2.256286661789323
 20
2.770191717202641
 30
0.0
 11
2.256286661789323
 21
2.805624788032645
 31
0.0
  0
LINE
  5
1593
330
19
100
AcDbEntity
  8
0
100
AcDbLine
 10
2.319278787709318
 20
2.715073607022638
 30
0.0
 11
2.21212321923093
 21
2.60791803854425
 31
0.0
  0
ARC
  5
1594
330
19
100
AcDbEntity
  8
0
100
AcDbCircle
 10
2.185676312087549
 20
2.634364945687631
 30
0.0
 40
0.037401574765
100
AcDbArc
 50
270.0
 51
314.9999999999769
  0
LINE
  5
1595
330
19
100
AcDbEntity
  8
0
100
AcDbLine
 10
2.319278787709318
 20
2.715073607022638
 30
0.0
 11
2.319278787709318
 21
2.770191717202641
 31
0.0
  0
ARC
  5
1596
330
19
100
AcDbEntity
  8
0
100
AcDbCircle
 10
2.163766976844327
 20
2.634364945687648
 30
0.0
 40
0.037401574765
100
AcDbArc
 50
180.0
 51
270.0
  0
ARC
  5
1597
330
19
100
AcDbEntity
  8
0
100
AcDbCircle
 10
2.205105559479315
 20
2.946282278780025
 30
0.0
 40
0.0787401574
100
AcDbArc
 50
163.2228572927176
 51
180.0
  0
LINE
  5
1598
330
19
100
AcDbEntity
  8
0
100
AcDbLine
 10
2.933452015429313
 20
2.911924000522658
 30
0.0
 11
2.551562252039321
 21
2.911924000522649
 31
0.0
  0
INSERT
  5
1599
330
19
100
AcDbEntity
  8
0
 62
     6
100
AcDbBlockReference
  2
A
 10
1.799621100788904
 20
2.028938191496228
 30
0.0
 41
0.0393700787
 42
0.0393700787
 43
0.0393700787
  0
LINE
  5
159A
330
19
100
AcDbEntity
  8
0
100
AcDbLine
 10
2.126365402079315
 20
2.969010614637624
 30
0.0
 11
3.012192172829298
 21
2.969010614637629
 31
0.0
  0
LINE
  5
159B
330
19
100
AcDbEntity
  8
0
100
AcDbLine
 10
2.24841264604931
 20
2.809561795902643
 30
0.0
 11
2.248412646049298
 21
2.969010614637625
 31
0.0
  0
LINE
  5
159C
330
19
100
AcDbEntity
  8
0
100
AcDbLine
 10
2.24841264604931
 20
2.809561795902643
 30
0.0
 11
2.51219217333932
 21
2.809561795902643
 31
0.0
  0
LINE
  5
159D
330
19
100
AcDbEntity
  8
0
100
AcDbLine
 10
2.51219217333932
 20
2.872553921822649
 30
0.0
 11
2.51219217333932
 21
2.809561795902643
 31
0.0
  0
ARC
  5
159E
330
19
100
AcDbEntity
  8
0
100
AcDbCircle
 10
2.551562252039321
 20
2.872553921822649
 30
0.0
 40
0.0393700787
100
AcDbArc
 50
90.0
 51
180.0
  0
LINE
  5
159F
330
19
100
AcDbEntity
  8
0
100
AcDbLine
 10
2.323215795579315
 20
3.441451559037633
 30
0.0
 11
2.382270913629298
 21
3.441451559037633
 31
0.0
  0
LINE
  5
15A0
330
19
100
AcDbEntity
  8
0
100
AcDbLine
 10
2.126365402079279
 20
3.047750772037629
 30
0.0
 11
2.382270913629298
 21
3.167081471837458
 31
0.0
  0
LINE
  5
15A1
330
19
100
AcDbEntity
  8
0
100
AcDbLine
 10
2.323763310362803
 20
3.441678347086557
 30
0.0
 11
2.126365402079297
 21
3.244280438803083
 31
0.0
  0
LINE
  5
15A2
330
19
100
AcDbEntity
  8
0
100
AcDbLine
 10
2.997806951765864
 20
2.813498803772644
 30
0.0
 11
3.612585873004315
 21
2.813498803772644
 31
0.0
  0
LINE
  5
15A3
330
19
100
AcDbEntity
  8
0
100
AcDbLine
 10
2.997806951765864
 20
2.813498803772644
 30
0.0
 11
2.933452015429313
 21
2.911924000522658
 31
0.0
  0
LINE
  5
15A4
330
19
100
AcDbEntity
  8
0
100
AcDbLine
 10
3.612585873004315
 20
2.813498803772644
 30
0.0
 11
3.612585873004315
 21
2.770191717202644
 31
0.0
  0
ARC
  5
15A5
330
19
100
AcDbEntity
  8
0
100
AcDbCircle
 10
3.531877211669325
 20
2.689116574837299
 30
0.0
 40
0.0393700787
100
AcDbArc
 50
115.0000000000052
 51
180.0
  0
LINE
  5
15A6
330
19
100
AcDbEntity
  8
0
100
AcDbLine
 10
3.612585873004315
 20
2.770191717202644
 30
0.0
 11
3.515238697444514
 21
2.724797983739364
 31
0.0
  0
LINE
  5
15A7
330
19
100
AcDbEntity
  8
0
100
AcDbLine
 10
3.571247290369324
 20
2.620585418142636
 30
0.0
 11
3.608934767902246
 21
2.593203862941736
 31
0.0
  0
ARC
  5
15A8
330
19
100
AcDbEntity
  8
0
100
AcDbCircle
 10
3.597364192081498
 20
2.57727833157264
 30
0.0
 40
0.01968503935
100
AcDbArc
 50
270.0
 51
53.99999999998793
  0
LINE
  5
15A9
330
19
100
AcDbEntity
  8
0
100
AcDbLine
 10
3.571247290369324
 20
2.67570352832264
 30
0.0
 11
3.571247290369324
 21
2.620585418142636
 31
0.0
  0
LINE
  5
15AA
330
19
100
AcDbEntity
  8
0
100
AcDbLine
 10
3.571247290369324
 20
2.67570352832264
 30
0.0
 11
3.649987447769325
 21
2.67570352832264
 31
0.0
  0
ARC
  5
15AB
330
19
100
AcDbEntity
  8
0
100
AcDbCircle
 10
3.512192172319325
 20
2.57727833157264
 30
0.0
 40
0.01968503935
100
AcDbArc
 50
180.0
 51
270.0
  0
LINE
  5
15AC
330
19
100
AcDbEntity
  8
0
100
AcDbLine
 10
3.512192172319325
 20
2.55759329222264
 30
0.0
 11
3.597364192081498
 21
2.55759329222264
 31
0.0
  0
LINE
  5
15AD
330
19
100
AcDbEntity
  8
0
100
AcDbLine
 10
3.492507132969324
 20
2.689116574837299
 30
0.0
 11
3.492507132969324
 21
2.57727833157264
 31
0.0
  0
LINE
  5
15AE
330
19
100
AcDbEntity
  8
0
100
AcDbLine
 10
3.649987447769325
 20
2.67570352832264
 30
0.0
 11
3.716916581559317
 21
2.714345081732916
 31
0.0
  0
ARC
  5
15AF
330
19
100
AcDbEntity
  8
0
100
AcDbCircle
 10
3.613983417015367
 20
4.406450810711206
 30
0.0
 40
0.01181102361
100
AcDbArc
 50
315.0000000000091
 51
59.99999999999917
  0
ARC
  5
15B0
330
19
100
AcDbEntity
  8
0
100
AcDbCircle
 10
2.410400928643229
 20
4.406450810711206
 30
0.0
 40
0.01181102361
100
AcDbArc
 50
120.0000000000008
 51
224.9999999999908
  0
LINE
  5
15B1
330
19
100
AcDbEntity
  8
0
100
AcDbLine
 10
2.92951500755932
 20
4.461136597367636
 30
0.0
 11
2.92951500755932
 21
3.917829511307629
 31
0.0
  0
LINE
  5
15B2
330
19
100
AcDbEntity
  8
0
100
AcDbLine
 10
2.492507133989288
 20
4.11467990480763
 30
0.0
 11
2.492507133989287
 21
4.512317699677625
 31
0.0
  0
LINE
  5
15B3
330
19
100
AcDbEntity
  8
0
100
AcDbLine
 10
2.720853590449276
 20
4.114679904807628
 30
0.0
 11
2.720853590449276
 21
4.512317699677625
 31
0.0
  0
LINE
  5
15B4
330
19
100
AcDbEntity
  8
0
100
AcDbLine
 10
3.094869338099277
 20
4.461136597367636
 30
0.0
 11
3.094869338099277
 21
3.917829511307629
 31
0.0
  0
LINE
  5
15B5
330
19
100
AcDbEntity
  8
0
100
AcDbLine
 10
3.303530755209319
 20
4.114679904807628
 30
0.0
 11
3.303530755209319
 21
4.512317699677625
 31
0.0
  0
LINE
  5
15B6
330
19
100
AcDbEntity
  8
0
100
AcDbLine
 10
3.531877211669309
 20
4.11467990480763
 30
0.0
 11
3.531877211669309
 21
4.512317699677625
 31
0.0
  0
LINE
  5
15B7
330
19
100
AcDbEntity
  8
0
100
AcDbLine
 10
2.795656739979298
 20
4.11467990480763
 30
0.0
 11
2.795656739979298
 21
3.917829511307629
 31
0.0
  0
LINE
  5
15B8
330
19
100
AcDbEntity
  8
0
100
AcDbLine
 10
2.417703984459283
 20
4.11467990480763
 30
0.0
 11
2.417703984459283
 21
3.685546046977626
 31
0.0
  0
LINE
  5
15B9
330
19
100
AcDbEntity
  8
0
100
AcDbLine
 10
2.323215795579297
 20
3.685546046977626
 30
0.0
 11
2.417703984459283
 21
3.685546046977626
 31
0.0
  0
LINE
  5
15BA
330
19
100
AcDbEntity
  8
0
100
AcDbLine
 10
2.323763310362803
 20
3.685319258928684
 30
0.0
 11
2.126365402079279
 21
3.882717167212188
 31
0.0
  0
ARC
  5
15BB
330
19
100
AcDbEntity
  8
0
100
AcDbCircle
 10
2.412760781140908
 20
4.404090958213526
 30
0.0
 40
0.01181102361
100
AcDbArc
 50
224.9999999999908
 51
270.0
  0
LINE
  5
15BC
330
19
100
AcDbEntity
  8
0
100
AcDbLine
 10
2.455194539338004
 20
4.361657200016448
 30
0.0
 11
2.38420547279524
 21
4.290668133473685
 31
0.0
  0
LINE
  5
15BD
330
19
100
AcDbEntity
  8
0
100
AcDbLine
 10
2.402049273755849
 20
4.398099155823826
 30
0.0
 11
2.404409126253527
 21
4.395739303326129
 31
0.0
  0
LINE
  5
15BE
330
19
100
AcDbEntity
  8
0
100
AcDbLine
 10
2.34360032126589
 20
4.270027815828894
 30
0.0
 11
2.348014968283257
 21
4.26561316881151
 31
0.0
  0
ARC
  5
15BF
330
19
100
AcDbEntity
  8
0
100
AcDbCircle
 10
2.342447198358307
 20
4.260045398886578
 30
0.0
 40
0.00787401574
100
AcDbArc
 50
315.0000000000091
 51
44.99999999995401
  0
LINE
  5
15C0
330
19
100
AcDbEntity
  8
0
100
AcDbLine
 10
2.332942420563361
 20
4.271180938736424
 30
0.0
 11
2.34081643630339
 21
4.271180938736424
 31
0.0
  0
ARC
  5
15C1
330
19
100
AcDbEntity
  8
0
100
AcDbCircle
 10
2.332942420563378
 20
4.275117946606421
 30
0.0
 40
0.00393700787
100
AcDbArc
 50
224.9999999999908
 51
270.0
  0
ARC
  5
15C2
330
19
100
AcDbEntity
  8
0
100
AcDbCircle
 10
2.340816436303407
 20
4.267243930866428
 30
0.0
 40
0.00393700787
100
AcDbArc
 50
45.00000000006454
 51
90.00000000002605
  0
ARC
  5
15C3
330
19
100
AcDbEntity
  8
0
100
AcDbCircle
 10
2.332942420563378
 20
4.275117946606439
 30
0.0
 40
0.00393700787
100
AcDbArc
 50
224.9999999999908
 51
270.0
  0
ARC
  5
15C4
330
19
100
AcDbEntity
  8
0
100
AcDbCircle
 10
2.340816436303425
 20
4.267243930866428
 30
0.0
 40
0.00393700787
100
AcDbArc
 50
45.00000000006454
 51
90.00000000002605
  0
LINE
  5
15C5
330
19
100
AcDbEntity
  8
0
100
AcDbLine
 10
2.332942420563396
 20
4.271180938736424
 30
0.0
 11
2.340816436303407
 21
4.271180938736442
 31
0.0
  0
ARC
  5
15C6
330
19
100
AcDbEntity
  8
0
100
AcDbCircle
 10
2.342447198358307
 20
4.260045398886596
 30
0.0
 40
0.00787401574
100
AcDbArc
 50
315.0000000000091
 51
44.99999999995401
  0
LINE
  5
15C7
330
19
100
AcDbEntity
  8
0
100
AcDbLine
 10
2.343600321265908
 20
4.270027815828894
 30
0.0
 11
2.348014968283257
 21
4.265613168811528
 31
0.0
  0
LINE
  5
15C8
330
19
100
AcDbEntity
  8
0
100
AcDbLine
 10
2.367502163020462
 20
4.305740681193528
 30
0.0
 11
2.367502163020462
 21
4.297866665453499
 31
0.0
  0
LINE
  5
15C9
330
19
100
AcDbEntity
  8
0
100
AcDbLine
 10
2.367502163020462
 20
4.305740681193528
 30
0.0
 11
2.367502163020482
 21
4.297866665453499
 31
0.0
  0
LINE
  5
15CA
330
19
100
AcDbEntity
  8
0
100
AcDbLine
 10
2.36865528592803
 20
4.295082780491014
 30
0.0
 11
2.373069932945394
 21
4.29066813347365
 31
0.0
  0
ARC
  5
15CB
330
19
100
AcDbEntity
  8
0
100
AcDbCircle
 10
2.378637702870326
 20
4.296235903398599
 30
0.0
 40
0.00787401574
100
AcDbArc
 50
225.0000000000276
 51
315.0000000000091
  0
ARC
  5
15CC
330
19
100
AcDbEntity
  8
0
100
AcDbCircle
 10
2.371439170890477
 20
4.297866665453481
 30
0.0
 40
0.00393700787
100
AcDbArc
 50
179.9999999999739
 51
224.9999999999171
  0
ARC
  5
15CD
330
19
100
AcDbEntity
  8
0
100
AcDbCircle
 10
2.371439170890495
 20
4.297866665453481
 30
0.0
 40
0.00393700787
100
AcDbArc
 50
179.9999999999739
 51
224.9999999999171
  0
ARC
  5
15CE
330
19
100
AcDbEntity
  8
0
100
AcDbCircle
 10
2.378637702870308
 20
4.296235903398581
 30
0.0
 40
0.00787401574
100
AcDbArc
 50
225.0000000000276
 51
315.0000000000091
  0
LINE
  5
15CF
330
19
100
AcDbEntity
  8
0
100
AcDbLine
 10
2.368655285928012
 20
4.295082780491032
 30
0.0
 11
2.373069932945412
 21
4.29066813347365
 31
0.0
  0
ARC
  5
15D0
330
19
100
AcDbEntity
  8
0
100
AcDbCircle
 10
2.363565155150485
 20
4.30574068119351
 30
0.0
 40
0.00393700787
100
AcDbArc
 50
359.999999999987
 51
44.99999999999086
  0
ARC
  5
15D1
330
19
100
AcDbEntity
  8
0
100
AcDbCircle
 10
2.363565155150467
 20
4.305740681193528
 30
0.0
 40
0.00393700787
100
AcDbArc
 50
359.999999999987
 51
44.99999999999086
  0
LINE
  5
15D2
330
19
100
AcDbEntity
  8
0
100
AcDbLine
 10
2.329919715996032
 20
4.344953890241205
 30
0.0
 11
2.366349040112915
 21
4.308524566155975
 31
0.0
  0
LINE
  5
15D3
330
19
100
AcDbEntity
  8
0
100
AcDbLine
 10
2.29372921150818
 20
4.319898925607425
 30
0.0
 11
2.306256693846286
 21
4.332426407910602
 31
0.0
  0
LINE
  5
15D4
330
19
100
AcDbEntity
  8
0
100
AcDbLine
 10
2.240583945933044
 20
4.236633828001075
 30
0.0
 11
2.242943798430742
 21
4.234273975503395
 31
0.0
  0
LINE
  5
15D5
330
19
100
AcDbEntity
  8
0
100
AcDbLine
 10
2.246403167153351
 20
4.21411129700599
 30
0.0
 11
2.246403167153351
 21
4.225922320616016
 31
0.0
  0
ARC
  5
15D6
330
19
100
AcDbEntity
  8
0
100
AcDbCircle
 10
2.234592143543361
 20
4.225922320616033
 30
0.0
 40
0.01181102361
100
AcDbArc
 50
359.999999999974
 51
44.99999999999086
  0
LINE
  5
15D7
330
19
100
AcDbEntity
  8
0
100
AcDbLine
 10
2.246403167153351
 20
4.21411129700599
 30
0.0
 11
2.277025901740421
 21
4.18348856241892
 31
0.0
  0
LINE
  5
15D8
330
19
100
AcDbEntity
  8
0
100
AcDbLine
 10
2.293729211515664
 20
4.308763385760856
 30
0.0
 11
2.330158535600894
 21
4.272334061643954
 31
0.0
  0
ARC
  5
15D9
330
19
100
AcDbEntity
  8
0
100
AcDbCircle
 10
2.299296981438484
 20
4.314331155687883
 30
0.0
 40
0.00787401574
100
AcDbArc
 50
135.0000000554278
 51
225.0000000216571
  0
LINE
  5
15DA
330
19
100
AcDbEntity
  8
0
100
AcDbLine
 10
2.277025901740421
 20
4.18348856241892
 30
0.0
 11
2.348014968283219
 21
4.254477628961666
 31
0.0
  0
ARC
  5
15DB
330
19
100
AcDbEntity
  8
0
100
AcDbCircle
 10
2.324351946069004
 20
4.339386120318387
 30
0.0
 40
0.00787401574
100
AcDbArc
 50
44.99999997832454
 51
134.9999999445537
  0
LINE
  5
15DC
330
19
100
AcDbEntity
  8
0
100
AcDbLine
 10
2.318784176149462
 20
4.344953890248707
 30
0.0
 11
2.306256693846286
 21
4.332426407910602
 31
0.0
  0
LINE
  5
15DD
330
19
100
AcDbEntity
  8
0
100
AcDbLine
 10
2.13817642568927
 20
4.226884629102661
 30
0.0
 11
2.159829968974294
 21
4.226884629102697
 31
0.0
  0
ARC
  5
15DE
330
19
100
AcDbEntity
  8
0
100
AcDbCircle
 10
2.138176425689252
 20
4.215073605492655
 30
0.0
 40
0.01181102361
100
AcDbArc
 50
89.99999999997395
 51
179.9999999999739
  0
LINE
  5
15DF
330
19
100
AcDbEntity
  8
0
100
AcDbLine
 10
2.165735480779298
 20
4.220979117297622
 30
0.0
 11
2.165735480779263
 21
4.218633278049141
 31
0.0
  0
ARC
  5
15E0
330
19
100
AcDbEntity
  8
0
100
AcDbCircle
 10
2.159829968974294
 20
4.220979117297694
 30
0.0
 40
0.005905511805
100
AcDbArc
 50
359.9999999992705
 51
90.00000000002605
  0
ARC
  5
15E1
330
19
100
AcDbEntity
  8
0
100
AcDbCircle
 10
2.153924457169273
 20
4.218633278049159
 30
0.0
 40
0.01181102361
100
AcDbArc
 50
329.999999999967
 51
359.9999999999088
  0
LINE
  5
15E2
330
19
100
AcDbEntity
  8
0
100
AcDbLine
 10
2.157482759574804
 20
4.201174391384252
 30
0.0
 11
2.164153103660227
 21
4.212727766244157
 31
0.0
  0
LINE
  5
15E3
330
19
100
AcDbEntity
  8
0
100
AcDbLine
 10
2.160611078914081
 20
4.177412446896941
 30
0.0
 11
2.160611078914101
 21
4.177412446896905
 31
0.0
  0
ARC
  5
15E4
330
19
100
AcDbEntity
  8
0
100
AcDbCircle
 10
2.174530503726394
 20
4.191331871709234
 30
0.0
 40
0.01968503935
100
AcDbArc
 50
225.0000000000645
 51
329.999999999967
  0
LINE
  5
15E5
330
19
100
AcDbEntity
  8
0
100
AcDbLine
 10
2.191578247877982
 20
4.181489352034216
 30
0.0
 11
2.22200364455471
 21
4.234187684918717
 31
0.0
  0
ARC
  5
15E6
330
19
100
AcDbEntity
  8
0
100
AcDbCircle
 10
2.174530503726394
 20
4.191331871709252
 30
0.0
 40
0.01968503935
100
AcDbArc
 50
149.999999999967
 51
225.0000000000276
  0
ARC
  5
15E7
330
19
100
AcDbEntity
  8
0
100
AcDbCircle
 10
2.232232291045665
 20
4.228282173113713
 30
0.0
 40
0.01181102361
100
AcDbArc
 50
44.99999999999086
 51
149.999999999967
  0
LINE
  5
15E8
330
19
100
AcDbEntity
  8
0
100
AcDbLine
 10
2.424571804750932
 20
4.39227993460352
 30
0.0
 11
2.412760781140908
 21
4.39227993460352
 31
0.0
  0
LINE
  5
15E9
330
19
100
AcDbEntity
  8
0
100
AcDbLine
 10
2.417703984459283
 20
4.11467990480763
 30
0.0
 11
2.795656739979298
 21
4.11467990480763
 31
0.0
  0
LINE
  5
15EA
330
19
100
AcDbEntity
  8
0
100
AcDbLine
 10
2.424571804750932
 20
4.392279934603537
 30
0.0
 11
2.455194539338004
 21
4.361657200016448
 31
0.0
  0
LINE
  5
15EB
330
19
100
AcDbEntity
  8
0
100
AcDbLine
 10
3.228727605679297
 20
4.11467990480763
 30
0.0
 11
3.228727605679297
 21
3.917829511307629
 31
0.0
  0
LINE
  5
15EC
330
19
100
AcDbEntity
  8
0
100
AcDbLine
 10
3.606680361199313
 20
4.11467990480763
 30
0.0
 11
3.606680361199313
 21
3.685546046977626
 31
0.0
  0
LINE
  5
15ED
330
19
100
AcDbEntity
  8
0
100
AcDbLine
 10
3.228727605679297
 20
3.917829511307629
 30
0.0
 11
3.012192172829298
 21
3.917829511307629
 31
0.0
  0
LINE
  5
15EE
330
19
100
AcDbEntity
  8
0
100
AcDbLine
 10
2.795656739979298
 20
3.917829511307629
 30
0.0
 11
3.012192172829298
 21
3.917829511307629
 31
0.0
  0
LINE
  5
15EF
330
19
100
AcDbEntity
  8
0
100
AcDbLine
 10
3.606680361199313
 20
4.11467990480763
 30
0.0
 11
3.228727605679297
 21
4.11467990480763
 31
0.0
  0
LINE
  5
15F0
330
19
100
AcDbEntity
  8
0
100
AcDbLine
 10
3.622335071902748
 20
4.398099155823826
 30
0.0
 11
3.619975219405068
 21
4.395739303326129
 31
0.0
  0
LINE
  5
15F1
330
19
100
AcDbEntity
  8
0
100
AcDbLine
 10
3.599812540907663
 20
4.39227993460352
 30
0.0
 11
3.611623564517689
 21
4.39227993460352
 31
0.0
  0
ARC
  5
15F2
330
19
100
AcDbEntity
  8
0
100
AcDbCircle
 10
3.611623564517689
 20
4.404090958213526
 30
0.0
 40
0.01181102361
100
AcDbArc
 50
270.0
 51
315.0000000000091
  0
ARC
  5
15F3
330
19
100
AcDbEntity
  8
0
100
AcDbCircle
 10
3.66081919050813
 20
4.305740681193528
 30
0.0
 40
0.00393700787
100
AcDbArc
 50
135.0000000000092
 51
180.0
  0
ARC
  5
15F4
330
19
100
AcDbEntity
  8
0
100
AcDbCircle
 10
3.660819190508112
 20
4.30574068119351
 30
0.0
 40
0.00393700787
100
AcDbArc
 50
135.0000000000092
 51
180.0
  0
LINE
  5
15F5
330
19
100
AcDbEntity
  8
0
100
AcDbLine
 10
3.655729059730584
 20
4.295082780491032
 30
0.0
 11
3.651314412713183
 21
4.29066813347365
 31
0.0
  0
ARC
  5
15F6
330
19
100
AcDbEntity
  8
0
100
AcDbCircle
 10
3.645746642788287
 20
4.296235903398581
 30
0.0
 40
0.00787401574
100
AcDbArc
 50
224.9999999999908
 51
314.9999999999723
  0
ARC
  5
15F7
330
19
100
AcDbEntity
  8
0
100
AcDbCircle
 10
3.652945174768101
 20
4.297866665453481
 30
0.0
 40
0.00393700787
100
AcDbArc
 50
315.0000000000828
 51
0.0000000000260551
  0
ARC
  5
15F8
330
19
100
AcDbEntity
  8
0
100
AcDbCircle
 10
3.652945174768118
 20
4.297866665453481
 30
0.0
 40
0.00393700787
100
AcDbArc
 50
315.0000000000828
 51
0.0000000000260551
  0
ARC
  5
15F9
330
19
100
AcDbEntity
  8
0
100
AcDbCircle
 10
3.645746642788269
 20
4.296235903398599
 30
0.0
 40
0.00787401574
100
AcDbArc
 50
224.9999999999908
 51
314.9999999999723
  0
LINE
  5
15FA
330
19
100
AcDbEntity
  8
0
100
AcDbLine
 10
3.655729059730566
 20
4.295082780491014
 30
0.0
 11
3.651314412713201
 21
4.29066813347365
 31
0.0
  0
LINE
  5
15FB
330
19
100
AcDbEntity
  8
0
100
AcDbLine
 10
3.656882182638133
 20
4.305740681193528
 30
0.0
 11
3.656882182638115
 21
4.297866665453499
 31
0.0
  0
LINE
  5
15FC
330
19
100
AcDbEntity
  8
0
100
AcDbLine
 10
3.656882182638133
 20
4.305740681193528
 30
0.0
 11
3.656882182638133
 21
4.297866665453499
 31
0.0
  0
LINE
  5
15FD
330
19
100
AcDbEntity
  8
0
100
AcDbLine
 10
3.680784024392687
 20
4.270027815828894
 30
0.0
 11
3.67636937737534
 21
4.265613168811528
 31
0.0
  0
ARC
  5
15FE
330
19
100
AcDbEntity
  8
0
100
AcDbCircle
 10
3.68193714730029
 20
4.260045398886596
 30
0.0
 40
0.00787401574
100
AcDbArc
 50
135.000000000046
 51
224.9999999999908
  0
LINE
  5
15FF
330
19
100
AcDbEntity
  8
0
100
AcDbLine
 10
3.691441925095199
 20
4.271180938736424
 30
0.0
 11
3.683567909355188
 21
4.271180938736442
 31
0.0
  0
ARC
  5
1600
330
19
100
AcDbEntity
  8
0
100
AcDbCircle
 10
3.68356790935517
 20
4.267243930866428
 30
0.0
 40
0.00393700787
100
AcDbArc
 50
89.99999999997395
 51
134.9999999999355
  0
ARC
  5
1601
330
19
100
AcDbEntity
  8
0
100
AcDbCircle
 10
3.691441925095217
 20
4.275117946606439
 30
0.0
 40
0.00393700787
100
AcDbArc
 50
270.0
 51
315.0000000000091
  0
ARC
  5
1602
330
19
100
AcDbEntity
  8
0
100
AcDbCircle
 10
3.683567909355188
 20
4.267243930866428
 30
0.0
 40
0.00393700787
100
AcDbArc
 50
89.99999999997395
 51
134.9999999999355
  0
ARC
  5
1603
330
19
100
AcDbEntity
  8
0
100
AcDbCircle
 10
3.691441925095217
 20
4.275117946606421
 30
0.0
 40
0.00393700787
100
AcDbArc
 50
270.0
 51
315.0000000000091
  0
LINE
  5
1604
330
19
100
AcDbEntity
  8
0
100
AcDbLine
 10
3.691441925095235
 20
4.271180938736424
 30
0.0
 11
3.683567909355208
 21
4.271180938736424
 31
0.0
  0
ARC
  5
1605
330
19
100
AcDbEntity
  8
0
100
AcDbCircle
 10
3.68193714730029
 20
4.260045398886578
 30
0.0
 40
0.00787401574
100
AcDbArc
 50
135.000000000046
 51
224.9999999999908
  0
LINE
  5
1606
330
19
100
AcDbEntity
  8
0
100
AcDbLine
 10
3.680784024392705
 20
4.270027815828894
 30
0.0
 11
3.67636937737534
 21
4.26561316881151
 31
0.0
  0
LINE
  5
1607
330
19
100
AcDbEntity
  8
0
100
AcDbLine
 10
3.569189806320592
 20
4.361657200016448
 30
0.0
 11
3.640178872863355
 21
4.290668133473685
 31
0.0
  0
LINE
  5
1608
330
19
100
AcDbEntity
  8
0
100
AcDbLine
 10
3.694464629662565
 20
4.344953890241205
 30
0.0
 11
3.658035305545681
 21
4.308524566155975
 31
0.0
  0
LINE
  5
1609
330
19
100
AcDbEntity
  8
0
100
AcDbLine
 10
3.599812540907663
 20
4.392279934603537
 30
0.0
 11
3.569189806320592
 21
4.361657200016448
 31
0.0
  0
LINE
  5
160B
330
19
100
AcDbEntity
  8
0
100
AcDbLine
 10
2.423609496264305
 20
4.512317699677625
 30
0.0
 11
2.896050440664287
 21
4.512317699677607
 31
0.0
  0
ARC
  5
160C
330
19
100
AcDbEntity
  8
0
100
AcDbCircle
 10
2.423609496264305
 20
4.500506676067619
 30
0.0
 40
0.01181102361
100
AcDbArc
 50
90.0
 51
180.0
  0
ARC
  5
160D
330
19
100
AcDbEntity
  8
0
100
AcDbCircle
 10
2.417703984459265
 20
4.478853132782575
 30
0.0
 40
0.005905511805
100
AcDbArc
 50
179.9999999999479
 51
270.0000000007035
  0
LINE
  5
160E
330
19
100
AcDbEntity
  8
0
100
AcDbLine
 10
2.457193749722724
 20
4.447104853878887
 30
0.0
 11
2.404495416838225
 21
4.416679457202176
 31
0.0
  0
ARC
  5
160F
330
19
100
AcDbEntity
  8
0
100
AcDbCircle
 10
2.447351230047708
 20
4.464152598030477
 30
0.0
 40
0.01968503935
100
AcDbArc
 50
44.99999999995401
 51
120.0000000000008
  0
LINE
  5
1610
330
19
100
AcDbEntity
  8
0
100
AcDbLine
 10
2.461270654860019
 20
4.47807202284277
 30
0.0
 11
2.461270654860054
 21
4.47807202284277
 31
0.0
  0
LINE
  5
1611
330
19
100
AcDbEntity
  8
0
100
AcDbLine
 10
2.437508710372707
 20
4.481200342182065
 30
0.0
 11
2.425955335512803
 21
4.474529998096643
 31
0.0
  0
ARC
  5
1612
330
19
100
AcDbEntity
  8
0
100
AcDbCircle
 10
2.420049823707799
 20
4.484758644587614
 30
0.0
 40
0.01181102361
100
AcDbArc
 50
270.0000000000782
 51
300.0000000000008
  0
LINE
  5
1613
330
19
100
AcDbEntity
  8
0
100
AcDbLine
 10
2.411798472654298
 20
4.500506676067619
 30
0.0
 11
2.411798472654263
 21
4.478853132782575
 31
0.0
  0
LINE
  5
1614
330
19
100
AcDbEntity
  8
0
100
AcDbLine
 10
2.417703984459338
 20
4.472947620977572
 30
0.0
 11
2.420049823707818
 21
4.472947620977608
 31
0.0
  0
ARC
  5
1615
330
19
100
AcDbEntity
  8
0
100
AcDbCircle
 10
2.447351230047726
 20
4.464152598030477
 30
0.0
 40
0.01968503935
100
AcDbArc
 50
300.0000000000008
 51
44.99999999991716
  0
LINE
  5
161B
330
19
100
AcDbEntity
  8
0
100
AcDbLine
 10
3.600774849394291
 20
4.512317699677625
 30
0.0
 11
3.12833390499429
 21
4.512317699677625
 31
0.0
  0
LINE
  5
161C
330
19
100
AcDbEntity
  8
0
100
AcDbLine
 10
3.149987448279299
 20
4.461136597367636
 30
0.0
 11
3.012192172829298
 21
4.461136597367636
 31
0.0
  0
LINE
  5
161D
330
19
100
AcDbEntity
  8
0
100
AcDbLine
 10
3.12833390499429
 20
4.512317699677625
 30
0.0
 11
3.149987448279299
 21
4.461136597367636
 31
0.0
  0
LINE
  5
161E
330
19
100
AcDbEntity
  8
0
100
AcDbLine
 10
2.896050440664287
 20
4.512317699677607
 30
0.0
 11
2.874396897379298
 21
4.461136597367636
 31
0.0
  0
LINE
  5
161F
330
19
100
AcDbEntity
  8
0
100
AcDbLine
 10
2.874396897379298
 20
4.461136597367636
 30
0.0
 11
3.012192172829298
 21
4.461136597367636
 31
0.0
  0
ARC
  5
1620
330
19
100
AcDbEntity
  8
0
100
AcDbCircle
 10
3.577033115610889
 20
4.464152598030477
 30
0.0
 40
0.01968503935
100
AcDbArc
 50
59.99999999999917
 51
135.000000000046
  0
LINE
  5
1621
330
19
100
AcDbEntity
  8
0
100
AcDbLine
 10
3.563113690798576
 20
4.47807202284277
 30
0.0
 11
3.563113690798541
 21
4.47807202284277
 31
0.0
  0
LINE
  5
1622
330
19
100
AcDbEntity
  8
0
100
AcDbLine
 10
3.606680361199259
 20
4.472947620977572
 30
0.0
 11
3.604334521950779
 21
4.472947620977608
 31
0.0
  0
LINE
  5
1623
330
19
100
AcDbEntity
  8
0
100
AcDbLine
 10
3.612585873004297
 20
4.500506676067619
 30
0.0
 11
3.612585873004334
 21
4.478853132782575
 31
0.0
  0
ARC
  5
1624
330
19
100
AcDbEntity
  8
0
100
AcDbCircle
 10
3.60668036119933
 20
4.478853132782575
 30
0.0
 40
0.005905511805
100
AcDbArc
 50
269.9999999992965
 51
0.0000000000521102
  0
ARC
  5
1625
330
19
100
AcDbEntity
  8
0
100
AcDbCircle
 10
3.604334521950796
 20
4.484758644587614
 30
0.0
 40
0.01181102361
100
AcDbArc
 50
239.9999999999992
 51
269.9999999999219
  0
ARC
  5
1626
330
19
100
AcDbEntity
  8
0
100
AcDbCircle
 10
3.600774849394291
 20
4.500506676067619
 30
0.0
 40
0.01181102361
100
AcDbArc
 50
0.0
 51
90.0
  0
LINE
  5
1627
330
19
100
AcDbEntity
  8
0
100
AcDbLine
 10
3.586875635285888
 20
4.481200342182065
 30
0.0
 11
3.598429010145792
 21
4.474529998096643
 31
0.0
  0
LINE
  5
1628
330
19
100
AcDbEntity
  8
0
100
AcDbLine
 10
3.567190595935871
 20
4.447104853878887
 30
0.0
 11
3.619888928820371
 21
4.416679457202176
 31
0.0
  0
ARC
  5
1629
330
19
100
AcDbEntity
  8
0
100
AcDbCircle
 10
3.57703311561087
 20
4.464152598030477
 30
0.0
 40
0.01968503935
100
AcDbArc
 50
135.0000000000829
 51
239.9999999999992
  0
LINE
  5
1632
330
19
100
AcDbEntity
  8
0
100
AcDbLine
 10
3.898018943579298
 20
4.215073605492655
 30
0.0
 11
3.89801894357928
 21
2.969010614637624
 31
0.0
  0
LINE
  5
1633
330
19
100
AcDbEntity
  8
0
100
AcDbLine
 10
3.736601620909317
 20
2.748440570036108
 30
0.0
 11
3.736601620909317
 21
2.969010614637626
 31
0.0
  0
LINE
  5
1634
330
19
100
AcDbEntity
  8
0
100
AcDbLine
 10
3.700621035295792
 20
3.441678347086557
 30
0.0
 11
3.898018943579298
 21
3.244280438803083
 31
0.0
  0
LINE
  5
1635
330
19
100
AcDbEntity
  8
0
100
AcDbLine
 10
3.700621035295792
 20
3.685319258928684
 30
0.0
 11
3.898018943579316
 21
3.882717167212188
 31
0.0
  0
LINE
  5
1636
330
19
100
AcDbEntity
  8
0
100
AcDbLine
 10
3.886207919969326
 20
4.226884629102661
 30
0.0
 11
3.864554376684301
 21
4.226884629102697
 31
0.0
  0
LINE
  5
1637
330
19
100
AcDbEntity
  8
0
100
AcDbLine
 10
3.866901586083791
 20
4.201174391384252
 30
0.0
 11
3.86023124199837
 21
4.212727766244157
 31
0.0
  0
ARC
  5
1638
330
19
100
AcDbEntity
  8
0
100
AcDbCircle
 10
3.870459888489323
 20
4.218633278049159
 30
0.0
 40
0.01181102361
100
AcDbArc
 50
180.0000000000912
 51
210.000000000033
  0
ARC
  5
1639
330
19
100
AcDbEntity
  8
0
100
AcDbCircle
 10
3.864554376684301
 20
4.220979117297694
 30
0.0
 40
0.005905511805
100
AcDbArc
 50
89.99999999997395
 51
180.0000000007295
  0
LINE
  5
163A
330
19
100
AcDbEntity
  8
0
100
AcDbLine
 10
3.858648864879297
 20
4.220979117297622
 30
0.0
 11
3.858648864879334
 21
4.218633278049141
 31
0.0
  0
ARC
  5
163B
330
19
100
AcDbEntity
  8
0
100
AcDbCircle
 10
3.792152054612932
 20
4.228282173113713
 30
0.0
 40
0.01181102361
100
AcDbArc
 50
30.000000000033
 51
135.0000000000092
  0
ARC
  5
163C
330
19
100
AcDbEntity
  8
0
100
AcDbCircle
 10
3.789792202115235
 20
4.225922320616033
 30
0.0
 40
0.01181102361
100
AcDbArc
 50
135.0000000000092
 51
180.000000000013
  0
LINE
  5
163D
330
19
100
AcDbEntity
  8
0
100
AcDbLine
 10
3.777981178505244
 20
4.21411129700599
 30
0.0
 11
3.777981178505244
 21
4.225922320616016
 31
0.0
  0
LINE
  5
163E
330
19
100
AcDbEntity
  8
0
100
AcDbLine
 10
3.783800399725551
 20
4.236633828001075
 30
0.0
 11
3.781440547227855
 21
4.234273975503395
 31
0.0
  0
ARC
  5
163F
330
19
100
AcDbEntity
  8
0
100
AcDbCircle
 10
3.886207919969345
 20
4.215073605492655
 30
0.0
 40
0.01181102361
100
AcDbArc
 50
0.0000000000260551
 51
90.00000000002605
  0
ARC
  5
1640
330
19
100
AcDbEntity
  8
0
100
AcDbCircle
 10
3.849853841932203
 20
4.191331871709234
 30
0.0
 40
0.01968503935
100
AcDbArc
 50
210.000000000033
 51
314.9999999999355
  0
LINE
  5
1641
330
19
100
AcDbEntity
  8
0
100
AcDbLine
 10
3.863773266744514
 20
4.177412446896941
 30
0.0
 11
3.863773266744496
 21
4.177412446896905
 31
0.0
  0
ARC
  5
1642
330
19
100
AcDbEntity
  8
0
100
AcDbCircle
 10
3.849853841932203
 20
4.191331871709252
 30
0.0
 40
0.01968503935
100
AcDbArc
 50
314.9999999999723
 51
30.000000000033
  0
LINE
  5
1643
330
19
100
AcDbEntity
  8
0
100
AcDbLine
 10
3.832806097780613
 20
4.181489352034216
 30
0.0
 11
3.802380701103885
 21
4.234187684918717
 31
0.0
  0
LINE
  5
1644
330
19
100
AcDbEntity
  8
0
100
AcDbLine
 10
3.730655134150415
 20
4.319898925607425
 30
0.0
 11
3.718127651812309
 21
4.332426407910602
 31
0.0
  0
ARC
  5
1645
330
19
100
AcDbEntity
  8
0
100
AcDbCircle
 10
3.725087364220113
 20
4.314331155687883
 30
0.0
 40
0.00787401574
100
AcDbArc
 50
314.9999999783428
 51
44.99999994457225
  0
LINE
  5
1646
330
19
100
AcDbEntity
  8
0
100
AcDbLine
 10
3.705600169509134
 20
4.344953890248707
 30
0.0
 11
3.718127651812309
 21
4.332426407910602
 31
0.0
  0
LINE
  5
1647
330
19
100
AcDbEntity
  8
0
100
AcDbLine
 10
3.777981178505244
 20
4.21411129700599
 30
0.0
 11
3.747358443918175
 21
4.18348856241892
 31
0.0
  0
LINE
  5
164B
330
19
100
AcDbEntity
  8
0
100
AcDbLine
 10
2.382270913629298
 20
3.167081471837458
 30
0.0
 11
3.642113432029297
 21
3.167081471837458
 31
0.0
  0
CIRCLE
  5
164C
330
19
100
AcDbEntity
  8
0
100
AcDbCircle
 10
2.27203469326929
 20
4.000506676577625
 30
0.0
 40
0.088582677075
  0
CIRCLE
  5
164D
330
19
100
AcDbEntity
  8
0
100
AcDbCircle
 10
2.81534177932928
 20
4.256412188127626
 30
0.0
 40
0.088582677075
  0
CIRCLE
  5
164E
330
19
100
AcDbEntity
  8
0
100
AcDbCircle
 10
3.209042566329333
 20
4.256412188127626
 30
0.0
 40
0.088582677075
  0
CIRCLE
  5
164F
330
19
100
AcDbEntity
  8
0
100
AcDbCircle
 10
3.752349652389305
 20
4.000506676577625
 30
0.0
 40
0.088582677075
  0
CIRCLE
  5
1650
330
19
100
AcDbEntity
  8
0
100
AcDbCircle
 10
3.752349652389305
 20
3.236727149797627
 30
0.0
 40
0.088582677075
  0
CIRCLE
  5
1651
330
19
100
AcDbEntity
  8
0
100
AcDbCircle
 10
2.27203469326929
 20
3.236727149797627
 30
0.0
 40
0.088582677075
  0
LINE
  5
1654
330
19
100
AcDbEntity
  8
0
100
AcDbLine
 10
8.005448554322116
 20
6.204556911685784
 30
0.0
 11
7.119621783572116
 21
6.204556911685775
 31
0.0
  0
LINE
  5
1655
330
19
100
AcDbEntity
  8
0
100
AcDbLine
 10
8.005448554322116
 20
6.598257698685767
 30
0.0
 11
7.119621783572116
 21
6.598257698685776
 31
0.0
  0
LINE
  5
1656
330
19
100
AcDbEntity
  8
0
100
AcDbLine
 10
7.854788054661002
 20
4.388209859833062
 30
0.0
 11
7.783798988118203
 21
4.459198926375807
 31
0.0
  0
LINE
  5
1657
330
19
100
AcDbEntity
  8
0
100
AcDbLine
 10
7.838084744885758
 20
4.513484683174998
 30
0.0
 11
7.801655420800528
 21
4.477055359058096
 31
0.0
  0
ARC
  5
1658
330
19
100
AcDbEntity
  8
0
100
AcDbCircle
 10
7.807462010332418
 20
4.544107417732528
 30
0.0
 40
0.00787401574
100
AcDbArc
 50
45.00000005544631
 51
135.0000000216755
  0
LINE
  5
1659
330
19
100
AcDbEntity
  8
0
100
AcDbLine
 10
7.808598160822125
 20
3.890267344391767
 30
0.0
 11
7.714109971942139
 21
3.890267344391767
 31
0.0
  0
LINE
  5
165A
330
19
100
AcDbEntity
  8
0
100
AcDbLine
 10
7.808598160822107
 20
3.646172856451774
 30
0.0
 11
7.749543042772124
 21
3.646172856451774
 31
0.0
  0
LINE
  5
165B
330
19
100
AcDbEntity
  8
0
100
AcDbLine
 10
8.005448554322143
 20
3.25247206945177
 30
0.0
 11
7.749543042772124
 21
3.3718027692516
 31
0.0
  0
ARC
  5
165C
330
19
100
AcDbEntity
  8
0
100
AcDbCircle
 10
7.804661152952146
 20
2.95316186745025
 30
0.0
 40
0.0393700787
100
AcDbArc
 50
300.0000000000008
 51
0.0
  0
LINE
  5
165D
330
19
100
AcDbEntity
  8
0
100
AcDbLine
 10
8.005448554322107
 20
3.173731912051766
 30
0.0
 11
7.119621783572124
 21
3.17373191205177
 31
0.0
  0
INSERT
  5
165E
330
19
100
AcDbEntity
  8
0
 62
     6
100
AcDbBlockReference
  2
C
 10
7.030265677336128
 20
3.053656283842637
 30
0.0
 41
0.0393700787
 42
0.0393700787
 43
0.0393700787
  0
LINE
  5
165F
330
19
100
AcDbEntity
  8
0
100
AcDbLine
 10
7.782381065274686
 20
6.401407305185767
 30
0.0
 11
7.782381065274686
 21
6.598257698685767
 31
0.0
  0
LINE
  5
1660
330
19
100
AcDbEntity
  8
0
100
AcDbLine
 10
7.726186729702988
 20
6.598257698685767
 30
0.0
 11
7.726186729702988
 21
6.204556911685783
 31
0.0
  0
ARC
  5
1661
330
19
100
AcDbEntity
  8
0
100
AcDbCircle
 10
7.119621783572116
 20
6.401407305185776
 30
0.0
 40
0.0826771652699785
100
AcDbArc
 50
0.0
 51
90.0
  0
ARC
  5
1662
330
19
100
AcDbEntity
  8
0
100
AcDbCircle
 10
7.525133594182122
 20
6.401407305185767
 30
0.0
 40
0.1141732282300036
100
AcDbArc
 50
0.0
 51
180.0
  0
ARC
  5
1663
330
19
100
AcDbEntity
  8
0
100
AcDbCircle
 10
6.714109972962107
 20
6.401407305185767
 30
0.0
 40
0.1141732282300036
100
AcDbArc
 50
0.0
 51
180.0
  0
LINE
  5
1664
330
19
100
AcDbEntity
  8
0
100
AcDbLine
 10
6.233795012822133
 20
6.401407305185776
 30
0.0
 11
6.233795012822115
 21
6.598257698685767
 31
0.0
  0
LINE
  5
1665
330
19
100
AcDbEntity
  8
0
100
AcDbLine
 10
6.456862501869544
 20
6.401407305185767
 30
0.0
 11
6.456862501869544
 21
6.598257698685767
 31
0.0
  0
LINE
  5
1666
330
19
100
AcDbEntity
  8
0
100
AcDbLine
 10
6.513056837441244
 20
6.598257698685767
 30
0.0
 11
6.513056837441244
 21
6.204556911685783
 31
0.0
  0
LINE
  5
1667
330
19
100
AcDbEntity
  8
0
100
AcDbLine
 10
6.273165091522134
 20
6.598257698685758
 30
0.0
 11
6.273165091522114
 21
6.401407305185776
 31
0.0
  0
LINE
  5
1668
330
19
100
AcDbEntity
  8
0
100
AcDbLine
 10
6.329433255297528
 20
6.401407305185776
 30
0.0
 11
6.329433255297528
 21
6.598257698685767
 31
0.0
  0
ARC
  5
1669
330
19
100
AcDbEntity
  8
0
100
AcDbCircle
 10
7.119621783572116
 20
6.401407305185776
 30
0.0
 40
0.0826771652699785
100
AcDbArc
 50
90.0
 51
180.0
  0
LINE
  5
166A
330
19
100
AcDbEntity
  8
0
100
AcDbLine
 10
6.233795012822124
 20
4.419794902906796
 30
0.0
 11
6.233795012822142
 21
3.173731912051766
 31
0.0
  0
LINE
  5
166B
330
19
100
AcDbEntity
  8
0
100
AcDbLine
 10
6.489700524372125
 20
3.646172856451775
 30
0.0
 11
6.489700524372125
 21
3.3718027692516
 31
0.0
  0
LINE
  5
166C
330
19
100
AcDbEntity
  8
0
100
AcDbLine
 10
7.749543042772124
 20
3.646172856451775
 30
0.0
 11
7.749543042772124
 21
3.3718027692516
 31
0.0
  0
LINE
  5
166D
330
19
100
AcDbEntity
  8
0
100
AcDbLine
 10
7.050425475715584
 20
2.88042482573678
 30
0.0
 11
7.126548632311424
 21
2.88042482573678
 31
0.0
  0
LINE
  5
166E
330
19
100
AcDbEntity
  8
0
100
AcDbLine
 10
7.228835097221009
 20
3.018220101186786
 30
0.0
 11
7.16064412061462
 21
2.90010986508678
 31
0.0
  0
ARC
  5
166F
330
19
100
AcDbEntity
  8
0
100
AcDbCircle
 10
7.126548632311424
 20
2.91979490443678
 30
0.0
 40
0.0393700787
100
AcDbArc
 50
270.0
 51
330.0000000000027
  0
ARC
  5
1671
330
19
100
AcDbEntity
  8
0
100
AcDbCircle
 10
6.987650070005292
 20
3.083180731041784
 30
0.0
 40
0.033464566895
100
AcDbArc
 50
270.0
 51
45.00000000002311
  0
LINE
  5
1672
330
19
100
AcDbEntity
  8
0
100
AcDbLine
 10
6.942456429422144
 20
2.99853506183678
 30
0.0
 11
6.942456429422144
 21
3.048535061785779
 31
0.0
  0
LINE
  5
1673
330
19
100
AcDbEntity
  8
0
100
AcDbLine
 10
6.987650070005292
 20
3.049716164146787
 30
0.0
 11
6.942456429422144
 21
3.049716164146787
 31
0.0
  0
ARC
  5
1674
330
19
100
AcDbEntity
  8
0
100
AcDbCircle
 10
7.050425475715584
 20
2.94932246346178
 30
0.0
 40
0.068897637725
100
AcDbArc
 50
209.9999999999972
 51
270.0
  0
LINE
  5
1675
330
19
100
AcDbEntity
  8
0
100
AcDbLine
 10
6.942456429422144
 20
2.99853506183678
 30
0.0
 11
6.990758371185004
 21
2.91487364459928
 31
0.0
  0
LINE
  5
1677
330
19
100
AcDbEntity
  8
0
100
AcDbLine
 10
7.00151154747214
 20
3.116645297936799
 30
0.0
 11
7.011313092186226
 21
3.106843753222717
 31
0.0
  0
LINE
  5
1678
330
19
100
AcDbEntity
  8
0
100
AcDbLine
 10
6.363716272532151
 20
3.010346085446787
 30
0.0
 11
6.36701981438381
 21
3.014283093316785
 31
0.0
  0
LINE
  5
1679
330
19
100
AcDbEntity
  8
0
100
AcDbLine
 10
6.233795012822143
 20
2.839086243101791
 30
0.0
 11
6.233795012822143
 21
3.151003576194167
 31
0.0
  0
LINE
  5
167A
330
19
100
AcDbEntity
  8
0
100
AcDbLine
 10
6.271196587587155
 20
2.80168466833678
 30
0.0
 11
6.293105922830378
 21
2.80168466833678
 31
0.0
  0
LINE
  5
167B
330
19
100
AcDbEntity
  8
0
100
AcDbLine
 10
6.426708398452147
 20
2.974913014616784
 30
0.0
 11
6.363716272532151
 21
2.974913014616784
 31
0.0
  0
LINE
  5
167C
330
19
100
AcDbEntity
  8
0
100
AcDbLine
 10
6.363716272532151
 20
2.974913014616784
 30
0.0
 11
6.363716272532151
 21
3.010346085446787
 31
0.0
  0
LINE
  5
167D
330
19
100
AcDbEntity
  8
0
100
AcDbLine
 10
6.426708398452147
 20
2.91979490443678
 30
0.0
 11
6.319552829973758
 21
2.812639335958392
 31
0.0
  0
ARC
  5
167E
330
19
100
AcDbEntity
  8
0
100
AcDbCircle
 10
6.293105922830378
 20
2.839086243101773
 30
0.0
 40
0.037401574765
100
AcDbArc
 50
270.0
 51
314.9999999999769
  0
LINE
  5
167F
330
19
100
AcDbEntity
  8
0
100
AcDbLine
 10
6.426708398452147
 20
2.91979490443678
 30
0.0
 11
6.426708398452147
 21
2.974913014616784
 31
0.0
  0
ARC
  5
1680
330
19
100
AcDbEntity
  8
0
100
AcDbCircle
 10
6.271196587587155
 20
2.839086243101791
 30
0.0
 40
0.037401574765
100
AcDbArc
 50
180.0
 51
270.0
  0
ARC
  5
1681
330
19
100
AcDbEntity
  8
0
100
AcDbCircle
 10
6.312535170222144
 20
3.151003576194167
 30
0.0
 40
0.0787401574
100
AcDbArc
 50
163.2228572927187
 51
180.0
  0
LINE
  5
1682
330
19
100
AcDbEntity
  8
0
100
AcDbLine
 10
7.040881626172142
 20
3.1166452979368
 30
0.0
 11
6.65899186278215
 21
3.116645297936791
 31
0.0
  0
LINE
  5
1684
330
19
100
AcDbEntity
  8
0
100
AcDbLine
 10
6.233795012822142
 20
3.173731912051766
 30
0.0
 11
7.119621783572124
 21
3.17373191205177
 31
0.0
  0
LINE
  5
1685
330
19
100
AcDbEntity
  8
0
100
AcDbLine
 10
6.355842256792138
 20
3.014283093316786
 30
0.0
 11
6.355842256792126
 21
3.173731912051767
 31
0.0
  0
LINE
  5
1686
330
19
100
AcDbEntity
  8
0
100
AcDbLine
 10
6.355842256792138
 20
3.014283093316786
 30
0.0
 11
6.619621784082148
 21
3.014283093316786
 31
0.0
  0
LINE
  5
1687
330
19
100
AcDbEntity
  8
0
100
AcDbLine
 10
6.619621784082148
 20
3.077275219236791
 30
0.0
 11
6.619621784082148
 21
3.014283093316786
 31
0.0
  0
ARC
  5
1688
330
19
100
AcDbEntity
  8
0
100
AcDbCircle
 10
6.65899186278215
 20
3.077275219236791
 30
0.0
 40
0.0393700787
100
AcDbArc
 50
90.0
 51
180.0
  0
LINE
  5
1689
330
19
100
AcDbEntity
  8
0
100
AcDbLine
 10
6.430645406322142
 20
3.646172856451774
 30
0.0
 11
6.489700524372125
 21
3.646172856451774
 31
0.0
  0
LINE
  5
168A
330
19
100
AcDbEntity
  8
0
100
AcDbLine
 10
6.233795012822106
 20
3.25247206945177
 30
0.0
 11
6.489700524372125
 21
3.3718027692516
 31
0.0
  0
LINE
  5
168B
330
19
100
AcDbEntity
  8
0
100
AcDbLine
 10
6.43119292110563
 20
3.646399644500699
 30
0.0
 11
6.233795012822124
 21
3.449001736217225
 31
0.0
  0
LINE
  5
168C
330
19
100
AcDbEntity
  8
0
100
AcDbLine
 10
7.105236562508693
 20
3.018220101186786
 30
0.0
 11
7.720015483747143
 21
3.018220101186786
 31
0.0
  0
LINE
  5
168D
330
19
100
AcDbEntity
  8
0
100
AcDbLine
 10
7.105236562508693
 20
3.018220101186786
 30
0.0
 11
7.040881626172142
 21
3.1166452979368
 31
0.0
  0
LINE
  5
168E
330
19
100
AcDbEntity
  8
0
100
AcDbLine
 10
7.720015483747143
 20
3.018220101186786
 30
0.0
 11
7.720015483747143
 21
2.974913014616786
 31
0.0
  0
ARC
  5
168F
330
19
100
AcDbEntity
  8
0
100
AcDbCircle
 10
7.639306822412153
 20
2.893837872251441
 30
0.0
 40
0.0393700787
100
AcDbArc
 50
115.0000000000052
 51
180.0
  0
LINE
  5
1690
330
19
100
AcDbEntity
  8
0
100
AcDbLine
 10
7.720015483747143
 20
2.974913014616786
 30
0.0
 11
7.622668308187343
 21
2.929519281153507
 31
0.0
  0
LINE
  5
1691
330
19
100
AcDbEntity
  8
0
100
AcDbLine
 10
7.678676901112153
 20
2.825306715556779
 30
0.0
 11
7.716364378645074
 21
2.797925160355878
 31
0.0
  0
ARC
  5
1692
330
19
100
AcDbEntity
  8
0
100
AcDbCircle
 10
7.704793802824326
 20
2.781999628986782
 30
0.0
 40
0.01968503935
100
AcDbArc
 50
270.0
 51
53.99999999998793
  0
LINE
  5
1693
330
19
100
AcDbEntity
  8
0
100
AcDbLine
 10
7.678676901112153
 20
2.880424825736782
 30
0.0
 11
7.678676901112153
 21
2.825306715556779
 31
0.0
  0
LINE
  5
1694
330
19
100
AcDbEntity
  8
0
100
AcDbLine
 10
7.678676901112153
 20
2.880424825736782
 30
0.0
 11
7.757417058512153
 21
2.880424825736782
 31
0.0
  0
ARC
  5
1695
330
19
100
AcDbEntity
  8
0
100
AcDbCircle
 10
7.619621783062154
 20
2.781999628986782
 30
0.0
 40
0.01968503935
100
AcDbArc
 50
180.0
 51
270.0
  0
LINE
  5
1696
330
19
100
AcDbEntity
  8
0
100
AcDbLine
 10
7.619621783062154
 20
2.762314589636782
 30
0.0
 11
7.704793802824326
 21
2.762314589636782
 31
0.0
  0
LINE
  5
1697
330
19
100
AcDbEntity
  8
0
100
AcDbLine
 10
7.599936743712152
 20
2.893837872251441
 30
0.0
 11
7.599936743712152
 21
2.781999628986782
 31
0.0
  0
LINE
  5
1698
330
19
100
AcDbEntity
  8
0
100
AcDbLine
 10
7.757417058512153
 20
2.880424825736782
 30
0.0
 11
7.824346192302146
 21
2.919066379147059
 31
0.0
  0
ARC
  5
1699
330
19
100
AcDbEntity
  8
0
100
AcDbCircle
 10
7.721413027758194
 20
4.611172108125347
 30
0.0
 40
0.01181102361
100
AcDbArc
 50
315.0000000000091
 51
59.99999999999917
  0
ARC
  5
169A
330
19
100
AcDbEntity
  8
0
100
AcDbCircle
 10
6.517830539386055
 20
4.611172108125347
 30
0.0
 40
0.01181102361
100
AcDbArc
 50
120.0000000000008
 51
224.9999999999908
  0
LINE
  5
169B
330
19
100
AcDbEntity
  8
0
100
AcDbLine
 10
7.036944618302147
 20
4.665857894781777
 30
0.0
 11
7.036944618302147
 21
4.12255080872177
 31
0.0
  0
LINE
  5
169C
330
19
100
AcDbEntity
  8
0
100
AcDbLine
 10
6.599936744732115
 20
4.319401202221771
 30
0.0
 11
6.599936744732113
 21
4.717038997091766
 31
0.0
  0
LINE
  5
169D
330
19
100
AcDbEntity
  8
0
100
AcDbLine
 10
6.828283201192103
 20
4.31940120222177
 30
0.0
 11
6.828283201192103
 21
4.717038997091766
 31
0.0
  0
LINE
  5
169E
330
19
100
AcDbEntity
  8
0
100
AcDbLine
 10
7.202298948842104
 20
4.665857894781777
 30
0.0
 11
7.202298948842104
 21
4.12255080872177
 31
0.0
  0
LINE
  5
169F
330
19
100
AcDbEntity
  8
0
100
AcDbLine
 10
7.410960365952146
 20
4.31940120222177
 30
0.0
 11
7.410960365952146
 21
4.717038997091766
 31
0.0
  0
LINE
  5
16A0
330
19
100
AcDbEntity
  8
0
100
AcDbLine
 10
7.639306822412136
 20
4.319401202221771
 30
0.0
 11
7.639306822412136
 21
4.717038997091766
 31
0.0
  0
LINE
  5
16A1
330
19
100
AcDbEntity
  8
0
100
AcDbLine
 10
6.903086350722125
 20
4.319401202221771
 30
0.0
 11
6.903086350722125
 21
4.12255080872177
 31
0.0
  0
LINE
  5
16A2
330
19
100
AcDbEntity
  8
0
100
AcDbLine
 10
6.52513359520211
 20
4.319401202221771
 30
0.0
 11
6.52513359520211
 21
3.890267344391767
 31
0.0
  0
LINE
  5
16A3
330
19
100
AcDbEntity
  8
0
100
AcDbLine
 10
6.430645406322124
 20
3.890267344391767
 30
0.0
 11
6.52513359520211
 21
3.890267344391767
 31
0.0
  0
LINE
  5
16A4
330
19
100
AcDbEntity
  8
0
100
AcDbLine
 10
6.43119292110563
 20
3.890040556342825
 30
0.0
 11
6.233795012822106
 21
4.08743846462633
 31
0.0
  0
ARC
  5
16A5
330
19
100
AcDbEntity
  8
0
100
AcDbCircle
 10
6.520190391883735
 20
4.608812255627667
 30
0.0
 40
0.01181102361
100
AcDbArc
 50
224.9999999999908
 51
270.0
  0
LINE
  5
16A6
330
19
100
AcDbEntity
  8
0
100
AcDbLine
 10
6.56262415008083
 20
4.56637849743059
 30
0.0
 11
6.491635083538067
 21
4.495389430887827
 31
0.0
  0
LINE
  5
16A7
330
19
100
AcDbEntity
  8
0
100
AcDbLine
 10
6.509478884498676
 20
4.602820453237968
 30
0.0
 11
6.511838736996354
 21
4.60046060074027
 31
0.0
  0
LINE
  5
16A8
330
19
100
AcDbEntity
  8
0
100
AcDbLine
 10
6.451029932008717
 20
4.474749113243036
 30
0.0
 11
6.455444579026083
 21
4.470334466225652
 31
0.0
  0
ARC
  5
16A9
330
19
100
AcDbEntity
  8
0
100
AcDbCircle
 10
6.449876809101134
 20
4.46476669630072
 30
0.0
 40
0.00787401574
100
AcDbArc
 50
315.0000000000091
 51
44.99999999995401
  0
LINE
  5
16AA
330
19
100
AcDbEntity
  8
0
100
AcDbLine
 10
6.440372031306187
 20
4.475902236150566
 30
0.0
 11
6.448246047046216
 21
4.475902236150566
 31
0.0
  0
ARC
  5
16AB
330
19
100
AcDbEntity
  8
0
100
AcDbCircle
 10
6.440372031306205
 20
4.479839244020562
 30
0.0
 40
0.00393700787
100
AcDbArc
 50
224.9999999999908
 51
270.0
  0
ARC
  5
16AC
330
19
100
AcDbEntity
  8
0
100
AcDbCircle
 10
6.448246047046234
 20
4.471965228280569
 30
0.0
 40
0.00393700787
100
AcDbArc
 50
45.00000000006454
 51
90.00000000002605
  0
ARC
  5
16AD
330
19
100
AcDbEntity
  8
0
100
AcDbCircle
 10
6.440372031306205
 20
4.47983924402058
 30
0.0
 40
0.00393700787
100
AcDbArc
 50
224.9999999999908
 51
270.0
  0
ARC
  5
16AE
330
19
100
AcDbEntity
  8
0
100
AcDbCircle
 10
6.448246047046252
 20
4.471965228280569
 30
0.0
 40
0.00393700787
100
AcDbArc
 50
45.00000000006454
 51
90.00000000002605
  0
LINE
  5
16AF
330
19
100
AcDbEntity
  8
0
100
AcDbLine
 10
6.440372031306223
 20
4.475902236150566
 30
0.0
 11
6.448246047046234
 21
4.475902236150584
 31
0.0
  0
ARC
  5
16B0
330
19
100
AcDbEntity
  8
0
100
AcDbCircle
 10
6.449876809101134
 20
4.464766696300737
 30
0.0
 40
0.00787401574
100
AcDbArc
 50
315.0000000000091
 51
44.99999999995401
  0
LINE
  5
16B1
330
19
100
AcDbEntity
  8
0
100
AcDbLine
 10
6.451029932008735
 20
4.474749113243036
 30
0.0
 11
6.455444579026083
 21
4.470334466225669
 31
0.0
  0
LINE
  5
16B2
330
19
100
AcDbEntity
  8
0
100
AcDbLine
 10
6.474931773763289
 20
4.510461978607669
 30
0.0
 11
6.474931773763289
 21
4.50258796286764
 31
0.0
  0
LINE
  5
16B3
330
19
100
AcDbEntity
  8
0
100
AcDbLine
 10
6.474931773763289
 20
4.510461978607669
 30
0.0
 11
6.474931773763309
 21
4.50258796286764
 31
0.0
  0
LINE
  5
16B4
330
19
100
AcDbEntity
  8
0
100
AcDbLine
 10
6.476084896670856
 20
4.499804077905156
 30
0.0
 11
6.480499543688221
 21
4.495389430887791
 31
0.0
  0
ARC
  5
16B5
330
19
100
AcDbEntity
  8
0
100
AcDbCircle
 10
6.486067313613153
 20
4.500957200812741
 30
0.0
 40
0.00787401574
100
AcDbArc
 50
225.0000000000276
 51
315.0000000000091
  0
ARC
  5
16B6
330
19
100
AcDbEntity
  8
0
100
AcDbCircle
 10
6.478868781633304
 20
4.502587962867623
 30
0.0
 40
0.00393700787
100
AcDbArc
 50
179.9999999999739
 51
224.9999999999171
  0
ARC
  5
16B7
330
19
100
AcDbEntity
  8
0
100
AcDbCircle
 10
6.478868781633321
 20
4.502587962867623
 30
0.0
 40
0.00393700787
100
AcDbArc
 50
179.9999999999739
 51
224.9999999999171
  0
ARC
  5
16B8
330
19
100
AcDbEntity
  8
0
100
AcDbCircle
 10
6.486067313613135
 20
4.500957200812723
 30
0.0
 40
0.00787401574
100
AcDbArc
 50
225.0000000000276
 51
315.0000000000091
  0
LINE
  5
16B9
330
19
100
AcDbEntity
  8
0
100
AcDbLine
 10
6.476084896670839
 20
4.499804077905174
 30
0.0
 11
6.480499543688239
 21
4.495389430887791
 31
0.0
  0
ARC
  5
16BA
330
19
100
AcDbEntity
  8
0
100
AcDbCircle
 10
6.470994765893312
 20
4.510461978607652
 30
0.0
 40
0.00393700787
100
AcDbArc
 50
359.999999999987
 51
44.99999999999086
  0
ARC
  5
16BB
330
19
100
AcDbEntity
  8
0
100
AcDbCircle
 10
6.470994765893294
 20
4.510461978607669
 30
0.0
 40
0.00393700787
100
AcDbArc
 50
359.999999999987
 51
44.99999999999086
  0
LINE
  5
16BC
330
19
100
AcDbEntity
  8
0
100
AcDbLine
 10
6.437349326738859
 20
4.549675187655346
 30
0.0
 11
6.473778650855742
 21
4.513245863570117
 31
0.0
  0
LINE
  5
16BD
330
19
100
AcDbEntity
  8
0
100
AcDbLine
 10
6.401158822251007
 20
4.524620223021567
 30
0.0
 11
6.413686304589113
 21
4.537147705324744
 31
0.0
  0
LINE
  5
16BE
330
19
100
AcDbEntity
  8
0
100
AcDbLine
 10
6.348013556675871
 20
4.441355125415216
 30
0.0
 11
6.350373409173569
 21
4.438995272917536
 31
0.0
  0
LINE
  5
16BF
330
19
100
AcDbEntity
  8
0
100
AcDbLine
 10
6.353832777896178
 20
4.418832594420131
 30
0.0
 11
6.353832777896178
 21
4.430643618030157
 31
0.0
  0
ARC
  5
16C0
330
19
100
AcDbEntity
  8
0
100
AcDbCircle
 10
6.342021754286188
 20
4.430643618030175
 30
0.0
 40
0.01181102361
100
AcDbArc
 50
359.999999999974
 51
44.99999999999086
  0
LINE
  5
16C1
330
19
100
AcDbEntity
  8
0
100
AcDbLine
 10
6.353832777896178
 20
4.418832594420131
 30
0.0
 11
6.384455512483247
 21
4.388209859833062
 31
0.0
  0
LINE
  5
16C2
330
19
100
AcDbEntity
  8
0
100
AcDbLine
 10
6.401158822258491
 20
4.513484683174998
 30
0.0
 11
6.437588146343721
 21
4.477055359058096
 31
0.0
  0
ARC
  5
16C3
330
19
100
AcDbEntity
  8
0
100
AcDbCircle
 10
6.406726592181311
 20
4.519052453102024
 30
0.0
 40
0.00787401574
100
AcDbArc
 50
135.0000000554278
 51
225.0000000216571
  0
LINE
  5
16C4
330
19
100
AcDbEntity
  8
0
100
AcDbLine
 10
6.384455512483247
 20
4.388209859833062
 30
0.0
 11
6.455444579026046
 21
4.459198926375807
 31
0.0
  0
ARC
  5
16C5
330
19
100
AcDbEntity
  8
0
100
AcDbCircle
 10
6.431781556811831
 20
4.544107417732528
 30
0.0
 40
0.00787401574
100
AcDbArc
 50
44.99999997832454
 51
134.9999999445537
  0
LINE
  5
16C6
330
19
100
AcDbEntity
  8
0
100
AcDbLine
 10
6.426213786892288
 20
4.549675187662848
 30
0.0
 11
6.413686304589113
 21
4.537147705324744
 31
0.0
  0
LINE
  5
16C7
330
19
100
AcDbEntity
  8
0
100
AcDbLine
 10
6.245606036432096
 20
4.431605926516803
 30
0.0
 11
6.267259579717121
 21
4.431605926516838
 31
0.0
  0
ARC
  5
16C8
330
19
100
AcDbEntity
  8
0
100
AcDbCircle
 10
6.245606036432079
 20
4.419794902906796
 30
0.0
 40
0.01181102361
100
AcDbArc
 50
89.99999999997395
 51
179.9999999999739
  0
LINE
  5
16C9
330
19
100
AcDbEntity
  8
0
100
AcDbLine
 10
6.273165091522125
 20
4.425700414711763
 30
0.0
 11
6.27316509152209
 21
4.423354575463283
 31
0.0
  0
ARC
  5
16CA
330
19
100
AcDbEntity
  8
0
100
AcDbCircle
 10
6.267259579717121
 20
4.425700414711836
 30
0.0
 40
0.005905511805
100
AcDbArc
 50
359.9999999992705
 51
90.00000000002605
  0
ARC
  5
16CB
330
19
100
AcDbEntity
  8
0
100
AcDbCircle
 10
6.261354067912099
 20
4.4233545754633
 30
0.0
 40
0.01181102361
100
AcDbArc
 50
329.999999999967
 51
359.9999999999088
  0
LINE
  5
16CC
330
19
100
AcDbEntity
  8
0
100
AcDbLine
 10
6.264912370317631
 20
4.405895688798394
 30
0.0
 11
6.271582714403054
 21
4.417449063658298
 31
0.0
  0
LINE
  5
16CD
330
19
100
AcDbEntity
  8
0
100
AcDbLine
 10
6.268040689656908
 20
4.382133744311082
 30
0.0
 11
6.268040689656928
 21
4.382133744311047
 31
0.0
  0
ARC
  5
16CE
330
19
100
AcDbEntity
  8
0
100
AcDbCircle
 10
6.281960114469221
 20
4.396053169123375
 30
0.0
 40
0.01968503935
100
AcDbArc
 50
225.0000000000645
 51
329.999999999967
  0
LINE
  5
16CF
330
19
100
AcDbEntity
  8
0
100
AcDbLine
 10
6.299007858620809
 20
4.386210649448357
 30
0.0
 11
6.329433255297537
 21
4.438908982332859
 31
0.0
  0
ARC
  5
16D0
330
19
100
AcDbEntity
  8
0
100
AcDbCircle
 10
6.281960114469221
 20
4.396053169123393
 30
0.0
 40
0.01968503935
100
AcDbArc
 50
149.999999999967
 51
225.0000000000276
  0
ARC
  5
16D1
330
19
100
AcDbEntity
  8
0
100
AcDbCircle
 10
6.339661901788492
 20
4.433003470527855
 30
0.0
 40
0.01181102361
100
AcDbArc
 50
44.99999999999086
 51
149.999999999967
  0
LINE
  5
16D2
330
19
100
AcDbEntity
  8
0
100
AcDbLine
 10
6.532001415493759
 20
4.597001232017661
 30
0.0
 11
6.520190391883735
 21
4.597001232017661
 31
0.0
  0
LINE
  5
16D3
330
19
100
AcDbEntity
  8
0
100
AcDbLine
 10
6.52513359520211
 20
4.319401202221771
 30
0.0
 11
6.903086350722125
 21
4.319401202221771
 31
0.0
  0
LINE
  5
16D4
330
19
100
AcDbEntity
  8
0
100
AcDbLine
 10
6.532001415493759
 20
4.597001232017679
 30
0.0
 11
6.56262415008083
 21
4.56637849743059
 31
0.0
  0
LINE
  5
16D5
330
19
100
AcDbEntity
  8
0
100
AcDbLine
 10
7.336157216422124
 20
4.319401202221771
 30
0.0
 11
7.336157216422124
 21
4.12255080872177
 31
0.0
  0
LINE
  5
16D6
330
19
100
AcDbEntity
  8
0
100
AcDbLine
 10
7.714109971942139
 20
4.319401202221771
 30
0.0
 11
7.714109971942139
 21
3.890267344391767
 31
0.0
  0
LINE
  5
16D7
330
19
100
AcDbEntity
  8
0
100
AcDbLine
 10
7.336157216422124
 20
4.12255080872177
 30
0.0
 11
7.119621783572124
 21
4.12255080872177
 31
0.0
  0
LINE
  5
16D8
330
19
100
AcDbEntity
  8
0
100
AcDbLine
 10
6.903086350722125
 20
4.12255080872177
 30
0.0
 11
7.119621783572124
 21
4.12255080872177
 31
0.0
  0
LINE
  5
16D9
330
19
100
AcDbEntity
  8
0
100
AcDbLine
 10
7.714109971942139
 20
4.319401202221771
 30
0.0
 11
7.336157216422124
 21
4.319401202221771
 31
0.0
  0
LINE
  5
16DA
330
19
100
AcDbEntity
  8
0
100
AcDbLine
 10
7.729764682645575
 20
4.602820453237968
 30
0.0
 11
7.727404830147895
 21
4.60046060074027
 31
0.0
  0
LINE
  5
16DB
330
19
100
AcDbEntity
  8
0
100
AcDbLine
 10
7.70724215165049
 20
4.597001232017661
 30
0.0
 11
7.719053175260516
 21
4.597001232017661
 31
0.0
  0
ARC
  5
16DC
330
19
100
AcDbEntity
  8
0
100
AcDbCircle
 10
7.719053175260516
 20
4.608812255627667
 30
0.0
 40
0.01181102361
100
AcDbArc
 50
270.0
 51
315.0000000000091
  0
ARC
  5
16DD
330
19
100
AcDbEntity
  8
0
100
AcDbCircle
 10
7.768248801250956
 20
4.510461978607669
 30
0.0
 40
0.00393700787
100
AcDbArc
 50
135.0000000000092
 51
180.0
  0
ARC
  5
16DE
330
19
100
AcDbEntity
  8
0
100
AcDbCircle
 10
7.768248801250939
 20
4.510461978607652
 30
0.0
 40
0.00393700787
100
AcDbArc
 50
135.0000000000092
 51
180.0
  0
LINE
  5
16DF
330
19
100
AcDbEntity
  8
0
100
AcDbLine
 10
7.76315867047341
 20
4.499804077905174
 30
0.0
 11
7.75874402345601
 21
4.495389430887791
 31
0.0
  0
ARC
  5
16E0
330
19
100
AcDbEntity
  8
0
100
AcDbCircle
 10
7.753176253531114
 20
4.500957200812723
 30
0.0
 40
0.00787401574
100
AcDbArc
 50
224.9999999999908
 51
314.9999999999723
  0
ARC
  5
16E1
330
19
100
AcDbEntity
  8
0
100
AcDbCircle
 10
7.760374785510927
 20
4.502587962867623
 30
0.0
 40
0.00393700787
100
AcDbArc
 50
315.0000000000828
 51
0.0000000000260551
  0
ARC
  5
16E2
330
19
100
AcDbEntity
  8
0
100
AcDbCircle
 10
7.760374785510945
 20
4.502587962867623
 30
0.0
 40
0.00393700787
100
AcDbArc
 50
315.0000000000828
 51
0.0000000000260551
  0
ARC
  5
16E3
330
19
100
AcDbEntity
  8
0
100
AcDbCircle
 10
7.753176253531096
 20
4.500957200812741
 30
0.0
 40
0.00787401574
100
AcDbArc
 50
224.9999999999908
 51
314.9999999999723
  0
LINE
  5
16E4
330
19
100
AcDbEntity
  8
0
100
AcDbLine
 10
7.763158670473393
 20
4.499804077905156
 30
0.0
 11
7.758744023456028
 21
4.495389430887791
 31
0.0
  0
LINE
  5
16E5
330
19
100
AcDbEntity
  8
0
100
AcDbLine
 10
7.76431179338096
 20
4.510461978607669
 30
0.0
 11
7.764311793380942
 21
4.50258796286764
 31
0.0
  0
LINE
  5
16E6
330
19
100
AcDbEntity
  8
0
100
AcDbLine
 10
7.76431179338096
 20
4.510461978607669
 30
0.0
 11
7.76431179338096
 21
4.50258796286764
 31
0.0
  0
LINE
  5
16E7
330
19
100
AcDbEntity
  8
0
100
AcDbLine
 10
7.788213635135514
 20
4.474749113243036
 30
0.0
 11
7.783798988118167
 21
4.470334466225669
 31
0.0
  0
ARC
  5
16E8
330
19
100
AcDbEntity
  8
0
100
AcDbCircle
 10
7.789366758043117
 20
4.464766696300737
 30
0.0
 40
0.00787401574
100
AcDbArc
 50
135.000000000046
 51
224.9999999999908
  0
LINE
  5
16E9
330
19
100
AcDbEntity
  8
0
100
AcDbLine
 10
7.798871535838026
 20
4.475902236150566
 30
0.0
 11
7.790997520098015
 21
4.475902236150584
 31
0.0
  0
ARC
  5
16EA
330
19
100
AcDbEntity
  8
0
100
AcDbCircle
 10
7.790997520097997
 20
4.471965228280569
 30
0.0
 40
0.00393700787
100
AcDbArc
 50
89.99999999997395
 51
134.9999999999355
  0
ARC
  5
16EB
330
19
100
AcDbEntity
  8
0
100
AcDbCircle
 10
7.798871535838044
 20
4.47983924402058
 30
0.0
 40
0.00393700787
100
AcDbArc
 50
270.0
 51
315.0000000000091
  0
ARC
  5
16EC
330
19
100
AcDbEntity
  8
0
100
AcDbCircle
 10
7.790997520098015
 20
4.471965228280569
 30
0.0
 40
0.00393700787
100
AcDbArc
 50
89.99999999997395
 51
134.9999999999355
  0
ARC
  5
16ED
330
19
100
AcDbEntity
  8
0
100
AcDbCircle
 10
7.798871535838044
 20
4.479839244020562
 30
0.0
 40
0.00393700787
100
AcDbArc
 50
270.0
 51
315.0000000000091
  0
LINE
  5
16EE
330
19
100
AcDbEntity
  8
0
100
AcDbLine
 10
7.798871535838062
 20
4.475902236150566
 30
0.0
 11
7.790997520098034
 21
4.475902236150566
 31
0.0
  0
ARC
  5
16EF
330
19
100
AcDbEntity
  8
0
100
AcDbCircle
 10
7.789366758043117
 20
4.46476669630072
 30
0.0
 40
0.00787401574
100
AcDbArc
 50
135.000000000046
 51
224.9999999999908
  0
LINE
  5
16F0
330
19
100
AcDbEntity
  8
0
100
AcDbLine
 10
7.788213635135532
 20
4.474749113243036
 30
0.0
 11
7.783798988118167
 21
4.470334466225652
 31
0.0
  0
LINE
  5
16F1
330
19
100
AcDbEntity
  8
0
100
AcDbLine
 10
7.676619417063418
 20
4.56637849743059
 30
0.0
 11
7.747608483606182
 21
4.495389430887827
 31
0.0
  0
LINE
  5
16F2
330
19
100
AcDbEntity
  8
0
100
AcDbLine
 10
7.801894240405392
 20
4.549675187655346
 30
0.0
 11
7.765464916288507
 21
4.513245863570117
 31
0.0
  0
LINE
  5
16F3
330
19
100
AcDbEntity
  8
0
100
AcDbLine
 10
7.70724215165049
 20
4.597001232017679
 30
0.0
 11
7.676619417063418
 21
4.56637849743059
 31
0.0
  0
LINE
  5
16F4
330
19
100
AcDbEntity
  8
0
100
AcDbLine
 10
6.233795012822115
 20
6.204556911685784
 30
0.0
 11
7.119621783572116
 21
6.204556911685775
 31
0.0
  0
LINE
  5
16F5
330
19
100
AcDbEntity
  8
0
100
AcDbLine
 10
6.531039107007131
 20
4.717038997091766
 30
0.0
 11
7.003480051407114
 21
4.717038997091749
 31
0.0
  0
ARC
  5
16F6
330
19
100
AcDbEntity
  8
0
100
AcDbCircle
 10
6.531039107007131
 20
4.70522797348176
 30
0.0
 40
0.01181102361
100
AcDbArc
 50
90.0
 51
180.0
  0
ARC
  5
16F7
330
19
100
AcDbEntity
  8
0
100
AcDbCircle
 10
6.525133595202092
 20
4.683574430196716
 30
0.0
 40
0.005905511805
100
AcDbArc
 50
179.9999999999479
 51
270.0000000007035
  0
LINE
  5
16F8
330
19
100
AcDbEntity
  8
0
100
AcDbLine
 10
6.564623360465551
 20
4.651826151293028
 30
0.0
 11
6.511925027581051
 21
4.621400754616318
 31
0.0
  0
ARC
  5
16F9
330
19
100
AcDbEntity
  8
0
100
AcDbCircle
 10
6.554780840790535
 20
4.668873895444618
 30
0.0
 40
0.01968503935
100
AcDbArc
 50
44.99999999995401
 51
120.0000000000008
  0
LINE
  5
16FA
330
19
100
AcDbEntity
  8
0
100
AcDbLine
 10
6.568700265602846
 20
4.682793320256911
 30
0.0
 11
6.568700265602881
 21
4.682793320256911
 31
0.0
  0
LINE
  5
16FB
330
19
100
AcDbEntity
  8
0
100
AcDbLine
 10
6.544938321115534
 20
4.685921639596206
 30
0.0
 11
6.53338494625563
 21
4.679251295510785
 31
0.0
  0
ARC
  5
16FC
330
19
100
AcDbEntity
  8
0
100
AcDbCircle
 10
6.527479434450626
 20
4.689479942001756
 30
0.0
 40
0.01181102361
100
AcDbArc
 50
270.0000000000782
 51
300.0000000000008
  0
LINE
  5
16FD
330
19
100
AcDbEntity
  8
0
100
AcDbLine
 10
6.519228083397125
 20
4.70522797348176
 30
0.0
 11
6.51922808339709
 21
4.683574430196716
 31
0.0
  0
LINE
  5
16FE
330
19
100
AcDbEntity
  8
0
100
AcDbLine
 10
6.525133595202165
 20
4.677668918391714
 30
0.0
 11
6.527479434450645
 21
4.677668918391749
 31
0.0
  0
ARC
  5
16FF
330
19
100
AcDbEntity
  8
0
100
AcDbCircle
 10
6.554780840790552
 20
4.668873895444618
 30
0.0
 40
0.01968503935
100
AcDbArc
 50
300.0000000000008
 51
44.99999999991716
  0
LINE
  5
1700
330
19
100
AcDbEntity
  8
0
100
AcDbLine
 10
6.233795012822133
 20
6.401407305185776
 30
0.0
 11
6.233795012822115
 21
6.204556911685784
 31
0.0
  0
LINE
  5
1701
330
19
100
AcDbEntity
  8
0
100
AcDbLine
 10
6.329433255297528
 20
6.401407305185776
 30
0.0
 11
6.329433255297528
 21
6.204556911685784
 31
0.0
  0
LINE
  5
1702
330
19
100
AcDbEntity
  8
0
100
AcDbLine
 10
6.456862501869544
 20
6.401407305185784
 30
0.0
 11
6.456862501869544
 21
6.204556911685784
 31
0.0
  0
LINE
  5
1703
330
19
100
AcDbEntity
  8
0
100
AcDbLine
 10
6.273165091522134
 20
6.204556911685793
 30
0.0
 11
6.273165091522114
 21
6.401407305185776
 31
0.0
  0
ARC
  5
1704
330
19
100
AcDbEntity
  8
0
100
AcDbCircle
 10
6.714109972962107
 20
6.401407305185784
 30
0.0
 40
0.1141732282300036
100
AcDbArc
 50
180.0
 51
0.0
  0
LINE
  5
1705
330
19
100
AcDbEntity
  8
0
100
AcDbLine
 10
7.708204460137118
 20
4.717038997091766
 30
0.0
 11
7.235763515737117
 21
4.717038997091766
 31
0.0
  0
LINE
  5
1706
330
19
100
AcDbEntity
  8
0
100
AcDbLine
 10
7.257417059022126
 20
4.665857894781777
 30
0.0
 11
7.119621783572124
 21
4.665857894781777
 31
0.0
  0
LINE
  5
1707
330
19
100
AcDbEntity
  8
0
100
AcDbLine
 10
7.235763515737117
 20
4.717038997091766
 30
0.0
 11
7.257417059022126
 21
4.665857894781777
 31
0.0
  0
LINE
  5
1708
330
19
100
AcDbEntity
  8
0
100
AcDbLine
 10
7.003480051407114
 20
4.717038997091749
 30
0.0
 11
6.981826508122125
 21
4.665857894781777
 31
0.0
  0
LINE
  5
1709
330
19
100
AcDbEntity
  8
0
100
AcDbLine
 10
6.981826508122125
 20
4.665857894781777
 30
0.0
 11
7.119621783572124
 21
4.665857894781777
 31
0.0
  0
ARC
  5
170A
330
19
100
AcDbEntity
  8
0
100
AcDbCircle
 10
7.684462726353716
 20
4.668873895444618
 30
0.0
 40
0.01968503935
100
AcDbArc
 50
59.99999999999917
 51
135.000000000046
  0
LINE
  5
170B
330
19
100
AcDbEntity
  8
0
100
AcDbLine
 10
7.670543301541403
 20
4.682793320256911
 30
0.0
 11
7.670543301541368
 21
4.682793320256911
 31
0.0
  0
LINE
  5
170C
330
19
100
AcDbEntity
  8
0
100
AcDbLine
 10
7.714109971942086
 20
4.677668918391714
 30
0.0
 11
7.711764132693605
 21
4.677668918391749
 31
0.0
  0
LINE
  5
170D
330
19
100
AcDbEntity
  8
0
100
AcDbLine
 10
7.720015483747124
 20
4.70522797348176
 30
0.0
 11
7.720015483747161
 21
4.683574430196716
 31
0.0
  0
ARC
  5
170E
330
19
100
AcDbEntity
  8
0
100
AcDbCircle
 10
7.714109971942157
 20
4.683574430196716
 30
0.0
 40
0.005905511805
100
AcDbArc
 50
269.9999999992965
 51
0.0000000000521102
  0
ARC
  5
170F
330
19
100
AcDbEntity
  8
0
100
AcDbCircle
 10
7.711764132693623
 20
4.689479942001756
 30
0.0
 40
0.01181102361
100
AcDbArc
 50
239.9999999999992
 51
269.9999999999219
  0
ARC
  5
1710
330
19
100
AcDbEntity
  8
0
100
AcDbCircle
 10
7.708204460137118
 20
4.70522797348176
 30
0.0
 40
0.01181102361
100
AcDbArc
 50
0.0
 51
90.0
  0
LINE
  5
1711
330
19
100
AcDbEntity
  8
0
100
AcDbLine
 10
7.694305246028715
 20
4.685921639596206
 30
0.0
 11
7.705858620888619
 21
4.679251295510785
 31
0.0
  0
LINE
  5
1712
330
19
100
AcDbEntity
  8
0
100
AcDbLine
 10
7.674620206678698
 20
4.651826151293028
 30
0.0
 11
7.727318539563198
 21
4.621400754616318
 31
0.0
  0
ARC
  5
1713
330
19
100
AcDbEntity
  8
0
100
AcDbCircle
 10
7.684462726353697
 20
4.668873895444618
 30
0.0
 40
0.01968503935
100
AcDbArc
 50
135.0000000000829
 51
239.9999999999992
  0
ARC
  5
1714
330
19
100
AcDbEntity
  8
0
100
AcDbCircle
 10
7.119621783572116
 20
6.401407305185776
 30
0.0
 40
0.0826771652699785
100
AcDbArc
 50
180.0
 51
270.0
  0
ARC
  5
1715
330
19
100
AcDbEntity
  8
0
100
AcDbCircle
 10
7.119621783572116
 20
6.401407305185776
 30
0.0
 40
0.0826771652699785
100
AcDbArc
 50
270.0
 51
0.0
  0
LINE
  5
1716
330
19
100
AcDbEntity
  8
0
100
AcDbLine
 10
7.782381065274686
 20
6.401407305185784
 30
0.0
 11
7.782381065274686
 21
6.204556911685784
 31
0.0
  0
ARC
  5
1717
330
19
100
AcDbEntity
  8
0
100
AcDbCircle
 10
7.525133594182122
 20
6.401407305185784
 30
0.0
 40
0.1141732282300036
100
AcDbArc
 50
180.0
 51
0.0
  0
LINE
  5
1718
330
19
100
AcDbEntity
  8
0
100
AcDbLine
 10
6.233795012822115
 20
6.598257698685767
 30
0.0
 11
7.119621783572116
 21
6.598257698685776
 31
0.0
  0
LINE
  5
1719
330
19
100
AcDbEntity
  8
0
100
AcDbLine
 10
8.005448554322097
 20
6.401407305185776
 30
0.0
 11
8.005448554322116
 21
6.598257698685767
 31
0.0
  0
LINE
  5
171A
330
19
100
AcDbEntity
  8
0
100
AcDbLine
 10
7.909810311846703
 20
6.401407305185776
 30
0.0
 11
7.909810311846703
 21
6.598257698685767
 31
0.0
  0
LINE
  5
171B
330
19
100
AcDbEntity
  8
0
100
AcDbLine
 10
7.966078475622097
 20
6.598257698685758
 30
0.0
 11
7.966078475622115
 21
6.401407305185776
 31
0.0
  0
LINE
  5
171C
330
19
100
AcDbEntity
  8
0
100
AcDbLine
 10
8.005448554322125
 20
4.419794902906796
 30
0.0
 11
8.005448554322107
 21
3.173731912051766
 31
0.0
  0
LINE
  5
171D
330
19
100
AcDbEntity
  8
0
100
AcDbLine
 10
7.844031231652145
 20
2.95316186745025
 30
0.0
 11
7.844031231652146
 21
3.173731912051767
 31
0.0
  0
LINE
  5
171E
330
19
100
AcDbEntity
  8
0
100
AcDbLine
 10
7.808050646038619
 20
3.646399644500699
 30
0.0
 11
8.005448554322125
 21
3.449001736217225
 31
0.0
  0
LINE
  5
171F
330
19
100
AcDbEntity
  8
0
100
AcDbLine
 10
7.808050646038619
 20
3.890040556342825
 30
0.0
 11
8.005448554322143
 21
4.08743846462633
 31
0.0
  0
LINE
  5
1720
330
19
100
AcDbEntity
  8
0
100
AcDbLine
 10
7.993637530712152
 20
4.431605926516803
 30
0.0
 11
7.971983987427128
 21
4.431605926516838
 31
0.0
  0
LINE
  5
1721
330
19
100
AcDbEntity
  8
0
100
AcDbLine
 10
7.974331196826618
 20
4.405895688798394
 30
0.0
 11
7.967660852741197
 21
4.417449063658298
 31
0.0
  0
ARC
  5
1722
330
19
100
AcDbEntity
  8
0
100
AcDbCircle
 10
7.97788949923215
 20
4.4233545754633
 30
0.0
 40
0.01181102361
100
AcDbArc
 50
180.0000000000912
 51
210.000000000033
  0
ARC
  5
1723
330
19
100
AcDbEntity
  8
0
100
AcDbCircle
 10
7.971983987427128
 20
4.425700414711836
 30
0.0
 40
0.005905511805
100
AcDbArc
 50
89.99999999997395
 51
180.0000000007295
  0
LINE
  5
1724
330
19
100
AcDbEntity
  8
0
100
AcDbLine
 10
7.966078475622124
 20
4.425700414711763
 30
0.0
 11
7.966078475622161
 21
4.423354575463283
 31
0.0
  0
ARC
  5
1725
330
19
100
AcDbEntity
  8
0
100
AcDbCircle
 10
7.899581665355759
 20
4.433003470527855
 30
0.0
 40
0.01181102361
100
AcDbArc
 50
30.000000000033
 51
135.0000000000092
  0
ARC
  5
1726
330
19
100
AcDbEntity
  8
0
100
AcDbCircle
 10
7.897221812858061
 20
4.430643618030175
 30
0.0
 40
0.01181102361
100
AcDbArc
 50
135.0000000000092
 51
180.000000000013
  0
LINE
  5
1727
330
19
100
AcDbEntity
  8
0
100
AcDbLine
 10
7.885410789248071
 20
4.418832594420131
 30
0.0
 11
7.885410789248071
 21
4.430643618030157
 31
0.0
  0
LINE
  5
1728
330
19
100
AcDbEntity
  8
0
100
AcDbLine
 10
7.891230010468378
 20
4.441355125415216
 30
0.0
 11
7.888870157970682
 21
4.438995272917536
 31
0.0
  0
ARC
  5
1729
330
19
100
AcDbEntity
  8
0
100
AcDbCircle
 10
7.993637530712172
 20
4.419794902906796
 30
0.0
 40
0.01181102361
100
AcDbArc
 50
0.0000000000260551
 51
90.00000000002605
  0
ARC
  5
172A
330
19
100
AcDbEntity
  8
0
100
AcDbCircle
 10
7.95728345267503
 20
4.396053169123375
 30
0.0
 40
0.01968503935
100
AcDbArc
 50
210.000000000033
 51
314.9999999999355
  0
LINE
  5
172B
330
19
100
AcDbEntity
  8
0
100
AcDbLine
 10
7.971202877487341
 20
4.382133744311082
 30
0.0
 11
7.971202877487323
 21
4.382133744311047
 31
0.0
  0
ARC
  5
172C
330
19
100
AcDbEntity
  8
0
100
AcDbCircle
 10
7.95728345267503
 20
4.396053169123393
 30
0.0
 40
0.01968503935
100
AcDbArc
 50
314.9999999999723
 51
30.000000000033
  0
LINE
  5
172D
330
19
100
AcDbEntity
  8
0
100
AcDbLine
 10
7.94023570852344
 20
4.386210649448357
 30
0.0
 11
7.909810311846712
 21
4.438908982332859
 31
0.0
  0
LINE
  5
172E
330
19
100
AcDbEntity
  8
0
100
AcDbLine
 10
7.838084744893242
 20
4.524620223021567
 30
0.0
 11
7.825557262555136
 21
4.537147705324744
 31
0.0
  0
ARC
  5
172F
330
19
100
AcDbEntity
  8
0
100
AcDbCircle
 10
7.83251697496294
 20
4.519052453102024
 30
0.0
 40
0.00787401574
100
AcDbArc
 50
314.9999999783428
 51
44.99999994457225
  0
LINE
  5
1730
330
19
100
AcDbEntity
  8
0
100
AcDbLine
 10
7.813029780251961
 20
4.549675187662848
 30
0.0
 11
7.825557262555136
 21
4.537147705324744
 31
0.0
  0
LINE
  5
1731
330
19
100
AcDbEntity
  8
0
100
AcDbLine
 10
7.885410789248071
 20
4.418832594420131
 30
0.0
 11
7.854788054661002
 21
4.388209859833062
 31
0.0
  0
LINE
  5
1732
330
19
100
AcDbEntity
  8
0
100
AcDbLine
 10
7.966078475622097
 20
6.204556911685793
 30
0.0
 11
7.966078475622115
 21
6.401407305185776
 31
0.0
  0
LINE
  5
1733
330
19
100
AcDbEntity
  8
0
100
AcDbLine
 10
7.909810311846703
 20
6.401407305185776
 30
0.0
 11
7.909810311846703
 21
6.204556911685784
 31
0.0
  0
LINE
  5
1734
330
19
100
AcDbEntity
  8
0
100
AcDbLine
 10
8.005448554322097
 20
6.401407305185776
 30
0.0
 11
8.005448554322116
 21
6.204556911685784
 31
0.0
  0
LINE
  5
1735
330
19
100
AcDbEntity
  8
0
100
AcDbLine
 10
6.489700524372125
 20
3.3718027692516
 30
0.0
 11
7.749543042772124
 21
3.3718027692516
 31
0.0
  0
CIRCLE
  5
1736
330
19
100
AcDbEntity
  8
0
100
AcDbCircle
 10
6.379464304012117
 20
4.205227973991767
 30
0.0
 40
0.088582677075
  0
CIRCLE
  5
1737
330
19
100
AcDbEntity
  8
0
100
AcDbCircle
 10
6.922771390072107
 20
4.461133485541767
 30
0.0
 40
0.088582677075
  0
CIRCLE
  5
1738
330
19
100
AcDbEntity
  8
0
100
AcDbCircle
 10
7.31647217707216
 20
4.461133485541767
 30
0.0
 40
0.088582677075
  0
CIRCLE
  5
1739
330
19
100
AcDbEntity
  8
0
100
AcDbCircle
 10
7.859779263132132
 20
4.205227973991767
 30
0.0
 40
0.088582677075
  0
CIRCLE
  5
173A
330
19
100
AcDbEntity
  8
0
100
AcDbCircle
 10
7.859779263132132
 20
3.441448447211768
 30
0.0
 40
0.088582677075
  0
CIRCLE
  5
173B
330
19
100
AcDbEntity
  8
0
100
AcDbCircle
 10
6.379464304012117
 20
3.441448447211768
 30
0.0
 40
0.088582677075
  0
LINE
  5
173C
330
19
100
AcDbEntity
  8
0
100
AcDbLine
 10
6.991669027797115
 20
6.204556911685777
 30
0.0
 11
6.99166902779711
 21
6.598257698685776
 31
0.0
  0
LINE
  5
173D
330
19
100
AcDbEntity
  8
0
100
AcDbLine
 10
7.247574539347116
 20
6.204556911685777
 30
0.0
 11
7.247574539347121
 21
6.598257698685776
 31
0.0
  0
LINE
  5
173E
330
19
100
AcDbEntity
  8
0
100
AcDbLine
 10
3.89801894357931
 20
6.204556911686012
 30
0.0
 11
3.012192172829309
 21
6.204556911686003
 31
0.0
  0
LINE
  5
173F
330
19
100
AcDbEntity
  8
0
100
AcDbLine
 10
3.89801894357931
 20
6.598257698685994
 30
0.0
 11
3.012192172829309
 21
6.598257698686003
 31
0.0
  0
LINE
  5
1740
330
19
100
AcDbEntity
  8
0
100
AcDbLine
 10
3.674951454531879
 20
6.401407305185994
 30
0.0
 11
3.674951454531879
 21
6.598257698685994
 31
0.0
  0
LINE
  5
1741
330
19
100
AcDbEntity
  8
0
100
AcDbLine
 10
3.618757118960181
 20
6.598257698685994
 30
0.0
 11
3.618757118960181
 21
6.20455691168601
 31
0.0
  0
ARC
  5
1742
330
19
100
AcDbEntity
  8
0
100
AcDbCircle
 10
3.012192172829309
 20
6.401407305186003
 30
0.0
 40
0.0826771652699785
100
AcDbArc
 50
0.0
 51
90.0
  0
ARC
  5
1743
330
19
100
AcDbEntity
  8
0
100
AcDbCircle
 10
3.417703983439316
 20
6.401407305185994
 30
0.0
 40
0.1141732282300036
100
AcDbArc
 50
0.0
 51
180.0
  0
ARC
  5
1744
330
19
100
AcDbEntity
  8
0
100
AcDbCircle
 10
2.606680362219301
 20
6.401407305185994
 30
0.0
 40
0.1141732282300036
100
AcDbArc
 50
0.0
 51
180.0
  0
LINE
  5
1745
330
19
100
AcDbEntity
  8
0
100
AcDbLine
 10
2.126365402079327
 20
6.401407305186003
 30
0.0
 11
2.126365402079309
 21
6.598257698685994
 31
0.0
  0
LINE
  5
1746
330
19
100
AcDbEntity
  8
0
100
AcDbLine
 10
2.349432891126737
 20
6.401407305185994
 30
0.0
 11
2.349432891126737
 21
6.598257698685994
 31
0.0
  0
LINE
  5
1747
330
19
100
AcDbEntity
  8
0
100
AcDbLine
 10
2.405627226698437
 20
6.598257698685994
 30
0.0
 11
2.405627226698437
 21
6.20455691168601
 31
0.0
  0
LINE
  5
1748
330
19
100
AcDbEntity
  8
0
100
AcDbLine
 10
2.165735480779328
 20
6.598257698685985
 30
0.0
 11
2.165735480779308
 21
6.401407305186003
 31
0.0
  0
LINE
  5
1749
330
19
100
AcDbEntity
  8
0
100
AcDbLine
 10
2.222003644554722
 20
6.401407305186003
 30
0.0
 11
2.222003644554722
 21
6.598257698685994
 31
0.0
  0
ARC
  5
174A
330
19
100
AcDbEntity
  8
0
100
AcDbCircle
 10
3.012192172829309
 20
6.401407305186003
 30
0.0
 40
0.0826771652699785
100
AcDbArc
 50
90.0
 51
180.0
  0
LINE
  5
174B
330
19
100
AcDbEntity
  8
0
100
AcDbLine
 10
2.126365402079309
 20
6.204556911686012
 30
0.0
 11
3.012192172829309
 21
6.204556911686003
 31
0.0
  0
LINE
  5
174C
330
19
100
AcDbEntity
  8
0
100
AcDbLine
 10
2.126365402079327
 20
6.401407305186003
 30
0.0
 11
2.126365402079309
 21
6.204556911686012
 31
0.0
  0
LINE
  5
174D
330
19
100
AcDbEntity
  8
0
100
AcDbLine
 10
2.222003644554722
 20
6.401407305186003
 30
0.0
 11
2.222003644554722
 21
6.204556911686012
 31
0.0
  0
LINE
  5
174E
330
19
100
AcDbEntity
  8
0
100
AcDbLine
 10
2.349432891126737
 20
6.401407305186012
 30
0.0
 11
2.349432891126737
 21
6.204556911686012
 31
0.0
  0
LINE
  5
174F
330
19
100
AcDbEntity
  8
0
100
AcDbLine
 10
2.165735480779328
 20
6.204556911686021
 30
0.0
 11
2.165735480779308
 21
6.401407305186003
 31
0.0
  0
ARC
  5
1750
330
19
100
AcDbEntity
  8
0
100
AcDbCircle
 10
2.606680362219301
 20
6.401407305186012
 30
0.0
 40
0.1141732282300036
100
AcDbArc
 50
180.0
 51
0.0
  0
ARC
  5
1751
330
19
100
AcDbEntity
  8
0
100
AcDbCircle
 10
3.012192172829309
 20
6.401407305186003
 30
0.0
 40
0.0826771652699785
100
AcDbArc
 50
180.0
 51
270.0
  0
ARC
  5
1752
330
19
100
AcDbEntity
  8
0
100
AcDbCircle
 10
3.012192172829309
 20
6.401407305186003
 30
0.0
 40
0.0826771652699785
100
AcDbArc
 50
270.0
 51
0.0
  0
LINE
  5
1753
330
19
100
AcDbEntity
  8
0
100
AcDbLine
 10
3.674951454531879
 20
6.401407305186012
 30
0.0
 11
3.674951454531879
 21
6.204556911686012
 31
0.0
  0
ARC
  5
1754
330
19
100
AcDbEntity
  8
0
100
AcDbCircle
 10
3.417703983439316
 20
6.401407305186012
 30
0.0
 40
0.1141732282300036
100
AcDbArc
 50
180.0
 51
0.0
  0
LINE
  5
1755
330
19
100
AcDbEntity
  8
0
100
AcDbLine
 10
2.126365402079309
 20
6.598257698685994
 30
0.0
 11
3.012192172829309
 21
6.598257698686003
 31
0.0
  0
LINE
  5
1756
330
19
100
AcDbEntity
  8
0
100
AcDbLine
 10
3.89801894357929
 20
6.401407305186003
 30
0.0
 11
3.89801894357931
 21
6.598257698685994
 31
0.0
  0
LINE
  5
1757
330
19
100
AcDbEntity
  8
0
100
AcDbLine
 10
3.802380701103897
 20
6.401407305186003
 30
0.0
 11
3.802380701103897
 21
6.598257698685994
 31
0.0
  0
LINE
  5
1758
330
19
100
AcDbEntity
  8
0
100
AcDbLine
 10
3.858648864879291
 20
6.598257698685985
 30
0.0
 11
3.858648864879309
 21
6.401407305186003
 31
0.0
  0
LINE
  5
1759
330
19
100
AcDbEntity
  8
0
100
AcDbLine
 10
3.858648864879291
 20
6.204556911686021
 30
0.0
 11
3.858648864879309
 21
6.401407305186003
 31
0.0
  0
LINE
  5
175A
330
19
100
AcDbEntity
  8
0
100
AcDbLine
 10
3.802380701103897
 20
6.401407305186003
 30
0.0
 11
3.802380701103897
 21
6.204556911686012
 31
0.0
  0
LINE
  5
175B
330
19
100
AcDbEntity
  8
0
100
AcDbLine
 10
3.89801894357929
 20
6.401407305186003
 30
0.0
 11
3.89801894357931
 21
6.204556911686012
 31
0.0
  0
LINE
  5
175C
330
19
100
AcDbEntity
  8
0
100
AcDbLine
 10
2.884239417054309
 20
6.204556911686005
 30
0.0
 11
2.884239417054303
 21
6.598257698686003
 31
0.0
  0
LINE
  5
175D
330
19
100
AcDbEntity
  8
0
100
AcDbLine
 10
3.14014492860431
 20
6.204556911686005
 30
0.0
 11
3.140144928604315
 21
6.598257698686003
 31
0.0
  0
DIMENSION
  5
175E
330
19
100
AcDbEntity
  8
0
100
AcDbDimension
  2
*D17
 10
1.71779288095405
 20
6.204556911686013
 30
0.0
 11
1.072131216561143
 21
5.954556911686013
 31
0.0
 70
    32
 71
     5
 42
9.999999989799553
  3
Outline Drawings
100
AcDbAlignedDimension
 13
2.126365402079305
 23
6.598257698685995
 33
0.0
 14
2.126365402079301
 24
6.204556911686013
 34
0.0
 50
90.0
100
AcDbRotatedDimension
  0
DIMENSION
  5
176E
330
19
100
AcDbEntity
  8
0
100
AcDbDimension
  2
*D18
 10
3.89801894357931
 20
7.283236981855452
 30
0.0
 11
3.012192172829309
 21
7.283236981855452
 31
0.0
 70
    32
  1
<>[]
 71
     5
 42
44.99999995410002
  3
Outline Drawings
100
AcDbAlignedDimension
 13
2.126365402079309
 23
6.598257698685994
 33
0.0
 14
3.89801894357931
 24
6.598257698685817
 34
0.0
100
AcDbRotatedDimension
  0
DIMENSION
  5
177D
330
19
100
AcDbEntity
  8
0
100
AcDbDimension
  2
*D19
 10
8.005448554322116
 20
7.260448083794244
 30
0.0
 11
7.119621783572116
 21
7.260448083794244
 31
0.0
 70
    32
 71
     5
 42
44.99999995410002
  3
Outline Drawings
100
AcDbAlignedDimension
 13
6.233795012822115
 23
6.598257698685767
 33
0.0
 14
8.005448554322116
 24
6.598257698685767
 34
0.0
100
AcDbRotatedDimension
  0
DIMENSION
  5
178C
330
19
100
AcDbEntity
  8
0
100
AcDbDimension
  2
*D20
 10
5.798822235155967
 20
6.204556911685786
 30
0.0
 11
5.153160570763059
 21
5.954556911685787
 31
0.0
 70
    32
 71
     5
 42
9.999999989799553
  3
Outline Drawings
100
AcDbAlignedDimension
 13
6.233795012822112
 23
6.598257698685768
 33
0.0
 14
6.23379501282211
 24
6.204556911685785
 34
0.0
 50
90.0
100
AcDbRotatedDimension
  0
DIMENSION
  5
179C
330
19
100
AcDbEntity
  8
0
100
AcDbDimension
  2
*D21
 10
1.113668272189102
 20
2.522160221392641
 30
0.0
 11
1.113668272189101
 21
3.517238960535133
 31
0.0
 70
    32
  1
<>[]
 71
     5
 42
50.54999994843861
  3
Outline Drawings
100
AcDbAlignedDimension
 13
2.423609496264305
 23
4.512317699677625
 33
0.0
 14
2.451168551354303
 24
2.522160221392641
 34
0.0
 50
90.0
100
AcDbRotatedDimension
1001
ACAD
1000
DSTYLE
1002
{
1070
   271
1070
     1
1002
}
  0
DIMENSION
  5
17C3
330
19
100
AcDbEntity
  8
0
100
AcDbDimension
  2
*D22
 10
5.512564655970948
 20
2.522160221392642
 30
0.0
 11
5.512564655970947
 21
3.619599609242205
 31
0.0
 70
    32
  1
<>[]
 71
     5
 42
55.74992090275777
  3
Outline Drawings
100
AcDbAlignedDimension
 13
6.531039107007132
 23
4.717038997091766
 33
0.0
 14
6.754675126436127
 24
2.522160221392642
 34
0.0
 50
90.0
100
AcDbRotatedDimension
  0
VIEWPORT
  5
BA
102
{ACAD_XDICTIONARY
360
1808
102
}
330
16
100
AcDbEntity
 67
     1
  8
0
100
AcDbViewport
 10
5.249999639556164
 20
6.140308632623733
 30
0.0
 40
11.99666166085311
 41
13.27361724380106
 68
     1
 69
     1
 12
5.249999639556164
 22
6.140308632623733
 13
0.0
 23
0.0
 14
0.5
 24
0.5
 15
0.5
 25
0.5
 16
0.0
 26
0.0
 36
1.0
 17
0.0
 27
0.0
 37
0.0
 42
50.0
 43
0.0
 44
0.0
 45
13.27361724380106
 50
0.0
 51
0.0
 72
   100
 90
    32800
  1

281
     0
 71
     1
 74
     0
110
0.0
120
0.0
130
0.0
111
1.0
121
0.0
131
0.0
112
0.0
122
1.0
132
0.0
 79
     0
146
0.0
  0
ENDSEC
  0
SECTION
  2
OBJECTS
  0
DICTIONARY
  5
C
330
0
100
AcDbDictionary
281
     1
  3
ACAD_COLOR
350
3F8
  3
ACAD_GROUP
350
D
  3
ACAD_IMAGE_DICT
350
F80
  3
ACAD_IMAGE_VARS
350
F87
  3
ACAD_LAYOUT
350
150
  3
ACAD_MATERIAL
350
3F7
  3
ACAD_MLINESTYLE
350
E
  3
ACAD_PLOTSETTINGS
350
151
  3
ACAD_PLOTSTYLENAME
350
14E
  3
ACAD_TABLESTYLE
350
3F9
  3
ACDBHEADERROUNDTRIPXREC
350
1807
  3
ACDBVARIABLEDICTIONARY
350
FA
  3
AcmDictionary
350
189
  3
AMG
350
158
  3
AMGSNAPSETTINGS
350
1BA
  3
DWGPROPS
350
1806
  3
MAPISURF_MODULE
350
2A1
  0
DICTIONARY
  5
44C
330
2
100
AcDbDictionary
280
     1
281
     1
  3
ACAD_LAYERSTATES
360
44D
  0
DICTIONARY
  5
11F
330
19
100
AcDbDictionary
280
     1
281
     1
  3
ACAD_INDEX
360
1171
  3
ACAD_SORTENTS
360
1080
  0
DICTIONARY
  5
F7D
330
F05
100
AcDbDictionary
280
     1
281
     1
  0
DICTIONARY
  5
180D
330
F62
100
AcDbDictionary
280
     1
281
     1
  3
ACAD_MTEXT_RT
360
180E
  0
IMAGEDEF_REACTOR
  5
F64
330
F63
100
AcDbRasterImageDefReactor
 90
        2
330
F63
  0
DICTIONARY
  5
180F
330
F77
100
AcDbDictionary
280
     1
281
     1
  3
ACAD_MTEXT_RT
360
1810
  0
DICTIONARY
  5
1811
330
1065
100
AcDbDictionary
280
     1
281
     1
  3
ACAD_MTEXT_RT
360
1812
  0
IMAGEDEF_REACTOR
  5
1067
330
1066
100
AcDbRasterImageDefReactor
 90
        2
330
1066
  0
DICTIONARY
  5
1813
330
107A
100
AcDbDictionary
280
     1
281
     1
  3
ACAD_MTEXT_RT
360
1814
  0
DICTIONARY
  5
1808
330
BA
100
AcDbDictionary
280
     1
281
     1
  3
ACAD_XREC_ROUNDTRIP
360
1809
  0
DICTIONARY
  5
3F8
102
{ACAD_REACTORS
330
C
102
}
330
C
100
AcDbDictionary
281
     1
  0
DICTIONARY
  5
D
102
{ACAD_REACTORS
330
C
102
}
330
C
100
AcDbDictionary
281
     1
  0
DICTIONARY
  5
F80
102
{ACAD_REACTORS
330
C
102
}
330
C
100
AcDbDictionary
281
     1
  3
c3 logo
350
F81
  0
RASTERVARIABLES
  5
F87
102
{ACAD_REACTORS
330
C
102
}
330
C
100
AcDbRasterVariables
 90
        0
 70
     1
 71
     1
 72
     5
  0
DICTIONARY
  5
150
102
{ACAD_REACTORS
330
C
102
}
330
C
100
AcDbDictionary
281
     1
  3
Layout1
350
153
  3
Model
350
152
  0
DICTIONARY
  5
3F7
102
{ACAD_REACTORS
330
C
102
}
330
C
100
AcDbDictionary
281
     1
  0
DICTIONARY
  5
E
102
{ACAD_REACTORS
330
C
102
}
330
C
100
AcDbDictionary
281
     1
  3
STANDARD
350
1C
  0
DICTIONARY
  5
151
102
{ACAD_REACTORS
330
C
102
}
330
C
100
AcDbDictionary
281
     1
  0
ACDBDICTIONARYWDFLT
  5
14E
102
{ACAD_REACTORS
330
C
102
}
330
C
100
AcDbDictionary
281
     1
  3
Normal
350
14F
100
AcDbDictionaryWithDefault
340
14F
  0
DICTIONARY
  5
3F9
102
{ACAD_REACTORS
330
C
102
}
330
C
100
AcDbDictionary
281
     1
  3
Standard
350
3FA
  0
DICTIONARY
  5
1807
102
{ACAD_REACTORS
330
C
102
}
330
C
100
AcDbDictionary
281
     1
  0
DICTIONARY
  5
FA
102
{ACAD_REACTORS
330
C
102
}
330
C
100
AcDbDictionary
281
     1
  3
CTABLESTYLE
350
429
  3
DIMASSOC
350
3F5
  3
INDEXCTL
350
FB
  3
PROJECTNAME
350
1804
  0
DICTIONARY
  5
189
102
{ACAD_REACTORS
330
C
102
}
330
C
100
AcDbDictionary
281
     1
  3
AcmStdDictionary
350
2C1
  3
AMDTSECTSYM_ARROWCOLOR
350
402
  0
DICTIONARY
  5
158
102
{ACAD_REACTORS
330
C
102
}
330
C
100
AcDbDictionary
281
     1
  3
AcMgSettings
350
159
  0
DICTIONARY
  5
1BA
102
{ACAD_REACTORS
330
C
102
}
330
C
100
AcDbDictionary
281
     1
  3
DIMENSION
350
1BE
  3
FEA
350
1BD
  3
HATCH
350
1BB
  3
SYMBOLS
350
1BC
  0
XRECORD
  5
1806
102
{ACAD_REACTORS
330
C
102
}
330
C
100
AcDbXrecord
280
     1
  1
DWGPROPS COOKIE
  2

  3

  4

  6

  7

  8

  9

300
AmdtFileType=84
301
=
302
=
303
=
304
=
305
=
306
=
307
=
308
=
309
=
 40
0.124132337962963
 41
2453727.421006238
 42
2453854.470737824
  1

 90
        1
  0
DICTIONARY
  5
44D
102
{ACAD_REACTORS
330
44C
102
}
330
44C
100
AcDbDictionary
281
     1
  0
DICTIONARY
  5
1171
102
{ACAD_REACTORS
330
11F
102
}
330
11F
100
AcDbDictionary
281
     1
  3
*A1
350
1172
  0
SORTENTSTABLE
  5
1080
102
{ACAD_REACTORS
330
11F
102
}
330
11F
100
AcDbSortentsTable
330
19
331
1016
  5
FCC
331
1073
  5
1033
331
107F
  5
103F
331
106B
  5
102B
331
1063
  5
1024
331
1037
  5
FEF
331
1017
  5
FCD
331
1074
  5
1034
331
100B
  5
F8A
331
106C
  5
102C
331
1078
  5
1038
331
1064
  5
1025
331
1075
  5
1035
331
106D
  5
102D
331
1079
  5
1039
331
1065
  5
1026
331
1076
  5
1036
331
1021
  5
FD8
331
106E
  5
102E
331
107A
  5
103A
331
1011
  5
F90
331
1066
  5
1027
331
1077
  5
1037
331
107B
  5
103B
331
1012
  5
F91
331
106F
  5
102F
331
107C
  5
103C
331
1013
  5
F92
331
1070
  5
1030
331
1068
  5
1028
331
1038
  5
FF0
331
107D
  5
103D
331
1014
  5
F93
331
1071
  5
1031
331
1069
  5
1029
331
107E
  5
103E
331
1015
  5
F94
331
1072
  5
1032
331
106A
  5
102A
331
1062
  5
1023
  0
XRECORD
  5
180E
102
{ACAD_REACTORS
330
180D
102
}
330
180D
100
AcDbXrecord
280
     1
 40
303599.0
  1
{\fArial|b0|i0|c0|p34;P.O. BOX 496^IBEAVER, PA 15009^I\C256;www.c3controls.com}
  0
XRECORD
  5
1810
102
{ACAD_REACTORS
330
180F
102
}
330
180F
100
AcDbXrecord
280
     1
 40
34575.0
  1
\pl0.075;{\fArial|b0|i0|c0|p34;NAME}
  0
XRECORD
  5
1812
102
{ACAD_REACTORS
330
1811
102
}
330
1811
100
AcDbXrecord
280
     1
 40
303599.0
  1
{\fArial|b0|i0|c0|p34;P.O. BOX 496^IBEAVER, PA 15009^I\C256;www.c3controls.com}
  0
XRECORD
  5
1814
102
{ACAD_REACTORS
330
1813
102
}
330
1813
100
AcDbXrecord
280
     1
 40
50545.0
  1
\pl0.075;{\fArial|b0|i0|c0|p34;P. DAMESIMO}
  0
XRECORD
  5
1809
102
{ACAD_REACTORS
330
1808
102
}
330
1808
100
AcDbXrecord
280
     1
102
SHADEPLOT
 70
     0
  0
IMAGEDEF
  5
F81
102
{ACAD_REACTORS
330
F80
330
F64
330
1067
102
}
330
F80
100
AcDbRasterImageDef
 90
        0
  1
K:\Archive- EngrDwgs\Borders\Title Blocks\c3 logo Size A.bmp
 10
223.0
 20
45.0
 11
0.264550269889837
 21
0.264550269889837
280
     1
281
     2
  0
LAYOUT
  5
153
102
{ACAD_XDICTIONARY
360
44F
102
}
102
{ACAD_REACTORS
330
150
102
}
330
150
100
AcDbPlotSettings
  1

  2
none_device
  4
Letter_(8.50_x_11.00_Inches)
  6

 40
6.349999904632568
 41
6.349999904632568
 42
6.350006103515625
 43
6.350006103515625
 44
215.8999938964844
 45
279.3999938964844
 46
0.0
 47
0.0
 48
0.0
 49
0.0
140
0.0
141
0.0
142
1.0
143
1.0
 70
   688
 72
     0
 73
     1
 74
     5
  7

 75
     0
147
1.0
148
0.0
149
0.0
100
AcDbLayout
  1
Layout1
 70
     1
 71
     1
 10
-0.2500002402958907
 20
-0.2499999962453767
 11
10.74999951940821
 21
8.249999763458731
 12
0.0
 22
0.0
 32
0.0
 14
1.000000000000000E+20
 24
1.000000000000000E+20
 34
1.000000000000000E+20
 15
-1.000000000000000E+20
 25
-1.000000000000000E+20
 35
-1.000000000000000E+20
146
0.0
 13
0.0
 23
0.0
 33
0.0
 16
1.0
 26
0.0
 36
0.0
 17
0.0
 27
1.0
 37
0.0
 76
     0
330
16
331
BA
  0
LAYOUT
  5
152
102
{ACAD_XDICTIONARY
360
180A
102
}
102
{ACAD_REACTORS
330
150
102
}
330
150
100
AcDbPlotSettings
  1

  2
\\NOVIBDC\HPLJ4-TPUB
  4

  6

 40
0.0
 41
0.0
 42
0.0
 43
0.0
 44
0.0
 45
0.0
 46
0.0
 47
0.0
 48
0.0
 49
0.0
140
0.0
141
0.0
142
1.0
143
1.0
 70
  1712
 72
     0
 73
     0
 74
     0
  7

 75
     0
147
1.0
148
0.0
149
0.0
100
AcDbLayout
  1
Model
 70
     1
 71
     0
 10
0.0
 20
0.0
 11
12.0
 21
9.0
 12
0.0
 22
0.0
 32
0.0
 14
0.0
 24
0.0
 34
0.0
 15
0.0
 25
0.0
 35
0.0
146
0.0
 13
0.0
 23
0.0
 33
0.0
 16
1.0
 26
0.0
 36
0.0
 17
0.0
 27
1.0
 37
0.0
 76
     0
330
19
  0
MLINESTYLE
  5
1C
102
{ACAD_REACTORS
330
E
102
}
330
E
100
AcDbMlineStyle
  2
STANDARD
 70
     0
  3

 62
     0
 51
90.0
 52
90.0
 71
     2
 49
0.5
 62
   256
  6
BYLAYER
 49
-0.5
 62
   256
  6
BYLAYER
  0
ACDBPLACEHOLDER
  5
14F
102
{ACAD_REACTORS
330
14E
102
}
330
14E
  0
TABLESTYLE
  5
3FA
102
{ACAD_REACTORS
330
3F9
102
}
330
3F9
100
AcDbTableStyle
  3
Standard
 70
     0
 71
     0
 40
0.06
 41
0.06
280
     0
281
     0
  7
STANDARD
140
0.18
170
     2
 62
     0
 63
     7
283
     0
274
    -2
284
     1
 64
     0
275
    -2
285
     1
 65
     0
276
    -2
286
     1
 66
     0
277
    -2
287
     1
 67
     0
278
    -2
288
     1
 68
     0
279
    -2
289
     1
 69
     0
  7
STANDARD
140
0.25
170
     5
 62
     0
 63
     7
283
     0
274
    -2
284
     1
 64
     0
275
    -2
285
     1
 65
     0
276
    -2
286
     1
 66
     0
277
    -2
287
     1
 67
     0
278
    -2
288
     1
 68
     0
279
    -2
289
     1
 69
     0
  7
STANDARD
140
0.18
170
     5
 62
     0
 63
     7
283
     0
274
    -2
284
     1
 64
     0
275
    -2
285
     1
 65
     0
276
    -2
286
     1
 66
     0
277
    -2
287
     1
 67
     0
278
    -2
288
     1
 68
     0
279
    -2
289
     1
 69
     0
  0
DICTIONARYVAR
  5
429
102
{ACAD_REACTORS
330
FA
102
}
330
FA
100
DictionaryVariables
280
     0
  1
STANDARD
  0
DICTIONARYVAR
  5
3F5
102
{ACAD_REACTORS
330
FA
102
}
330
FA
100
DictionaryVariables
280
     0
  1
1
  0
DICTIONARYVAR
  5
FB
102
{ACAD_REACTORS
330
FA
102
}
330
FA
100
DictionaryVariables
280
     0
  1
1
  0
DICTIONARYVAR
  5
1804
102
{ACAD_REACTORS
330
FA
102
}
330
FA
100
DictionaryVariables
280
     0
  1

  0
DICTIONARY
  5
2C1
102
{ACAD_REACTORS
330
189
102
}
330
189
100
AcDbDictionary
281
     1
  0
XRECORD
  5
402
102
{ACAD_REACTORS
330
189
102
}
330
189
100
AcDbXrecord
280
     1
 90
-1023410169
  0
DICTIONARY
  5
159
102
{ACAD_REACTORS
330
158
102
}
330
158
100
AcDbDictionary
281
     1
  3
DWGSETTINGS
350
15A
  3
Shaft
350
375
  3
TRANSSETTINGS
350
166
  0
ACAMGFILTERDAT
  5
1BE
102
{ACAD_REACTORS
330
1BA
102
}
330
1BA
100
AcAmgFilterDat
 70
    15
  1
DIMENSION,AMDT_*_DIM
  2
*
  3
*
  4
*
  5
*
290
     1
  0
ACAMGFILTERDAT
  5
1BD
102
{ACAD_REACTORS
330
1BA
102
}
330
1BA
100
AcAmgFilterDat
 70
    15
  1
*
  2
AM_FEA-AM_*
  3
*
  4
*
  5
*
290
     1
  0
ACAMGFILTERDAT
  5
1BB
102
{ACAD_REACTORS
330
1BA
102
}
330
1BA
100
AcAmgFilterDat
 70
    15
  1
HATCH
  2
*
  3
*
  4
*
  5
*
290
     1
  0
ACAMGFILTERDAT
  5
1BC
102
{ACAD_REACTORS
330
1BA
102
}
330
1BA
100
AcAmgFilterDat
 70
    15
  1
ACMFCFRAME,ACMDATUMTARGET,ACMDATUMID,ACMWELDSYM,ACMSURFSYM,ACMFEATID,ACMPARTREF,ACMBALLOON
  2
*
  3
*
  4
*
  5
*
290
     1
  0
LAYER_INDEX
  5
1172
102
{ACAD_REACTORS
330
1171
102
}
330
1171
100
AcDbIndex
 40
2453854.470737824
100
AcDbLayerIndex
  8
0
360
1173
 90
      469
  8
DEFPOINTS
360
1174
 90
        0
  8
4
360
1175
 90
        0
  8
CENTER
360
1176
 90
        0
  8
Hidden
360
1177
 90
        0
  8
10
360
1178
 90
       40
  8
L-REV
360
1179
 90
        0
  8
L1
360
117A
 90
        0
  8
dm
360
1424
 90
        0
  0
DICTIONARY
  5
44F
330
153
100
AcDbDictionary
280
     1
281
     1
  3
ACAD_XREC_ROUNDTRIP
360
180C
  3
ADSK_XREC_LAYOUTTHUMBNAIL
360
450
  0
DICTIONARY
  5
180A
330
152
100
AcDbDictionary
280
     1
281
     1
  3
ACAD_XREC_ROUNDTRIP
360
180B
  0
IDBUFFER
  5
1173
330
0
100
AcDbIdBuffer
330
1687
330
1688
330
1689
330
168A
330
168B
330
168C
330
168D
330
168E
330
168F
330
1690
330
1691
330
1692
330
1693
330
1694
330
1695
330
1696
330
1697
330
1698
330
1699
330
169A
330
169B
330
169C
330
169D
330
169E
330
169F
330
16A0
330
16A1
330
16A2
330
16A3
330
16A4
330
16A5
330
16A6
330
16A7
330
16A8
330
16A9
330
16AA
330
16AB
330
16AC
330
16AD
330
16AE
330
16AF
330
16B0
330
16B1
330
16B2
330
16B3
330
16B4
330
16B5
330
16B6
330
16B7
330
16B8
330
16B9
330
16BA
330
16BB
330
16BC
330
16BD
330
16BE
330
16BF
330
16C0
330
16C1
330
16C2
330
16C3
330
16C4
330
16C5
330
16C6
330
16C7
330
16C8
330
16C9
330
16CA
330
16CB
330
16CC
330
16CD
330
16CE
330
16CF
330
16D0
330
16D1
330
16D2
330
16D3
330
16D4
330
16D5
330
16D6
330
16D7
330
16D8
330
16D9
330
16DA
330
16DB
330
16DC
330
16DD
330
16DE
330
16DF
330
16E0
330
16E1
330
16E2
330
16E3
330
16E4
330
16E5
330
16E6
330
16E7
330
16E8
330
16E9
330
16EA
330
16EB
330
16EC
330
16ED
330
16EE
330
16EF
330
16F0
330
16F1
330
16F2
330
16F3
330
16F4
330
16F5
330
16F6
330
16F7
330
16F8
330
16F9
330
16FA
330
16FB
330
16FC
330
16FD
330
16FE
330
16FF
330
1700
330
1701
330
1702
330
1703
330
1704
330
1705
330
1706
330
1707
330
1708
330
1709
330
170A
330
170B
330
170C
330
170D
330
170E
330
170F
330
1710
330
1711
330
1712
330
1713
330
1714
330
1715
330
1716
330
1717
330
1718
330
1719
330
171A
330
171B
330
171C
330
171D
330
171E
330
171F
330
1720
330
1721
330
1722
330
1723
330
1724
330
1725
330
1726
330
1727
330
1728
330
1729
330
172A
330
172B
330
172C
330
172D
330
172E
330
172F
330
1730
330
1731
330
1732
330
1733
330
1734
330
1735
330
1736
330
1737
330
1738
330
1739
330
173A
330
173B
330
173C
330
173D
330
173E
330
173F
330
1740
330
1741
330
1742
330
1743
330
1744
330
1745
330
1746
330
1747
330
1748
330
1749
330
174A
330
174B
330
174C
330
174D
330
174E
330
174F
330
1750
330
1751
330
1752
330
1753
330
1754
330
1755
330
1756
330
1757
330
1758
330
1759
330
175A
330
175B
330
175C
330
175D
330
175E
330
176E
330
177D
330
178C
330
179C
330
17C3
330
113F
330
156C
330
156D
330
156E
330
156F
330
1570
330
1571
330
1572
330
1573
330
1580
330
1581
330
1582
330
1583
330
1584
330
1585
330
1587
330
1588
330
1589
330
158A
330
158B
330
158D
330
158E
330
158F
330
1590
330
1591
330
1592
330
1593
330
1594
330
1595
330
1596
330
1597
330
1598
330
1599
330
159A
330
159B
330
159C
330
159D
330
159E
330
159F
330
15A0
330
15A1
330
15A2
330
15A3
330
15A4
330
15A5
330
15A6
330
15A7
330
15A8
330
15A9
330
15AA
330
15AB
330
15AC
330
15AD
330
15AE
330
15AF
330
15B0
330
15B1
330
15B2
330
15B3
330
15B4
330
15B5
330
15B6
330
15B7
330
15B8
330
15B9
330
15BA
330
15BB
330
15BC
330
15BD
330
15BE
330
15BF
330
15C0
330
15C1
330
15C2
330
15C3
330
15C4
330
15C5
330
15C6
330
15C7
330
15C8
330
15C9
330
15CA
330
15CB
330
15CC
330
15CD
330
15CE
330
15CF
330
15D0
330
15D1
330
15D2
330
15D3
330
15D4
330
15D5
330
15D6
330
15D7
330
15D8
330
15D9
330
15DA
330
15DB
330
15DC
330
15DD
330
15DE
330
15DF
330
15E0
330
15E1
330
15E2
330
15E3
330
15E4
330
15E5
330
15E6
330
15E7
330
15E8
330
15E9
330
15EA
330
15EB
330
15EC
330
15ED
330
15EE
330
15EF
330
15F0
330
15F1
330
15F2
330
15F3
330
15F4
330
15F5
330
15F6
330
15F7
330
15F8
330
15F9
330
15FA
330
15FB
330
15FC
330
15FD
330
15FE
330
15FF
330
1600
330
1601
330
1602
330
1603
330
1604
330
1605
330
1606
330
1607
330
1608
330
1609
330
160B
330
160C
330
160D
330
160E
330
160F
330
1610
330
1611
330
1612
330
1613
330
1614
330
1615
330
161B
330
161C
330
161D
330
161E
330
161F
330
1620
330
1621
330
1622
330
1623
330
1624
330
1625
330
1626
330
1627
330
1628
330
1629
330
1632
330
1633
330
1634
330
1635
330
1636
330
1637
330
1638
330
1639
330
163A
330
163B
330
163C
330
163D
330
163E
330
163F
330
1640
330
1641
330
1642
330
1643
330
1644
330
1645
330
1646
330
1647
330
164B
330
164C
330
164D
330
164E
330
164F
330
1650
330
1651
330
1654
330
1655
330
1656
330
1657
330
1658
330
1659
330
165A
330
165B
330
165C
330
165D
330
165E
330
165F
330
1660
330
1661
330
1662
330
1663
330
1664
330
1665
330
1666
330
1667
330
1668
330
1669
330
166A
330
166B
330
166C
330
166D
330
166E
330
166F
330
1671
330
1672
330
1673
330
1674
330
1675
330
1677
330
1678
330
1679
330
167A
330
167B
330
167C
330
167D
330
167E
330
167F
330
1680
330
1681
330
1682
330
1684
330
1685
330
1686
  0
IDBUFFER
  5
1174
330
0
100
AcDbIdBuffer
  0
IDBUFFER
  5
1175
330
0
100
AcDbIdBuffer
  0
IDBUFFER
  5
1176
330
0
100
AcDbIdBuffer
  0
IDBUFFER
  5
1177
330
0
100
AcDbIdBuffer
  0
IDBUFFER
  5
1178
330
0
100
AcDbIdBuffer
330
100B
330
1011
330
1012
330
1013
330
1014
330
1015
330
1016
330
1017
330
1021
330
1037
330
1038
330
1062
330
1063
330
1064
330
1065
330
1066
330
1068
330
1069
330
106A
330
106B
330
106C
330
106D
330
106E
330
106F
330
1070
330
1071
330
1072
330
1073
330
1074
330
1075
330
1076
330
1077
330
1078
330
1079
330
107A
330
107B
330
107C
330
107D
330
107E
330
107F
  0
IDBUFFER
  5
1179
330
0
100
AcDbIdBuffer
  0
IDBUFFER
  5
117A
330
0
100
AcDbIdBuffer
  0
IDBUFFER
  5
1424
330
0
100
AcDbIdBuffer
  0
XRECORD
  5
180C
102
{ACAD_REACTORS
330
44F
102
}
330
44F
100
AcDbXrecord
280
     1
102
SHADEPLOT
 70
     0
102
SHADEPLOTRESLEVEL
 70
     2
102
SHADEPLOTCUSTOMDPI
 70
   300
  0
XRECORD
  5
450
102
{ACAD_REACTORS
330
44F
102
}
330
44F
100
AcDbXrecord
280
     1
310
28000000B40000008B0000000100080000000000BC61000000000000000000000001000000000000FFFFFF0000000000FFFFFF000000000000000000000000000000000000000000000000000000000000000000330000006600000099000000CC000000FF00000000330000333300006633000099330000CC330000FF3300
310
0000660000336600006666000099660000CC660000FF66000000990000339900006699000099990000CC990000FF99000000CC000033CC000066CC000099CC0000CCCC0000FFCC000000FF000033FF000066FF000099FF0000CCFF0000FFFF000000003300330033006600330099003300CC003300FF003300003333003333
310
33006633330099333300CC333300FF33330000663300336633006666330099663300CC663300FF66330000993300339933006699330099993300CC993300FF99330000CC330033CC330066CC330099CC3300CCCC3300FFCC330000FF330033FF330066FF330099FF3300CCFF3300FFFF330000006600330066006600660099
310
006600CC006600FF00660000336600333366006633660099336600CC336600FF33660000666600336666006666660099666600CC666600FF66660000996600339966006699660099996600CC996600FF99660000CC660033CC660066CC660099CC6600CCCC6600FFCC660000FF660033FF660066FF660099FF6600CCFF6600
310
FFFF660000009900330099006600990099009900CC009900FF00990000339900333399006633990099339900CC339900FF33990000669900336699006666990099669900CC669900FF66990000999900339999006699990099999900CC999900FF99990000CC990033CC990066CC990099CC9900CCCC9900FFCC990000FF99
310
0033FF990066FF990099FF9900CCFF9900FFFF99000000CC003300CC006600CC009900CC00CC00CC00FF00CC000033CC003333CC006633CC009933CC00CC33CC00FF33CC000066CC003366CC006666CC009966CC00CC66CC00FF66CC000099CC003399CC006699CC009999CC00CC99CC00FF99CC0000CCCC0033CCCC0066CC
310
CC0099CCCC00CCCCCC00FFCCCC0000FFCC0033FFCC0066FFCC0099FFCC00CCFFCC00FFFFCC000000FF003300FF006600FF009900FF00CC00FF00FF00FF000033FF003333FF006633FF009933FF00CC33FF00FF33FF000066FF003366FF006666FF009966FF00CC66FF00FF66FF000099FF003399FF006699FF009999FF00CC
310
99FF00FF99FF0000CCFF0033CCFF0066CCFF0099CCFF00CCCCFF00FFCCFF0000FFFF0033FFFF0066FFFF0099FFFF00CCFFFF00FFFFFF00000000000D0D0D001A1A1A00282828003535350043434300505050005D5D5D006B6B6B00787878008686860093939300A1A1A100AEAEAE00BBBBBB00C9C9C900D6D6D600E4E4E400
310
F1F1F100FFFFFF0000000000000000000000000000000000000000000000000000000000000000000000000000000000E2E2E2E2E2E2E2E2E2E2E2E2E2E2E2E2E2E2E2E2E2E2E2E2E2E2E2E2E2E2E2E2E2E2E2E2E2E2E2E2E2E2E2E2E2E2E2E2E2E2E2E2E2E2E2E2E2E2E2E2E2E2E2E2E2E2E2E2E2E2E2E2E2E2E2E2E2E2E2
310
E2E2E2E2E2E2E2E2E2E2E2E2E2E2E2E2E2E2E2E2E2E2E2E2E2E2E2E2E2E2E2E2E2E2E2E2E2E2E2E2E2E2E2E2E2E2E2E2E2E2E2E2E2E2E2E2E2E2E2E2E2E2E2E2E2E2E2E2E2E2E2E2E2E2E2E2E2E2E2E2E2E2E2E2E2E2E2E2E2E2E2E2E2E2E2E2E2E2E2E2E2E2F5F5F5F5F5F5F5F5F5F5F5F5F5F5F5F5F5F5F5F5F5F5F5F5F5
310
F5F5F5F5F5F5F5F5F5F5F5F5F5F5F5F5F5F5F5F5F5F5F5F5F5F5F5F5F5F5F5F5F5F5F5F5F5F5F5F5F5F5F5F5F5F5F5F5F5F5F5F5F5F5F5F5F5F5F5F5F5F5F5F5F5F5F5F5F5F5F5F5F5F5F5F5F5F5F5F5F5F5F5F5F5F5F5F5F5F5F5F5F5F5F5F5F5F5F5F5F5F5F5F5F5F5F5F5F5F5F5F5F5F5F5F5F5F5F5F5F5F5F5F5F5F5F5
310
F5F5F5F5F5F5F5F5F5F5F5F5F5F5F5F5F5F5F5F5F5F5F5F5F5F5E2E2F5F5F5F5F5F5F5F5F5F5F5F5F5F5F5F5F5F5F5F5F5F5F5F5F5F5F5F5F5F5F5F5F5F5F5F5F5F5F5F5F5F5F5F5F5F5F5F5F5F5F5F5F5F5F5F5F5F5F5F5F5F5F5F5F5F5F5F5F5F5F5F5F5F5F5F5F5F5F5F5F5F5F5F5F5F5F5F5F5F5F5F5F5F5F5F5F5F5F5
310
F5F5F5F5F5F5F5F5F5F5F5F5F5F5F5F5F5F5F5F5F5F5F5F5F5F5F5F5F5F5F5F5F5F5F5F5F5F5F5F5F5F5F5F5F5F5F5F5F5F5F5F5F5F5F5F5F5F5F5F5F5F5F5F5F5F5F5F5F5F5F5F5F5F5F5F5F5F5F5E2E2F5F5F5F5F5F5F5F5F5F5F5F5F5F5F5F5F5F5F5F5F5F5F5F5F5F5F5F5F5F5F5F5F5F5F5F5F5F5F5F5F5F5F5F5F5F5
310
F5F5F5F5F5F5F5F5F5F5F5F5F5F5F5F5F5F5F5F5F5F5F5F5F5F5F5F5F5F5F5F5F5F5F5F5F5F5F5F5F5F5F5F5F5F5F5F5F5F5F5F5F5F5F5F5F5F5F5F5F5F5F5F5F5F5F5F5F5F5F5F5F5F5F5F5F5F5F5F5F5F5F5F5F5F5F5F5F5F5F5F5F5F5F5F5F5F5F5F5F5F5F5F5F5F5F5F5F5F5F5F5F5F5F5F5F5F5F5F5F5F5F5F5F5F5F5
310
F5F5F5F5F5E2E2F5F5F5F5F5F5F5F5F5F5F5F5F5F5F5F5F5F5F5F5F5F5F5F5F5F5F5F5F5F5F5F5F5F5F5F5F5F5F5F5F5F5F5F5F5F5F5F5F5F5F5F5F5F5F5F5F5F5F5F5F5F5F5F5F5F5F5F5F5F5F5F5F5F5F5F5F5F5F5F5F5F5F5F5F5F5F5F5F5F5F5F5F5F5F5F5F5F5F5F5F5F5F5F5F5F5F5F5F5F5F5F5F5F5F5F5F5F5F5F5
310
F5F5F5F5F5F5F5F5F5F5F5F5F5F5F5F5F5F5F5F5F5F5F5F5F5F5F5F5F5F5F5F5F5F5F5F5F5F5F5F5F5F5F5F5F5F5F5F5F5F5F5F5F5F5F5F5F5F5E2E2F5F5F5E2E2E2E2E2E2E2E2F5F5F5F5F5F5F5F5F5E2E2E2E2E2E2E2E2E2E2E2E2E2E2E2E2F5F5F5F5F5F5F5F5F5E2E2E2E2E2E2E2E2E2E2E2E2E2E2E2F5F5F5F5F5F5F5
310
F5F5E2E2E2E2E2E2E2E2E2E2E2E2E2E2E2E2F5F5F5F5F5F5F5F5E2E2E2E2E2E2E2E2E2E2E2E2E2E2E2E2F5F5F5F5F5F5F5F5F5E2E2E2E2E2E2E2E2E2E2E2E2E2E2E2F5F5F5F5F5F5F5F5F5E2E2E2E2E2E2E2E2E2E2E2E2E2E2E2E2F5F5F5F5F5F5F5F5F5E2E2E2E2E2E2E2E2F5F5F5E2E2F5F5F5E2F5F5F5F5F5F5F5F5F5F5
310
F5F5F5F5F5F5F5F5F5F5F5F5F5F5F5F5F5F5F5F5F5F5F5F5F5F5F5F5F5F5F5F5F5F5F5F5F5F5F5F5F5F5F5F5F5F5F5F5F5F5F5F5F5F5F5F5F5F5F5F5F5F5F5F5F5F5F5F5F5F5F5F5F5F5F5F5F5F5F5F5F5F5F5F5F5F5F5F5F5F5F5F5F5F5F5F5F5F5F5F5F5F5F5F5F5F5F5F5F5F5F5F5F5F5F5F5F5F5F5F5F5F5F5F5F5F5F5
310
F5F5F5F5F5F5F5F5F5F5F5F5F5F5F5F5F5F5F5F5F5F5F5F5F5F5F5F5F5F5F5F5F5E2F5F5F5E2E2F5F5F5E2F5F5F5F5F5F5F5F5F5F5F5F5F5F5F5F5F5F5F5F5F5F5F5F5F5F5F5F5F5F5F5F5F5F5F5F5F5F5F5F5F5F5F5F5F5F5F5F5F5F5F5F5F5F5F5F5F5F5F5F5F5F5F5F5F5F5F5F5F5F5F5F5F5F5F5F5F5F5F5F5F5F5F5F5
310
F5F5F5F5F5F5F5F5F5F5F5F5F5F5F5F5F5F5F5F5F5F5F5F5F5F5F5F5F5F5F5F5F5F5F5F5F5F5F5F5F5F5F5F5F5F5F5F5F5F5F5F5F5F5F5F5F5F5F5F5F5F5F5F5F5F5F5F5F5F5F5F5F5F5F5F5F5F5F5F5F5F5F5F5F5F5E2F5F5F5E2E2F5F5F5E2F5F5F5F5F5F5F5F5F5F5F5F5F5F5F5F5F5F5F5F5F5F5F5F5F5F5F5F5F5F5F5
310
F5F5F5F5F5F5F5F5F5F5F5F5F5F5F5F5F5F5F5F5F5F5F5F5F5F5F5F5F5F5F5F5F5F5F5F5F5F5F5F5F5F5F5F5F5F5F5F5F5F5F5F5F5F5F5F5F5F5F5F5F5F5F5F5F5F5F5F5F5F5F5F5F5F5F5F5F5F5F5F5F5F5F5F5F5F5F5F5F5F5F5F5F5F5F5F5F5F5F5F5F5F5F5F5F5F5F5F5F5F5F5F5F5F5F5F5F5F5F5F5F5F5F5F5F5F5F5
310
F5F5F5F5F5F5F5F5F5F5F5F5E2F5F5F5E2E2F5F5F5E2F5F5F5F5F5F5F5F5F5F5F5F5F5F5F5F5F5F5F5F5F5F5F5F5F5F5F5F5F5F5F5F5F5F5F5F5F5F5F5F5F5F5F5F5F5F5F5F5F5F5F5F5F5F5F5F5F5F5F5F5F5F5F5F5F5F5F5F5F5F5F5F5F5F5F5F5F5F5F5F5F5F5F5F5F5F5F5F5F5F5F5F5F5F5F5F5F5F5F5F5F5F5F5F5F5
310
F5F5F5F5F5F5F5F5F5F5F5F5F5F5F5F5F5F5F5F5F5F5F5F5F5F5F5F5F5F5F5F5F5F5F5F5F5F5F5F5F5F5F5F5F5F5F5F5F5F5F5F5F5F5F5F5F5F5F5F5F5F5F5F5F5E2F5F5F5E2E2F5F5F5E2F5F5F5F5F5F5F5F5F5F5F5F5F5F5F5F5F5F5F5F5F5F5F5F5F5F5F5F5F5F5F5F5F5F5F5F5F5F5F5F5F5F5F5F5F5F5F5F5F5F5F5F5
310
F5F5F5F5F5F5F5F5F5F5F5F5F5F5F5F5F5F5F5F5F5F5F5F5F5F5F5F5F5F5F5F5F5F5F5F5F5F5F5F5F5F5F5F5F5F5F5F5F5F5F5F5F5F5F5F5F5F5F5F5F5F5F5F5F5F5F5F5F5F5F5F5F5F5F5F5F5F5F5F5F5F5F5F5F5F5F5F5F5F5F5F5F5F5F5F5F5F5F5F5F5F5F5F5F5F5F5F5F5F5F5F5F5F5F5F5F5F5E2F5F5F5E2E2F5F5F5
310
E2F5F5F5F5F5F5F5F5F5F5F5F5F5F5F5F5F5F5F5F5F5F5F5F5F5F5F5F5F5F5F5F5F5F5F5F5F5F5F5F5F5F5F5F5F5F5F5F5F5F5F5F5F5F5F5F5F5F5F5F5F5F5F5F5F5F5F5F5F5F5F5F5F5F5F5F5F5F5F5F5F5F5F5F5F5F5F5F5F5F5F5F5F5F5F5F5F5F5F5F5F5F5F5F5F5F5F5F5F5F5F5F5F5F5F5F5F5F5F5F5F5F5F5F5F5F5
310
F5F5F5F5F5F5F5F5F5F5F5F5F5F5F5F5F5F5F5F5F5F5F5F5F5F5F5F5F5F5F5F5F5F5F5F5F5F5F5F5F5F5F5F5E2F5F5F5E2E2F5F5F5E2F5F5F5F5F5F5F5F5F5F5F5F5F5F5F5F5F5F5F5F5F5F5F5F5F5F5F5F5F5F5F5F5F5F5F5F5F5F5F5F5F5F5F5F5F5F5F5F5F5F5F5F5F5F5F5F5F5F5F5F5F5F5F5F5F5F5F5F5F5F5F5F5F5
310
F5F5F5F5F5F5F5F5F5F5F5F5F5F5F5F5F5F5F5F5F5F5F5F5F5F5F5F5F5F5F5F5F5F5F5F5F5F5F5F5F5F5F5F5F5F5F5F5F5F5F5F5F5F5F5F5F5F5F5F5F5F5F5F5F5F5F5F5F5F5F5F5F5F5F5F5F5F5F5F5F5F5F5F5F5F5F5F5F5F5F5F5F5F5F5F5F5E2F5F5F5E2E2F5F5F5E2F5F5F5F5F5F5F5F5F5F5F5F5F5F5F5F5F5F5F5F5
310
F5F5F5F5F5F5F5F5F5F5F5F5F5F5F5F5F5F5F5F5F5F5F5F5F5F5F5F5F5F5F5F5F5F5F5F5F5F5F5F5F5F5F5F5F5F5F5F5F5F5F5F5F5F5F5F5F5F5F5F5F5F5F5F5F5F5F5F5F5F5F5F5F5F5F5F5F5F5F5F5F5F5F5F5F5F5F5F5F5F5F5F5F5F5F5F5F5F5F5F5F5F5F5F5F5F5F5F5F5F5F5F5F5F5F5F5F5F5F5F5F5F5F5F5F5F5F5
310
F5F5F5F5F5F5F5F5F5F5F5F5F5F5F5F5F5F5F5F5F5F5F5E2F5F5F5E2E2F5F5F5F5F5F5F5F5F5F5F5F5F5F5F5F5F5F5F5F5F5F5F5F5F5F5F5F5F5F5F5F5F5F5F5F5F5F5F5F5F5F5F5F5F5F5F5F5F5F5F5F5F5F5F5F5F5F5F5F5F5F5F5F5F5F5F5F5F5F5F5F5F5F5F5F5F5F5F5F5F5F5F5F5F5F5F5F5F5F5F5F5F5F5F5F5F5F5
310
F5F5F5F5F5F5F5F5F5F5F5F5F5F5F5F5F5F5F5F5F5F5F5F5F5F5F5F5F5F5F5F5F5F5F5F5F5F5F5F5F5F5F5F5F5F5F5F5F5F5F5F5F5F5F5F5F5F5F5F5F5F5F5F5F5F5F5F5F5F5F5F5F5F5F5F5F5F5F5F5E2E2F5F5F5F5F5F5F5F5F5F5F5F5F5F5F5F5F5F5F5F5F5F5F5F5F5F5F5F5F5F5F5F5F5F5F5F5F5F5F5F5F5F5F5F5F5
310
F5F5F5F5F5F5F5F5F5F5F5F5F5F5F5F5F5F5F5F5F5F5F5F5F5F5F5F5F5F5F5F5F5F5F5F5F5F5F5F5F5F5F5F5F5F5F5F5F5F5F5F5F5F5F5F5F5F5F5F5F5F5F5F5F5F5F5F5F5F5F5F5F5F5F5F5F5F5F5F5F5F5F5F5F5F5F5F5F5F5F5F5F5F5F5F5F5F5F5F5F5F5F5F5F5F5F5F5F5F5F5F5F5F5F5F5F5F5F5F5F5F5F5F5F5F5F5
310
F5F5F5F5F5F5E2E2F5F5F5F5F5F5F5F5F5F5F5F5F5F5F5F5F5F5F5F5F5F5F5F5F5F5F5F5F5F5F5F5F5F5F5F5F5F5F5F5F5F5F5F5F5F5F5F5F5F5F5F5F5F5F5F5F5F5F5F5F5F5F5F5F5F5F5F5F5F5F5F5F5F5F5F5F5F5F5F5F5F5F5F5F5F5F5F5F5F5F5F5F5F5F5F5F5F5F5F5F5F5F5F5F5F5F5F5F5F5F5F5F5F5F5F5F5F5F5
310
F5F5F5F5F5F5F5F5F5F5F5F5F5F5F5F5F5F5F5F5F5F5F5F5F5F5F5F5F5F5F5F5F5F5F5F5F5F5F5F5F5F5F5F5F5F5F5F5F5F5F5F5F5F5F5F5F5F5F5E2E2F5F5F5F5F5F5F5F5F5F5F5F5F5F5F5F5F5F5F5F5F5F5F5F5F5F5F5F5F5F5F5F5F5F5F5F5F5F5F5F5F5F5F5F5F5F5F5F5F5F5F5F5F5F5F5F5F5F5F5F5F5F5F5F5F5F5
310
F5F5F5F5F5F5F5F5F5F5F5F5F5F5F5F5F5F5F5F5F5F5F5F5F5F5F5F5F5F5F5F5F5F5F5F5F5F5F5F5F5F5F5F5F5F5F5F5F5F5F5F5F5F5F5F5F5F5F5F5F5F5F5F5F5F5F5F5F5F5F5F5F5F5F5F5F5F5F5F5F5F5F5F5F5F5F5F5F5F5F5F5F5F5F5F5F5F5F5F5F5F5F5F5F5F5F5F5F5F5F5F5E2E2F5F5F5F5F5F5F5F5F5F5F5F5F5
310
F5F5F5F5F5F5F5F5F5F5F5F5F5F5F5F5F5F5F5F5F5F5F5F5F5F5F5F5F5F5F5F5F5F5F5F5F5F5F5F5F5F5F5F5F5F5F5F5F5F5F5F5F5F5F5F5F5F5F5F5F5F5F5F5F5F5F5F5F5F5F5F5F5F5F5F5F5F5F5F5F5F5F5F5F5F5F5F5F5F5F5F5F5F5F5F5F5F5F5F5F5F5F5F5F5F5F5F5F5F5F5F5F5F5F5F5F5F5F5F5F5F5F5F5F5F5F5
310
F5F5F5F5F5F5F5F5F5F5F5F5F5F5F5F5F5F5F5F5F5F5F5F5F5F5F5F5F5F5F5F5F5F5F5F5F5F5E2E2F5F5F5F5F5F5F5F5F5F5F5F5F5F5F5F5F5F5F5F5F5F5F5F5F5F5F5F5F5F5F5F5F5F5F5F5F5F5F5F5F5F5F5F5F5F5F5F5F5F5F5F5F5F5F5F5F5F5F5F5F5F5F5F5F5F5F5F5F5F5F5F5F5F5F5F5F5F5F5F5F5F5F5F5F5F5F5
310
F5F5F5F5F5F5F5F5F5F5F5F5F5F5F5F5F5F5F5F5F5F5F5F5F5F5F5F5F5F5F5F5F5F5F5F5F5F5F5F5F5F5F5F5F5F5F5F5F5F5F5F5F5F5F5F5F5F5F5F5F5F5F5F5F5F5F5F5F5F5F5F5F5F5F5F5F5F5F5F5F5F5F5F5F5F5F5F5F5F5F5E2E2F5F5F5F5F5F5F5F5F5F5F5F5F5F5F5F5F5F5F5F5F5F5F5F5F5F5F5F5F5F5F5F5F5F5
310
F5F5F5F5F5F5F5F5F5F5F5F5F5F5F5F5F5F5F5F5F5F5F5F5F5F5F5F5F5F5F5F5F5F5F5F5F5F5F5F5F5F5F5F5F5F5F5F5F5F5F5F5F5F5F5F5F5F5F5F5F5F5F5F5F5F5F5F5F5F5F5F5F5F5F5F5F5F5F5F5F5F5F5F5F5F5F5F5F5F5F5F5F5F5F5F5F5F5F5F5F5F5F5F5F5F5F5F5F5F5F5F5F5F5F5F5F5F5F5F5F5F5F5F5F5F5F5
310
F5F5F5F5F5F5F5F5F5F5F5F5F5F5F5F5F5E2E2F5F5F5F5F5F5F5F5F5F5F5F5F5F5F5F5F5F5F5F5F5F5F5F5F5F5F5F5F5F5F5F5F5F5F5F5F5F5F5F5F5F5F5F5F5F5F5F5F5F5F5F5F5F5F5F5F5F5F5F5F5F5F5F5F5F5F5F5F5F5F5F5F5F5F5F5F5F5F5F5F5F5F5F5F5F5F5F5F5F5F5F5F5F5F5F5F5F5F5F5F5F5F5F5F5F5F5F5
310
F5F5F5F5F5F5F5F5F5F5F5F5F5F5F5F5F5F5F5F5F5F5F5F5F5F5F5F5F5F5F5F5F5F5F5F5F5F5F5F5F5F5F5F5F5F5F5F5F5F5F5F5F5F5F5F5F5F5F5F5F5F5F5F5F5F5F5F5F5F5E2E2F5F5F5F5F5F5F5F5F5F5F5F5F5F5F5F5F5F5F5F5F5F5F5F5F5F5F5F5F5F5F5F5F5F5F5F5F5F5F5F5F5F5F5F5F5F5F5F5F5F5F5F5F5F5F5
310
F5F5F5F5F5F5F5F5F5F5F5F5F5F5F5F5F5F5F5F5F5F5F5F5F5F5F5F5F5F5F5F5F5F5F5F5F5F5F5F5F5F5F5F5F5F5F5F5F5F5F5F5F5F5F5F5F5F5F5F5F5F5F5F5F5F5F5F5F5F5F5F5F5F5F5F5F5F5F5F5F5F5F5F5F5F5F5F5F5F5F5F5F5F5F5F5F5F5F5F5F5F5F5F5F5F5F5F5F5F5F5F5F5F5F5F5F5F5F5F5F5F5F5E2E2F5F5
310
F5E2F5F5F5F5F5F5F5F5F5F5F5F5F5F5F5F5F5F5F5F5F5F5F5F5F5F5F5F5F5F5F5F5F5F5F5F5F5F5F5F5F5F5F5F5F5F5F5F5F5F5F5F5F5F5F5F5F5F5F5F5F5F5F5F5F5F5F5F5F5F5F5F5F5F5F5F5F5F5F5F5F5F5F5F5F5F5F5F5F5F5F5F5F5F5F5F5F5F5F5F5F5F5F5F5F5F5F5F5F5F5F5F5F5F5F5F5F5F5F5F5F5F5F5F5F5
310
F5F5F5F5F5F5F5F5F5F5F5F5F5F5F5F5F5F5F5F5F5F5F5F5F5F5F5F5F5F5F5F5F5F5F5F5F5F5F5F5F5F5F5F5F5E2F5F5F5E2E2F5F5F5E2F5F5F5F5F5F5F5F5F5F5F5F5F5F5F5F5F5F5F5F5F5F5F5F5F5F5F5F5F5F5F5F5F5F5F5F5F5F5F5F5F5F5F5F5F5F5F5F5F5F5F5F5F5F5F5F5F5F5F5F5F5F5F5F5F5F5F5F5F5F5F5F5
310
F5F5F5F5F5F5F5F5F5F5F5F5F5F5F5F5F5F5F5F5F5F5F5F5F5F5F5F5F5F5F5F5F5F5F5F5F5F5F5F5F5F5F5F5F5F5F5F5F5F5F5F5F5F5F5F5F5F5F5F5F5F5F5F5F5F5F5F5F5F5F5F5F5F5F5F5F5F5F5F5F5F5F5F5F5F5F5F5F5F5F5F5F5F5F5F5F5F5E2F5F5F5E2E2F5F5F5E2F5F5F5F5F5F5F5F5F5F5F5F5F5F5F5F5F5F5F5
310
F5F5F5F5F5F5F5F5F5F5F5F5F5F5F5F5F5F5F5F5F5F5F5F5F5F5F5F5F5F5F5F5F5F5F5F5F5F5F5F5F5F5F5F5F5F5F5F5F5F5F5F5F5F5F5F5F5F5F5F5F5F5F5F5F5F5F5F5F5F5F5F5F5F5F5F5F5F5F5F5F5F5F5F5F5F5F5F5F5F5F5F5F5F5F5F5F5F5F5F5F5F5F5F5F5F5F5F5F5F5F5F5F5F5F5F5F5F5F5F5F5F5F5F5F5F5F5
310
F5F5F5F5F5F5F5F5F5F5F5F5F5F5F5F5F5F5F5F5F5F5F5F5E2F5F5F5E2E2F5F5F5E2F5F5F5F5F5F5F5F5F5F5F5F5F5F5F5F5F5F5F5F5F5F5F5F5F5F5F5F5F5F5F5F5F5F5F5F5F5F5F5F5F5F5F5F5F5F5F5F5F5F5F5F5F5F5F5F5F5F5F5F5F5F5F5F5F5F5F5F5F5F5F5F5F5F5F5F5F5F5F5F5F5F5F5F5F5F5F5F5F5F5F5F5F5
310
F5F5F5F5F5F5F5F5F5F5F5F5F5F5F5F5F5F5F5F5F5F5F5F5F5F5F5F5F5F5F5F5F5F5F5F5F5F5F5F5F5F5F5F5F5F5F5F5F5F5F5F5F5F5F5F5F5F5F5F5F5F5F5F5F5F5F5F5F5F5F5F5F5F5F5F5F5E2F5F5F5E2E2F5F5F5E2F5F5F5F5F5F5F5F5F5F5F5F5F5F5F5F5F5F5F5F5F5F5F5F5F5F5F5F5F5F5F5F5F5F5F5F5F5F5F5F5
310
F5F5F5F5F5F5F5F5F5F5F5F5F5F5F5F5F5F5F5F5F5F5F5F5F5F5F5F5F5F5F5F5F5F5F5F5F5F5F5F5F5F5F5F5F5F5F5F5F5F5F5F5F5F5F5F5F5F5F5F5F5F5F5F5F5F5F5F5F5F5F5F5F5F5F5F5F5F5F5F5F5F5F5F5F5F5F5F5F5F5F5F5F5F5F5F5F5F5F5F5F5F5F5F5F5F5F5F5F5F5F5F5F5F5F5F5F5F5F5F5F5F5F5F5F5F5F5
310
F5F5F5E2F5F5F5E2E2F5F5F5E2F5F5F5F5F5F5F5F5F5F5F5F5F5F5F5F5F5F5F5F5F5F5F5F5F5F5F5F5F5F5F5F5F5F5F5F5F5F5F5F5F5F5F5F5F5F5F5F5F5F5F5F5F5F5F5F5F5F5F5F5F5F5F5F5F5F5F5F5F5F5F5F5F5F5F5F5F5F5F5F5F5F5F5F5F5F5F5F5F5F5F5F5F5F5F5F5F5F5F5F5F5F5F5F5F5F5F5F5F5F5F5F5F5F5
310
F5F5F5F5F5F5F5F5F5F5F5F5F5F5F5F5F5F5F5F5F5F5F5F5F5F5F5F5F5F5F5F5F5F5F5F5F5F5F5F5F5F5F5F5F5F5F5F5F5F5F5F5F5F5F5F5E2F5F5F5E2E2F5F5F5E2F5F5F5F5F5F5F5F5F5F5F5F5F5F5F5F5F5F5F5F5F5F5F5F5F5F5F5F5F5F5F5F5F5F5F5F5F5F5F5F5F5F5F5F5F5F5F5F5F5F5F5F5F5F5F5F5F5F5F5F5F5
310
F5F5F5F5F5F5F5F5F5F5F5F5F5F5F5F5F5F5F5F5F5F5F5F5F5F5F5F5F5F5F5F5F5F5F5F5F5F5F5F5F5F5F5F5F5F5F5F5F5F5F5F5F5F5F5F5F5F5F5F5F5F5F5F5F5F5F5F5F5F5F5F5F5F5F5F5F5F5F5F5F5F5F5F5F5F5F5F5F5F5F5F5F5F5F5F5F5F5F5F5F5F5F5F5F5F5F5F5F5E2F5F5F5E2E2F5F5F5E2F5F5F5F5F5F5F5F5
310
F5F5F5F5F5F5F5F5F5F5F5F5F5F5F5F5F5F5F5F5F5F5F5F5F5F5F5F5F5F5F5F5F5F5F5F5F5F5F5F5F5F5F5F5F5F5F5F5F5F5F5F5F5F5F5F5F5F5F5F5F5F5F5F5F5F5F5F5F5F5F5F5F5F5F5F5F5F5F5F5F5F5F5F5F5F5F5F5F5F5F5F5F5F5F5F5F5F5F5F5F5F5F5F5F5F5F5F5F5F5F5F5F5F5F5F5F5F5F5F5F5F5F5F5F5F5F5
310
F5F5F5F5F5F5F5F5F5F5F5F5F5F5F5F5F5F5F5F5F5F5F5F5F5F5F5F5F5F5F5F5F5F5F5E2F5F5F5E2E2F5F5F5E2F5F5F5F5F5F5F5F5F5F5F5F5F5F5F5F5F5F5F5F5F5F5F5F5F5F5F5F5F5F5F5F5F5F5F5F5F5F5F5F5F5F5F5F5F5F5F5F5F5F5F5F5F5F5F5F5F5F5F5F5F5F5F5F5F5F5F5F5F5F5F5F5F5F5F5F5F5F5F5F5F5F5
310
F5F5F5F5F5F5F5F5F5F5F5F5F5F5F5F5F5F5F5F5F5F5F5F5F5F5F5F5F5F5F5F5F5F5F5F5F5F5F5F5F5F5F5F5F5F5F5F5F5F5F5F5F5F5F5F5F5F5F5F5F5F5F5F5F5F5F5F5F5F5F5F5F5F5F5F5F5F5F5F5F5F5F5F5F5F5F5F5E2F5F5F5E2E2F5F5F5E2F5F5F5F5F5F5F5F5F5F5F5F5F5F5F5F5F5F5F5F5F5F5F5F5F5F5F5F5F5
310
F5F5F5F5F5F5F5F5F5F5F5F5F5F5F5F5F5F5F5F5F5F5F5F5F5F5F5F5F5F5F5F5F5F5F5F5F5F5F5F5F5F5F5F5F5F5F5F5F5F5F5F5F5F5F5F5F5F5F5F5F5F5F5F5F5F5F5F5F5F5F5F5F5F5F5F5F5F5F5F5F5F5F5F5F5F5F5F5F5F5F5F5F5F5F5F5F5F5F5F5F5F5F5F5F5F5F5F5F5F5F5F5F5F5F5F5F5F5F5F5F5F5F5F5F5F5F5
310
F5F5F5F5F5F5F5F5F5F5F5F5F5F5E2F5F5F5E2E2F5F5F5E2F5F5F5F5F5F5F5F5F5F5F5F5F5F5F5F5F5F5F5F5F5F5F5F5F5F5F5F5F5F5F5F5F5F5F5F5F5F5F5F5F5F5F5F5F5F5F5F5F5F5F5F5F5F5F5F5F5F5F5F5F5F5F5F5F5F5F5F5F5F5F5F5F5F5F5F5F5F5F5F5F5F5F5F5F5F5F5F5F5F5F5F5F5F5F5F5F5F5F5F5F5F5F5
310
F5F5F5F5F5F5F5F5F5F5F5F5F5F5F5F5F5F5F5F5F5F5F5F5F5F5F5F5F5F5F5F5F5F5F5F5F5F5F5F5F5F5F5F5F5F5F5F5F5F5F5F5F5F5F5F5F5F5F5F5F5F5F5F5F5F5F5E2F5F5F5E2E2F5F5F5E2F5F5F5F5F5F5F5F5F5F5F5F5F5F5F5F5F5F5F5F5F5F5F5F5F5F5F5F5F5F5F5F5F5F5F5F5F5F5F5F5F5F5F5F5F5F5F5F5F5F5
310
F5F5F5F5F5F5F5F5F5F5F5F5F5F5F5F5F5F5F5F5F5F5F5F5F5F5F5F5F5F5F5F5F5F5F5F5F5F5F5F5F5F5F5F5F5F5F5F5F5F5F5F5F5F5F5F5F5F5F5F5F5F5F5F5F5F5F5F5F5F5F5F5F5F5F5F5F5F5F5F5F5F5F5F5F5F5F5F5F5F5F5F5F5F5F5F5F5F5F5F5F5F5F5F5F5F5F5F5F5F5F5F5F5F5F5F5F5F5F5F5E2F5F5F5E2E2F5
310
F5F5E2F5F5F5F5F5F5F5F5F5F5F5F5F5F5F5F5F5F5F5F5F5F5F5F5F5F5F5F5F5F5F5F5F5F5F5F5F5F5F5F5F5F5F5F5F5F5F5F5F5F5F5F5F5F5F5F5F5F5F5F5F5F5F5F5F5F5F5F5F5F5F5F5F5F5F5F5F5F5F5F5F5F5F5F5F5F5F5F5F5F5F5F5F5F5F5F5F5F5F5F5F5F5F5F5F5F5F5F5F5F5F5F5F5F5F5F5F5F5F5F5F5F5F5F5
310
F5F5F5F5F5F5F5F5F5F5F5F5F5F5F5F5F5F5F5F5F5F5F5F5F5F5F5F5F5F5F5F5F5F5F5F5F5F5F5F5F5F5F5F5F5F5E2F5F5F5E2E2F5F5F5E2F5F5F5F5F5F5F5F5F5F5F5F5F5F5F5F5F5F5F5F5F5F5F5F5F5F5F5F5F5F5F5F5F5F5F5F5F5F5F5F5F5F5F5F5F5F5F5F5F5F5F5F5F5F5F5F5F5F5F5F5F5F5F5F5F5F5F5F5F5F5F5
310
F5F5F5F5F5F5F5F5F5F5F5F5F5F5F5F5F5F5F5F5F5F5F5F5F5F5F5F5F5F5F5F5F5F5F5F5F5F5F5F5F5F5F5F5F5F5F5F5F5F5F5F5F5F5F5F5F5F5F5F5F5F5F5F5F5F5F5F5F5F5F5F5F5F5F5F5F5F5F5F5F5F5F5F5F5F5F5F5F5F5F5F5F5F5F5F5F5F5F5E2F5F5F5E2E2F5F5F5E2F5F5F5F5F5F5F5F5F5F5F5F5F5F5F5F5F5F5
310
F5F5F5F5F5F5F5F5F5F5F5F5F5F5F5F5F5F5F5F5F5F5F5F5F5F5F5F5F5F5F5F5F5F5F5F5F5F5F5F5F5F5F5F5F5F5F5F5F5F5F5F5F5F5F5F5F5F5F5F5F5F5F5F5F5F5F5F5F5F5F5F5F5F5F5F5F5F5F5F5F5F5F5F5F5F5F5F5F5F5F5F5F5F5F5F5F5F5F5F5F5F5F5F5F5F5F5F5F5F5F5F5F5F5F5F5F5F5F5F5F5F5F5F5F5F5F5
310
F5F5F5F5F5F5F5F5F5F5F5F5F5F5F5F5F5F5F5F5F5F5F5F5F5E2F5F5F5E2E2F5F5F5E2F5F5F5F5F5F5F5F5F5F5F5F5F5F5F5F5F5F5F5F5F5F5F5F5F5F5F5F5F5F5F5F5F5F5F5F5F5F5F5F5F5F5F5F5F5F5F5F5F5F5F5F5F5F5F5F5F5F5F5F5F5F5F5F5F5F5F5F5F5F5F5F5F5F5F5F5F5F5F5F5F5F5F5F5F5F5F5F5F5F5F5F5
310
F5F5F5F5F5F5F5F5F5F5F5F5F5F5F5F5F5F5F5F5F5F5F5F5F5F5F5F5F5F5F5F5F5F5F5F5F5F5F5F5F5F5F5F5F5F5F5F5F5F5F5F5F5F5F5F5F5F5F5F5F5F5F5F5F5F5F5F5F5F5F5F5F5F5F5F5F5F5E2F5F5F5E2E2F5F5F5F5F5F5F5F5F5F5F5F5F5F5F5F5F5F5F5F5F5F5F5F5F5F5F5F5F5F5F5F5F5F5F5F5F5F5F5F5F5F5F5
310
F5F5F5F5F5F5F5F5F5F5F5F5F5F5F5F5F5F5F5F5F5F5F5F5F5F5F5F5F5F5F5F5F5F5F5F5F5F5F5F5F5F5F5F5F5F5F5F5F5F5F5F5F5F5F5F5F5F5F5F5F5F5F5F5F5F5F5F5F5F5F5F5F5F5F5F5F5F5F5F5F5F5F5F5F5F5F5F5F5F5F5F5F5F5F5F5F5F5F5F5F5F5F5F5F5F5F5F5F5F5F5F5F5F5F5F5F5F5F5F5F5F5F5F5F5F5F5
310
F5F5F5F5F5F5F5F5E2E2F5F5F5F5F5F5F5F5F5F5F5F5F5F5F5F5F5F5F5F5F5F5F5F5F5F5F5F5F5F5F5F5F5F5F5F5F5F5F5F5F5F5F5F5F5F5F5F5F5F5F5F5F5F5F5F5F5F5F5F5F5F5F5F5F5F5F5F5F5F5F5F5F5F5F5F5F5F5F5F5F5F5F5F5F5F5F5F5F5F5F5F5F5F5F5F5F5F5F5F5F5F5F5F5F5F5F5F5F5F5F5F5F5F5F5F5F5
310
F5F5F5F5F5F5F5F5F5F5F5F5F5F5F5F5F5F5F5F5F5F5F5F5F5F5F5F5F5F5F5F5F5F5F5F5F5F5F5F5F5F5F5F5F5F5F5F5F5F5F5F5F5F5F5F5F5F5F5F5F5E2E2F5F5F5F5F5F5F5F5F5F5F5F5F5F5F5F5F5F5F5F5F5F5F5F5F5F5F5F5F5F5F5F5F5F5F5F5F5F5F5F5F5F5F5F5F5F5F5F5F5F5F5F5F5F5F5F5F5F5F5F5F5F5F5F5
310
F5F5F5F5F5F5F5F5F5F5F5F5F5F5F5F5F5F5F5F5F5F5F5F5F5F5F5F5F5F5F5F5F5F5F5F5F5F5F5F5F5F5F5F5F5F5F5F5F5F5F5F5F5F5F5F5F5F5F5F5F5F5F5F5F5F5F5F5F5F5F5F5F5F5F5F5F5F5F5F5F5F5F5F5F5F5F5F5F5F5F5F5F5F5F5F5F5F5F5F5F5F5F5F5F5F5F5F5F5F5F5F5F5F5E2E2F5F5F5F5F5F5F5F5F5F5F5
310
F5F5F5F5F5F5F5F5F5F5F5F5F5F5F5F5F5F5F5F5F5F5F5F5F5F5F5F5F5F5F5F5F5F5F5F5F5F5F5F5F5F5F5F5F5F5F5F5F5F5F5F5F5F5F5F5F5F5F5F5F5F5F5F5F5F5F5F5F5F5F5F5F5F5F5F5F5F5F5F5F5F5F5F5F5F5F5F5F5F5F5F5F5F5F5F5F5F5F5F5F5F5F5F5F5F5F5F5F5F5F5F5F5F5F5F5F5F5F5F5F5F5F5F5F5F5F5
310
F5F5F5F5F5F5F5F5F5F5F5F5F5F5F5F5F5F5F5F5F5F5F5F5F5F5F5F5F5F5F5F5F5F5F5F5F5F5F5F5E2E2F5F5F5F5F5F5F5F5F5F5F5F5F5F5F5F5F5F5F5F5F5F5F5F5F5F5F5F5F5F5F5F5F5F5F5F5F5F5F5F5F5F5F5F5F5F5F5F5F5F5F5F5F5F5F5F5F5F5F5F5F5F5F5F5F5F5F5F5F5F5F5F5F5F5F5F5F5F5F5F5F5F5F5F5F5
310
F5F5F5F5F5F5F5F5F5F5F5F5F5F5F5F5F5F5F5F5F5F5F5F5F5F5F5F5F5F5F5F5F5F5F5F5F5F5F5F5F5F5F5F5F5F5F5F5F5F5F5F5F5F5F5F5F5F5F5F5F5F5F5F5F5F5F5F5F5F5F5F5F5F5F5F5F5F5F5F5F5F5F5F5F5F5F5F5F5F5F5F5F5E2E2F5F5F5F5F5F5F5F5F5F5F5F5F5F5F5F5F5F5F5F5F5F5F5F5F5F5F5F5F5F5F5F5
310
F5F5F5F5F5F5F5F5F5F5F5F5F5F5F5F5F5F5F5F5F5F5F5F5F5F5F5F5F5F5F5F5F5F5F5F5F5F5F5F5F5F5F5F5F5F5F5F5F5F5F5F5F5F5F5F5F5F5F5F5F5F5F5F5F5F5F5F5F5F5F5F5F5F5F5F5F5F5F5F5F5F5F5F5F5F5F5F5F5F5F5F5F5F5F5F5F5F5F5F5F5F5F5F5F5F5F5F5F5F5F5F5F5F5F5F5F5F5F5F5F5F5F5F5F5F5F5
310
F5F5F5F5F5F5F5F5F5F5F5F5F5F5F5F5F5F5F5E2E2F5F5F5F5F5F5F5F5F5F5F5F5F5F5F5F5F5F5F5F5F5F5F5F5F5F5F5F5F5F5F5F5F5F5F5F5F5F5F5F5F5F5F5F5F5F5F5F5F5F5F5F5F5F5F5F5F5F5F5F5F5F5F5F5F5F5F5F5F5F5F5F5F5F5F5F5F5F5F5F5F5F5F5F5F5F5F5F5F5F5F5F5F5F5F5F5F5F5F5F5F5F5F5F5F5F5
310
F5F5F5F5F5F5F5F5F5F5F5F5F5F5F5F5F5F5F5F5F5F5F5F5F5F5F5F5F5F5F5F5F5F5F5F5F5F5F5F5F5F5F5F5F5F5F5F5F5F5F5F5F5F5F5F5F5F5F5F5F5F5F5F5F5F5F5F5F5F5F5F5E2E2F5F5F5F5F5F5F5F5F5F5F5F5F5F5F5F5F5F5F5F5F5F5F5F5F5F5F5F5F5F5F5F5F5F5F5F5F5F5F5F5F5F5F5F5F5F5F5F5F5F5F5F5F5
310
F5F5F5F5F5F5F5F5F5F5F5F5F5F5F5F5F5F5F5F5F5F5F5F5F5F5F5F5F5F5F5F5F5F5F5F5F5F5F5F5F5F5F5F5F5F5F5F5F5F5F5F5F5F5F5F5F5F5F5F5F5F5F5F5F5F5F5F5F5F5F5F5F5F5F5F5F5F5F5F5F5F5F5F5F5F5F5F5F5F5F5F5F5F5F5F5F5F5F5F5F5F5F5F5F5F5F5F5F5F5F5F5F5F5F5F5F5F5F5F5F5F5F5F5F5E2E2
310
F5F5F5F5F5F5F5F5F5F5F5F5F5F5F5F5F5F5F5F5F5F5F5F5F5F5F5F5F5F5F5F5F5F5F5F5F5F5F5F5F5F5F5F5F5F5F5F5F5F5F5F5F5F5F5F5F5F5F5F5F5F5F5F5F5F5F5F5F5F5F5F5F5F5F5F5F5F5F5F5F5F5F5F5F5F5F5F5F5F5F5F5F5F5F5F5F5F5F5F5F5F5F5F5F5F5F5F5F5F5F5F5F5F5F5F5F5F5F5F5F5F5F5F5F5F5F5
310
F5F5F5F5F5F5F5F5F5F5F5F5F5F5F5F5F5F5F5F5F5F5F5F5F5F5F5F5F5F5F5F5F5F5F5F5F5F5F5F5F5F5F5F5F5F5F5F5F5F5F5E2E2F5F5F5F5F5F5F5F5F5F5F5F5F5F5F5F5F5F5F5F5F5F5F5F5F5F5F5F5F5F5F5F5F5F5F5F5F5F5F5F5F5F5F5F5F5F5F5F5F5F5F5F5F5F5F5F5F5F5F5F5F5F5F5F5F5F5F5F5F5F5F5F5F5F5
310
F5F5F5F5F5F5F5F5F5F5F5F5F5F5F5F5F5F5F5F5F5F5F5F5F5F5F5F5F5F5F5F5F5F5F5F5F5F5F5F5F5F5F5F5F5F5F5F5F5F5F5F5F5F5F5F5F5F5F5F5F5F5F5F5F5F5F5F5F5F5F5F5F5F5F5F5F5F5F5F5F5F5F5F5F5F5F5F5F5F5F5F5F5F5F5F5F5F5F5F5F5F5F5F5E2E2F5F5F5E2F5F5F5F5F5F5F5F5F5F5F5F5F5F5F5F5F5
310
F5F5F5F5F5F5F5F5F5F5F5F5F5F5F5F5F5F5F5F5F5F5F5F5F5F5F5F5F5F5F5F5F5F5F5F5F5F5F5F5F5F5F5F5F5F5F5F5F5F5F5F5F5F5F5F5F5F5F5F5F5F5F5F5F5F5F5F5F5F5F5F5F5F5F5F5F5F5F5F5F5F5F5F5F5F5F5F5F5F5F5F5F5F5F5F5F5F5F5F5F5F5F5F5F5F5F5F5F5F5F5F5F5F5F5F5F5F5F5F5F5F5F5F5F5F5F5
310
F5F5F5F5F5F5F5F5F5F5F5F5F5F5F5F5F5F5F5F5F5F5F5F5F5F5E2F5F5F5E2E2F5F5F5E2F5F5F5F5F5F5F5F5F5F5F5F5F5F5F5F5F5F5F5F5F5F5F5F5F5F5F5F5F5F5F5F5F5F5F5F5F5F5F5F5F5F5F5F5F5F5F5F5F5F5F5F5F5F5F5F5F5F5F5F5F5F5F5F5F5F5F5F5F5F5F5F5F5F5F5F5F5F5F5F5F5F5F5F5F5F5F5F5F5F5F5
310
F5F5F5F5F5F5F5F5F5F5F5F5F5F5F5F5F5F5F5F5F5F5F5F5F5F5F5F5F5F5F5F5F5F5F5F5F5F5F5F5F5F5F5F5F5F5F5F5F5F5F5F5F5F5F5F5F5F5F5F5F5F5F5F5F5F5F5F5F5F5F5F5F5F5F5F5F5F5F5E2F5F5F5E2E2F5F5F5E2F5F5F5F5F5F5F5F5F5F5F5F5F5F5F5F5F5F5F5F5F5F5F5F5F5F5F5F5F5F5F5F5F5F5F5F5F5F5
310
F5F5F5F5F5F5F5F5F5F5F5F5F5F5F5F5F5F5F5F5F5F5F5F5F5F5F5F5F5F5F5F5F5F5F5F5F5F5F5F5F5F5F5F5F5F5F5F5F5F5F5F5F5F5F5F5F5F5F5F5F5F5F5F5F5F5F5F5F5F5F5F5F5F5F5F5F5F5F5F5F5F5F5F5F5F5F5F5F5F5F5F5F5F5F5F5F5F5F5F5F5F5F5F5F5F5F5F5F5F5F5F5F5F5F5F5F5F5F5F5F5F5F5F5F5F5F5
310
F5F5F5F5F5E2F5F5F5E2E2F5F5F5E2F5F5F5F5F5F5F5F5F5F5F5F5F5F5F5F5F5F5F5F5F5F5F5F5F5F5F5F5F5F5F5F5F5F5F5F5F5F5F5F5F5F5F5F5F5F5F5F5F5F5F5F5F5F5F5F5F5F5F5F5F5F5F5F5F5F5F5F5F5F5F5F5F5F5F5F5F5F5F5F5F5F5F5F5F5F5F5F5F5F5F5F5F5F5F5F5F5F5F5F5F5F5F5F5F5F5F5F5F5F5F5F5
310
F5F5F5F5F5F5F5F5F5F5F5F5F5F5F5F5F5F5F5F5F5F5F5F5F5F5F5F5F5F5F5F5F5F5F5F5F5F5F5F5F5F5F5F5F5F5F5F5F5F5F5F5F5F5F5F5F5F5E2F5F5F5E2E2F5F5F5E2F5F5F5F5F5F5F5F5F5F5F5F5F5F5F5F5F5F5F5F5F5F5F5F5F5F5F5F5F5F5F5F5F5F5F5F5F5F5F5F5F5F5F5F5F5F5F5F5F5F5F5F5F5F5F5F5F5F5F5
310
F5F5F5F5F5F5F5F5F5F5F5F5F5F5F5F5F5F5F5F5F5F5F5F5F5F5F5F5F5F5F5F5F5F5F5F5F5F5F5F5F5F5F5F5F5F5F5F5F5F5F5F5F5F5F5F5F5F5F5F5F5F5F5F5F5F5F5F5F5F5F5F5F5F5F5F5F5F5F5F5F5F5F5F5F5F5F5F5F5F5F5F5F5F5F5F5F5F5F5F5F5F5F5F5F5F5F5F5F5F5F5E2F5F5F5E2E2F5F5F5E2F5F5F5F5F5F5
310
F5F5F5F5F5F5F5F5F5F5F5F5F5F5F5F5F5F5F5F5F5F5F5F5F5F5F5F5F5F5F5F5F5F5F5F5F5F5F5F5F5F5F5F5F5F5F5F5F5F5F5F5F5F5F5F5F5F5F5F5F5F5F5F5F5F5F5F5F5F5F5F5F5F5F5F5F5F5F5F5F5F5F5F5F5F5F5F5F5F5F5F5F5F5F5F5F5F5F5F5F5F5F5F5F5F5F5F5F5F5F5F5F5F5F5F5F5F5F5F5F5F5F5F5F5F5F5
310
F5F5F5F5F5F5F5F5F5F5F5F5F5F5F5F5F5F5F5F5F5F5F5F5F5F5F5F5F5F5F5F5F5F5F5F5F5E2F5F5F5E2E2F5F5F5E2F5F5F5F5F5F5F5F5F5F5F5F5F5F5F5F5F5F5F5F5F5F5F5F5F5F5F5F5F5F5F5F5F5F5F5F5F5F5F5F5F5F5F5F5F5F5F5F5F5F5F5F5F5F5F5F5F5F5F5F5F5F5F5F5F5F5F5F5F5F5F5F5F5F5F5F5F5F5F5F5
310
F5F5F5F5F5F5F5F5F5F5F5F5F5F5F5F5F5F5F5F5F5F5F5F5F5F5F5F5F5F5F5F5F5F5F5F5F5F5F5F5F5F5F5F5F5F5F5F5F5F5F5F5F5F5F5F5F5F5F5F5F5F5F5F5F5F5F5F5F5F5F5F5F5F5F5F5F5F5F5F5F5F5F5F5F5F5F5F5F5F5E2F5F5F5E2E2F5F5F5E2F5F5F5F5F5F5F5F5F5F5F5F5F5F5F5F5F5F5F5F5F5F5F5F5F5F5F5
310
F5F5F5F5F5F5F5F5F5F5F5F5F5F5F5F5F5F5F5F5F5F5F5F5F5F5F5F5F5F5F5F5F5F5F5F5F5F5F5F5F5F5F5F5F5F5F5F5F5F5F5F5F5F5F5F5F5F5F5F5F5F5F5F5F5F5F5F5F5F5F5F5F5F5F5F5F5F5F5F5F5F5F5F5F5F5F5F5F5F5F5F5F5F5F5F5F5F5F5F5F5F5F5F5F5F5F5F5F5F5F5F5F5F5F5F5F5F5F5F5F5F5F5F5F5F5F5
310
F5F5F5F5F5F5F5F5F5F5F5F5F5F5F5F5E2F5F5F5E2E2F5F5F5E2F5F5F5F5F5F5F5F5F5F5F5F5F5F5F5F5F5F5F5F5F5F5F5F5F5F5F5F5F5F5F5F5F5F5F5F5F5F5F5F5F5F5F5F5F5F5F5F5F5F5F5F5F5F5F5F5F5F5F5F5F5F5F5F5F5F5F5F5F5F5F5F5F5F5F5F5F5F5F5F5F5F5F5F5F5F5F5F5F5F5F5F5F5F5F5F5F5F5F5F5F5
310
F5F5F5F5F5F5F5F5F5F5F5F5F5F5F5F5F5F5F5F5F5F5F5F5F5F5F5F5F5F5F5F5F5F5F5F5F5F5F5F5F5F5F5F5F5F5F5F5F5F5F5F5F5F5F5F5F5F5F5F5F5F5F5F5F5F5F5F5F5E2F5F5F5E2E2F5F5F5E2F5F5F5F5F5F5F5F5F5F5F5F5F5F5F5F5F5F5F5F5F5F5F5F5F5F5F5F5F5F5F5F5F5F5F5F5F5F5F5F5F5F5F5F5F5F5F5F5
310
F5F5F5F5F5F5F5F5F5F5F5F5F5F5F5F5F5F5F5F5F5F5F5F5F5F5F5F5F5F5F5F5F5F5F5F5F5F5F5F5F5F5F5F5F5F5F5F5F5F5F5F5F5F5F5F5F5F5F5F5F5F5F5F5F5F5F5F5F5F5F5F5F5F5F5F5F5F5F5F5F5F5F5F5F5F5F5F5F5F5F5F5F5F5F5F5F5F5F5F5F5F5F5F5F5F5F5F5F5F5F5F5F5F5F5F5F5F5F5F5F5F5E2F5F5F5E2
310
E2F5F5F5E2F5F5F5F5F5F5F5F5F5F5F5F5F5F5F5F5F5F5F5F5F5F5F5F5F5F5F5F5F5F5F5F5F5F5F5F5F5F5F5F5F5F5F5F5F5F5F5F5F5F5F5F5F5F5F5F5F5F5F5F5F5F5F5F5F5F5F5F5F5F5F5F5F5F5F5F5F5F5F5F5F5F5F5F5F5F5F5F5F5F5F5F5F5F5F5F5F5F5F5F5F5F5F5F5F5F5F5F5F5F5F5F5F5F5F5F5F5F5F5F5F5F5
310
F5F5F5F5F5F5F5F5F5F5F5F5F5F5F5F5F5F5F5F5F5F5F5F5F5F5F5F5F5F5F5F5F5F5F5F5F5F5F5F5F5F5F5F5F5F5F5F5E2F5F5F5E2E2F5F5F5E2F5F5F5F5F5F5F5F5F5F5F5F5F5F5F5F5F5F5F5F5F5F5F5F5F5F5F5F5F5F5F5F5F5F5F5F5F5F5F5F5F5F5F5F5F5F5F5F5F5F5F5F5F5F5F5F5F5F5F5F5F5F5F5F5F5F5F5F5F5
310
F5F5F5F5F5F5F5F5F5F5F5F5F5F5F5F5F5F5F5F5F5F5F5F5F5F5F5F5F5F5F5F5F5F5F5F5F5F5F5F5F5F5F5F5F5F5F5F5F5F5F5F5F5F5F5F5F5F5F5F5F5F5F5F5F5F5F5F5F5F5F5F5F5F5F5F5F5F5F5F5F5F5F5F5F5F5F5F5F5F5F5F5F5F5F5F5F5F5F5F5F5E2F5F5F5E2E2F5F5F5E2F5F5F5F5F5F5F5F5F5F5F5F5F5F5F5F5
310
F5F5F5F5F5F5F5F5F5F5F5F5F5F5F5F5F5F5F5F5F5F5F5F5F5F5F5F5F5F5F5F5F5F5F5F5F5F5F5F5F5F5F5F5F5F5F5F5F5F5F5F5F5F5F5F5F5F5F5F5F5F5F5F5F5F5F5F5F5F5F5F5F5F5F5F5F5F5F5F5F5F5F5F5F5F5F5F5F5F5F5F5F5F5F5F5F5F5F5F5F5F5F5F5F5F5F5F5F5F5F5F5F5F5F5F5F5F5F5F5F5F5F5F5F5F5F5
310
F5F5F5F5F5F5F5F5F5F5F5F5F5F5F5F5F5F5F5F5F5F5F5F5F5F5F5E2F5F5F5E2E2F5F5F5E2F5F5F5F5F5F5F5F5F5F5F5F5F5F5F5F5F5F5F5F5F5F5F5F5F5F5F5F5F5F5F5F5F5F5F5F5F5F5F5F5F5F5F5F5F5F5F5F5F5F5F5F5F5F5F5F5F5F5F5F5F5F5F5F5F5F5F5F5F5F5F5F5F5F5F5F5F5F5F5F5F5F5F5F5F5F5F5F5F5F5
310
F5F5F5F5F5F5F5F5F5F5F5F5F5F5F5F5F5F5F5F5F5F5F5F5F5F5F5F5F5F5F5F5F5F5F5F5F5F5F5F5F5F5F5F5F5F5F5F5F5F5F5F5F5F5F5F5F5F5F5F5F5F5F5F5F5F5F5F5F5F5F5F5F5F5F5F5F5F5F5F5E2F5F5F5E2E2F5F5F5E2F5F5F5F5F5F5F5F5F5F5F5F5F5F5F5F5F5F5F5F5F5F5F5F5F5F5F5F5F5F5F5F5F5F5F5F5F5
310
F5F5F5F5F5F5F5F5F5F5F5F5F5F5F5F5F5F5F5F5F5F5F5F5F5F5F5F5F5F5F5F5F5F5F5F5F5F5F5F5F5F5F5F5F5F5F5F5F5F5F5F5F5F5F5F5F5F5F5F5F5F5F5F5F5F5F5F5F5F5F5F5F5F5F5F5F5F5F5F5F5F5F5F5F5F5F5F5F5F5F5F5F5F5F5F5F5F5F5F5F5F5F5F5F5F5F5F5F5F5F5F5F5F5F5F5F5F5F5F5F5F5F5F5F5F5F5
310
F5F5F5F5F5F5E2F5F5F5E2E2F5F5F5E2F5F5F5F5F5F5F5F5F5F5F5F5F5F5F5F5F5F5F5F5F5F5F5F5F5F5F5F5F5F5F5F5F5F5F5F5F5F5F5F5F5F5F5F5F5F5F5F5F5F5F5F5F5F5F5F5F5F5F5F5F5F5F5F5F5F5F5F5F5F5F5F5F5F5F5F5F5F5F5F5F5F5F5F5F5F5F5F5F5F5F5F5F5F5F5F5F5F5F5F5F5F5F5F5F5F5F5F5F5F5F5
310
F5F5F5F5F5F5F5F5F5F5F5F5F5F5F5F5F5F5F5F5F5F5F5F5F5F5F5F5F5F5F5F5F5F5F5F5F5F5F5F5F5F5F5F5F5F5F5F5F5F5F5F5F5F5F5F5F5F5F5E2F5F5F5E2E2F5F5F5F5F5F5F5F5F5F5F5F5F5F5F5F5F5F5F5F5F5F5F5F5F5F5F5F5F5F5F5F5F5F5F5F5F5F5F5F5F5F5F5F5F5F5F5F5F5F5F5F5F5F5F5F5F5F5F5F5F5F5
310
F5F5F5F5F5F5F5F5F5F5F5F5F5F5F5F5F5F5F5F5F5F5F5F5F5F5F5F5F5F5F5F5F5F5F5F5F5F5F5F5F5F5F5F5F5F5F5F5F5F5F5F5F5F5F5F5F5F5F5F5F5F5F5F5F5F5F5F5F5F5F5F5F5F5F5F5F5F5F5F5F5F5F5F5F5F5F5F5F5F5F5F5F5F5F5F5F5F5F5F5F5F5F5F5F5F5F5F5F5F5F5F5F5F5F5F5E2E2F5F5F5F5F5F5F5F5F5
310
F5F5F5F5F5F5F5F5F5F5F5F5F5F5F5F5F5F5F5F5F5F5F5F5F5F5F5F5F5F5F5F5F5F5F5F5F5F5F5F5F5F5F5F5F5F5F5F5F5F5F5F5F5F5F5F5F5F5F5F5F5F5F5F5F5F5F5F5F5F5F5F5F5F5F5F5F5F5F5F5F5F5F5F5F5F5F5F5F5F5F5F5F5F5F5F5F5F5F5F5F5F5F5F5F5F5F5F5F5F5F5F5F5F5F5F5F5F5F5F5F5F5F5F5F5F5F5
310
F5F5F5F5F5F5F5F5F5F5F5F5F5F5F5F5F5F5F5F5F5F5F5F5F5F5F5F5F5F5F5F5F5F5F5F5F5F5F5F5F5F5E2E2F5F5F5F5F5F5F5F5F5F5F5F5F5F5F5F5F5F5F5F5F5F5F5F5F5F5F5F5F5F5F5F5F5F5F5F5F5F5F5F5F5F5F5F5F5F5F5F5F5F5F5F5F5F5F5F5F5F5F5F5F5F5F5F5F5F5F5F5F5F5F5F5F5F5F5F5F5F5F5F5F5F5F5
310
F5F5F5F5F5F5F5F5F5F5F5F5F5F5F5F5F5F5F5F5F5F5F5F5F5F5F5F5F5F5F5F5F5F5F5F5F5F5F5F5F5F5F5F5F5F5F5F5F5F5F5F5F5F5F5F5F5F5F5F5F5F5F5F5F5F5F5F5F5F5F5F5F5F5F5F5F5F5F5F5F5F5F5F5F5F5F5F5F5F5F5F5F5F5F5E2E2F5F5F5F5F5F5F5F5F5F5F5F5F5F5F5F5F5F5F5F5F5F5F5F5F5F5F5F5F5F5
310
F5F5F5F5F5F5F5F5F5F5F5F5F5F5F5F5F5F5F5F5F5F5F5F5F5F5F5F5F5F5F5F5F5F5F5F5F5F5F5F5F5F5F5F5F5F5F5F5F5F5F5F5F5F5F5F5F5F5F5F5F5F5F5F5F5F5F5F5F5F5F5F5F5F5F5F5F5F5F5F5F5F5F5F5F5F5F5F5F5F5F5F5F5F5F5F5F5F5F5F5F5F5F5F5F5F5F5F5F5F5F5F5F5F5F5F5F5F5F5F5F5F5F5F5F5F5F5
310
F5F5F5F5F5F5F5F5F5F5F5F5F5F5F5F5F5F5F5F5F5E2E2F5F5F5F5F5F5F5F5F5F5F5F5F5F5F5F5F5F5F5F5F5F5F5F5F5F5F5F5F5F5F5F5F5F5F5F5F5F5F5F5F5F5F5F5F5F5F5F5F5F5F5F5F5F5F5F5F5F5F5F5F5F5F5F5F5F5F5F5F5F5F5F5F5F5F5F5F5F5F5F5F5F5F5F5F5F5F5F5F5F5F5F5F5F5F5F5F5F5F5F5F5F5F5F5
310
F5F5F5F5F5F5F5F5F5F5F5F5F5F5F5F5F5F5F5F5F5F5F5F5F5F5F5F5F5F5F5F5F5F5F5F5F5F5F5F5F5F5F5F5F5F5F5F5F5F5F5F5F5F5F5F5F5F5F5F5F5F5F5F5F5F5F5F5F5F5F5F5F5F5E2E2F5F5F5F5F5F5F5F5F5F5F5F5F5F5F5F5F5F5F5F5F5F5F5F5F5F5F5F5F5F5F5F5F5F5F5F5F5F5F5F5F5F5F5F5F5F5F5F5F5F5F5
310
F5F5F5F5F5F5F5F5F5F5F5F5F5F5F5F5F5F5F5F5F5F5F5F5F5F5F5F5F5F5F5F5F5F5F5F5F5F5F5F5F5F5F5F5F5F5F5F5F5F5F5F5F5F5F5F5F5F5F5F5F5F5F5F5F5F5F5F5F5F5F5F5F5F5F5F5F5F5F5F5F5F5F5F5F5F5F5F5F5F5F5F5F5F5F5F5F5F5F5F5F5F5F5F5F5F5F5F5F5F5F5F5F5F5F5F5F5F5F5F5F5F5F5F5F5F5F5
310
E2E2F5F5F5F5F5F5F5F5F5F5F5F5F5F5F5F5F5F5F5F5F5F5F5F5F5F5F5F5F5F5F5F5F5F5F5F5F5F5F5F5F5F5F5F5F5F5F5F5F5F5F5F5F5F5F5F5F5F5F5F5F5F5F5F5F5F5F5F5F5F5F5F5F5F5F5F5F5F5F5F5F5F5F5F5F5F5F5F5F5F5F5F5F5F5F5F5F5F5F5F5F5F5F5F5F5F5F5F5F5F5F5F5F5F5F5F5F5F5F5F5F5F5F5F5F5
310
F5F5F5F5F5F5F5F5F5F5F5F5F5F5F5F5F5F5F5F5F5F5F5F5F5F5F5F5F5F5F5F5F5F5F5F5F5F5F5F5F5F5F5F5F5F5F5F5F5F5F5F5F5E2E2F5F5F5F5F5F5F5F5F5F5F5F5F5F5F5F5F5F5F5F5F5F5F5F5F5F5F5F5F5F5F5F5F5F5F5F5F5F5F5F5F5F5F5F5F5F5F5F5F5F5F5F5F5F5F5F5F5F5F5F5F5F5F5F5F5F5F5F5F5F5F5F5
310
F5F5F5F5F5F5F5F5F5F5F5F5F5F5F5F5F5F5F5F5F5F5F5F5F5F5F5F5F5F5F5F5F5F5F5F5F5F5F5F5F5F5F5F5F5F5F5F5F5F5F5F5F5F5F5F5F5F5F5F5F5F5F5F5F5F5F5F5F5F5F5F5F5F5F5F5F5F5F5F5F5F5F5F5F5F5F5F5F5F5F5F5F5F5F5F5F5F5F5F5F5F5F5F5F5F5E2E2F5F5F5F5F5F5F5F5F5F5F5F5F5F5F5F5F5F5F5
310
F5F5F5F5F5F5F5F5F5F5F5F5F5F5F5F5F5F5F5F5F5F5F5F5F5F5F5F5F5F5F5F5F5F5F5F5F5F5F5F5F5F5F5F5F5F5F5F5F5F5F5F5F5F5F5F5F5F5F5F5F5F5F5F5F5F5F5F5F5F5F5F5F5F5F5F5F5F5F5F5F5F5F5F5F5F5F5F5F5F5F5F5F5F5F5F5F5F5F5F5F5F5F5F5F5F5F5F5F5F5F5F5F5F5F5F5F5F5F5F5F5F5F5F5F5F5F5
310
F5F5F5F5F5F5F5F5F5F5F5F5F5F5F5F5F5F5F5F5F5F5F5F5F5F5F5F5F5F5F5F5E2E2F5F5F5E2F5F5F5F5F5F5F5F5F5F5F5F5F5F5F5F5F5F5F5F5F5F5F5F5F5F5F5F5F5F5F5F5F5F5F5F5F5F5F5F5F5F5F5F5F5F5F5F5F5F5F5F5F5F5F5F5F5F5F5F5F5F5F5F5F5F5F5F5F5F5F5F5F5F5F5F5F5F5F5F5F5F5F5F5F5F5F5F5F5
310
F5F5F5F5F5F5F5F5F5F5F5F5F5F5F5F5F5F5F5F5F5F5F5F5F5F5F5F5F5F5F5F5F5F5F5F5F5F5F5F5F5F5F5F5F5F5F5F5F5F5F5F5F5F5F5F5F5F5F5F5F5F5F5F5F5F5F5F5F5F5F5F5F5F5F5F5F5F5F5F5F5E2F5F5F5E2E2F5F5F5E2F5F5F5F5F5F5F5F5F5F5F5F5F5F5F5F5F5F5F5F5F5F5F5F5F5F5F5F5F5F5F5F5F5F5F5F5
310
F5F5F5F5F5F5F5F5F5F5F5F5F5F5F5F5F5F5F5F5F5F5F5F5F5F5F5F5F5F5F5F5F5F5F5F5F5F5F5F5F5F5F5F5F5F5F5F5F5F5F5F5F5F5F5F5F5F5F5F5F5F5F5F5F5F5F5F5F5F5F5F5F5F5F5F5F5F5F5F5F5F5F5F5F5F5F5F5F5F5F5F5F5F5F5F5F5F5F5F5F5F5F5F5F5F5F5F5F5F5F5F5F5F5F5F5F5F5F5F5F5F5F5F5F5F5F5
310
F5F5F5F5F5F5F5E2F5F5F5E2E2F5F5F5E2F5F5F5F5F5F5F5F5F5F5F5F5F5F5F5F5F5F5F5F5F5F5F5F5F5F5F5F5F5F5F5F5F5F5F5F5F5F5F5F5F5F5F5F5F5F5F5F5F5F5F5F5F5F5F5F5F5F5F5F5F5F5F5F5F5F5F5F5F5F5F5F5F5F5F5F5F5F5F5F5F5F5F5F5F5F5F5F5F5F5F5F5F5F5F5F5F5F5F5F5F5F5F5F5F5F5F5F5F5F5
310
F5F5F5F5F5F5F5F5F5F5F5F5F5F5F5F5F5F5F5F5F5F5F5F5F5F5F5F5F5F5F5F5F5F5F5F5F5F5F5F5F5F5F5F5F5F5F5F5F5F5F5F5F5F5F5F5F5F5F5F5E2F5F5F5E2E2F5F5F5E2F5F5F5F5F5F5F5F5F5F5F5F5F5F5F5F5F5F5F5F5F5F5F5F5F5F5F5F5F5F5F5F5F5F5F5F5F5F5F5F5F5F5F5F5F5F5F5F5F5F5F5F5F5F5F5F5F5
310
F5F5F5F5F5F5F5F5F5F5F5F5F5F5F5F5F5F5F5F5F5F5F5F5F5F5F5F5F5F5F5F5F5F5F5F5F5F5F5F5F5F5F5F5F5F5F5F5F5F5F5F5F5F5F5F5F5F5F5F5F5F5F5F5F5F5F5F5F5F5F5F5F5F5F5F5F5F5F5F5F5F5F5F5F5F5F5F5F5F5F5F5F5F5F5F5F5F5F5F5F5F5F5F5F5F5F5F5F5F5F5F5F5E2F5F5F5E2E2F5F5F5E2F5F5F5F5
310
F5F5F5F5F5F5F5F5F5F5F5F5F5F5F5F5F5F5F5F5F5F5F5F5F5F5F5F5F5F5F5F5F5F5F5F5F5F5F5F5F5F5F5F5F5F5F5F5F5F5F5F5F5F5F5F5F5F5F5F5F5F5F5F5F5F5F5F5F5F5F5F5F5F5F5F5F5F5F5F5F5F5F5F5F5F5F5F5F5F5F5F5F5F5F5F5F5F5F5F5F5F5F5F5F5F5F5F5F5F5F5F5F5F5F5F5F5F5F5F5F5F5F5F5F5F5F5
310
F5F5F5F5F5F5F5F5F5F5F5F5F5F5F5F5F5F5F5F5F5F5F5F5F5F5F5F5F5F5F5F5F5F5F5F5F5F5F5E2F5F5F5E2E2F5F5F5E2F5F5F5F5F5F5F5F5F5F5F5F5F5F5F5F5F5F5F5F5F5F5F5F5F5F5F5F5F5F5F5F5F5F5F5F5F5F5F5F5F5F5F5F5F5F5F5F5F5F5F5F5F5F5F5F5F5F5F5F5F5F5F5F5F5F5F5F5F5F5F5F5F5F5F5F5F5F5
310
F5F5F5F5F5F5F5F5F5F5F5F5F5F5F5F5F5F5F5F5F5F5F5F5F5F5F5F5F5F5F5F5F5F5F5F5F5F5F5F5F5F5F5F5F5F5F5F5F5F5F5F5F5F5F5F5F5F5F5F5F5F5F5F5F5F5F5F5F5F5F5F5F5F5F5F5F5F5F5F5F5F5F5F5F5F5F5F5F5F5F5F5E2F5F5F5E2E2F5F5F5E2F5F5F5F5F5F5F5F5F5F5F5F5F5F5F5F5F5F5F5F5F5F5F5F5F5
310
F5F5F5F5F5F5F5F5F5F5F5F5F5F5F5F5F5F5F5F5F5F5F5F5F5F5F5F5F5F5F5F5F5F5F5F5F5F5F5F5F5F5F5F5F5F5F5F5F5F5F5F5F5F5F5F5F5F5F5F5F5F5F5F5F5F5F5F5F5F5F5F5F5F5F5F5F5F5F5F5F5F5F5F5F5F5F5F5F5F5F5F5F5F5F5F5F5F5F5F5F5F5F5F5F5F5F5F5F5F5F5F5F5F5F5F5F5F5F5F5F5F5F5F5F5F5F5
310
F5F5F5F5F5F5F5F5F5F5F5F5F5F5F5F5F5F5E2F5F5F5E2E2F5F5F5E2F5F5F5F5F5F5F5F5F5F5F5F5F5F5F5F5F5F5F5F5F5F5F5F5F5F5F5F5F5F5F5F5F5F5F5F5F5F5F5F5F5F5F5F5F5F5F5F5F5F5F5F5F5F5F5F5F5F5F5F5F5F5F5F5F5F5F5F5F5F5F5F5F5F5F5F5F5F5F5F5F5F5F5F5F5F5F5F5F5F5F5F5F5F5F5F5F5F5F5
310
F5F5F5F5F5F5F5F5F5F5F5F5F5F5F5F5F5F5F5F5F5F5F5F5F5F5F5F5F5F5F5F5F5F5F5F5F5F5F5F5F5F5F5F5F5F5F5F5F5F5F5F5F5F5F5F5F5F5F5F5F5F5F5F5F5F5F5F5F5F5F5E2F5F5F5E2E2F5F5F5E2F5F5F5F5F5F5F5F5F5F5F5F5F5F5F5F5F5F5F5F5F5F5F5F5F5F5F5F5F5F5F5F5F5F5F5F5F5F5F5F5F5F5F5F5F5F5
310
F5F5F5F5F5F5F5F5F5F5F5F5F5F5F5F5F5F5F5F5F5F5F5F5F5F5F5F5F5F5F5F5F5F5F5F5F5F5F5F5F5F5F5F5F5F5F5F5F5F5F5F5F5F5F5F5F5F5F5F5F5F5F5F5F5F5F5F5F5F5F5F5F5F5F5F5F5F5F5F5F5F5F5F5F5F5F5F5F5F5F5F5F5F5F5F5F5F5F5F5F5F5F5F5F5F5F5F5F5F5F5F5F5F5F5F5F5F5F5F5F5F5F5F5E2F5F5
310
F5E2E2F5F5F5E2F5F5F5F5F5F5F5F5F5F5F5F5F5F5F5F5F5F5F5F5F5F5F5F5F5F5F5F5F5F5F5F5F5F5F5F5F5F5F5F5F5F5F5F5F5F5F5F5F5F5F5F5F5F5F5F5F5F5F5F5F5F5F5F5F5F5F5F5F5F5F5F5F5F5F5F5F5F5F5F5F5F5F5F5F5F5F5F5F5F5F5F5F5F5F5F5F5F5F5F5F5F5F5F5F5F5F5F5F5F5F5F5F5F5F5F5F5F5F5F5
310
F5F5F5F5F5F5F5F5F5F5F5F5F5F5F5F5F5F5F5F5F5F5F5F5F5F5F5F5F5F5F5F5F5F5F5F5F5F5F5F5F5F5F5F5F5F5F5F5F5F5E2F5F5F5E2E2F5F5F5E2F5F5F5F5F5F5F5F5F5F5F5F5F5F5F5F5F5F5F5F5F5F5F5F5F5F5F5F5F5F5F5F5F5F5F5F5F5F5F5F5F5F5F5F5F5F5F5F5F5F5F5F5F5F5F5F5F5F5F5F5F5F5F5F5F5F5F5
310
F5F5F5F5F5F5F5F5F5F5F5F5F5F5F5F5F5F5F5F5F5F5F5F5F5F5F5F5F5F5F5F5F5F5F5F5F5F5F5F5F5F5F5F5F5F5F5F5F5F5F5F5F5F5F5F5F5F5F5F5F5F5F5F5F5F5F5F5F5F5F5F5F5F5F5F5F5F5F5F5F5F5F5F5F5F5F5F5F5F5F5F5F5F5F5F5F5F5F5F5F5F5F5E2F5F5F5E2E2F5F5F5E2F5F5F5F5F5F5F5F5F5F5F5F5F5F5
310
F5F5F5F5F5F5F5F5F5F5F5F5F5F5F5F5F5F5F5F5F5F5F5F5F5F5F5F5F5F5F5F5F5F5F5F5F5F5F5F5F5F5F5F5F5F5F5F5F5F5F5F5F5F5F5F5F5F5F5F5F5F5F5F5F5F5F5F5F5F5F5F5F5F5F5F5F5F5F5F5F5F5F5F5F5F5F5F5F5F5F5F5F5F5F5F5F5F5F5F5F5F5F5F5F5F5F5F5F5F5F5F5F5F5F5F5F5F5F5F5F5F5F5F5F5F5F5
310
F5F5F5F5F5F5F5F5F5F5F5F5F5F5F5F5F5F5F5F5F5F5F5F5F5F5F5F5F5E2F5F5F5E2E2F5F5F5E2F5F5F5F5F5F5F5F5F5F5F5F5F5F5F5F5F5F5F5F5F5F5F5F5F5F5F5F5F5F5F5F5F5F5F5F5F5F5F5F5F5F5F5F5F5F5F5F5F5F5F5F5F5F5F5F5F5F5F5F5F5F5F5F5F5F5F5F5F5F5F5F5F5F5F5F5F5F5F5F5F5F5F5F5F5F5F5F5
310
F5F5F5F5F5F5F5F5F5F5F5F5F5F5F5F5F5F5F5F5F5F5F5F5F5F5F5F5F5F5F5F5F5F5F5F5F5F5F5F5F5F5F5F5F5F5F5F5F5F5F5F5F5F5F5F5F5F5F5F5F5F5F5F5F5F5F5F5F5F5F5F5F5F5F5F5F5F5F5F5F5F5E2F5F5F5E2E2F5F5F5E2F5F5F5F5F5F5F5F5F5F5F5F5F5F5F5F5F5F5F5F5F5F5F5F5F5F5F5F5F5F5F5F5F5F5F5
310
F5F5F5F5F5F5F5F5F5F5F5F5F5F5F5F5F5F5F5F5F5F5F5F5F5F5F5F5F5F5F5F5F5F5F5F5F5F5F5F5F5F5F5F5F5F5F5F5F5F5F5F5F5F5F5F5F5F5F5F5F5F5F5F5F5F5F5F5F5F5F5F5F5F5F5F5F5F5F5F5F5F5F5F5F5F5F5F5F5F5F5F5F5F5F5F5F5F5F5F5F5F5F5F5F5F5F5F5F5F5F5F5F5F5F5F5F5F5F5F5F5F5F5F5F5F5F5
310
F5F5F5F5F5F5F5F5E2F5F5F5E2E2F5F5F5E2F5F5F5F5F5F5F5F5F5F5F5F5F5F5F5F5F5F5F5F5F5F5F5F5F5F5F5F5F5F5F5F5F5F5F5F5F5F5F5F5F5F5F5F5F5F5F5F5F5F5F5F5F5F5F5F5F5F5F5F5F5F5F5F5F5F5F5F5F5F5F5F5F5F5F5F5F5F5F5F5F5F5F5F5F5F5F5F5F5F5F5F5F5F5F5F5F5F5F5F5F5F5F5F5F5F5F5F5F5
310
F5F5F5F5F5F5F5F5F5F5F5F5F5F5F5F5F5F5F5F5F5F5F5F5F5F5F5F5F5F5F5F5F5F5F5F5F5F5F5F5F5F5F5F5F5F5F5F5F5F5F5F5F5F5F5F5F5F5F5F5F5E2F5F5F5E2E2F5F5F5E2F5F5F5F5F5F5F5F5F5F5F5F5F5F5F5F5F5F5F5F5F5F5F5F5F5F5F5F5F5F5F5F5F5F5F5F5F5F5F5F5F5F5F5F5F5F5F5F5F5F5F5F5F5F5F5F5
310
F5F5F5F5F5F5F5F5F5F5F5F5F5F5F5F5F5F5F5F5F5F5F5F5F5F5F5F5F5F5F5F5F5F5F5F5F5F5F5F5F5F5F5F5F5F5F5F5F5F5F5F5F5F5F5F5F5F5F5F5F5F5F5F5F5F5F5F5F5F5F5F5F5F5F5F5F5F5F5F5F5F5F5F5F5F5F5F5F5F5F5F5F5F5F5F5F5F5F5F5F5F5F5F5F5F5F5F5F5F5F5F5F5F5E2F5F5F5E2E2F5F5F5F5F5F5F5
310
F5F5F5F5F5F5F5F5F5F5F5F5F5F5F5F5F5F5F5F5F5F5F5F5F5F5F5F5F5F5F5F5F5F5F5F5F5F5F5F5F5F5F5F5F5F5F5F5F5F5F5F5F5F5F5F5F5F5F5F5F5F5F5F5F5F5F5F5F5F5F5F5F5F5F5F5F5F5F5F5F5F5F5F5F5F5F5F5F5F5F5F5F5F5F5F5F5F5F5F5F5F5F5F5F5F5F5F5F5F5F5F5F5F5F5F5F5F5F5F5F5F5F5F5F5F5F5
310
F5F5F5F5F5F5F5F5F5F5F5F5F5F5F5F5F5F5F5F5F5F5F5F5F5F5F5F5F5F5F5F5F5F5F5F5F5F5F5F5F5F5F5F5E2E2F5F5F5F5F5F5F5F5F5F5F5F5F5F5F5F5F5F5F5F5F5F5F5F5F5F5F5F5F5F5F5F5F5F5F5F5F5F5F5F5F5F5F5F5F5F5F5F5F5F5F5F5F5F5F5F5F5F5F5F5F5F5F5F5F5F5F5F5F5F5F5F5F5F5F5F5F5F5F5F5F5
310
F5F5F5F5F5F5F5F5F5F5F5F5F5F5F5F5F5F5F5F5F5F5F5F5F5F5F5F5F5F5F5F5F5F5F5F5F5F5F5F5F5F5F5F5F5F5F5F5F5F5F5F5F5F5F5F5F5F5F5F5F5F5F5F5F5F5F5F5F5F5F5F5F5F5F5F5F5F5F5F5F5F5F5F5F5F5F5F5F5F5F5F5F5F5F5F5F5E2E2F5F5F5F5F5F5F5F5F5F5F5F5F5F5F5F5F5F5F5F5F5F5F5F5F5F5F5F5
310
F5F5F5F5F5F5F5F5F5F5F5F5F5F5F5F5F5F5F5F5F5F5F5F5F5F5F5F5F5F5F5F5F5F5F5F5F5F5F5F5F5F5F5F5F5F5F5F5F5F5F5F5F5F5F5F5F5F5F5F5F5F5F5F5F5F5F5F5F5F5F5F5F5F5F5F5F5F5F5F5F5F5F5F5F5F5F5F5F5F5F5F5F5F5F5F5F5F5F5F5F5F5F5F5F5F5F5F5F5F5F5F5F5F5F5F5F5F5F5F5F5F5F5F5F5F5F5
310
F5F5F5F5F5F5F5F5F5F5F5F5F5F5F5F5F5F5F5F5F5F5F5E2E2F5F5F5F5F5F5F5F5F5F5F5F5F5F5F5F5F5F5F5F5F5F5F5F5F5F5F5F5F5F5F5F5F5F5F5F5F5F5F5F5F5F5F5F5F5F5F5F5F5F5F5F5F5F5F5F5F5F5F5F5F5F5F5F5F5F5F5F5F5F5F5F5F5F5F5F5F5F5F5F5F5F5F5F5F5F5F5F5F5F5F5F5F5F5F5F5F5F5F5F5F5F5
310
F5F5F5F5F5F5F5F5F5F5F5F5F5F5F5F5F5F5F5F5F5F5F5F5F5F5F5F5F5F5F5F5F5F5F5F5F5F5F5F5F5F5F5F5F5F5F5F5F5F5F5F5F5F5F5F5F5F5F5F5F5F5F5F5F5F5F5F5F5F5F5F5F5F5F5F5E2E2F5F5F5F5F5F5F5F5F5F5F5F5F5F5F5F5F5F5F5F5F5F5F5F5F5F5F5F5F5F5F5F5F5F5F5F5F5F5F5F5F5F5F5F5F5F5F5F5F5
310
F5F5F5F5F5F5F5F5F5F5F5F5F5F5F5F5F5F5F5F5F5F5F5F5F5F5F5F5F5F5F5F5F5F5F5F5F5F5F5F5F5F5F5F5F5F5F5F5F5F5F5F5F5F5F5F5F5F5F5F5F5F5F5F5F5F5F5F5F5F5F5F5F5F5F5F5F5F5F5F5F5F5F5F5F5F5F5F5F5F5F5F5F5F5F5F5F5F5F5F5F5F5F5F5F5F5F5F5F5F5F5F5F5F5F5F5F5F5F5F5F5F5F5F5F5F5F5
310
F5F5E2E2F5F5F5F5F5F5F5F5F5F5F5F5F5F5F5F5F5F5F5F5F5F5F5F5F5F5F5F5F5F5F5F5F5F5F5F5F5F5F5F5F5F5F5F5F5F5F5F5F5F5F5F5F5F5F5F5F5F5F5F5F5F5F5F5F5F5F5F5F5F5F5F5F5F5F5F5F5F5F5F5F5F5F5F5F5F5F5F5F5F5F5F5F5F5F5F5F5F5F5F5F5F5F5F5F5F5F5F5F5F5F5F5F5F5F5F5F5F5F5F5F5F5F5
310
F5F5F5F5F5F5F5F5F5F5F5F5F5F5F5F5F5F5F5F5F5F5F5F5F5F5F5F5F5F5F5F5F5F5F5F5F5F5F5F5F5F5F5F5F5F5F5F5F5F5F5F5F5F5F5E2E2F5F5F5F5F5F5F5F5F5F5F5F5F5F5F5F5F5F5F5F5F5F5F5F5F5F5F5F5F5F5F5F5F5F5F5F5F5F5F5F5F5F5F5F5F5F5F5F5F5F5F5F5F5F5F5F5F5F5F5F5F5F5F5F5F5F5F5F5F5F5
310
F5F5F5F5F5F5F5F5F5F5F5F5F5F5F5F5F5F5F5F5F5F5F5F5F5F5F5F5F5F5F5F5F5F5F5F5F5F5F5F5F5F5F5F5F5F5F5F5F5F5F5F5F5F5F5F5F5F5F5F5F5F5F5F5F5F5F5F5F5F5F5F5F5F5F5F5F5F5F5F5F5F5F5F5F5F5F5F5F5F5F5F5F5F5F5F5F5F5F5F5F5F5F5F5F5F5F5F5E2E2F5F5F5F5F5F5F5F5F5F5F5F5F5F5F5F5F5
310
F5F5F5F5F5F5F5F5F5F5F5F5F5F5F5F5F5F5F5F5F5F5F5F5F5F5F5F5F5F5F5F5F5F5F5F5F5F5F5F5F5F5F5F5F5F5F5F5F5F5F5F5F5F5F5F5F5F5F5F5F5F5F5F5F5F5F5F5F5F5F5F5F5F5F5F5F5F5F5F5F5F5F5F5F5F5F5F5F5F5F5F5F5F5F5F5F5F5F5F5F5F5F5F5F5F5F5F5F5F5F5F5F5F5F5F5F5F5F5F5F5F5F5F5F5F5F5
310
F5F5F5F5F5F5F5F5F5F5F5F5F5F5F5F5F5F5F5F5F5F5F5F5F5F5F5F5F5F5F5F5F5F5E2E2F5F5F5F5F5F5F5F5F5F5F5F5F5F5F5F5F5F5F5F5F5F5F5F5F5F5F5F5F5F5F5F5F5F5F5F5F5F5F5F5F5F5F5F5F5F5F5F5F5F5F5F5F5F5F5F5F5F5F5F5F5F5F5F5F5F5F5F5F5F5F5F5F5F5F5F5F5F5F5F5F5F5F5F5F5F5F5F5F5F5F5
310
F5F5F5F5F5F5F5F5F5F5F5F5F5F5F5F5F5F5F5F5F5F5F5F5F5F5F5F5F5F5F5F5F5F5F5F5F5F5F5F5F5F5F5F5F5F5F5F5F5F5F5F5F5F5F5F5F5F5F5F5F5F5F5F5F5F5F5F5F5F5F5F5F5F5F5F5F5F5F5F5F5F5F5F5F5F5F5E2E2F5F5F5F5F5F5F5F5F5F5F5F5F5F5F5F5F5F5F5F5F5F5F5F5F5F5F5F5F5F5F5F5F5F5F5F5F5F5
310
F5F5F5F5F5F5F5F5F5F5F5F5F5F5F5F5F5F5F5F5F5F5F5F5F5F5F5F5F5F5F5F5F5F5F5F5F5F5F5F5F5F5F5F5F5F5F5F5F5F5F5F5F5F5F5F5F5F5F5F5F5F5F5F5F5F5F5F5F5F5F5F5F5F5F5F5F5F5F5F5F5F5F5F5F5F5F5F5F5F5F5F5F5F5F5F5F5F5F5F5F5F5F5F5F5F5F5F5F5F5F5F5F5F5F5F5F5F5F5F5F5F5F5F5F5F5F5
310
F5F5F5F5F5F5F5F5F5F5F5F5F5E2E2F5F5F5E2F5F5F5F5F5F5F5F5F5F5F5F5F5F5F5F5F5F5F5F5F5F5F5F5F5F5F5F5F5F5F5F5F5F5F5F5F5F5F5F5F5F5F5F5F5F5F5F5F5F5F5F5F5F5F5F5F5F5F5F5F5F5F5F5F5F5F5F5F5F5F5F5F5F5F5F5F5F5F5F5F5F5F5F5F5F5F5F5F5F5F5F5F5F5F5F5F5F5F5F5F5F5F5F5F5F5F5F5
310
F5F5F5F5F5F5F5F5F5F5F5F5F5F5F5F5F5F5F5F5F5F5F5F5F5F5F5F5F5F5F5F5F5F5F5F5F5F5F5F5F5F5F5F5F5F5F5F5F5F5F5F5F5F5F5F5F5F5F5F5F5F5E2F5F5F5E2E2F5F5F5E2F5F5F5F5F5F5F5F5F5F5F5F5F5F5F5F5F5F5F5F5F5F5F5F5F5F5F5F5F5F5F5F5F5F5F5F5F5F5F5F5F5F5F5F5F5F5F5F5F5F5F5F5F5F5F5
310
F5F5F5F5F5F5F5F5F5F5F5F5F5F5F5F5F5F5F5F5F5F5F5F5F5F5F5F5F5F5F5F5F5F5F5F5F5F5F5F5F5F5F5F5F5F5F5F5F5F5F5F5F5F5F5F5F5F5F5F5F5F5F5F5F5F5F5F5F5F5F5F5F5F5F5F5F5F5F5F5F5F5F5F5F5F5F5F5F5F5F5F5F5F5F5F5F5F5F5F5F5F5F5F5F5F5F5F5F5F5F5F5F5F5F5E2F5F5F5E2E2F5F5F5E2F5F5
310
F5F5F5F5F5F5F5F5F5F5F5F5F5F5F5F5F5F5F5F5F5F5F5F5F5F5F5F5F5F5F5F5F5F5F5F5F5F5F5F5F5F5F5F5F5F5F5F5F5F5F5F5F5F5F5F5F5F5F5F5F5F5F5F5F5F5F5F5F5F5F5F5F5F5F5F5F5F5F5F5F5F5F5F5F5F5F5F5F5F5F5F5F5F5F5F5F5F5F5F5F5F5F5F5F5F5F5F5F5F5F5F5F5F5F5F5F5F5F5F5F5F5F5F5F5F5F5
310
F5F5F5F5F5F5F5F5F5F5F5F5F5F5F5F5F5F5F5F5F5F5F5F5F5F5F5F5F5F5F5F5F5F5F5F5F5F5F5F5F5E2F5F5F5E2E2F5F5F5E2F5F5F5F5F5F5F5F5F5F5F5F5F5F5F5F5F5F5F5F5F5F5F5F5F5F5F5F5F5F5F5F5F5F5F5F5F5F5F5F5F5F5F5F5F5F5F5F5F5F5F5F5F5F5F5F5F5F5F5F5F5F5F5F5F5F5F5F5F5F5F5F5F5F5F5F5
310
F5F5F5F5F5F5F5F5F5F5F5F5F5F5F5F5F5F5F5F5F5F5F5F5F5F5F5F5F5F5F5F5F5F5F5F5F5F5F5F5F5F5F5F5F5F5F5F5F5F5F5F5F5F5F5F5F5F5F5F5F5F5F5F5F5F5F5F5F5F5F5F5F5F5F5F5F5F5F5F5F5F5F5F5F5F5F5F5F5F5F5F5F5F5E2F5F5F5E2E2F5F5F5E2F5F5F5F5F5F5F5F5F5F5F5F5F5F5F5F5F5F5F5F5F5F5F5
310
F5F5F5F5F5F5F5F5F5F5F5F5F5F5F5F5F5F5F5F5F5F5F5F5F5F5F5F5F5F5F5F5F5F5F5F5F5F5F5F5F5F5F5F5F5F5F5F5F5F5F5F5F5F5F5F5F5F5F5F5F5F5F5F5F5F5F5F5F5F5F5F5F5F5F5F5F5F5F5F5F5F5F5F5F5F5F5F5F5F5F5F5F5F5F5F5F5F5F5F5F5F5F5F5F5F5F5F5F5F5F5F5F5F5F5F5F5F5F5F5F5F5F5F5F5F5F5
310
F5F5F5F5F5F5F5F5F5F5F5F5F5F5F5F5F5F5F5F5E2F5F5F5E2E2F5F5F5E2F5F5F5F5F5F5F5F5F5F5F5F5F5F5F5F5F5F5F5F5F5F5F5F5F5F5F5F5F5F5F5F5F5F5F5F5F5F5F5F5F5F5F5F5F5F5F5F5F5F5F5F5F5F5F5F5F5F5F5F5F5F5F5F5F5F5F5F5F5F5F5F5F5F5F5F5F5F5F5F5F5F5F5F5F5F5F5F5F5F5F5F5F5F5F5F5F5
310
F5F5F5F5F5F5F5F5F5F5F5F5F5F5F5F5F5F5F5F5F5F5F5F5F5F5F5F5F5F5F5F5F5F5F5F5F5F5F5F5F5F5F5F5F5F5F5F5F5F5F5F5F5F5F5F5F5F5F5F5F5F5F5F5F5F5F5F5F5F5F5F5F5E2F5F5F5E2E2F5F5F5E2F5F5F5F5F5F5F5F5F5F5F5F5F5F5F5F5F5F5F5F5F5F5F5F5F5F5F5F5F5F5F5F5F5F5F5F5F5F5F5F5F5F5F5F5
310
F5F5F5F5F5F5F5F5F5F5F5F5F5F5F5F5F5F5F5F5F5F5F5F5F5F5F5F5F5F5F5F5F5F5F5F5F5F5F5F5F5F5F5F5F5F5F5F5F5F5F5F5F5F5F5F5F5F5F5F5F5F5F5F5F5F5F5F5F5F5F5F5F5F5F5F5F5F5F5F5F5F5F5F5F5F5F5F5F5F5F5F5F5F5F5F5F5F5F5F5F5F5F5F5F5F5F5F5F5F5F5F5F5F5F5F5F5F5F5F5F5F5F5F5F5F5E2
310
F5F5F5E2E2F5F5F5E2F5F5F5F5F5F5F5F5F5F5F5F5F5F5F5F5F5F5F5F5F5F5F5F5F5F5F5F5F5F5F5F5F5F5F5F5F5F5F5F5F5F5F5F5F5F5F5F5F5F5F5F5F5F5F5F5F5F5F5F5F5F5F5F5F5F5F5F5F5F5F5F5F5F5F5F5F5F5F5F5F5F5F5F5F5F5F5F5F5F5F5F5F5F5F5F5F5F5F5F5F5F5F5F5F5F5F5F5F5F5F5F5F5F5F5F5F5F5
310
F5F5F5F5F5F5F5F5F5F5F5F5F5F5F5F5F5F5F5F5F5F5F5F5F5F5F5F5F5F5F5F5F5F5F5F5F5F5F5F5F5F5F5F5F5F5F5F5F5F5F5F5E2F5F5F5E2E2F5F5F5E2F5F5F5F5F5F5F5F5F5F5F5F5F5F5F5F5F5F5F5F5F5F5F5F5F5F5F5F5F5F5F5F5F5F5F5F5F5F5F5F5F5F5F5F5F5F5F5F5F5F5F5F5F5F5F5F5F5F5F5F5F5F5F5F5F5
310
F5F5F5F5F5F5F5F5F5F5F5F5F5F5F5F5F5F5F5F5F5F5F5F5F5F5F5F5F5F5F5F5F5F5F5F5F5F5F5F5F5F5F5F5F5F5F5F5F5F5F5F5F5F5F5F5F5F5F5F5F5F5F5F5F5F5F5F5F5F5F5F5F5F5F5F5F5F5F5F5F5F5F5F5F5F5F5F5F5F5F5F5F5F5F5F5F5F5F5F5F5F5F5F5F5E2F5F5F5E2E2F5F5F5E2F5F5F5F5F5F5F5F5F5F5F5F5
310
F5F5F5F5F5F5F5F5F5F5F5F5F5F5F5F5F5F5F5F5F5F5F5F5F5F5F5F5F5F5F5F5F5F5F5F5F5F5F5F5F5F5F5F5F5F5F5F5F5F5F5F5F5F5F5F5F5F5F5F5F5F5F5F5F5F5F5F5F5F5F5F5F5F5F5F5F5F5F5F5F5F5F5F5F5F5F5F5F5F5F5F5F5F5F5F5F5F5F5F5F5F5F5F5F5F5F5F5F5F5F5F5F5F5F5F5F5F5F5F5F5F5F5F5F5F5F5
310
F5F5F5F5F5F5F5F5F5F5F5F5F5F5F5F5F5F5F5F5F5F5F5F5F5F5F5F5F5F5F5E2F5F5F5E2E2F5F5F5E2F5F5F5F5F5F5F5F5F5F5F5F5F5F5F5F5F5F5F5F5F5F5F5F5F5F5F5F5F5F5F5F5F5F5F5F5F5F5F5F5F5F5F5F5F5F5F5F5F5F5F5F5F5F5F5F5F5F5F5F5F5F5F5F5F5F5F5F5F5F5F5F5F5F5F5F5F5F5F5F5F5F5F5F5F5F5
310
F5F5F5F5F5F5F5F5F5F5F5F5F5F5F5F5F5F5F5F5F5F5F5F5F5F5F5F5F5F5F5F5F5F5F5F5F5F5F5F5F5F5F5F5F5F5F5F5F5F5F5F5F5F5F5F5F5F5F5F5F5F5F5F5F5F5F5F5F5F5F5F5F5F5F5F5F5F5F5F5F5F5F5F5E2F5F5F5E2E2F5F5F5E2F5F5F5F5F5F5F5F5F5F5F5F5F5F5F5F5F5F5F5F5F5F5F5F5F5F5F5F5F5F5F5F5F5
310
F5F5F5F5F5F5F5F5F5F5F5F5F5F5F5F5F5F5F5F5F5F5F5F5F5F5F5F5F5F5F5F5F5F5F5F5F5F5F5F5F5F5F5F5F5F5F5F5F5F5F5F5F5F5F5F5F5F5F5F5F5F5F5F5F5F5F5F5F5F5F5F5F5F5F5F5F5F5F5F5F5F5F5F5F5F5F5F5F5F5F5F5F5F5F5F5F5F5F5F5F5F5F5F5F5F5F5F5F5F5F5F5F5F5F5F5F5F5F5F5F5F5F5F5F5F5F5
310
F5F5F5F5F5F5F5F5F5F5E2F5F5F5E2E2F5F5F5E2F5F5F5F5F5F5F5F5F5F5F5F5F5F5F5F5F5F5F5F5F5F5F5F5F5F5F5F5F5F5F5F5F5F5F5F5F5F5F5F5F5F5F5F5F5F5F5F5F5F5F5F5F5F5F5F5F5F5F5F5F5F5F5F5F5F5F5F5F5F5F5F5F5F5F5F5F5F5F5F5F5F5F5F5F5F5F5F5F5F5F5F5F5F5F5F5F5F5F5F5F5F5F5F5F5F5F5
310
F5F5F5F5F5F5F5F5F5F5F5F5F5F5F5F5F5F5F5F5F5F5F5F5F5F5F5F5F5F5F5F5F5F5F5F5F5F5F5F5F5F5F5F5F5F5F5F5F5F5F5F5F5F5F5F5F5F5F5F5F5F5F5E2F5F5F5E2E2F5F5F5E2F5F5F5F5F5F5F5F5F5F5F5F5F5F5F5F5F5F5F5F5F5F5F5F5F5F5F5F5F5F5F5F5F5F5F5F5F5F5F5F5F5F5F5F5F5F5F5F5F5F5F5F5F5F5
310
F5F5F5F5F5F5F5F5F5F5F5F5F5F5F5F5F5F5F5F5F5F5F5F5F5F5F5F5F5F5F5F5F5F5F5F5F5F5F5F5F5F5F5F5F5F5F5F5F5F5F5F5F5F5F5F5F5F5F5F5F5F5F5F5F5F5F5F5F5F5F5F5F5F5F5F5F5F5F5F5F5F5F5F5F5F5F5F5F5F5F5F5F5F5F5F5F5F5F5F5F5F5F5F5F5F5F5F5F5F5F5F5F5F5F5F5E2F5F5F5E2E2F5F5F5E2F5
310
F5F5F5F5F5F5F5F5F5F5F5F5F5F5F5F5F5F5F5F5F5F5F5F5F5F5F5F5F5F5F5F5F5F5F5F5F5F5F5F5F5F5F5F5F5F5F5F5F5F5F5F5F5F5F5F5F5F5F5F5F5F5F5F5F5F5F5F5F5F5F5F5F5F5F5F5F5F5F5F5F5F5F5F5F5F5F5F5F5F5F5F5F5F5F5F5F5F5F5F5F5F5F5F5F5F5F5F5F5F5F5F5F5F5F5F5F5F5F5F5F5F5F5F5F5F5F5
310
F5F5F5F5F5F5F5F5F5F5F5F5F5F5F5F5F5F5F5F5F5F5F5F5F5F5F5F5F5F5F5F5F5F5F5F5F5F5F5F5F5F5E2F5F5F5E2E2F5F5F5E2F5F5F5F5F5F5F5F5F5F5F5F5F5F5F5F5F5F5F5F5F5F5F5F5F5F5F5F5F5F5F5F5F5F5F5F5F5F5F5F5F5F5F5F5F5F5F5F5F5F5F5F5F5F5F5F5F5F5F5F5F5F5F5F5F5F5F5F5F5F5F5F5F5F5F5
310
F5F5F5F5F5F5F5F5F5F5F5F5F5F5F5F5F5F5F5F5F5F5F5F5F5F5F5F5F5F5F5F5F5F5F5F5F5F5F5F5F5F5F5F5F5F5F5F5F5F5F5F5F5F5F5F5F5F5F5F5F5F5F5F5F5F5F5F5F5F5F5F5F5F5F5F5F5F5F5F5F5F5F5F5F5F5F5F5F5F5F5F5F5F5F5E2F5F5F5E2E2F5F5F5F5F5F5F5F5F5F5F5F5F5F5F5F5F5F5F5F5F5F5F5F5F5F5
310
F5F5F5F5F5F5F5F5F5F5F5F5F5F5F5F5F5F5F5F5F5F5F5F5F5F5F5F5F5F5F5F5F5F5F5F5F5F5F5F5F5F5F5F5F5F5F5F5F5F5F5F5F5F5F5F5F5F5F5F5F5F5F5F5F5F5F5F5F5F5F5F5F5F5F5F5F5F5F5F5F5F5F5F5F5F5F5F5F5F5F5F5F5F5F5F5F5F5F5F5F5F5F5F5F5F5F5F5F5F5F5F5F5F5F5F5F5F5F5F5F5F5F5F5F5F5F5
310
F5F5F5F5F5F5F5F5F5F5F5F5F5F5F5F5F5F5F5F5F5F5F5F5F5E2E2F5F5F5F5F5F5F5F5F5F5F5F5F5F5F5F5F5F5F5F5F5F5F5F5F5F5F5F5F5F5F5F5F5F5F5F5F5F5F5F5F5F5F5F5F5F5F5F5F5F5F5F5F5F5F5F5F5F5F5F5F5F5F5F5F5F5F5F5F5F5F5F5F5F5F5F5F5F5F5F5F5F5F5F5F5F5F5F5F5F5F5F5F5F5F5F5F5F5F5F5
310
F5F5F5F5F5F5F5F5F5F5F5F5F5F5F5F5F5F5F5F5F5F5F5F5F5F5F5F5F5F5F5F5F5F5F5F5F5F5F5F5F5F5F5F5F5F5F5F5F5F5F5F5F5F5F5F5F5F5F5F5F5F5F5F5F5F5F5F5F5F5F5F5F5F5F5F5F5F5E2E2F5F5F5F5F5F5F5F5F5F5F5F5F5F5F5F5F5F5F5F5F5F5F5F5F5F5F5F5F5F5F5F5F5F5F5F5F5F5F5F5F5F5F5F5F5F5F5
310
F5F5F5F5F5F5F5F5F5F5F5F5F5F5F5F5F5F5F5F5F5F5F5F5F5F5F5F5F5F5F5F5F5F5F5F5F5F5F5F5F5F5F5F5F5F5F5F5F5F5F5F5F5F5F5F5F5F5F5F5F5F5F5F5F5F5F5F5F5F5F5F5F5F5F5F5F5F5F5F5F5F5F5F5F5F5F5F5F5F5F5F5F5F5F5F5F5F5F5F5F5F5F5F5F5F5F5F5F5F5F5F5F5F5F5F5F5F5F5F5F5F5F5F5F5F5F5
310
F5F5F5F5E2E2F5F5F5F5F5F5F5F5F5F5F5F5F5F5F5F5F5F5F5F5F5F5F5F5F5F5F5F5F5F5F5F5F5F5F5F5F5F5F5F5F5F5F5F5F5F5F5F5F5F5F5F5F5F5F5F5F5F5F5F5F5F5F5F5F5F5F5F5F5F5F5F5F5F5F5F5F5F5F5F5F5F5F5F5F5F5F5F5F5F5F5F5F5F5F5F5F5F5F5F5F5F5F5F5F5F5F5F5F5F5F5F5F5F5F5F5F5F5F5F5F5
310
F5F5F5F5F5F5F5F5F5F5F5F5F5F5F5F5F5F5F5F5F5F5F5F5F5F5F5F5F5F5F5F5F5F5F5F5F5F5F5F5F5F5F5F5F5F5F5F5F5F5F5F5F5F5F5F5F5E2E2F5F5F5F5F5F5F5F5F5F5F5F5F5F5F5F5F5F5F5F5F5F5F5F5F5F5F5F5F5F5F5F5F5F5F5F5F5F5F5F5F5F5F5F5F5F5F5F5F5F5F5F5F5F5F5F5F5F5F5F5F5F5F5F5F5F5F5F5
310
F5F5F5F5F5F5F5F5F5F5F5F5F5F5F5F5F5F5F5F5F5F5F5F5F5F5F5F5F5F5F5F5F5F5F5F5F5F5F5F5F5F5F5F5F5F5F5F5F5F5F5F5F5F5F5F5F5F5F5F5F5F5F5F5F5F5F5F5F5F5F5F5F5F5F5F5F5F5F5F5F5F5F5F5F5F5F5F5F5F5F5F5F5F5F5F5F5F5F5F5F5F5F5F5F5F5F5F5F5F5E2E2F5F5F5F5F5F5F5F5F5F5F5F5F5F5F5
310
F5F5F5F5F5F5F5F5F5F5F5F5F5F5F5F5F5F5F5F5F5F5F5F5F5F5F5F5F5F5F5F5F5F5F5F5F5F5F5F5F5F5F5F5F5F5F5F5F5F5F5F5F5F5F5F5F5F5F5F5F5F5F5F5F5F5F5F5F5F5F5F5F5F5F5F5F5F5F5F5F5F5F5F5F5F5F5F5F5F5F5F5F5F5F5F5F5F5F5F5F5F5F5F5F5F5F5F5F5F5F5F5F5F5F5F5F5F5F5F5F5F5F5F5F5F5F5
310
F5F5F5F5F5F5F5F5F5F5F5F5F5F5F5F5F5F5F5F5F5F5F5F5F5F5F5F5F5F5F5F5F5F5F5F5E2E2F5F5F5F5F5F5F5F5F5F5F5F5F5F5F5F5F5F5F5F5F5F5F5F5F5F5F5F5F5F5F5F5F5F5F5F5F5F5F5F5F5F5F5F5F5F5F5F5F5F5F5F5F5F5F5F5F5F5F5F5F5F5F5F5F5F5F5F5F5F5F5F5F5F5F5F5F5F5F5F5F5F5F5F5F5F5F5F5F5
310
F5F5F5F5F5F5F5F5F5F5F5F5F5F5F5F5F5F5F5F5F5F5F5F5F5F5F5F5F5F5F5F5F5F5F5F5F5F5F5F5F5F5F5F5F5F5F5F5F5F5F5F5F5F5F5F5F5F5F5F5F5F5F5F5F5F5F5F5F5F5F5F5F5F5F5F5F5F5F5F5F5F5F5F5F5F5F5F5F5E2E2F5F5F5F5F5F5F5F5F5F5F5F5F5F5F5F5F5F5F5F5F5F5F5F5F5F5F5F5F5F5F5F5F5F5F5F5
310
F5F5F5F5F5F5F5F5F5F5F5F5F5F5F5F5F5F5F5F5F5F5F5F5F5F5F5F5F5F5F5F5F5F5F5F5F5F5F5F5F5F5F5F5F5F5F5F5F5F5F5F5F5F5F5F5F5F5F5F5F5F5F5F5F5F5F5F5F5F5F5F5F5F5F5F5F5F5F5F5F5F5F5F5F5F5F5F5F5F5F5F5F5F5F5F5F5F5F5F5F5F5F5F5F5F5F5F5F5F5F5F5F5F5F5F5F5F5F5F5F5F5F5F5F5F5F5
310
F5F5F5F5F5F5F5F5F5F5F5F5F5F5F5E2E2F5F5F5F5F5F5F5F5F5F5F5F5F5F5F5F5F5F5F5F5F5F5F5F5F5F5F5F5F5F5F5F5F5F5F5F5F5F5F5F5F5F5F5F5F5F5F5F5F5F5F5F5F5F5F5F5F5F5F5F5F5F5F5F5F5F5F5F5F5F5F5F5F5F5F5F5F5F5F5F5F5F5F5F5F5F5F5F5F5F5F5F5F5F5F5F5F5F5F5F5F5F5F5F5F5F5F5F5F5F5
310
F5F5F5F5F5F5F5F5F5F5F5F5F5F5F5F5F5F5F5F5F5F5F5F5F5F5F5F5F5F5F5F5F5F5F5F5F5F5F5F5F5F5F5F5F5F5F5F5F5F5F5F5F5F5F5F5F5F5F5F5F5F5F5F5F5F5F5F5E2E2F5F5F5E2F5F5F5F5F5F5F5F5F5F5F5F5F5F5F5F5F5F5F5F5F5F5F5F5F5F5F5F5F5F5F5F5F5F5F5F5F5F5F5F5F5F5F5F5F5F5F5F5F5F5F5F5F5
310
F5F5F5F5F5F5F5F5F5F5F5F5F5F5F5F5F5F5F5F5F5F5F5F5F5F5F5F5F5F5F5F5F5F5F5F5F5F5F5F5F5F5F5F5F5F5F5F5F5F5F5F5F5F5F5F5F5F5F5F5F5F5F5F5F5F5F5F5F5F5F5F5F5F5F5F5F5F5F5F5F5F5F5F5F5F5F5F5F5F5F5F5F5F5F5F5F5F5F5F5F5F5F5F5F5F5F5F5F5F5F5F5F5F5F5F5F5E2F5F5F5E2E2F5F5F5E2
310
F5F5F5F5F5F5F5F5F5F5F5F5F5F5F5F5F5F5F5F5F5F5F5F5F5F5F5F5F5F5F5F5F5F5F5F5F5F5F5F5F5F5F5F5F5F5F5F5F5F5F5F5F5F5F5F5F5F5F5F5F5F5F5F5F5F5F5F5F5F5F5F5F5F5F5F5F5F5F5F5F5F5F5F5F5F5F5F5F5F5F5F5F5F5F5F5F5F5F5F5F5F5F5F5F5F5F5F5F5F5F5F5F5F5F5F5F5F5F5F5F5F5F5F5F5F5F5
310
F5F5F5F5F5F5F5F5F5F5F5F5F5F5F5F5F5F5F5F5F5F5F5F5F5F5F5F5F5F5F5F5F5F5F5F5F5F5F5F5F5F5F5E2F5F5F5E2E2F5F5F5E2F5F5F5F5F5F5F5F5F5F5F5F5F5F5F5F5F5F5F5F5F5F5F5F5F5F5F5F5F5F5F5F5F5F5F5F5F5F5F5F5F5F5F5F5F5F5F5F5F5F5F5F5F5F5F5F5F5F5F5F5F5F5F5F5F5F5F5F5F5F5F5F5F5F5
310
F5F5F5F5F5F5F5F5F5F5F5F5F5F5F5F5F5F5F5F5F5F5F5F5F5F5F5F5F5F5F5F5F5F5F5F5F5F5F5F5F5F5F5F5F5F5F5F5F5F5F5F5F5F5F5F5F5F5F5F5F5F5F5F5F5F5F5F5F5F5F5F5F5F5F5F5F5F5F5F5F5F5F5F5F5F5F5F5F5F5F5F5F5F5F5F5E2F5F5F5E2E2F5F5F5E2F5F5F5F5F5F5F5F5F5F5F5F5F5F5F5F5F5F5F5F5F5
310
F5F5F5F5F5F5F5F5F5F5F5F5F5F5F5F5F5F5F5F5F5F5F5F5F5F5F5F5F5F5F5F5F5F5F5F5F5F5F5F5F5F5F5F5F5F5F5F5F5F5F5F5F5F5F5F5F5F5F5F5F5F5F5F5F5F5F5F5F5F5F5F5F5F5F5F5F5F5F5F5F5F5F5F5F5F5F5F5F5F5F5F5F5F5F5F5F5F5F5F5F5F5F5F5F5F5F5F5F5F5F5F5F5F5F5F5F5F5F5F5F5F5F5F5F5F5F5
310
F5F5F5F5F5F5F5F5F5F5F5F5F5F5F5F5F5F5F5F5F5F5E2F5F5F5E2E2F5F5F5E2F5F5F5F5F5F5F5F5F5F5F5F5F5F5F5F5F5F5F5F5F5F5F5F5F5F5F5F5F5F5F5F5F5F5F5F5F5F5F5F5F5F5F5F5F5F5F5F5F5F5F5F5F5F5F5F5F5F5F5F5F5F5F5F5F5F5F5F5F5F5F5F5F5F5F5F5F5F5F5F5F5F5F5F5F5F5F5F5F5F5F5F5F5F5F5
310
F5F5F5F5F5F5F5F5F5F5F5F5F5F5F5F5F5F5F5F5F5F5F5F5F5F5F5F5F5F5F5F5F5F5F5F5F5F5F5F5F5F5F5F5F5F5F5F5F5F5F5F5F5F5F5F5F5F5F5F5F5F5F5F5F5F5F5F5F5F5F5F5F5F5F5E2F5F5F5E2E2F5F5F5E2F5F5F5F5F5F5F5F5F5F5F5F5F5F5F5F5F5F5F5F5F5F5F5F5F5F5F5F5F5F5F5F5F5F5F5F5F5F5F5F5F5F5
310
F5F5F5F5F5F5F5F5F5F5F5F5F5F5F5F5F5F5F5F5F5F5F5F5F5F5F5F5F5F5F5F5F5F5F5F5F5F5F5F5F5F5F5F5F5F5F5F5F5F5F5F5F5F5F5F5F5F5F5F5F5F5F5F5F5F5F5F5F5F5F5F5F5F5F5F5F5F5F5F5F5F5F5F5F5F5F5F5F5F5F5F5F5F5F5F5F5F5F5F5F5F5F5F5F5F5F5F5F5F5F5F5F5F5F5F5F5F5F5F5F5F5F5F5F5F5F5
310
F5E2F5F5F5E2E2F5F5F5E2F5F5F5F5F5F5F5F5F5F5F5F5F5F5F5F5F5F5F5F5F5F5F5F5F5F5F5F5F5F5F5F5F5F5F5F5F5F5F5F5F5F5F5F5F5F5F5F5F5F5F5F5F5F5F5F5F5F5F5F5F5F5F5F5F5F5F5F5F5F5F5F5F5F5F5F5F5F5F5F5F5F5F5F5F5F5F5F5F5F5F5F5F5F5F5F5F5F5F5F5F5F5F5F5F5F5F5F5F5F5F5F5F5F5F5F5
310
F5F5F5F5F5F5F5F5F5F5F5F5F5F5F5F5F5F5F5F5F5F5F5F5F5F5F5F5F5F5F5F5F5F5F5F5F5F5F5F5F5F5F5F5F5F5F5F5F5F5F5F5F5F5E2F5F5F5E2E2F5F5F5E2F5F5F5F5F5F5F5F5F5F5F5F5F5F5F5F5F5F5F5F5F5F5F5F5F5F5F5F5F5F5F5F5F5F5F5F5F5F5F5F5F5F5F5F5F5F5F5F5F5F5F5F5F5F5F5F5F5F5F5F5F5F5F5
310
F5F5F5F5F5F5F5F5F5F5F5F5F5F5F5F5F5F5F5F5F5F5F5F5F5F5F5F5F5F5F5F5F5F5F5F5F5F5F5F5F5F5F5F5F5F5F5F5F5F5F5F5F5F5F5F5F5F5F5F5F5F5F5F5F5F5F5F5F5F5F5F5F5F5F5F5F5F5F5F5F5F5F5F5F5F5F5F5F5F5F5F5F5F5F5F5F5F5F5F5F5F5F5F5F5F5F5E2F5F5F5E2E2F5F5F5E2E2E2E2E2E2E2E2F5F5F5
310
F5F5F5F5F5F5E2E2E2E2E2E2E2E2E2E2E2E2E2E2E2E2F5F5F5F5F5F5F5F5F5E2E2E2E2E2E2E2E2E2E2E2E2E2E2E2F5F5F5F5F5F5F5F5F5E2E2E2E2E2E2E2E2E2E2E2E2E2E2E2E2F5F5F5F5F5F5F5F5E2E2E2E2E2E2E2E2E2E2E2E2E2E2E2E2F5F5F5F5F5F5F5F5F5E2E2E2E2E2E2E2E2E2E2E2E2E2E2E2F5F5F5F5F5F5F5F5
310
F5E2E2E2E2E2E2E2E2E2E2E2E2E2E2E2E2F5F5F5F5F5F5F5F5F5E2E2E2E2E2E2E2E2F5F5F5E2E2F5F5F5F5F5F5F5F5F5F5F5F5F5F5F5F5F5F5F5F5F5F5F5F5F5F5F5F5F5F5F5F5F5F5F5F5F5F5F5F5F5F5F5F5F5F5F5F5F5F5F5F5F5F5F5F5F5F5F5F5F5F5F5F5F5F5F5F5F5F5F5F5F5F5F5F5F5F5F5F5F5F5F5F5F5F5F5F5
310
F5F5F5F5F5F5F5F5F5F5F5F5F5F5F5F5F5F5F5F5F5F5F5F5F5F5F5F5F5F5F5F5F5F5F5F5F5F5F5F5F5F5F5F5F5F5F5F5F5F5F5F5F5F5F5F5F5F5F5F5F5F5F5F5F5F5F5F5F5F5F5F5F5F5F5F5F5F5F5F5F5F5F5F5F5F5F5F5F5F5E2E2F5F5F5F5F5F5F5F5F5F5F5F5F5F5F5F5F5F5F5F5F5F5F5F5F5F5F5F5F5F5F5F5F5F5F5
310
F5F5F5F5F5F5F5F5F5F5F5F5F5F5F5F5F5F5F5F5F5F5F5F5F5F5F5F5F5F5F5F5F5F5F5F5F5F5F5F5F5F5F5F5F5F5F5F5F5F5F5F5F5F5F5F5F5F5F5F5F5F5F5F5F5F5F5F5F5F5F5F5F5F5F5F5F5F5F5F5F5F5F5F5F5F5F5F5F5F5F5F5F5F5F5F5F5F5F5F5F5F5F5F5F5F5F5F5F5F5F5F5F5F5F5F5F5F5F5F5F5F5F5F5F5F5F5
310
F5F5F5F5F5F5F5F5F5F5F5F5F5F5F5F5E2E2F5F5F5F5F5F5F5F5F5F5F5F5F5F5F5F5F5F5F5F5F5F5F5F5F5F5F5F5F5F5F5F5F5F5F5F5F5F5F5F5F5F5F5F5F5F5F5F5F5F5F5F5F5F5F5F5F5F5F5F5F5F5F5F5F5F5F5F5F5F5F5F5F5F5F5F5F5F5F5F5F5F5F5F5F5F5F5F5F5F5F5F5F5F5F5F5F5F5F5F5F5F5F5F5F5F5F5F5F5
310
F5F5F5F5F5F5F5F5F5F5F5F5F5F5F5F5F5F5F5F5F5F5F5F5F5F5F5F5F5F5F5F5F5F5F5F5F5F5F5F5F5F5F5F5F5F5F5F5F5F5F5F5F5F5F5F5F5F5F5F5F5F5F5F5F5F5F5F5F5E2E2F5F5F5F5F5F5F5F5F5F5F5F5F5F5F5F5F5F5F5F5F5F5F5F5F5F5F5F5F5F5F5F5F5F5F5F5F5F5F5F5F5F5F5F5F5F5F5F5F5F5F5F5F5F5F5F5
310
F5F5F5F5F5F5F5F5F5F5F5F5F5F5F5F5F5F5F5F5F5F5F5F5F5F5F5F5F5F5F5F5F5F5F5F5F5F5F5F5F5F5F5F5F5F5F5F5F5F5F5F5F5F5F5F5F5F5F5F5F5F5F5F5F5F5F5F5F5F5F5F5F5F5F5F5F5F5F5F5F5F5F5F5F5F5F5F5F5F5F5F5F5F5F5F5F5F5F5F5F5F5F5F5F5F5F5F5F5F5F5F5F5F5F5F5F5F5F5F5F5F5E2E2E2E2E2
310
E2E2E2E2E2E2E2E2E2E2E2E2E2E2E2E2E2E2E2E2E2E2E2E2E2E2E2E2E2E2E2E2E2E2E2E2E2E2E2E2E2E2E2E2E2E2E2E2E2E2E2E2E2E2E2E2E2E2E2E2E2E2E2E2E2E2E2E2E2E2E2E2E2E2E2E2E2E2E2E2E2E2E2E2E2E2E2E2E2E2E2E2E2E2E2E2E2E2E2E2E2E2E2E2E2E2E2E2E2E2E2E2E2E2E2E2E2E2E2E2E2E2E2E2E2E2E2
310
E2E2E2E2E2E2E2E2E2E2E2E2E2E2E2E2E2E2E2E2E2E2E2E2E2E2E2E2E2E2E2E2E2E2E2E2E2E2E2E2E2E2E2E2E2E2E2E2E2
  0
XRECORD
  5
180B
102
{ACAD_REACTORS
330
180A
102
}
330
180A
100
AcDbXrecord
280
     1
102
SHADEPLOT
 70
     0
102
SHADEPLOTRESLEVEL
 70
     2
102
SHADEPLOTCUSTOMDPI
 70
   300
  0
ENDSEC
  0
EOF
