  0
SECTION
  2
HEADER
  9
$ACADVER
  1
AC1018
  9
$ACADMAINTVER
 70
    39
  9
$DWGCODEPAGE
  3
ANSI_1252
  9
$CUSTOMPROPERTYTAG
  1
AmdtFileType
  9
$CUSTOMPROPERTY
  1
84
  9
$INSBASE
 10
0.0
 20
0.0
 30
0.0
  9
$EXTMIN
 10
0.0000000293786862
 20
-0.0000000235213244
 30
0.0
  9
$EXTMAX
 10
34.00000002937871
 20
21.99999997647868
 30
0.0
  9
$LIMMIN
 10
0.0
 20
0.0
  9
$LIMMAX
 10
17.0
 20
11.0
  9
$ORTHOMODE
 70
     0
  9
$REGENMODE
 70
     1
  9
$FILLMODE
 70
     1
  9
$QTEXTMODE
 70
     0
  9
$MIRRTEXT
 70
     1
  9
$LTSCALE
 40
1.0
  9
$ATTMODE
 70
     1
  9
$TEXTSIZE
 40
0.12
  9
$TRACEWID
 40
0.05
  9
$TEXTSTYLE
  7
outline drawings
  9
$CLAYER
  8
0
  9
$CELTYPE
  6
BYLAYER
  9
$CECOLOR
 62
   256
  9
$CELTSCALE
 40
1.0
  9
$DISPSILH
 70
     0
  9
$DIMSCALE
 40
1.0
  9
$DIMASZ
 40
0.125
  9
$DIMEXO
 40
0.0625
  9
$DIMDLI
 40
0.38
  9
$DIMRND
 40
0.0
  9
$DIMDLE
 40
0.0
  9
$DIMEXE
 40
0.18
  9
$DIMTP
 40
0.0
  9
$DIMTM
 40
0.0
  9
$DIMTXT
 40
0.18
  9
$DIMCEN
 40
0.09
  9
$DIMTSZ
 40
0.0
  9
$DIMTOL
 70
     0
  9
$DIMLIM
 70
     0
  9
$DIMTIH
 70
     1
  9
$DIMTOH
 70
     1
  9
$DIMSE1
 70
     0
  9
$DIMSE2
 70
     0
  9
$DIMTAD
 70
     0
  9
$DIMZIN
 70
     0
  9
$DIMBLK
  1

  9
$DIMASO
 70
     1
  9
$DIMSHO
 70
     1
  9
$DIMPOST
  1
 mm\X
  9
$DIMAPOST
  1
 in
  9
$DIMALT
 70
     1
  9
$DIMALTD
 70
     2
  9
$DIMALTF
 40
0.0393700787
  9
$DIMLFAC
 40
25.4
  9
$DIMTOFL
 70
     0
  9
$DIMTVP
 40
0.0
  9
$DIMTIX
 70
     0
  9
$DIMSOXD
 70
     0
  9
$DIMSAH
 70
     0
  9
$DIMBLK1
  1

  9
$DIMBLK2
  1

  9
$DIMSTYLE
  2
Outline Drawings
  9
$DIMCLRD
 70
     0
  9
$DIMCLRE
 70
     0
  9
$DIMCLRT
 70
     0
  9
$DIMTFAC
 40
1.0
  9
$DIMGAP
 40
0.09
  9
$DIMJUST
 70
     0
  9
$DIMSD1
 70
     0
  9
$DIMSD2
 70
     0
  9
$DIMTOLJ
 70
     1
  9
$DIMTZIN
 70
     0
  9
$DIMALTZ
 70
     0
  9
$DIMALTTZ
 70
     0
  9
$DIMUPT
 70
     0
  9
$DIMDEC
 70
     0
  9
$DIMTDEC
 70
     0
  9
$DIMALTU
 70
     2
  9
$DIMALTTD
 70
     2
  9
$DIMTXSTY
  7
outline drawings
  9
$DIMAUNIT
 70
     0
  9
$DIMADEC
 70
     0
  9
$DIMALTRND
 40
0.0
  9
$DIMAZIN
 70
     0
  9
$DIMDSEP
 70
    46
  9
$DIMATFIT
 70
     3
  9
$DIMFRAC
 70
     0
  9
$DIMLDRBLK
  1

  9
$DIMLUNIT
 70
     2
  9
$DIMLWD
 70
    -2
  9
$DIMLWE
 70
    -2
  9
$DIMTMOVE
 70
     0
  9
$LUNITS
 70
     2
  9
$LUPREC
 70
     4
  9
$SKETCHINC
 40
0.1
  9
$FILLETRAD
 40
0.125
  9
$AUNITS
 70
     0
  9
$AUPREC
 70
     0
  9
$MENU
  1
.
  9
$ELEVATION
 40
0.0
  9
$PELEVATION
 40
0.0
  9
$THICKNESS
 40
0.0
  9
$LIMCHECK
 70
     0
  9
$CHAMFERA
 40
0.0
  9
$CHAMFERB
 40
0.0
  9
$CHAMFERC
 40
1.0
  9
$CHAMFERD
 40
0.0
  9
$SKPOLY
 70
     1
  9
$TDCREATE
 40
2453794.703317083
  9
$TDUCREATE
 40
2453794.911650417
  9
$TDUPDATE
 40
2454817.563004688
  9
$TDUUPDATE
 40
2454817.771338021
  9
$TDINDWG
 40
0.1231650579
  9
$TDUSRTIMER
 40
0.1231648843
  9
$USRTIMER
 70
     1
  9
$ANGBASE
 50
0.0
  9
$ANGDIR
 70
     0
  9
$PDMODE
 70
     0
  9
$PDSIZE
 40
0.0
  9
$PLINEWID
 40
0.0
  9
$SPLFRAME
 70
     0
  9
$SPLINETYPE
 70
     6
  9
$SPLINESEGS
 70
     8
  9
$HANDSEED
  5
1AF9
  9
$SURFTAB1
 70
     6
  9
$SURFTAB2
 70
     6
  9
$SURFTYPE
 70
     6
  9
$SURFU
 70
     6
  9
$SURFV
 70
     6
  9
$UCSBASE
  2

  9
$UCSNAME
  2

  9
$UCSORG
 10
0.0
 20
0.0
 30
0.0
  9
$UCSXDIR
 10
1.0
 20
0.0
 30
0.0
  9
$UCSYDIR
 10
0.0
 20
1.0
 30
0.0
  9
$UCSORTHOREF
  2

  9
$UCSORTHOVIEW
 70
     0
  9
$UCSORGTOP
 10
0.0
 20
0.0
 30
0.0
  9
$UCSORGBOTTOM
 10
0.0
 20
0.0
 30
0.0
  9
$UCSORGLEFT
 10
0.0
 20
0.0
 30
0.0
  9
$UCSORGRIGHT
 10
0.0
 20
0.0
 30
0.0
  9
$UCSORGFRONT
 10
0.0
 20
0.0
 30
0.0
  9
$UCSORGBACK
 10
0.0
 20
0.0
 30
0.0
  9
$PUCSBASE
  2

  9
$PUCSNAME
  2

  9
$PUCSORG
 10
0.0
 20
0.0
 30
0.0
  9
$PUCSXDIR
 10
1.0
 20
0.0
 30
0.0
  9
$PUCSYDIR
 10
0.0
 20
1.0
 30
0.0
  9
$PUCSORTHOREF
  2

  9
$PUCSORTHOVIEW
 70
     0
  9
$PUCSORGTOP
 10
0.0
 20
0.0
 30
0.0
  9
$PUCSORGBOTTOM
 10
0.0
 20
0.0
 30
0.0
  9
$PUCSORGLEFT
 10
0.0
 20
0.0
 30
0.0
  9
$PUCSORGRIGHT
 10
0.0
 20
0.0
 30
0.0
  9
$PUCSORGFRONT
 10
0.0
 20
0.0
 30
0.0
  9
$PUCSORGBACK
 10
0.0
 20
0.0
 30
0.0
  9
$USERI1
 70
     0
  9
$USERI2
 70
     0
  9
$USERI3
 70
     0
  9
$USERI4
 70
     0
  9
$USERI5
 70
     0
  9
$USERR1
 40
0.0
  9
$USERR2
 40
0.0
  9
$USERR3
 40
0.0
  9
$USERR4
 40
0.0
  9
$USERR5
 40
0.0
  9
$WORLDVIEW
 70
     1
  9
$SHADEDGE
 70
     3
  9
$SHADEDIF
 70
    70
  9
$TILEMODE
 70
     1
  9
$MAXACTVP
 70
    48
  9
$PINSBASE
 10
0.0
 20
0.0
 30
0.0
  9
$PLIMCHECK
 70
     0
  9
$PEXTMIN
 10
1.000000000000000E+20
 20
1.000000000000000E+20
 30
1.000000000000000E+20
  9
$PEXTMAX
 10
-1.000000000000000E+20
 20
-1.000000000000000E+20
 30
-1.000000000000000E+20
  9
$PLIMMIN
 10
-0.2500002402958907
 20
-0.2499999962453767
  9
$PLIMMAX
 10
10.74999951940821
 20
8.249999763458731
  9
$UNITMODE
 70
     0
  9
$VISRETAIN
 70
     1
  9
$PLINEGEN
 70
     0
  9
$PSLTSCALE
 70
     1
  9
$TREEDEPTH
 70
  3020
  9
$CMLSTYLE
  2
STANDARD
  9
$CMLJUST
 70
     0
  9
$CMLSCALE
 40
1.0
  9
$PROXYGRAPHICS
 70
     1
  9
$MEASUREMENT
 70
     0
  9
$CELWEIGHT
370
    -1
  9
$ENDCAPS
280
     0
  9
$JOINSTYLE
280
     0
  9
$LWDISPLAY
290
     0
  9
$INSUNITS
 70
     1
  9
$HYPERLINKBASE
  1

  9
$STYLESHEET
  1

  9
$XEDIT
290
     1
  9
$CEPSNTYPE
380
     0
  9
$PSTYLEMODE
290
     1
  9
$FINGERPRINTGUID
  2
{F67DDBAD-730F-431B-BEC0-ABB792F589E3}
  9
$VERSIONGUID
  2
{F49347D3-BA1B-45A2-8CB4-5A3BA6415131}
  9
$EXTNAMES
290
     1
  9
$PSVPSCALE
 40
0.0
  9
$OLESTARTUP
290
     0
  9
$SORTENTS
280
   127
  9
$INDEXCTL
280
     1
  9
$HIDETEXT
280
     0
  9
$XCLIPFRAME
290
     0
  9
$HALOGAP
280
     0
  9
$OBSCOLOR
 70
   257
  9
$OBSLTYPE
280
     0
  9
$INTERSECTIONDISPLAY
280
     0
  9
$INTERSECTIONCOLOR
 70
   257
  9
$DIMASSOC
280
     1
  9
$PROJECTNAME
  1

  0
ENDSEC
  0
SECTION
  2
CLASSES
  0
CLASS
  1
ACMESTATEMGR
  2
AcMeStateMgr
  3
AcMeServices
 90
        0
 91
        1
280
     0
281
     0
  0
CLASS
  1
ACMESCOPE
  2
AcMeScope
  3
AcMeServices
 90
        0
 91
        1
280
     0
281
     0
  0
CLASS
  1
ACMECOMMANDHISTORY
  2
AcMeCommandHistory
  3
AcMeServices
 90
        0
 91
        1
280
     0
281
     0
  0
CLASS
  1
ACRFINSADJUSTERMGR
  2
AcRfInsAdjusterMgr
  3
AcMeServices
 90
        0
 91
        1
280
     0
281
     0
  0
CLASS
  1
ACMEDRAWINGMAN
  2
AcMeDrawingMan
  3
AcMeServices
 90
        0
 91
        1
280
     0
281
     0
  0
CLASS
  1
AMATTR
  2
AcMeAttribute
  3
AcMeServices
 90
        0
 91
        0
280
     0
281
     0
  0
CLASS
  1
ACMEBOMCOLUMN
  2
AcMeBOMColumn
  3
AcMeServices
 90
        0
 91
        0
280
     0
281
     0
  0
CLASS
  1
ACMEBOMCONF
  2
AcMeBOMConf
  3
AcMeServices
 90
        0
 91
        0
280
     0
281
     0
  0
CLASS
  1
ACMEBOMTABLE
  2
AcMeBOMTable
  3
AcMeServices
 90
        0
 91
        0
280
     0
281
     0
  0
CLASS
  1
ACMEBOMENTRY
  2
AcMeBOMEntry
  3
AcMeServices
 90
        0
 91
        0
280
     0
281
     0
  0
CLASS
  1
ACMEVIEW
  2
AcMeView
  3
AcMeServices
 90
        0
 91
        0
280
     0
281
     0
  0
CLASS
  1
ACGREFMASTER
  2
AcGrefMaster
  3
AcAttribServices
 90
        0
 91
        1
280
     0
281
     0
  0
CLASS
  1
AMIMASTER
  2
AmiMaster
  3
AmiServices
 90
        0
 91
        1
280
     0
281
     0
  0
CLASS
  1
ACASGREFMASTER
  2
AcAsGrefMaster
  3
AutoSurfResolverServices
 90
        0
 91
        1
280
     0
281
     0
  0
CLASS
  1
ADAPPL
  2
AcAdAppl
  3
DesignerServices
 90
        0
 91
        1
280
     0
281
     0
  0
CLASS
  1
DEPMGR
  2
AcAdDepMgr
  3
DesignerServices
 90
        0
 91
        1
280
     0
281
     0
  0
CLASS
  1
PARAMMGR
  2
AcAdParamMgr
  3
DesignerServices
 90
        0
 91
        1
280
     0
281
     0
  0
CLASS
  1
PARAMSCOPE
  2
AcAdParamScope
  3
DesignerServices
 90
        0
 91
        1
280
     0
281
     0
  0
CLASS
  1
ACIMSYSVARMAN
  2
AcImSysVarManager
  3
AcMeServices
 90
        0
 91
        6
280
     0
281
     0
  0
CLASS
  1
ACIMINTSYSVAR
  2
AcImIntSysVar
  3
AcMeServices
 90
        0
 91
       46
280
     0
281
     0
  0
CLASS
  1
ACIMREALSYSVAR
  2
AcImRealSysVar
  3
AcMeServices
 90
        0
 91
       16
280
     0
281
     0
  0
CLASS
  1
ACIMSTRSYSVAR
  2
AcImStrSysVar
  3
AcMeServices
 90
        0
 91
       14
280
     0
281
     0
  0
CLASS
  1
NAMEDAPPL
  2
AcAdNamedAppl
  3
DesignerServices
 90
        0
 91
        1
280
     0
281
     0
  0
CLASS
  1
ADHNTMPLT
  2
AdHoleNoteTemplateMgr
  3
DesignerServices
 90
        0
 91
        0
280
     0
281
     0
  0
CLASS
  1
AM_HNTEMPLATE_MGR_NAME
  2
AdHoleNoteTemplateMgrName
  3
DesignerServices
 90
        0
 91
        0
280
     0
281
     0
  0
CLASS
  1
ACADGREFMODULE
  2
AcAdGrefModule
  3
AdGrefServices
 90
        0
 91
        1
280
     0
281
     0
  0
CLASS
  1
AM_DRAWING_MGR
  2
AcDmDwgMgr
  3
AcMechDwgViewMgmt
 90
        0
 91
        1
280
     0
281
     0
  0
CLASS
  1
AM_DWG_DOCUMENT
  2
AcDmDwgDocument
  3
AcMechDwgViewMgmt
 90
        0
 91
        1
280
     0
281
     0
  0
CLASS
  1
AM_DWG_SHEET
  2
AcDmSheet
  3
AcMechDwgViewMgmt
 90
        0
 91
        1
280
     0
281
     0
  0
CLASS
  1
AM_VIEWDIMPARMAP
  2
AcDmViewDimParMap
  3
AcMechDwgViewMgmt
 90
        0
 91
        1
280
     0
281
     0
  0
CLASS
  1
AM_DWGMGR_NAME
  2
AcDmDwgMgrName
  3
AcMechDwgViewMgmt
 90
        0
 91
        1
280
     0
281
     0
  0
CLASS
  1
ACAMPROJECT
  2
AcAmProject
  3
DesignerAssemblies
 90
        0
 91
        1
280
     0
281
     0
  0
CLASS
  1
ACAMGRCOMPSET
  2
AcAmGrCompSet
  3
DesignerAssemblies
 90
        0
 91
        0
280
     0
281
     0
  0
CLASS
  1
ACAMGRCOMPDEFSET
  2
AcAmGrCompDefSet
  3
DesignerAssemblies
 90
        0
 91
        1
280
     0
281
     0
  0
CLASS
  1
ACAMGRCOMPDEF
  2
AcAmGrCompDef
  3
DesignerAssemblies
 90
        0
 91
        2
280
     0
281
     0
  0
CLASS
  1
ACCMCONTEXT
  2
AcCmContext
  3
DesignerAssemblies
 90
        0
 91
        3
280
     0
281
     0
  0
CLASS
  1
ACAMCOMPDEF
  2
AcAmCompDef
  3
DesignerAssemblies
 90
        0
 91
        2
280
     0
281
     0
  0
CLASS
  1
ACAMCOMPDEFMGR
  2
AcAmCompDefMgr
  3
DesignerAssemblies
 90
        0
 91
        1
280
     0
281
     0
  0
CLASS
  1
AMCONTEXTMGR
  2
AcAmContextMgr
  3
DesignerAssemblies
 90
        0
 91
        1
280
     0
281
     0
  0
CLASS
  1
ACAMCONTEXTMODELER
  2
AcAmContextModeler
  3
DesignerAssemblies
 90
        0
 91
        1
280
     0
281
     0
  0
CLASS
  1
ACDMVIEWGEOM
  2
AcDmViewGeometry
  3
AcMechDwgViewMgmt
 90
        0
 91
        1
280
     0
281
     1
  0
CLASS
  1
CBROWSERAPPOBJECT
  2
CBrowserAppObject
  3
McadcomServices
 90
        0
 91
        3
280
     0
281
     0
  0
CLASS
  1
IM_STATIC_MAN
  2
AcImStaticVarManager
  3
AcMeServices
 90
        0
 91
        1
280
     0
281
     0
  0
CLASS
  1
ASAPP
  2
AcAsAppObject
  3
AutoSurfServices
 90
        0
 91
        1
280
     0
281
     0
  0
CLASS
  1
ACIMDBLSTATICVAR
  2
AcImDblStaticVar
  3
AcMeServices
 90
        0
 91
       22
280
     0
281
     0
  0
CLASS
  1
ACIMSTRSTATICVAR
  2
AcImStrStaticVar
  3
AcMeServices
 90
        0
 91
       13
280
     0
281
     0
  0
CLASS
  1
ACIMINTSTATICVAR
  2
AcImIntStaticVar
  3
AcMeServices
 90
        0
 91
       17
280
     0
281
     0
  0
CLASS
  1
CATALOGSTATE
  2
AcAmCatalogState
  3
DesignerAssemblies
 90
        0
 91
        1
280
     0
281
     0
  0
CLASS
  1
DM_PLACEHOLDER
  2
AcDmSelsetPlaceholder
  3
AcMechDwgViewMgmt
 90
        0
 91
        1
280
     0
281
     0
  0
CLASS
  1
DICTIONARYVAR
  2
AcDbDictionaryVar
  3
ObjectDBX Classes
 90
        0
 91
        3
280
     0
281
     0
  0
CLASS
  1
ACMSTANDARDJIS
  2
AcmStandardJIS
  3
"Amdt_StdImp|Product Description: AutoCAD Mechanical 2004 DX|Company: Autodesk"
 90
        0
 91
        0
280
     0
281
     0
  0
CLASS
  1
ACMSTANDARDANSI
  2
AcmStandardANSI
  3
"Amdt_StdImp|Product Description: AutoCAD Mechanical 2004 DX|Company: Autodesk"
 90
        0
 91
        1
280
     0
281
     0
  0
CLASS
  1
ACMSTANDARDBSI
  2
AcmStandardBSI
  3
"Amdt_StdImp|Product Description: AutoCAD Mechanical 2004 DX|Company: Autodesk"
 90
        0
 91
        0
280
     0
281
     0
  0
CLASS
  1
ACMSTANDARDDIN
  2
AcmStandardDIN
  3
"Amdt_StdImp|Product Description: AutoCAD Mechanical 2004 DX|Company: Autodesk"
 90
        0
 91
        0
280
     0
281
     0
  0
CLASS
  1
ACMSTANDARDISO
  2
AcmStandardISO
  3
"Amdt_StdImp|Product Description: AutoCAD Mechanical 2004 DX|Company: Autodesk"
 90
        0
 91
        0
280
     0
281
     0
  0
CLASS
  1
LAYER_INDEX
  2
AcDbLayerIndex
  3
ObjectDBX Classes
 90
        0
 91
        1
280
     0
281
     0
  0
CLASS
  1
IDBUFFER
  2
AcDbIdBuffer
  3
ObjectDBX Classes
 90
        0
 91
        9
280
     0
281
     0
  0
CLASS
  1
ACDBDICTIONARYWDFLT
  2
AcDbDictionaryWithDefault
  3
ObjectDBX Classes
 90
        0
 91
        1
280
     0
281
     0
  0
CLASS
  1
ACME_DOCUMENT
  2
AcMeDbDoc
  3
AcMeServices
 90
        0
 91
        2
280
     0
281
     0
  0
CLASS
  1
AMGSETTINGSOBJ
  2
AmgSettingsObj
  3
"AcadM|Product Description: AutoCAD Mechanical 2000|Company: Autodesk"
 90
        0
 91
        3
280
     0
281
     0
  0
CLASS
  1
AMGOBJPROPCFG
  2
AmgObjPropCfg
  3
"AmgLay|Product Description: AutoCAD Mechanical 2000|Company: Autodesk"
 90
        1
 91
        1
280
     0
281
     0
  0
CLASS
  1
ACDBENTITYCACHE
  2
AcMeEntityCache
  3
AcMeServices
 90
        0
 91
        1
280
     0
281
     0
  0
CLASS
  1
GSMANAGER
  2
AcMeGSManager
  3
AcMeServices
 90
        0
 91
        1
280
     0
281
     0
  0
CLASS
  1
AMDTINTERNALREACTOR
  2
AmdtInternalReactor
  3
AcMeServices
 90
        0
 91
        2
280
     0
281
     0
  0
CLASS
  1
ACME_DATABASE
  2
AcMeDbDatabase
  3
AcMeServices
 90
        0
 91
        1
280
     0
281
     0
  0
CLASS
  1
ACGREFACADMASTER
  2
AcGrefacadMaster
  3
AcGrefServices
 90
        0
 91
        1
280
     0
281
     0
  0
CLASS
  1
AMDTMENUSTATEMGR
  2
AmdtMenuStateMgr
  3
McadcomServices
 90
        0
 91
        1
280
     0
281
     0
  0
CLASS
  1
AMDTMCOMMENUSTATE
  2
AmdtMcomMenuState
  3
McadcomServices
 90
        0
 91
        1
280
     0
281
     0
  0
CLASS
  1
MAPIADMODULE
  2
MApiAdModule
  3
MApiAdServices
 90
        0
 91
        1
280
     0
281
     0
  0
CLASS
  1
AMDTDMMENUSTATE
  2
AmdtDmMenuState
  3
AcMechDwgViewMgmt
 90
        0
 91
        1
280
     0
281
     0
  0
CLASS
  1
AMDTADMENUSTATE
  2
AmdtAdMenuState
  3
DesignerServices
 90
        0
 91
        1
280
     0
281
     0
  0
CLASS
  1
AMDTAMMENUSTATE
  2
AmdtAmMenuState
  3
DesignerAssemblies
 90
        0
 91
        1
280
     0
281
     0
  0
CLASS
  1
ACMDATADICTIONARY
  2
AcmDataDictionary
  3
"AcmSymBB|Product Description: AutoCAD Mechanical 2004 DX|Company: Autodesk"
 90
        0
 91
        1
280
     0
281
     0
  0
CLASS
  1
ACMDATAENTRYBLOCK
  2
AcmDataEntryBlock
  3
"AcmSymBB|Product Description: AutoCAD Mechanical 2004 DX|Company: Autodesk"
 90
        0
 91
        2
280
     0
281
     0
  0
CLASS
  1
AMDTBROWSERDBTAB
  2
AmdtBrowserDbTab
  3
McadcomServices
 90
        0
 91
        1
280
     0
281
     0
  0
CLASS
  1
ACAMGFILTERDAT
  2
AcAmgFilterDat
  3
"AcadM|Product Description: AutoCAD Mechanical 2000|Company: Autodesk"
 90
        0
 91
        4
280
     0
281
     0
  0
CLASS
  1
MAPIAMMOUDLE
  2
MApiAmModule
  3
MApiAmServices
 90
        0
 91
        1
280
     0
281
     0
  0
CLASS
  1
AMDTMAPISURFMOUDULE
  2
AmdtMApiSurfModule
  3
MApiSurfServices
 90
        0
 91
        1
280
     0
281
     0
  0
CLASS
  1
ACMSURFSTANDARDANSI
  2
AcmSurfTextStdANSI
  3
"Amdt_StdImp|Product Description: AutoCAD Mechanical 2004 DX|Company: Autodesk"
 90
        0
 91
        1
280
     0
281
     0
  0
CLASS
  1
ACMFCFSTANDARDANSI
  2
AcmFCFStdANSI
  3
"Amdt_StdImp|Product Description: AutoCAD Mechanical 2004 DX|Company: Autodesk"
 90
        0
 91
        1
280
     0
281
     0
  0
CLASS
  1
ACMWELDSTANDARDANSI
  2
AcmWeldingStdANSI
  3
"Amdt_StdImp|Product Description: AutoCAD Mechanical 2004 DX|Company: Autodesk"
 90
        0
 91
        1
280
     0
281
     0
  0
CLASS
  1
ACMIDSTANDARDANSI
  2
AcmIdStdANSI
  3
"Amdt_StdImp|Product Description: AutoCAD Mechanical 2004 DX|Company: Autodesk"
 90
        0
 91
        1
280
     0
281
     0
  0
CLASS
  1
ACMDATUMSTANDARDANSI
  2
AcmDatumStdANSI
  3
"Amdt_StdImp|Product Description: AutoCAD Mechanical 2004 DX|Company: Autodesk"
 90
        0
 91
        1
280
     0
281
     0
  0
CLASS
  1
ACMBOMSTANDARDANSI
  2
AcmBOMStdANSI
  3
"Amdt_StdImp|Product Description: AutoCAD Mechanical 2004 DX|Company: Autodesk"
 90
        0
 91
        1
280
     0
281
     0
  0
CLASS
  1
ACAMGLAYSTD
  2
AcAmgLayStd
  3
"AcAmgLayStd|Product Description: AutoCAD Mechanical 2000|Company: Autodesk"
 90
        0
 91
        1
280
     0
281
     0
  0
CLASS
  1
ACAMGDIMSTD
  2
AcAmgDimStd
  3
"AcAmgDimStd|Product Description: AutoCAD Mechanical 2000|Company: Autodesk"
 90
        0
 91
        1
280
     0
281
     0
  0
CLASS
  1
ACAMGTITLESTD
  2
AcAmgTitleStd
  3
"TITLEAPP"
 90
        0
 91
        1
280
     0
281
     0
  0
CLASS
  1
ACMDETAILSTANDARDANSI
  2
AmdtDetailSymStdANSI
  3
"Amdt_StdImp|Product Description: AutoCAD Mechanical 2004 DX|Company: Autodesk"
 90
        0
 91
        1
280
     0
281
     0
  0
CLASS
  1
ACMSECTIONSTANDARDANSI
  2
AmdtSectionSymStdANSI
  3
"Amdt_StdImp|Product Description: AutoCAD Mechanical 2004 DX|Company: Autodesk"
 90
        0
 91
        1
280
     0
281
     0
  0
CLASS
  1
ACMCENTERLINESTANDARDANSI
  2
AmdtCenterLineStdANSI
  3
"Amdt_StdImp|Product Description: AutoCAD Mechanical 2004 DX|Company: Autodesk"
 90
        0
 91
        1
280
     0
281
     0
  0
CLASS
  1
ACMTHREADLINESTANDARDANSI
  2
AmdtThreadLineStdANSI
  3
"Amdt_StdImp|Product Description: AutoCAD Mechanical 2004 DX|Company: Autodesk"
 90
        0
 91
        1
280
     0
281
     0
  0
CLASS
  1
ACMSURFSTANDARDBSI
  2
AcmSurfTextStdBSI
  3
"Amdt_StdImp|Product Description: AutoCAD Mechanical 2004 DX|Company: Autodesk"
 90
        0
 91
        0
280
     0
281
     0
  0
CLASS
  1
ACMFCFSTANDARDBSI
  2
AcmFCFStdBSI
  3
"Amdt_StdImp|Product Description: AutoCAD Mechanical 2004 DX|Company: Autodesk"
 90
        0
 91
        0
280
     0
281
     0
  0
CLASS
  1
ACMWELDSTANDARDBSI
  2
AcmWeldingStdBSI
  3
"Amdt_StdImp|Product Description: AutoCAD Mechanical 2004 DX|Company: Autodesk"
 90
        0
 91
        0
280
     0
281
     0
  0
CLASS
  1
ACMIDSTANDARDBSI
  2
AcmIdStdBSI
  3
"Amdt_StdImp|Product Description: AutoCAD Mechanical 2004 DX|Company: Autodesk"
 90
        0
 91
        0
280
     0
281
     0
  0
CLASS
  1
ACMDATUMSTANDARDBSI
  2
AcmDatumStdBSI
  3
"Amdt_StdImp|Product Description: AutoCAD Mechanical 2004 DX|Company: Autodesk"
 90
        0
 91
        0
280
     0
281
     0
  0
CLASS
  1
ACMBOMSTANDARDBSI
  2
AcmBOMStdBSI
  3
"Amdt_StdImp|Product Description: AutoCAD Mechanical 2004 DX|Company: Autodesk"
 90
        0
 91
        0
280
     0
281
     0
  0
CLASS
  1
ACMDETAILSTANDARDBSI
  2
AmdtDetailSymStdBSI
  3
"Amdt_StdImp|Product Description: AutoCAD Mechanical 2004 DX|Company: Autodesk"
 90
        0
 91
        0
280
     0
281
     0
  0
CLASS
  1
ACMSECTIONSTANDARDBSI
  2
AmdtSectionSymStdBSI
  3
"Amdt_StdImp|Product Description: AutoCAD Mechanical 2004 DX|Company: Autodesk"
 90
        0
 91
        0
280
     0
281
     0
  0
CLASS
  1
ACMCENTERLINESTANDARDBSI
  2
AmdtCenterLineStdBSI
  3
"Amdt_StdImp|Product Description: AutoCAD Mechanical 2004 DX|Company: Autodesk"
 90
        0
 91
        0
280
     0
281
     0
  0
CLASS
  1
ACMTHREADLINESTANDARDBSI
  2
AmdtThreadLineStdBSI
  3
"Amdt_StdImp|Product Description: AutoCAD Mechanical 2004 DX|Company: Autodesk"
 90
        0
 91
        0
280
     0
281
     0
  0
CLASS
  1
AMDTEDGESTANDARDDIN
  2
AmdtEdgeStdDIN
  3
"Amdt_StdImp|Product Description: AutoCAD Mechanical 2004 DX|Company: Autodesk"
 90
        0
 91
        0
280
     0
281
     0
  0
CLASS
  1
ACMSURFSTANDARDDIN
  2
AcmSurfTextStdDIN
  3
"Amdt_StdImp|Product Description: AutoCAD Mechanical 2004 DX|Company: Autodesk"
 90
        0
 91
        0
280
     0
281
     0
  0
CLASS
  1
ACMFCFSTANDARDDIN
  2
AcmFCFStdDIN
  3
"Amdt_StdImp|Product Description: AutoCAD Mechanical 2004 DX|Company: Autodesk"
 90
        0
 91
        0
280
     0
281
     0
  0
CLASS
  1
ACMWELDSTANDARDDIN
  2
AcmWeldingStdDIN
  3
"Amdt_StdImp|Product Description: AutoCAD Mechanical 2004 DX|Company: Autodesk"
 90
        0
 91
        0
280
     0
281
     0
  0
CLASS
  1
ACMIDSTANDARDDIN
  2
AcmIdStdDIN
  3
"Amdt_StdImp|Product Description: AutoCAD Mechanical 2004 DX|Company: Autodesk"
 90
        0
 91
        0
280
     0
281
     0
  0
CLASS
  1
ACMDATUMSTANDARDDIN
  2
AcmDatumStdDIN
  3
"Amdt_StdImp|Product Description: AutoCAD Mechanical 2004 DX|Company: Autodesk"
 90
        0
 91
        0
280
     0
281
     0
  0
CLASS
  1
ACMBOMSTANDARDDIN
  2
AcmBOMStdDIN
  3
"Amdt_StdImp|Product Description: AutoCAD Mechanical 2004 DX|Company: Autodesk"
 90
        0
 91
        0
280
     0
281
     0
  0
CLASS
  1
ACMDETAILSTANDARDDIN
  2
AmdtDetailSymStdDIN
  3
"Amdt_StdImp|Product Description: AutoCAD Mechanical 2004 DX|Company: Autodesk"
 90
        0
 91
        0
280
     0
281
     0
  0
CLASS
  1
ACMSECTIONSTANDARDDIN
  2
AmdtSectionSymStdDIN
  3
"Amdt_StdImp|Product Description: AutoCAD Mechanical 2004 DX|Company: Autodesk"
 90
        0
 91
        0
280
     0
281
     0
  0
CLASS
  1
ACMCENTERLINESTANDARDDIN
  2
AmdtCenterLineStdDIN
  3
"Amdt_StdImp|Product Description: AutoCAD Mechanical 2004 DX|Company: Autodesk"
 90
        0
 91
        0
280
     0
281
     0
  0
CLASS
  1
ACMTHREADLINESTANDARDDIN
  2
AmdtThreadLineStdDIN
  3
"Amdt_StdImp|Product Description: AutoCAD Mechanical 2004 DX|Company: Autodesk"
 90
        0
 91
        0
280
     0
281
     0
  0
CLASS
  1
ACMSURFSTANDARDISO
  2
AcmSurfTextStdISO
  3
"Amdt_StdImp|Product Description: AutoCAD Mechanical 2004 DX|Company: Autodesk"
 90
        0
 91
        0
280
     0
281
     0
  0
CLASS
  1
ACMFCFSTANDARDISO
  2
AcmFCFStdISO
  3
"Amdt_StdImp|Product Description: AutoCAD Mechanical 2004 DX|Company: Autodesk"
 90
        0
 91
        0
280
     0
281
     0
  0
CLASS
  1
ACMWELDSTANDARDISO
  2
AcmWeldingStdISO
  3
"Amdt_StdImp|Product Description: AutoCAD Mechanical 2004 DX|Company: Autodesk"
 90
        0
 91
        0
280
     0
281
     0
  0
CLASS
  1
ACMIDSTANDARDISO
  2
AcmIdStdISO
  3
"Amdt_StdImp|Product Description: AutoCAD Mechanical 2004 DX|Company: Autodesk"
 90
        0
 91
        0
280
     0
281
     0
  0
CLASS
  1
ACMDATUMSTANDARDISO
  2
AcmDatumStdISO
  3
"Amdt_StdImp|Product Description: AutoCAD Mechanical 2004 DX|Company: Autodesk"
 90
        0
 91
        0
280
     0
281
     0
  0
CLASS
  1
ACMBOMSTANDARDISO
  2
AcmBOMStdISO
  3
"Amdt_StdImp|Product Description: AutoCAD Mechanical 2004 DX|Company: Autodesk"
 90
        0
 91
        0
280
     0
281
     0
  0
CLASS
  1
AMDTEDGESTANDARDISO
  2
AmdtEdgeStdISO
  3
"Amdt_StdImp|Product Description: AutoCAD Mechanical 2004 DX|Company: Autodesk"
 90
        0
 91
        0
280
     0
281
     0
  0
CLASS
  1
ACMDETAILSTANDARDISO
  2
AmdtDetailSymStdISO
  3
"Amdt_StdImp|Product Description: AutoCAD Mechanical 2004 DX|Company: Autodesk"
 90
        0
 91
        0
280
     0
281
     0
  0
CLASS
  1
ACMSECTIONSTANDARDISO
  2
AmdtSectionSymStdISO
  3
"Amdt_StdImp|Product Description: AutoCAD Mechanical 2004 DX|Company: Autodesk"
 90
        0
 91
        0
280
     0
281
     0
  0
CLASS
  1
ACMCENTERLINESTANDARDISO
  2
AmdtCenterLineStdISO
  3
"Amdt_StdImp|Product Description: AutoCAD Mechanical 2004 DX|Company: Autodesk"
 90
        0
 91
        0
280
     0
281
     0
  0
CLASS
  1
ACMTHREADLINESTANDARDISO
  2
AmdtThreadLineStdISO
  3
"Amdt_StdImp|Product Description: AutoCAD Mechanical 2004 DX|Company: Autodesk"
 90
        0
 91
        0
280
     0
281
     0
  0
CLASS
  1
ACMSURFSTANDARDJIS
  2
AcmSurfTextStdJIS
  3
"Amdt_StdImp|Product Description: AutoCAD Mechanical 2004 DX|Company: Autodesk"
 90
        0
 91
        0
280
     0
281
     0
  0
CLASS
  1
ACMFCFSTANDARDJIS
  2
AcmFCFStdJIS
  3
"Amdt_StdImp|Product Description: AutoCAD Mechanical 2004 DX|Company: Autodesk"
 90
        0
 91
        0
280
     0
281
     0
  0
CLASS
  1
ACMWELDSTANDARDJIS
  2
AcmWeldingStdJIS
  3
"Amdt_StdImp|Product Description: AutoCAD Mechanical 2004 DX|Company: Autodesk"
 90
        0
 91
        0
280
     0
281
     0
  0
CLASS
  1
ACMIDSTANDARDJIS
  2
AcmIdStdJIS
  3
"Amdt_StdImp|Product Description: AutoCAD Mechanical 2004 DX|Company: Autodesk"
 90
        0
 91
        0
280
     0
281
     0
  0
CLASS
  1
ACMDATUMSTANDARDJIS
  2
AcmDatumStdJIS
  3
"Amdt_StdImp|Product Description: AutoCAD Mechanical 2004 DX|Company: Autodesk"
 90
        0
 91
        0
280
     0
281
     0
  0
CLASS
  1
ACMBOMSTANDARDJIS
  2
AcmBOMStdJIS
  3
"Amdt_StdImp|Product Description: AutoCAD Mechanical 2004 DX|Company: Autodesk"
 90
        0
 91
        0
280
     0
281
     0
  0
CLASS
  1
ACMDETAILSTANDARDJIS
  2
AmdtDetailSymStdJIS
  3
"Amdt_StdImp|Product Description: AutoCAD Mechanical 2004 DX|Company: Autodesk"
 90
        0
 91
        0
280
     0
281
     0
  0
CLASS
  1
ACMSECTIONSTANDARDJIS
  2
AmdtSectionSymStdJIS
  3
"Amdt_StdImp|Product Description: AutoCAD Mechanical 2004 DX|Company: Autodesk"
 90
        0
 91
        0
280
     0
281
     0
  0
CLASS
  1
ACMCENTERLINESTANDARDJIS
  2
AmdtCenterLineStdJIS
  3
"Amdt_StdImp|Product Description: AutoCAD Mechanical 2004 DX|Company: Autodesk"
 90
        0
 91
        0
280
     0
281
     0
  0
CLASS
  1
ACMTHREADLINESTANDARDJIS
  2
AmdtThreadLineStdJIS
  3
"Amdt_StdImp|Product Description: AutoCAD Mechanical 2004 DX|Company: Autodesk"
 90
        0
 91
        0
280
     0
281
     0
  0
CLASS
  1
ACMNOTESTANDARDANSI
  2
AmdtNoteStdANSI
  3
"Amdt_StdImp|Product Description: AutoCAD Mechanical 2004 DX|Company: Autodesk"
 90
        0
 91
        1
280
     0
281
     0
  0
CLASS
  1
ACAMGHOLECHARTSTDANSI
  2
AcAmgHoleChartStdANSI
  3
ACMSYMBB_MODULE_NAME
 90
        0
 91
        1
280
     0
281
     0
  0
CLASS
  1
TABLESTYLE
  2
AcDbTableStyle
  3
ObjectDBX Classes
 90
     2047
 91
        1
280
     0
281
     0
  0
CLASS
  1
AMDTNOTETEMPLATEDB
  2
AmdtNoteTemplateDB
  3
AMDT_STDIMP_MODULE_NAME
 90
        0
 91
       14
280
     0
281
     0
  0
CLASS
  1
VAACXREFPANELOBJECT
  2
VaAcXREFPanelObject
  3
VAAC_ADDIN
 90
        0
 91
        0
280
     0
281
     0
  0
CLASS
  1
VAACIMAGEINVENTORY
  2
VaAcImageInventory
  3
VAAC_ADDIN
 90
        0
 91
        0
280
     0
281
     0
  0
CLASS
  1
SORTENTSTABLE
  2
AcDbSortentsTable
  3
ObjectDBX Classes
 90
        0
 91
        4
280
     0
281
     0
  0
CLASS
  1
ACAMCOMPENT
  2
AcAmCompEnt
  3
DesignerAssemblies
 90
        0
 91
        1
280
     0
281
     1
  0
CLASS
  1
IMAGE
  2
AcDbRasterImage
  3
ISM
 90
      127
 91
        2
280
     0
281
     1
  0
CLASS
  1
IMAGEDEF_REACTOR
  2
AcDbRasterImageDefReactor
  3
ISM
 90
        1
 91
        2
280
     0
281
     0
  0
CLASS
  1
ACAMCOMPENTCLONE
  2
AcAmCompEntClone
  3
DesignerAssemblies
 90
        0
 91
        1
280
     0
281
     1
  0
CLASS
  1
IMAGEDEF
  2
AcDbRasterImageDef
  3
ISM
 90
        0
 91
        2
280
     0
281
     0
  0
CLASS
  1
ACAMCOMP
  2
AcAmComp
  3
DesignerAssemblies
 90
        0
 91
        1
280
     0
281
     0
  0
CLASS
  1
ACAMCOMPFEEDBACK
  2
AcAmCompFeedback
  3
DesignerAssemblies
 90
        0
 91
        1
280
     0
281
     0
  0
CLASS
  1
ACCMBODY
  2
AcCmBody
  3
DesignerAssemblies
 90
        0
 91
        1
280
     0
281
     0
  0
CLASS
  1
ACAMCLONEREACTOR
  2
AcAmGrCompCloneReactor
  3
DesignerAssemblies
 90
        0
 91
        1
280
     0
281
     0
  0
CLASS
  1
RASTERVARIABLES
  2
AcDbRasterVariables
  3
ISM
 90
        0
 91
        1
280
     0
281
     0
  0
ENDSEC
  0
SECTION
  2
TABLES
  0
TABLE
  2
VPORT
  5
8
330
0
100
AcDbSymbolTable
 70
     4
  0
VPORT
  5
1AF8
330
8
100
AcDbSymbolTableRecord
100
AcDbViewportTableRecord
  2
*Active
 70
     0
 10
0.0
 20
0.0
 11
1.0
 21
1.0
 12
16.94718849430485
 22
10.95918289507856
 13
0.0
 23
0.0
 14
0.125
 24
0.125
 15
1.0
 25
1.0
 16
0.0
 26
0.0
 36
1.0
 17
0.0
 27
0.0
 37
0.0
 40
28.29010434376097
 41
1.206622516556291
 42
50.0
 43
0.0
 44
0.0
 50
0.0
 51
0.0
 71
     0
 72
 20000
 73
     1
 74
     1
 75
     0
 76
     0
 77
     0
 78
     0
281
     0
 65
     0
110
0.0
120
0.0
130
0.0
111
1.0
121
0.0
131
0.0
112
0.0
122
1.0
132
0.0
 79
     0
146
0.0
  0
ENDTAB
  0
TABLE
  2
LTYPE
  5
5
330
0
100
AcDbSymbolTable
 70
    37
  0
LTYPE
  5
13
330
5
100
AcDbSymbolTableRecord
100
AcDbLinetypeTableRecord
  2
BYBLOCK
 70
     0
  3

 72
    65
 73
     0
 40
0.0
  0
LTYPE
  5
14
330
5
100
AcDbSymbolTableRecord
100
AcDbLinetypeTableRecord
  2
BYLAYER
 70
     0
  3

 72
    65
 73
     0
 40
0.0
  0
LTYPE
  5
15
330
5
100
AcDbSymbolTableRecord
100
AcDbLinetypeTableRecord
  2
CONTINUOUS
 70
     0
  3
Solid line
 72
    65
 73
     0
 40
0.0
  0
LTYPE
  5
8C
330
5
100
AcDbSymbolTableRecord
100
AcDbLinetypeTableRecord
  2
HIDDEN
 70
     0
  3
__ __ __ __ __ __ __ __ __ __ __ __ __ __ __ __
 72
    65
 73
     2
 40
0.375
 49
0.25
 74
     0
 49
-0.125
 74
     0
  0
LTYPE
  5
8E
330
5
100
AcDbSymbolTableRecord
100
AcDbLinetypeTableRecord
  2
PHANTOM2
 70
     0
  3
___ _ _ ___ _ _ ___ _ _ ___ _ _ ___ _ _ ___ _ _
 72
    65
 73
     6
 40
1.25
 49
0.625
 74
     0
 49
-0.125
 74
     0
 49
0.125
 74
     0
 49
-0.125
 74
     0
 49
0.125
 74
     0
 49
-0.125
 74
     0
  0
LTYPE
  5
99
330
5
100
AcDbSymbolTableRecord
100
AcDbLinetypeTableRecord
  2
CENTER
 70
     0
  3
____ _ ____ _ ____ _ ____ _ ____ _ ____ _ ____ 
 72
    65
 73
     4
 40
2.0
 49
1.25
 74
     0
 49
-0.25
 74
     0
 49
0.25
 74
     0
 49
-0.25
 74
     0
  0
LTYPE
  5
F2
330
5
100
AcDbSymbolTableRecord
100
AcDbLinetypeTableRecord
  2
ASULTYPE
 70
     0
  3
Solid line
 72
    65
 73
     2
 40
3.0
 49
2.5
 74
     0
 49
0.5
 74
     0
  0
LTYPE
  5
F3
330
5
100
AcDbSymbolTableRecord
100
AcDbLinetypeTableRecord
  2
ASVLTYPE
 70
     0
  3
__ __ __ __ __ __ __ __ __ __ __ __ __ __ __ __ __ __ __ __ __
 72
    65
 73
     2
 40
0.75
 49
0.5
 74
     0
 49
-0.25
 74
     0
  0
LTYPE
  5
15C
330
5
100
AcDbSymbolTableRecord
100
AcDbLinetypeTableRecord
  2
AM_ISO02W050
 70
     0
  3
__ __ __ __ __ __ __ __ __ __ __ __ __ __ __
 72
    65
 73
     2
 40
7.5
 49
6.0
 74
     0
 49
-1.5
 74
     0
  0
LTYPE
  5
15D
330
5
100
AcDbSymbolTableRecord
100
AcDbLinetypeTableRecord
  2
AM_ISO08W050
 70
     0
  3
____ . ____ . ____ . ____ . ____ . ____ . ____
 72
    65
 73
     4
 40
18.0
 49
12.0
 74
     0
 49
-1.5
 74
     0
 49
3.0
 74
     0
 49
-1.5
 74
     0
  0
LTYPE
  5
15E
330
5
100
AcDbSymbolTableRecord
100
AcDbLinetypeTableRecord
  2
AM_ISO09W050
 70
     0
  3
_____ . . _____ . . _____ . . ____ .. ____
 72
    65
 73
     6
 40
22.5
 49
12.0
 74
     0
 49
-1.5
 74
     0
 49
3.0
 74
     0
 49
-1.5
 74
     0
 49
3.0
 74
     0
 49
-1.5
 74
     0
  0
LTYPE
  5
15F
330
5
100
AcDbSymbolTableRecord
100
AcDbLinetypeTableRecord
  2
AM_ISO02W050x2
 70
     0
  3
 _ _ _ _ _ _ _ _ _ _ _ _
 72
    65
 73
     2
 40
3.75
 49
3.0
 74
     0
 49
-0.75
 74
     0
  0
LTYPE
  5
160
330
5
100
AcDbSymbolTableRecord
100
AcDbLinetypeTableRecord
  2
AM_ISO08W050x2
 70
     0
  3
__ . __ . __ . __ . __ . __
 72
    65
 73
     4
 40
9.0
 49
6.0
 74
     0
 49
-0.75
 74
     0
 49
1.5
 74
     0
 49
-0.75
 74
     0
  0
LTYPE
  5
163
330
5
100
AcDbSymbolTableRecord
100
AcDbLinetypeTableRecord
  2
amzigzag
 70
     0
  3
/\/-/\/-/\/-/\/-/\/-/\/
 72
    65
 73
     2
 40
11.0001
 49
0.0001
 74
     4
 75
   135
340
162
 46
0.04
 50
0.0
 44
0.0
 45
0.0
 49
-11.0
 74
     0
  0
LTYPE
  5
164
330
5
100
AcDbSymbolTableRecord
100
AcDbLinetypeTableRecord
  2
HIDDEN2
 70
     0
  3
Hidden (.5x) _ _ _ _ _ _ _ _ _ _ _ _ _ _ _ _ _
 72
    65
 73
     2
 40
0.1875
 49
0.125
 74
     0
 49
-0.0625
 74
     0
  0
LTYPE
  5
165
330
5
100
AcDbSymbolTableRecord
100
AcDbLinetypeTableRecord
  2
CENTER2
 70
     0
  3
Center (.5x) ___ _ ___ _ ___ _ ___ _ ___ _ ___
 72
    65
 73
     4
 40
1.125
 49
0.75
 74
     0
 49
-0.125
 74
     0
 49
0.125
 74
     0
 49
-0.125
 74
     0
  0
LTYPE
  5
2A6
330
5
100
AcDbSymbolTableRecord
100
AcDbLinetypeTableRecord
  2
Amconstr
 70
     0
  3
_______________________
 72
    65
 73
     2
 40
9999.0
 49
9999.0
 74
     0
 49
0.0
 74
     0
  0
LTYPE
  5
2B1
330
5
100
AcDbSymbolTableRecord
100
AcDbLinetypeTableRecord
  2
Amzigzag2
 70
     0
  3
/\/-/\/-/\/-/\/-/\/-/\/
 72
    65
 73
     2
 40
0.4401
 49
0.0001
 74
     4
 75
   135
340
162
 46
0.0016
 50
0.0
 44
0.0
 45
0.0
 49
-0.4400000000000001
 74
     0
  0
LTYPE
  5
2B2
330
5
100
AcDbSymbolTableRecord
100
AcDbLinetypeTableRecord
  2
AM_DIN_F_W050
 70
     0
  3
__ __ __ __ __ __ __ __ __ __ __ __ __ __ __
 72
    65
 73
     2
 40
6.25
 49
4.75
 74
     0
 49
-1.5
 74
     0
  0
LTYPE
  5
2B3
330
5
100
AcDbSymbolTableRecord
100
AcDbLinetypeTableRecord
  2
AM_DIN_G_W050
 70
     0
  3
____ . ____ . ____ . ____ . ____ . ____ . ____
 72
    65
 73
     4
 40
13.75
 49
9.75
 74
     0
 49
-1.5
 74
     0
 49
1.0
 74
     0
 49
-1.5
 74
     0
  0
LTYPE
  5
2B4
330
5
100
AcDbSymbolTableRecord
100
AcDbLinetypeTableRecord
  2
AM_DIN_K_W050
 70
     0
  3
_____ . . _____ . . _____ . . ____ .. ____
 72
    65
 73
     6
 40
16.25
 49
9.75
 74
     0
 49
-1.5
 74
     0
 49
1.0
 74
     0
 49
-1.5
 74
     0
 49
1.0
 74
     0
 49
-1.5
 74
     0
  0
LTYPE
  5
2B5
330
5
100
AcDbSymbolTableRecord
100
AcDbLinetypeTableRecord
  2
AM_DIN_G_W050x2
 70
     0
  3
__ . __ . __ . __ . __ . __
 72
    65
 73
     4
 40
6.875
 49
4.75
 74
     0
 49
-0.875
 74
     0
 49
0.375
 74
     0
 49
-0.875
 74
     0
  0
LTYPE
  5
2B6
330
5
100
AcDbSymbolTableRecord
100
AcDbLinetypeTableRecord
  2
AM_DIN_F_W050x2
 70
     0
  3
 _ _ _ _ _ _ _ _ _ _ _ _
 72
    65
 73
     2
 40
3.125
 49
2.25
 74
     0
 49
-0.875
 74
     0
  0
LTYPE
  5
2CC
330
5
100
AcDbSymbolTableRecord
100
AcDbLinetypeTableRecord
  2
ACANSTGBM
 70
     0
  3
__ . . __ . .
 72
    65
 73
     6
 40
9.0
 49
4.0
 74
     0
 49
-1.0
 74
     0
 49
1.0
 74
     0
 49
-1.0
 74
     0
 49
1.0
 74
     0
 49
-1.0
 74
     0
  0
LTYPE
  5
2CD
330
5
100
AcDbSymbolTableRecord
100
AcDbLinetypeTableRecord
  2
ACANSTGLM
 70
     0
  3
_ _ _ _ _
 72
    65
 73
     2
 40
3.0
 49
2.0
 74
     0
 49
-1.0
 74
     0
  0
LTYPE
  5
2E5
330
5
100
AcDbSymbolTableRecord
100
AcDbLinetypeTableRecord
  2
ACBSWELD
 70
     0
  3
_ _ _ _ _
 72
    65
 73
     2
 40
2.0
 49
2.0
 74
     0
 49
-1.0
 74
     0
  0
LTYPE
  5
2E8
330
5
100
AcDbSymbolTableRecord
100
AcDbLinetypeTableRecord
  2
ACBSITGB
 70
     0
  3
__ . . __ . .
 72
    65
 73
     6
 40
9.0
 49
4.0
 74
     0
 49
-1.0
 74
     0
 49
1.0
 74
     0
 49
-1.0
 74
     0
 49
1.0
 74
     0
 49
-1.0
 74
     0
  0
LTYPE
  5
2E9
330
5
100
AcDbSymbolTableRecord
100
AcDbLinetypeTableRecord
  2
ACBSITGL
 70
     0
  3
_ _ _ _ _
 72
    65
 73
     2
 40
3.0
 49
2.0
 74
     0
 49
-1.0
 74
     0
  0
LTYPE
  5
300
330
5
100
AcDbSymbolTableRecord
100
AcDbLinetypeTableRecord
  2
ACDINWELD
 70
     0
  3
_ _ _ _ _
 72
    65
 73
     2
 40
2.0
 49
2.0
 74
     0
 49
-1.0
 74
     0
  0
LTYPE
  5
303
330
5
100
AcDbSymbolTableRecord
100
AcDbLinetypeTableRecord
  2
ACDINTGB
 70
     0
  3
__ . . __ . .
 72
    65
 73
     6
 40
9.0
 49
4.0
 74
     0
 49
-1.0
 74
     0
 49
1.0
 74
     0
 49
-1.0
 74
     0
 49
1.0
 74
     0
 49
-1.0
 74
     0
  0
LTYPE
  5
304
330
5
100
AcDbSymbolTableRecord
100
AcDbLinetypeTableRecord
  2
ACDINTGL
 70
     0
  3
_ _ _ _ _
 72
    65
 73
     2
 40
3.0
 49
2.0
 74
     0
 49
-1.0
 74
     0
  0
LTYPE
  5
31A
330
5
100
AcDbSymbolTableRecord
100
AcDbLinetypeTableRecord
  2
ACISOWELD
 70
     0
  3
_ _ _ _ _
 72
    65
 73
     2
 40
2.0
 49
2.0
 74
     0
 49
-1.0
 74
     0
  0
LTYPE
  5
31D
330
5
100
AcDbSymbolTableRecord
100
AcDbLinetypeTableRecord
  2
ACISOTGB
 70
     0
  3
__ . . __ . .
 72
    65
 73
     6
 40
9.0
 49
4.0
 74
     0
 49
-1.0
 74
     0
 49
1.0
 74
     0
 49
-1.0
 74
     0
 49
1.0
 74
     0
 49
-1.0
 74
     0
  0
LTYPE
  5
31E
330
5
100
AcDbSymbolTableRecord
100
AcDbLinetypeTableRecord
  2
ACISOTGL
 70
     0
  3
_ _ _ _ _
 72
    65
 73
     2
 40
3.0
 49
2.0
 74
     0
 49
-1.0
 74
     0
  0
LTYPE
  5
337
330
5
100
AcDbSymbolTableRecord
100
AcDbLinetypeTableRecord
  2
ACJISTGB
 70
     0
  3
__ . . __ . .
 72
    65
 73
     6
 40
9.0
 49
4.0
 74
     0
 49
-1.0
 74
     0
 49
1.0
 74
     0
 49
-1.0
 74
     0
 49
1.0
 74
     0
 49
-1.0
 74
     0
  0
LTYPE
  5
338
330
5
100
AcDbSymbolTableRecord
100
AcDbLinetypeTableRecord
  2
ACJISTGL
 70
     0
  3
_ _ _ _ _
 72
    65
 73
     2
 40
3.0
 49
2.0
 74
     0
 49
-1.0
 74
     0
  0
LTYPE
  5
3A6
330
5
100
AcDbSymbolTableRecord
100
AcDbLinetypeTableRecord
  2
ACANSTGB
 70
     0
  3
__ . . __ . .
 72
    65
 73
     6
 40
0.35433070866
 49
0.15748031496
 74
     0
 49
-0.03937007874
 74
     0
 49
0.03937007874
 74
     0
 49
-0.03937007874
 74
     0
 49
0.03937007874
 74
     0
 49
-0.03937007874
 74
     0
  0
LTYPE
  5
3A7
330
5
100
AcDbSymbolTableRecord
100
AcDbLinetypeTableRecord
  2
ACANSTGL
 70
     0
  3
_ _ _ _ _
 72
    65
 73
     2
 40
0.11811023622
 49
0.07874015748
 74
     0
 49
-0.03937007874
 74
     0
  0
LTYPE
  5
F45
330
5
100
AcDbSymbolTableRecord
100
AcDbLinetypeTableRecord
  2
PHANTOM
 70
     0
  3
Phantom ______  __  __  ______  __  __  ______
 72
    65
 73
     6
 40
2.5
 49
1.25
 74
     0
 49
-0.25
 74
     0
 49
0.25
 74
     0
 49
-0.25
 74
     0
 49
0.25
 74
     0
 49
-0.25
 74
     0
  0
ENDTAB
  0
TABLE
  2
LAYER
  5
2
102
{ACAD_XDICTIONARY
360
44C
102
}
330
0
100
AcDbSymbolTable
 70
     9
  0
LAYER
  5
F
330
2
100
AcDbSymbolTableRecord
100
AcDbLayerTableRecord
  2
0
 70
     0
 62
     7
  6
CONTINUOUS
370
    -3
390
14F
  0
LAYER
  5
741
330
2
100
AcDbSymbolTableRecord
100
AcDbLayerTableRecord
  2
DEFPOINTS
 70
     0
 62
     7
  6
CONTINUOUS
290
     0
370
    -3
390
14F
  0
LAYER
  5
742
330
2
100
AcDbSymbolTableRecord
100
AcDbLayerTableRecord
  2
L0
 70
     0
 62
     7
  6
CONTINUOUS
370
    -3
390
14F
  0
LAYER
  5
F46
330
2
100
AcDbSymbolTableRecord
100
AcDbLayerTableRecord
  2
CENTER
 70
     0
 62
     5
  6
CENTER
370
    -3
390
14F
  0
LAYER
  5
F47
330
2
100
AcDbSymbolTableRecord
100
AcDbLayerTableRecord
  2
10
 70
     0
 62
     7
  6
CONTINUOUS
370
    -3
390
14F
  0
LAYER
  5
F48
330
2
100
AcDbSymbolTableRecord
100
AcDbLayerTableRecord
  2
L-REV
 70
     0
 62
     4
  6
CONTINUOUS
370
    -3
390
14F
  0
LAYER
  5
F49
330
2
100
AcDbSymbolTableRecord
100
AcDbLayerTableRecord
  2
L-INSPECTION
 70
     0
 62
     5
  6
CONTINUOUS
370
    -3
390
14F
  0
LAYER
  5
F4A
330
2
100
AcDbSymbolTableRecord
100
AcDbLayerTableRecord
  2
L-DIM
 70
     0
 62
     1
  6
CONTINUOUS
370
    -3
390
14F
  0
LAYER
  5
F4B
330
2
100
AcDbSymbolTableRecord
100
AcDbLayerTableRecord
  2
LREV
 70
     0
 62
     4
  6
CONTINUOUS
370
    -3
390
14F
  0
ENDTAB
  0
TABLE
  2
STYLE
  5
3
330
0
100
AcDbSymbolTable
 70
    20
  0
STYLE
  5
10
330
3
100
AcDbSymbolTableRecord
100
AcDbTextStyleTableRecord
  2
STANDARD
 70
     0
 40
0.0
 41
1.0
 50
0.0
 71
     0
 42
0.12
  3
ROMANS.SHX
  4

  0
STYLE
  5
11D
330
3
100
AcDbSymbolTableRecord
100
AcDbTextStyleTableRecord
  2
ADESK1
 70
     0
 40
0.0
 41
1.0
 50
0.0
 71
     0
 42
0.12
  3
romans.shx
  4

  0
STYLE
  5
162
330
3
100
AcDbSymbolTableRecord
100
AcDbTextStyleTableRecord
  2

 70
     1
 40
0.0
 41
1.0
 50
0.0
 71
     0
 42
0.12
  3
ltypeshp.shx
  4

  0
STYLE
  5
2C5
330
3
100
AcDbSymbolTableRecord
100
AcDbTextStyleTableRecord
  2
ACANSTSI
 70
     0
 40
1.0
 41
1.0
 50
0.0
 71
     0
 42
3.5
  3
romans.shx
  4

  0
STYLE
  5
2C8
330
3
100
AcDbSymbolTableRecord
100
AcDbTextStyleTableRecord
  2
ACANSGDT
 70
     0
 40
0.0
 41
1.0
 50
0.0
 71
     0
 42
3.5
  3
amgdt.shx
  4

  0
STYLE
  5
2E0
330
3
100
AcDbSymbolTableRecord
100
AcDbTextStyleTableRecord
  2
ACBSITS
 70
     0
 40
1.0
 41
1.0
 50
0.0
 71
     0
 42
3.5
  3
isocp.shx
  4

  0
STYLE
  5
2E3
330
3
100
AcDbSymbolTableRecord
100
AcDbTextStyleTableRecord
  2
ACBSIGDT
 70
     0
 40
0.0
 41
1.0
 50
0.0
 71
     0
 42
3.5
  3
amgdt.shx
  4

  0
STYLE
  5
2FA
330
3
100
AcDbSymbolTableRecord
100
AcDbTextStyleTableRecord
  2
ACDINTS
 70
     0
 40
1.0
 41
1.0
 50
0.0
 71
     0
 42
3.5
  3
isocp.shx
  4

  0
STYLE
  5
2FE
330
3
100
AcDbSymbolTableRecord
100
AcDbTextStyleTableRecord
  2
ACDINGDT
 70
     0
 40
0.0
 41
1.0
 50
0.0
 71
     0
 42
3.5
  3
amgdt.shx
  4

  0
STYLE
  5
315
330
3
100
AcDbSymbolTableRecord
100
AcDbTextStyleTableRecord
  2
ACISOTS
 70
     0
 40
1.0
 41
1.0
 50
0.0
 71
     0
 42
3.5
  3
isocp.shx
  4

  0
STYLE
  5
318
330
3
100
AcDbSymbolTableRecord
100
AcDbTextStyleTableRecord
  2
ACISOGDT
 70
     0
 40
0.0
 41
1.0
 50
0.0
 71
     0
 42
3.5
  3
amgdt.shx
  4

  0
STYLE
  5
330
330
3
100
AcDbSymbolTableRecord
100
AcDbTextStyleTableRecord
  2
ACJISTS
 70
     0
 40
1.0
 41
1.0
 50
0.0
 71
     0
 42
3.5
  3
isocp.shx
  4
bigfont.shx
  0
STYLE
  5
333
330
3
100
AcDbSymbolTableRecord
100
AcDbTextStyleTableRecord
  2
ACJISGDT
 70
     0
 40
0.0
 41
1.0
 50
0.0
 71
     0
 42
3.5
  3
amgdt.shx
  4

  0
STYLE
  5
39B
330
3
100
AcDbSymbolTableRecord
100
AcDbTextStyleTableRecord
  2
ACANSTS
 70
     0
 40
1.0
 41
1.0
 50
0.0
 71
     0
 42
0.12
  3
romans.shx
  4

  0
STYLE
  5
4CF
330
3
100
AcDbSymbolTableRecord
100
AcDbTextStyleTableRecord
  2
USER1
 70
     0
 40
0.0
 41
1.0
 50
0.0
 71
     0
 42
0.12
  3
TXT.SHX
  4

  0
STYLE
  5
4D0
330
3
100
AcDbSymbolTableRecord
100
AcDbTextStyleTableRecord
  2
USER2
 70
     0
 40
0.0
 41
1.0
 50
0.0
 71
     0
 42
0.12
  3
SIMPLEX.SHX
  4

  0
STYLE
  5
4D1
330
3
100
AcDbSymbolTableRecord
100
AcDbTextStyleTableRecord
  2
USER3
 70
     0
 40
0.0
 41
1.0
 50
0.0
 71
     0
 42
0.12
  3
ITALIC.SHX
  4

  0
STYLE
  5
5AB
330
3
100
AcDbSymbolTableRecord
100
AcDbTextStyleTableRecord
  2
outline drawings
 70
     0
 40
0.0
 41
1.0
 50
0.0
 71
     0
 42
0.12
  3
ARIAL.TTF
  4

1001
ACAD
1000
Arial
1071
       34
  0
STYLE
  5
743
330
3
100
AcDbSymbolTableRecord
100
AcDbTextStyleTableRecord
  2
ACANSTSB
 70
     0
 40
1.0
 41
1.0
 50
0.0
 71
     0
 42
0.2
  3
romans.shx
  4

  0
STYLE
  5
F4C
330
3
100
AcDbSymbolTableRecord
100
AcDbTextStyleTableRecord
  2
c3controls
 70
     0
 40
0.0
 41
1.0
 50
0.0
 71
     0
 42
0.125
  3
ARIAL.TTF
  4

1001
ACAD
1000
Arial
1071
       34
  0
ENDTAB
  0
TABLE
  2
VIEW
  5
6
330
0
100
AcDbSymbolTable
 70
     3
  0
VIEW
  5
193
330
6
100
AcDbSymbolTableRecord
100
AcDbViewTableRecord
  2
AMDTVIEW1
 70
     0
 40
11.38251346627189
 10
7.263840830449827
 20
5.691256733135946
 41
14.52768166089965
 11
0.0
 21
0.0
 31
1.0
 12
0.0
 22
0.0
 32
0.0
 42
50.0
 43
0.0
 44
0.0
 50
0.0
 71
     0
281
     0
 72
     0
  0
VIEW
  5
194
330
6
100
AcDbSymbolTableRecord
100
AcDbViewTableRecord
  2
AMDTVIEW2
 70
     0
 40
11.38251346627189
 10
7.263840830449827
 20
5.691256733135946
 41
14.52768166089965
 11
0.0
 21
0.0
 31
1.0
 12
0.0
 22
0.0
 32
0.0
 42
50.0
 43
0.0
 44
0.0
 50
0.0
 71
     0
281
     0
 72
     0
  0
VIEW
  5
195
330
6
100
AcDbSymbolTableRecord
100
AcDbViewTableRecord
  2
AMDTVIEW3
 70
     0
 40
11.38251346627189
 10
7.263840830449827
 20
5.691256733135946
 41
14.52768166089965
 11
0.0
 21
0.0
 31
1.0
 12
0.0
 22
0.0
 32
0.0
 42
50.0
 43
0.0
 44
0.0
 50
0.0
 71
     0
281
     0
 72
     0
  0
ENDTAB
  0
TABLE
  2
UCS
  5
7
330
0
100
AcDbSymbolTable
 70
     0
  0
ENDTAB
  0
TABLE
  2
APPID
  5
9
330
0
100
AcDbSymbolTable
 70
    20
  0
APPID
  5
11
330
9
100
AcDbSymbolTableRecord
100
AcDbRegAppTableRecord
  2
ACAD
 70
     0
  0
APPID
  5
9C
330
9
100
AcDbSymbolTableRecord
100
AcDbRegAppTableRecord
  2
AD_DRAW
 70
     0
  0
APPID
  5
B6
330
9
100
AcDbSymbolTableRecord
100
AcDbRegAppTableRecord
  2
DESIGNERASSEMBLIES
 70
     0
  0
APPID
  5
BD
330
9
100
AcDbSymbolTableRecord
100
AcDbRegAppTableRecord
  2
MCAD_NO_VIS
 70
     0
  0
APPID
  5
F4
330
9
100
AcDbSymbolTableRecord
100
AcDbRegAppTableRecord
  2
ASURF_PCURVE_APPNAME
 70
     0
  0
APPID
  5
168
330
9
100
AcDbSymbolTableRecord
100
AcDbRegAppTableRecord
  2
ACAD_TEMP_GRAPHIC
 70
     0
  0
APPID
  5
172
330
9
100
AcDbSymbolTableRecord
100
AcDbRegAppTableRecord
  2
ACATTRIBSERVICES
 70
     0
  0
APPID
  5
18F
330
9
100
AcDbSymbolTableRecord
100
AcDbRegAppTableRecord
  2
ACADM_DIM_EDIT
 70
     0
  0
APPID
  5
19D
330
9
100
AcDbSymbolTableRecord
100
AcDbRegAppTableRecord
  2
GENIUS_GENDIM_13
 70
     0
  0
APPID
  5
19E
330
9
100
AcDbSymbolTableRecord
100
AcDbRegAppTableRecord
  2
GENIUS_GENDTOL_13
 70
     0
  0
APPID
  5
19F
330
9
100
AcDbSymbolTableRecord
100
AcDbRegAppTableRecord
  2
GENIUS_GE3DTOL_13
 70
     0
  0
APPID
  5
2A2
330
9
100
AcDbSymbolTableRecord
100
AcDbRegAppTableRecord
  2
AMG_3D2D_5.0
 70
     0
  0
APPID
  5
3EE
330
9
100
AcDbSymbolTableRecord
100
AcDbRegAppTableRecord
  2
AMDT_DM_ADJ
 70
     0
  0
APPID
  5
4D3
330
9
100
AcDbSymbolTableRecord
100
AcDbRegAppTableRecord
  2
ACAD_DSTYLE_DIMTEXT_FILL
 70
     0
  0
APPID
  5
744
330
9
100
AcDbSymbolTableRecord
100
AcDbRegAppTableRecord
  2
GENIUS_GENREC_14
 70
     0
  0
APPID
  5
745
330
9
100
AcDbSymbolTableRecord
100
AcDbRegAppTableRecord
  2
GENIUS_GENODEF_13
 70
     0
  0
APPID
  5
746
330
9
100
AcDbSymbolTableRecord
100
AcDbRegAppTableRecord
  2
GENIUS_GENOBJ-N-REC_13
 70
     0
  0
APPID
  5
F4E
330
9
100
AcDbSymbolTableRecord
100
AcDbRegAppTableRecord
  2
AD_SKETCHDIM
 70
     0
  0
APPID
  5
F4F
330
9
100
AcDbSymbolTableRecord
100
AcDbRegAppTableRecord
  2
ABNSLEADERTOOLS
 70
     0
  0
APPID
  5
F50
330
9
100
AcDbSymbolTableRecord
100
AcDbRegAppTableRecord
  2
ACAD_PSEXT
 70
     0
  0
ENDTAB
  0
TABLE
  2
DIMSTYLE
  5
A
330
0
100
AcDbSymbolTable
 70
    37
100
AcDbDimStyleTable
 71
     6
340
606
340
1D
340
2D3
340
322
340
308
340
2ED
  0
DIMSTYLE
105
1D
330
A
100
AcDbSymbolTableRecord
100
AcDbDimStyleTableRecord
  2
STANDARD
 70
     0
340
10
  0
DIMSTYLE
105
2D3
330
A
100
AcDbSymbolTableRecord
100
AcDbDimStyleTableRecord
  2
AM_ANSI
 70
     0
  4
mm
 41
0.1
 42
0.05
 43
0.5
 44
0.1
 47
0.1
 48
0.1
 78
     7
 79
     2
140
0.12
141
0.0
146
0.71
147
0.06
176
   256
177
   256
178
     2
274
     4
284
     7
340
10
371
    -1
372
    -1
  0
DIMSTYLE
105
2D4
330
A
100
AcDbSymbolTableRecord
100
AcDbDimStyleTableRecord
  2
AM_ANSI$3
 70
     0
  4
mm
 41
0.1
 42
0.05
 43
0.5
 44
0.1
 47
0.1
 48
0.1
 78
     7
 79
     2
140
0.12
141
0.0
146
0.71
147
0.06
176
   256
177
   256
178
     2
274
     4
284
     7
288
     1
289
     0
340
10
371
    -1
372
    -1
  0
DIMSTYLE
105
2D5
330
A
100
AcDbSymbolTableRecord
100
AcDbDimStyleTableRecord
  2
AM_ANSI$4
 70
     0
  4
mm
 41
0.1
 42
0.05
 43
0.5
 44
0.1
 47
0.1
 48
0.1
 78
     7
 79
     2
140
0.12
141
0.0
146
0.71
147
0.06
176
   256
177
   256
178
     2
274
     4
284
     7
288
     1
289
     0
340
10
371
    -1
372
    -1
  0
DIMSTYLE
105
2D6
330
A
100
AcDbSymbolTableRecord
100
AcDbDimStyleTableRecord
  2
AM_ANSI$7
 70
     0
  4
mm
 41
0.1
 42
0.05
 43
0.5
 44
0.1
 47
0.1
 48
0.1
 78
     7
 79
     2
140
0.24
141
0.0
146
0.71
147
0.06
176
   256
177
   256
178
     2
274
     4
284
     7
340
10
371
    -1
372
    -1
  0
DIMSTYLE
105
2D7
330
A
100
AcDbSymbolTableRecord
100
AcDbDimStyleTableRecord
  2
AM_ANSI$SF
 70
     0
  4
mm
 41
0.1
 42
0.05
 43
0.5
 44
0.1
 47
0.1
 48
0.1
 75
     1
 76
     1
 78
     7
 79
     2
140
0.12
141
0.0
146
0.71
147
0.06
176
   256
177
   256
178
     2
274
     4
284
     7
340
10
371
    -1
372
    -1
  0
DIMSTYLE
105
2D8
330
A
100
AcDbSymbolTableRecord
100
AcDbDimStyleTableRecord
  2
AM_ANSI$SH
 70
     0
  4
mm
 41
0.1
 42
0.05
 43
0.5
 44
0.1
 47
0.1
 48
0.1
 75
     1
 76
     1
 78
     7
 79
     2
140
0.12
141
0.0
146
0.71
147
0.06
173
     1
176
   256
177
   256
178
     2
274
     4
284
     7
340
10
371
    -1
372
    -1
  0
DIMSTYLE
105
2ED
330
A
100
AcDbSymbolTableRecord
100
AcDbDimStyleTableRecord
  2
AM_BSI
 70
     0
  4
mm
 41
0.1574803149606299
 42
0.05
 43
0.5
 44
0.1
 47
0.1
 48
0.1
 73
     0
 74
     0
 77
     1
 78
     7
 79
     2
140
0.12
141
0.0
146
0.71
147
0.06
172
     1
176
   256
177
   256
178
     2
274
     4
283
     0
284
     7
340
10
371
    -1
372
    -1
  0
DIMSTYLE
105
2EE
330
A
100
AcDbSymbolTableRecord
100
AcDbDimStyleTableRecord
  2
AM_BSI$3
 70
     0
  4
mm
 41
0.1574803149606299
 42
0.05
 43
0.5
 44
0.1
 47
0.1
 48
0.1
 73
     0
 77
     1
 78
     7
 79
     2
140
0.12
141
0.0
146
0.71
147
0.06
176
   256
177
   256
178
     2
274
     4
283
     0
284
     7
288
     1
289
     0
340
10
371
    -1
372
    -1
  0
DIMSTYLE
105
2EF
330
A
100
AcDbSymbolTableRecord
100
AcDbDimStyleTableRecord
  2
AM_BSI$4
 70
     0
  4
mm
 41
0.1574803149606299
 42
0.05
 43
0.5
 44
0.1
 47
0.1
 48
0.1
 73
     0
 77
     1
 78
     7
 79
     2
140
0.12
141
0.0
146
0.71
147
0.06
176
   256
177
   256
178
     2
274
     4
283
     0
284
     7
288
     1
289
     0
340
10
371
    -1
372
    -1
  0
DIMSTYLE
105
2F0
330
A
100
AcDbSymbolTableRecord
100
AcDbDimStyleTableRecord
  2
AM_BSI$6
 70
     0
  4
mm
 41
0.1574803149606299
 42
0.05
 43
0.5
 44
0.1
 47
0.1
 48
0.1
 73
     0
 74
     0
 78
     7
 79
     2
140
0.12
141
0.0
146
0.71
147
0.06
172
     1
176
   256
177
   256
178
     2
274
     4
283
     0
284
     7
340
10
371
    -1
372
    -1
  0
DIMSTYLE
105
2F1
330
A
100
AcDbSymbolTableRecord
100
AcDbDimStyleTableRecord
  2
AM_BSI$7
 70
     0
  4
mm
 41
0.1
 42
0.05
 43
0.5
 44
0.1
 47
0.1
 48
0.1
 73
     0
 74
     0
 77
     1
 78
     7
 79
     2
140
0.24
141
0.0
146
0.71
147
0.06
172
     1
176
   256
177
   256
178
     2
274
     4
283
     0
284
     7
340
10
371
    -1
372
    -1
  0
DIMSTYLE
105
2F2
330
A
100
AcDbSymbolTableRecord
100
AcDbDimStyleTableRecord
  2
AM_BSI$SF
 70
     0
  4
mm
 41
0.1574803149606299
 42
0.05
 43
0.5
 44
0.1
 47
0.1
 48
0.1
 73
     0
 74
     0
 75
     1
 76
     1
 77
     1
 78
     7
 79
     2
140
0.12
141
0.0
146
0.71
147
0.06
172
     1
176
   256
177
   256
178
     2
274
     4
283
     0
284
     7
340
10
371
    -1
372
    -1
  0
DIMSTYLE
105
2F3
330
A
100
AcDbSymbolTableRecord
100
AcDbDimStyleTableRecord
  2
AM_BSI$SH
 70
     0
  4
mm
 41
0.1574803149606299
 42
0.05
 43
0.5
 44
0.1
 47
0.1
 48
0.1
 73
     0
 74
     0
 75
     1
 76
     1
 77
     1
 78
     7
 79
     2
140
0.12
141
0.0
144
2.0
146
0.71
147
0.06
172
     1
173
     1
176
   256
177
   256
178
     2
274
     4
283
     0
284
     7
340
10
371
    -1
372
    -1
  0
DIMSTYLE
105
308
330
A
100
AcDbSymbolTableRecord
100
AcDbDimStyleTableRecord
  2
AM_DIN
 70
     0
  4
mm
 41
0.1
 42
0.05
 43
0.5
 44
0.1
 47
0.1
 48
0.1
 73
     0
 74
     0
 77
     1
 78
     7
 79
     2
140
0.12
141
0.0
146
0.71
147
0.06
172
     1
176
   256
177
   256
178
     2
274
     4
283
     0
284
     7
340
10
371
    -1
372
    -1
  0
DIMSTYLE
105
309
330
A
100
AcDbSymbolTableRecord
100
AcDbDimStyleTableRecord
  2
AM_DIN$3
 70
     0
  4
mm
 41
0.1
 42
0.05
 43
0.5
 44
0.1
 47
0.1
 48
0.1
 73
     0
 77
     1
 78
     7
 79
     2
140
0.12
141
0.0
146
0.71
147
0.06
176
   256
177
   256
178
     2
274
     4
283
     0
284
     7
288
     1
289
     0
340
10
371
    -1
372
    -1
  0
DIMSTYLE
105
30A
330
A
100
AcDbSymbolTableRecord
100
AcDbDimStyleTableRecord
  2
AM_DIN$4
 70
     0
  4
mm
 41
0.1
 42
0.05
 43
0.5
 44
0.1
 47
0.1
 48
0.1
 73
     0
 77
     1
 78
     7
 79
     2
140
0.12
141
0.0
146
0.71
147
0.06
176
   256
177
   256
178
     2
274
     4
283
     0
284
     7
288
     1
289
     0
340
10
371
    -1
372
    -1
  0
DIMSTYLE
105
30B
330
A
100
AcDbSymbolTableRecord
100
AcDbDimStyleTableRecord
  2
AM_DIN$6
 70
     0
  4
mm
 41
0.1
 42
0.05
 43
0.5
 44
0.1
 47
0.1
 48
0.1
 73
     0
 74
     0
 78
     7
 79
     2
140
0.12
141
0.0
146
0.71
147
0.06
172
     1
176
   256
177
   256
178
     2
274
     4
283
     0
284
     7
340
10
371
    -1
372
    -1
  0
DIMSTYLE
105
30C
330
A
100
AcDbSymbolTableRecord
100
AcDbDimStyleTableRecord
  2
AM_DIN$7
 70
     0
  4
mm
 41
0.1
 42
0.05
 43
0.5
 44
0.1
 47
0.1
 48
0.1
 73
     0
 74
     0
 77
     1
 78
     7
 79
     2
140
0.24
141
0.0
146
0.71
147
0.06
172
     1
176
   256
177
   256
178
     2
274
     4
283
     0
284
     7
340
10
371
    -1
372
    -1
  0
DIMSTYLE
105
30D
330
A
100
AcDbSymbolTableRecord
100
AcDbDimStyleTableRecord
  2
AM_DIN$SF
 70
     0
  4
mm
 41
0.1
 42
0.05
 43
0.5
 44
0.1
 47
0.1
 48
0.1
 73
     0
 74
     0
 75
     1
 76
     1
 77
     1
 78
     7
 79
     2
140
0.12
141
0.0
146
0.71
147
0.06
172
     1
176
   256
177
   256
178
     2
274
     4
283
     0
284
     7
340
10
371
    -1
372
    -1
  0
DIMSTYLE
105
30E
330
A
100
AcDbSymbolTableRecord
100
AcDbDimStyleTableRecord
  2
AM_DIN$SH
 70
     0
  4
mm
 41
0.1
 42
0.05
 43
0.5
 44
0.1
 47
0.1
 48
0.1
 73
     0
 74
     0
 75
     1
 76
     1
 77
     1
 78
     7
 79
     2
140
0.12
141
0.0
144
2.0
146
0.71
147
0.06
172
     1
173
     1
176
   256
177
   256
178
     2
274
     4
283
     0
284
     7
340
10
371
    -1
372
    -1
  0
DIMSTYLE
105
322
330
A
100
AcDbSymbolTableRecord
100
AcDbDimStyleTableRecord
  2
AM_ISO
 70
     0
  4
mm
 41
0.1
 42
0.05
 43
0.5
 44
0.1
 47
0.1
 48
0.1
 73
     0
 74
     0
 77
     1
 78
     7
 79
     2
140
0.12
141
0.0
146
0.71
147
0.06
172
     1
176
   256
177
   256
178
     2
274
     4
283
     0
284
     7
340
10
371
    -1
372
    -1
  0
DIMSTYLE
105
323
330
A
100
AcDbSymbolTableRecord
100
AcDbDimStyleTableRecord
  2
AM_ISO$3
 70
     0
  4
mm
 41
0.1
 42
0.05
 43
0.5
 44
0.1
 47
0.1
 48
0.1
 73
     0
 77
     1
 78
     7
 79
     2
140
0.12
141
0.0
146
0.71
147
0.06
176
   256
177
   256
178
     2
274
     4
283
     0
284
     7
288
     1
289
     0
340
10
371
    -1
372
    -1
  0
DIMSTYLE
105
324
330
A
100
AcDbSymbolTableRecord
100
AcDbDimStyleTableRecord
  2
AM_ISO$4
 70
     0
  4
mm
 41
0.1
 42
0.05
 43
0.5
 44
0.1
 47
0.1
 48
0.1
 73
     0
 77
     1
 78
     7
 79
     2
140
0.12
141
0.0
146
0.71
147
0.06
176
   256
177
   256
178
     2
274
     4
283
     0
284
     7
288
     1
289
     0
340
10
371
    -1
372
    -1
  0
DIMSTYLE
105
325
330
A
100
AcDbSymbolTableRecord
100
AcDbDimStyleTableRecord
  2
AM_ISO$6
 70
     0
  4
mm
 41
0.1
 42
0.05
 43
0.5
 44
0.1
 47
0.1
 48
0.1
 73
     0
 74
     0
 78
     7
 79
     2
140
0.12
141
0.0
146
0.71
147
0.06
172
     1
176
   256
177
   256
178
     2
274
     4
283
     0
284
     7
340
10
371
    -1
372
    -1
  0
DIMSTYLE
105
326
330
A
100
AcDbSymbolTableRecord
100
AcDbDimStyleTableRecord
  2
AM_ISO$7
 70
     0
  4
mm
 41
0.1
 42
0.05
 43
0.5
 44
0.1
 47
0.1
 48
0.1
 73
     0
 74
     0
 77
     1
 78
     7
 79
     2
140
0.24
141
0.0
146
0.71
147
0.06
172
     1
176
   256
177
   256
178
     2
274
     4
283
     0
284
     7
340
10
371
    -1
372
    -1
  0
DIMSTYLE
105
327
330
A
100
AcDbSymbolTableRecord
100
AcDbDimStyleTableRecord
  2
AM_ISO$SF
 70
     0
  4
mm
 41
0.1
 42
0.05
 43
0.5
 44
0.1
 47
0.1
 48
0.1
 73
     0
 74
     0
 75
     1
 76
     1
 77
     1
 78
     7
 79
     2
140
0.12
141
0.0
146
0.71
147
0.06
172
     1
176
   256
177
   256
178
     2
274
     4
283
     0
284
     7
340
10
371
    -1
372
    -1
  0
DIMSTYLE
105
328
330
A
100
AcDbSymbolTableRecord
100
AcDbDimStyleTableRecord
  2
AM_ISO$SH
 70
     0
  4
mm
 41
0.1
 42
0.05
 43
0.5
 44
0.1
 47
0.1
 48
0.1
 73
     0
 74
     0
 75
     1
 76
     1
 77
     1
 78
     7
 79
     2
140
0.12
141
0.0
144
2.0
146
0.71
147
0.06
172
     1
173
     1
176
   256
177
   256
178
     2
274
     4
283
     0
284
     7
340
10
371
    -1
372
    -1
  0
DIMSTYLE
105
33C
330
A
100
AcDbSymbolTableRecord
100
AcDbDimStyleTableRecord
  2
AM_JIS
 70
     0
  4
mm
 41
0.1
 42
0.05
 43
0.5
 44
0.1
 47
0.1
 48
0.1
 73
     0
 74
     0
 77
     3
 78
     7
 79
     2
140
0.12
141
0.0
146
0.71
147
0.06
172
     1
176
   256
177
   256
178
     2
274
     4
283
     0
284
     7
340
10
371
    -1
372
    -1
  0
DIMSTYLE
105
33D
330
A
100
AcDbSymbolTableRecord
100
AcDbDimStyleTableRecord
  2
AM_JIS$3
 70
     0
  4
mm
 41
0.1
 42
0.05
 43
0.5
 44
0.1
 47
0.1
 48
0.1
 73
     0
 77
     3
 78
     7
 79
     2
140
0.12
141
0.0
146
0.71
147
0.06
176
   256
177
   256
178
     2
274
     4
283
     0
284
     7
288
     1
289
     0
340
10
371
    -1
372
    -1
  0
DIMSTYLE
105
33E
330
A
100
AcDbSymbolTableRecord
100
AcDbDimStyleTableRecord
  2
AM_JIS$4
 70
     0
  4
mm
 41
0.1
 42
0.05
 43
0.5
 44
0.1
 47
0.1
 48
0.1
 73
     0
 77
     3
 78
     7
 79
     2
140
0.12
141
0.0
146
0.71
147
0.06
176
   256
177
   256
178
     2
274
     4
283
     0
284
     7
288
     1
289
     0
340
10
371
    -1
372
    -1
  0
DIMSTYLE
105
33F
330
A
100
AcDbSymbolTableRecord
100
AcDbDimStyleTableRecord
  2
AM_JIS$6
 70
     0
  4
mm
 41
0.1
 42
0.05
 43
0.5
 44
0.1
 47
0.1
 48
0.1
 73
     0
 74
     0
 78
     7
 79
     2
140
0.12
141
0.0
146
0.71
147
0.06
172
     1
176
   256
177
   256
178
     2
274
     4
283
     0
284
     7
340
10
371
    -1
372
    -1
  0
DIMSTYLE
105
340
330
A
100
AcDbSymbolTableRecord
100
AcDbDimStyleTableRecord
  2
AM_JIS$7
 70
     0
  4
mm
 41
0.1
 42
0.05
 43
0.5
 44
0.1
 47
0.1
 48
0.1
 73
     0
 74
     0
 77
     3
 78
     7
 79
     2
140
0.24
141
0.0
146
0.71
147
0.06
172
     1
176
   256
177
   256
178
     2
274
     4
283
     0
284
     7
340
10
371
    -1
372
    -1
  0
DIMSTYLE
105
341
330
A
100
AcDbSymbolTableRecord
100
AcDbDimStyleTableRecord
  2
AM_JIS$SF
 70
     0
  4
mm
 41
0.1
 42
0.05
 43
0.5
 44
0.1
 47
0.1
 48
0.1
 73
     0
 74
     0
 75
     1
 76
     1
 77
     3
 78
     7
 79
     2
140
0.12
141
0.0
146
0.71
147
0.06
172
     1
176
   256
177
   256
178
     2
274
     4
283
     0
284
     7
340
10
371
    -1
372
    -1
  0
DIMSTYLE
105
342
330
A
100
AcDbSymbolTableRecord
100
AcDbDimStyleTableRecord
  2
AM_JIS$SH
 70
     0
  4
mm
 41
0.1
 42
0.05
 43
0.5
 44
0.1
 47
0.1
 48
0.1
 73
     0
 74
     0
 75
     1
 76
     1
 77
     3
 78
     7
 79
     2
140
0.12
141
0.0
144
2.0
146
0.71
147
0.06
172
     1
173
     1
176
   256
177
   256
178
     2
274
     4
283
     0
284
     7
340
10
371
    -1
372
    -1
  0
DIMSTYLE
105
606
102
{ACAD_REACTORS
330
11BC
330
11D4
330
11D6
330
11DB
330
11E5
330
1209
330
1232
330
14E5
330
14E6
330
14E9
330
14EF
330
14FA
330
14FE
330
153F
330
1995
330
19EA
330
19F9
330
1A09
330
1A48
102
}
330
A
100
AcDbSymbolTableRecord
100
AcDbDimStyleTableRecord
  2
Outline Drawings
 70
     0
  3
 mm\X
  4
 in
 41
0.125
143
0.0393700787
144
25.4
170
     1
271
     0
272
     0
340
5AB
  0
DIMSTYLE
105
F4D
330
A
100
AcDbSymbolTableRecord
100
AcDbDimStyleTableRecord
  2
c3controls
 70
     0
 41
0.125
 43
0.25
 44
0.125
140
0.125
340
F4C
  0
ENDTAB
  0
TABLE
  2
BLOCK_RECORD
  5
1
330
0
100
AcDbSymbolTable
 70
    32
  0
BLOCK_RECORD
  5
19
102
{ACAD_XDICTIONARY
360
11F
102
}
330
1
100
AcDbSymbolTableRecord
100
AcDbBlockTableRecord
  2
*MODEL_SPACE
340
152
  0
BLOCK_RECORD
  5
16
330
1
100
AcDbSymbolTableRecord
100
AcDbBlockTableRecord
  2
*PAPER_SPACE
340
153
  0
BLOCK_RECORD
  5
AD
330
1
100
AcDbSymbolTableRecord
100
AcDbBlockTableRecord
  2
*U0
340
0
  0
BLOCK_RECORD
  5
2A7
330
1
100
AcDbSymbolTableRecord
100
AcDbBlockTableRecord
  2
_Open30
340
0
  0
BLOCK_RECORD
  5
2AD
330
1
100
AcDbSymbolTableRecord
100
AcDbBlockTableRecord
  2
GENAXEH
340
0
  0
BLOCK_RECORD
  5
724
102
{ACAD_XDICTIONARY
360
725
102
}
330
1
100
AcDbSymbolTableRecord
100
AcDbBlockTableRecord
  2
A$C01EB7FA0
340
0
  0
BLOCK_RECORD
  5
E7A
330
1
100
AcDbSymbolTableRecord
100
AcDbBlockTableRecord
  2
*U4
340
0
102
{BLKREFS
331
E78
331
FF4
102
}
  0
BLOCK_RECORD
  5
E7D
330
1
100
AcDbSymbolTableRecord
100
AcDbBlockTableRecord
  2
A$C708B5813
340
0
102
{BLKREFS
331
EC2
102
}
  0
BLOCK_RECORD
  5
EC0
330
1
100
AcDbSymbolTableRecord
100
AcDbBlockTableRecord
  2
A$C2BF30918
340
0
  0
BLOCK_RECORD
  5
EC4
330
1
100
AcDbSymbolTableRecord
100
AcDbBlockTableRecord
  2
A$C5A7A0274
340
0
  0
BLOCK_RECORD
  5
F03
102
{ACAD_XDICTIONARY
360
F04
102
}
330
1
100
AcDbSymbolTableRecord
100
AcDbBlockTableRecord
  2
BLOCK1
340
0
1001
ACAD
1000
DesignCenter Data
1002
{
1070
     1
1070
     1
1002
}
  0
BLOCK_RECORD
  5
F24
102
{ACAD_XDICTIONARY
360
F25
102
}
330
1
100
AcDbSymbolTableRecord
100
AcDbBlockTableRecord
  2
Title Block
340
0
102
{BLKREFS
331
FD8
331
1815
102
}
1001
ACAD
1000
DesignCenter Data
1002
{
1070
     1
1070
     1
1002
}
  0
BLOCK_RECORD
  5
F51
102
{ACAD_XDICTIONARY
360
FE0
102
}
330
1
100
AcDbSymbolTableRecord
100
AcDbBlockTableRecord
  2
STD50009-D-SIZE
340
0
1001
ACAD
1000
DesignCenter Data
1002
{
1070
     1
1070
     1
1002
}
  0
BLOCK_RECORD
  5
1234
330
1
100
AcDbSymbolTableRecord
100
AcDbBlockTableRecord
  2
*D11
340
0
  0
BLOCK_RECORD
  5
1242
330
1
100
AcDbSymbolTableRecord
100
AcDbBlockTableRecord
  2
*D12
340
0
  0
BLOCK_RECORD
  5
1250
330
1
100
AcDbSymbolTableRecord
100
AcDbBlockTableRecord
  2
*D13
340
0
  0
BLOCK_RECORD
  5
125E
330
1
100
AcDbSymbolTableRecord
100
AcDbBlockTableRecord
  2
*D14
340
0
  0
BLOCK_RECORD
  5
126D
330
1
100
AcDbSymbolTableRecord
100
AcDbBlockTableRecord
  2
*D15
340
0
  0
BLOCK_RECORD
  5
127B
330
1
100
AcDbSymbolTableRecord
100
AcDbBlockTableRecord
  2
*D16
340
0
  0
BLOCK_RECORD
  5
1296
330
1
100
AcDbSymbolTableRecord
100
AcDbBlockTableRecord
  2
*D18
340
0
  0
BLOCK_RECORD
  5
154E
330
1
100
AcDbSymbolTableRecord
100
AcDbBlockTableRecord
  2
*D20
340
0
  0
BLOCK_RECORD
  5
155C
330
1
100
AcDbSymbolTableRecord
100
AcDbBlockTableRecord
  2
*D21
340
0
  0
BLOCK_RECORD
  5
1583
330
1
100
AcDbSymbolTableRecord
100
AcDbBlockTableRecord
  2
*D22
340
0
  0
BLOCK_RECORD
  5
1590
330
1
100
AcDbSymbolTableRecord
100
AcDbBlockTableRecord
  2
*D23
340
0
  0
BLOCK_RECORD
  5
159D
330
1
100
AcDbSymbolTableRecord
100
AcDbBlockTableRecord
  2
*D24
340
0
  0
BLOCK_RECORD
  5
15AA
330
1
100
AcDbSymbolTableRecord
100
AcDbBlockTableRecord
  2
*D25
340
0
  0
BLOCK_RECORD
  5
15C4
330
1
100
AcDbSymbolTableRecord
100
AcDbBlockTableRecord
  2
*D26
340
0
  0
BLOCK_RECORD
  5
1996
330
1
100
AcDbSymbolTableRecord
100
AcDbBlockTableRecord
  2
*D27
340
0
  0
BLOCK_RECORD
  5
19EB
330
1
100
AcDbSymbolTableRecord
100
AcDbBlockTableRecord
  2
*D28
340
0
  0
BLOCK_RECORD
  5
19FA
330
1
100
AcDbSymbolTableRecord
100
AcDbBlockTableRecord
  2
*D29
340
0
  0
BLOCK_RECORD
  5
1A0A
330
1
100
AcDbSymbolTableRecord
100
AcDbBlockTableRecord
  2
*D30
340
0
  0
BLOCK_RECORD
  5
1A49
330
1
100
AcDbSymbolTableRecord
100
AcDbBlockTableRecord
  2
*D31
340
0
  0
ENDTAB
  0
ENDSEC
  0
SECTION
  2
BLOCKS
  0
BLOCK
  5
1A
330
19
100
AcDbEntity
  8
0
100
AcDbBlockBegin
  2
*MODEL_SPACE
 70
     0
 10
0.0
 20
0.0
 30
0.0
  3
*MODEL_SPACE
  1

  0
ENDBLK
  5
1B
330
19
100
AcDbEntity
  8
0
100
AcDbBlockEnd
  0
BLOCK
  5
17
330
16
100
AcDbEntity
 67
     1
  8
0
100
AcDbBlockBegin
  2
*PAPER_SPACE
 70
     0
 10
0.0
 20
0.0
 30
0.0
  3
*PAPER_SPACE
  1

  0
ENDBLK
  5
18
330
16
100
AcDbEntity
 67
     1
  8
0
100
AcDbBlockEnd
  0
BLOCK
  5
AE
330
AD
100
AcDbEntity
  8
0
100
AcDbBlockBegin
  2
*U0
 70
     1
 10
0.0
 20
0.0
 30
0.0
  3
*U0
  1

  0
ENDBLK
  5
AF
330
AD
100
AcDbEntity
  8
0
100
AcDbBlockEnd
  0
BLOCK
  5
2AB
330
2A7
100
AcDbEntity
  8
0
100
AcDbBlockBegin
  2
_Open30
 70
     0
 10
0.0
 20
0.0
 30
0.0
  3
_Open30
  1

  0
LINE
  5
2A8
330
2A7
100
AcDbEntity
  8
0
  6
ByBlock
 62
     0
370
    -2
100
AcDbLine
 10
-1.0
 20
0.26794919
 30
0.0
 11
0.0
 21
0.0
 31
0.0
  0
LINE
  5
2A9
330
2A7
100
AcDbEntity
  8
0
  6
ByBlock
 62
     0
370
    -2
100
AcDbLine
 10
0.0
 20
0.0
 30
0.0
 11
-1.0
 21
-0.26794919
 31
0.0
  0
LINE
  5
2AA
330
2A7
100
AcDbEntity
  8
0
  6
ByBlock
 62
     0
370
    -2
100
AcDbLine
 10
0.0
 20
0.0
 30
0.0
 11
-1.0
 21
0.0
 31
0.0
  0
ENDBLK
  5
2AC
330
2A7
100
AcDbEntity
  8
0
100
AcDbBlockEnd
  0
BLOCK
  5
2AF
330
2AD
100
AcDbEntity
  8
0
100
AcDbBlockBegin
  2
GENAXEH
 70
     0
 10
0.0
 20
0.0
 30
0.0
  3
GENAXEH
  1

  0
LINE
  5
2AE
330
2AD
100
AcDbEntity
  8
0
100
AcDbLine
 10
-1.0
 20
0.0
 30
0.0
 11
1.0
 21
0.0
 31
0.0
  0
ENDBLK
  5
2B0
330
2AD
100
AcDbEntity
  8
0
100
AcDbBlockEnd
  0
BLOCK
  5
727
330
724
100
AcDbEntity
  8
0
100
AcDbBlockBegin
  2
A$C01EB7FA0
 70
     0
 10
0.0
 20
0.0
 30
0.0
  3
A$C01EB7FA0
  1

  0
LINE
  5
728
330
724
100
AcDbEntity
  8
L0
  6
HIDDEN
100
AcDbLine
 10
2.967878266109387
 20
5.978359610724186
 30
0.0
 11
2.967878266109373
 21
3.138359610724194
 31
0.0
  0
LINE
  5
729
330
724
100
AcDbEntity
  8
L0
  6
HIDDEN
100
AcDbLine
 10
4.856678266109391
 20
5.978359610724194
 30
0.0
 11
4.856678266109398
 21
3.13835961072419
 31
0.0
  0
LINE
  5
72A
330
724
100
AcDbEntity
  8
L0
  6
HIDDEN
100
AcDbLine
 10
4.856678266109398
 20
3.13835961072419
 30
0.0
 11
2.967878266109373
 21
3.138359610724194
 31
0.0
  0
LINE
  5
72B
330
724
100
AcDbEntity
  8
L0
  6
HIDDEN
100
AcDbLine
 10
4.856678266109391
 20
5.978359610724194
 30
0.0
 11
2.967878266109387
 21
5.978359610724186
 31
0.0
  0
LINE
  5
72C
330
724
100
AcDbEntity
  8
0
100
AcDbLine
 10
3.272278266109388
 20
4.933359610724188
 30
0.0
 11
3.272278266109388
 21
7.809991530677642
 31
0.0
  0
LINE
  5
72D
330
724
100
AcDbEntity
  8
0
100
AcDbLine
 10
3.272278266109388
 20
4.183359610724192
 30
0.0
 11
3.272278266109388
 21
1.306727690770735
 31
0.0
  0
LINE
  5
72E
330
724
100
AcDbEntity
  8
0
100
AcDbLine
 10
3.912278266109389
 20
4.933359610724188
 30
0.0
 11
3.912278266109389
 21
7.809991530677642
 31
0.0
  0
LINE
  5
72F
330
724
100
AcDbEntity
  8
0
100
AcDbLine
 10
3.912278266109396
 20
4.183359610724192
 30
0.0
 11
3.912278266109389
 21
1.306727690770735
 31
0.0
  0
LINE
  5
730
330
724
100
AcDbEntity
  8
0
100
AcDbLine
 10
4.552278266109382
 20
4.933359610724188
 30
0.0
 11
4.552278266109389
 21
7.809991530677642
 31
0.0
  0
LINE
  5
731
330
724
100
AcDbEntity
  8
0
100
AcDbLine
 10
4.552278266109389
 20
4.183359610724192
 30
0.0
 11
4.552278266109389
 21
1.306727690770735
 31
0.0
  0
CIRCLE
  5
732
330
724
100
AcDbEntity
  8
0
100
AcDbCircle
 10
3.272278266109388
 20
4.183359610724192
 30
0.0
 40
0.043496220949887
  0
LINE
  5
733
330
724
100
AcDbEntity
  8
0
100
AcDbLine
 10
3.283535916481206
 20
4.225373733885664
 30
0.0
 11
3.519948054729496
 21
5.107675845354297
 31
0.0
  0
CIRCLE
  5
734
330
724
100
AcDbEntity
  8
0
100
AcDbCircle
 10
3.912278266109396
 20
4.183359610724192
 30
0.0
 40
0.043496220949887
  0
LINE
  5
735
330
724
100
AcDbEntity
  8
0
100
AcDbLine
 10
3.923535916481213
 20
4.225373733885664
 30
0.0
 11
4.159948054729504
 21
5.107675845354297
 31
0.0
  0
CIRCLE
  5
736
330
724
100
AcDbEntity
  8
0
100
AcDbCircle
 10
4.552278266109389
 20
4.183359610724192
 30
0.0
 40
0.043496220949887
  0
LINE
  5
737
330
724
100
AcDbEntity
  8
0
100
AcDbLine
 10
4.563535916481207
 20
4.225373733885664
 30
0.0
 11
4.799948054729497
 21
5.107675845354297
 31
0.0
  0
CIRCLE
  5
738
330
724
100
AcDbEntity
  8
0
100
AcDbCircle
 10
4.552278266109389
 20
7.909991530677643
 30
0.0
 40
0.1
  0
CIRCLE
  5
739
330
724
100
AcDbEntity
  8
0
100
AcDbCircle
 10
3.912278266109389
 20
7.909991530677643
 30
0.0
 40
0.1
  0
CIRCLE
  5
73A
330
724
100
AcDbEntity
  8
0
100
AcDbCircle
 10
3.272278266109388
 20
7.909991530677643
 30
0.0
 40
0.1
  0
CIRCLE
  5
73B
330
724
100
AcDbEntity
  8
0
100
AcDbCircle
 10
4.552278266109389
 20
1.206727690770733
 30
0.0
 40
0.1
  0
CIRCLE
  5
73C
330
724
100
AcDbEntity
  8
0
100
AcDbCircle
 10
3.912278266109389
 20
1.206727690770733
 30
0.0
 40
0.1
  0
CIRCLE
  5
73D
330
724
100
AcDbEntity
  8
0
100
AcDbCircle
 10
3.272278266109388
 20
1.206727690770733
 30
0.0
 40
0.1
  0
TEXT
  5
73E
330
724
100
AcDbEntity
  8
0
100
AcDbText
 10
5.091934453129738
 20
0.227249348023534
 30
0.0
 40
0.15
  1
DEVICE SCHEMATIC
100
AcDbText
  0
LWPOLYLINE
  5
73F
330
724
100
AcDbEntity
  8
0
100
AcDbPolyline
 90
        4
 70
     1
 43
0.0
 10
0.0
 20
8.862725001429666
 10
7.774292639585439
 20
8.862725001429666
 10
7.774292639585439
 20
0.0
 10
0.0
 20
0.0
  0
ENDBLK
  5
740
330
724
100
AcDbEntity
  8
0
100
AcDbBlockEnd
  0
BLOCK
  5
E7B
330
E7A
100
AcDbEntity
  8
0
100
AcDbBlockBegin
  2
*U4
 70
     1
 10
0.0
 20
0.0
 30
0.0
  3
*U4
  1

  0
ENDBLK
  5
E7C
330
E7A
100
AcDbEntity
  8
0
100
AcDbBlockEnd
  0
BLOCK
  5
E7E
330
E7D
100
AcDbEntity
  8
0
100
AcDbBlockBegin
  2
A$C708B5813
 70
     0
 10
0.0
 20
0.0
 30
0.0
  3
A$C708B5813
  1

  0
LINE
  5
E7F
330
E7D
100
AcDbEntity
  8
10
100
AcDbLine
 10
0.2399999692803618
 20
0.2640315084226485
 30
0.0
 11
0.2436013672279564
 21
0.2661107764971518
 31
0.0
  0
CIRCLE
  5
E80
330
E7D
100
AcDbEntity
  8
10
100
AcDbCircle
 10
0.2399999692803618
 20
0.2640315084226485
 30
0.0
 40
0.0041585361490064
  0
ARC
  5
E81
330
E7D
100
AcDbEntity
  8
10
100
AcDbCircle
 10
0.2399999692803512
 20
0.2871255191902322
 30
0.0
 40
0.01
100
AcDbArc
 50
240.0000000000001
 51
300.0000000000008
  0
ARC
  5
E82
330
E7D
100
AcDbEntity
  8
10
100
AcDbCircle
 10
0.2399999692803618
 20
0.529612632249878
 30
0.0
 40
0.01
100
AcDbArc
 50
60.00000000000078
 51
119.9999999999996
  0
ARC
  5
E83
330
E7D
100
AcDbEntity
  8
10
100
AcDbCircle
 10
0.2399999692511088
 20
0.3949160812035983
 30
0.0
 40
0.01
100
AcDbArc
 50
239.9999999674645
 51
300.0000000465846
  0
ARC
  5
E84
330
E7D
100
AcDbEntity
  8
10
100
AcDbCircle
 10
0.2393667475655192
 20
0.4214564796978131
 30
0.0
 40
0.01
100
AcDbArc
 50
59.99999999999999
 51
119.9999999818938
  0
LINE
  5
E85
330
E7D
100
AcDbEntity
  8
10
100
AcDbLine
 10
0.0249999692803549
 20
0.3997088216822098
 30
0.0
 11
0.2349999692803522
 21
0.2784652651523878
 31
0.0
  0
LINE
  5
E86
330
E7D
100
AcDbEntity
  8
10
100
AcDbLine
 10
-0.0000000307196402
 20
0.3737280595686747
 30
0.0
 11
-0.0000000307196366
 21
0.1312409465090325
 31
0.0
  0
LINE
  5
E87
330
E7D
100
AcDbEntity
  8
10
100
AcDbLine
 10
0.0149999692803604
 20
0.3823883136065191
 30
0.0
 11
0.2249999692803613
 21
0.2611447570767011
 31
0.0
  0
LINE
  5
E88
330
E7D
100
AcDbEntity
  8
10
100
AcDbLine
 10
0.2399999692803618
 20
0.2640315084226485
 30
0.0
 11
0.2399999692803618
 21
0.2598729722736421
 31
0.0
  0
LINE
  5
E89
330
E7D
100
AcDbEntity
  8
10
100
AcDbLine
 10
0.2363985713327672
 20
0.2661107764971531
 30
0.0
 11
0.2399999692803618
 21
0.2640315084226485
 31
0.0
  0
LINE
  5
E8A
330
E7D
100
AcDbEntity
  8
10
100
AcDbLine
 10
0.2299999692803709
 20
0.1139204384333419
 30
0.0
 11
0.1356921705519909
 21
0.168369071415853
 31
0.0
  0
LINE
  5
E8B
330
E7D
100
AcDbEntity
  8
10
100
AcDbLine
 10
0.2299999692803674
 20
0.1370144492009269
 30
0.0
 11
0.1366506043749744
 21
0.1909097301577374
 31
0.0
  0
LINE
  5
E8C
330
E7D
100
AcDbEntity
  8
10
100
AcDbLine
 10
0.2299999692803709
 20
0.113920438433345
 30
0.0
 11
0.2299999692803674
 21
0.0099973899792092
 31
0.0
  0
LINE
  5
E8D
330
E7D
100
AcDbEntity
  8
10
100
AcDbLine
 10
0.2299999692803638
 20
0.2524845030388567
 30
0.0
 11
0.2299999692803674
 21
0.1370144492009304
 31
0.0
  0
ARC
  5
E8E
330
E7D
100
AcDbEntity
  8
10
100
AcDbCircle
 10
0.1266506043749622
 20
0.1726410827766105
 30
0.0
 40
0.01
100
AcDbArc
 50
239.9999999999996
 51
334.709932108123
  0
LINE
  5
E8F
330
E7D
100
AcDbEntity
  8
10
100
AcDbLine
 10
0.1366506043749744
 20
0.1909097301577414
 30
0.0
 11
0.1366506043749673
 21
0.1985892220820524
 31
0.0
  0
LINE
  5
E90
330
E7D
100
AcDbEntity
  8
10
100
AcDbLine
 10
0.1216506043749632
 20
0.1639808287387661
 30
0.0
 11
0.0983493341857553
 21
0.177433823354967
 31
0.0
  0
ARC
  5
E91
330
E7D
100
AcDbEntity
  8
10
100
AcDbCircle
 10
0.1266506043749658
 20
0.1985892220820524
 30
0.0
 40
0.01
100
AcDbArc
 50
0.0
 51
59.99999999999917
  0
LINE
  5
E92
330
E7D
100
AcDbEntity
  8
10
100
AcDbLine
 10
0.1316506043749648
 20
0.2072494761198969
 30
0.0
 11
0.1083493341857533
 21
0.2207024707360996
 31
0.0
  0
ARC
  5
E93
330
E7D
100
AcDbEntity
  8
10
100
AcDbCircle
 10
0.1033493341857543
 20
0.1860940773928115
 30
0.0
 40
0.01
100
AcDbArc
 50
180.0
 51
240.0
  0
LINE
  5
E94
330
E7D
100
AcDbEntity
  8
10
100
AcDbLine
 10
0.0933493341857528
 20
0.1860940773928115
 30
0.0
 11
0.0933493341857528
 21
0.2120422166982552
 31
0.0
  0
ARC
  5
E95
330
E7D
100
AcDbEntity
  8
10
100
AcDbCircle
 10
0.1033493341857543
 20
0.2120422166982552
 30
0.0
 40
0.01
100
AcDbArc
 50
59.99999999999999
 51
180.0
  0
ARC
  5
E96
330
E7D
100
AcDbEntity
  8
10
100
AcDbCircle
 10
0.009999969280365
 20
0.1312409465090325
 30
0.0
 40
0.01
100
AcDbArc
 50
180.0000000000008
 51
240.0000000000004
  0
LINE
  5
E97
330
E7D
100
AcDbEntity
  8
10
100
AcDbLine
 10
0.0049999692803659
 20
0.1225806924711881
 30
0.0
 11
0.2149999692803668
 21
0.0013371359413648
 31
0.0
  0
ARC
  5
E98
330
E7D
100
AcDbEntity
  8
10
100
AcDbCircle
 10
0.2199999692803658
 20
0.0099973899792092
 30
0.0
 40
0.01
100
AcDbArc
 50
240.0
 51
0.0
  0
ARC
  5
E99
330
E7D
100
AcDbEntity
  8
10
100
AcDbCircle
 10
0.2199999692803622
 20
0.2524845030388567
 30
0.0
 40
0.01
100
AcDbArc
 50
0.0000000000007124
 51
60.00000000000079
  0
LINE
  5
E9A
330
E7D
100
AcDbEntity
  8
10
100
AcDbLine
 10
0.0249999692803549
 20
0.4170293297578987
 30
0.0
 11
0.2349999692803628
 21
0.5382728862877224
 31
0.0
  0
ARC
  5
E9B
330
E7D
100
AcDbEntity
  8
10
100
AcDbCircle
 10
0.0299999692803539
 20
0.4083690757200542
 30
0.0
 40
0.01
100
AcDbArc
 50
119.9999999999997
 51
240.0000000000002
  0
LINE
  5
E9C
330
E7D
100
AcDbEntity
  8
10
100
AcDbLine
 10
0.2349999692461928
 20
0.3862558271685934
 30
0.0
 11
0.2116986990911549
 21
0.3997088217818918
 31
0.0
  0
LINE
  5
E9D
330
E7D
100
AcDbEntity
  8
10
100
AcDbLine
 10
0.2116986990911549
 20
0.4170293298575807
 30
0.0
 11
0.2343667475682558
 21
0.4301167337372376
 31
0.0
  0
ARC
  5
E9E
330
E7D
100
AcDbEntity
  8
10
100
AcDbCircle
 10
0.2166986990911539
 20
0.4083690758197363
 30
0.0
 40
0.01
100
AcDbArc
 50
120.0
 51
240.0
  0
ARC
  5
E9F
330
E7D
100
AcDbEntity
  8
10
100
AcDbCircle
 10
0.0099999692803614
 20
0.3737280595686747
 30
0.0
 40
0.01
100
AcDbArc
 50
60.00000000000071
 51
180.0
  0
LINE
  5
EA0
330
E7D
100
AcDbEntity
  8
10
100
AcDbLine
 10
0.2449999692803502
 20
0.2784652651523878
 30
0.0
 11
0.4549999692803617
 21
0.399708821682216
 31
0.0
  0
LINE
  5
EA1
330
E7D
100
AcDbEntity
  8
10
100
AcDbLine
 10
0.2599999692803685
 20
0.2640315084226534
 30
0.0
 11
0.4499999692803556
 21
0.3737280595686805
 31
0.0
  0
ARC
  5
EA2
330
E7D
100
AcDbEntity
  8
10
100
AcDbCircle
 10
0.4599999692803572
 20
0.3564075514929916
 30
0.0
 40
0.02
100
AcDbArc
 50
0.0000000000006997
 51
119.9999999999999
  0
LINE
  5
EA3
330
E7D
100
AcDbEntity
  8
10
100
AcDbLine
 10
0.3853226110081884
 20
0.1920490020623578
 30
0.0
 11
0.4799999692803603
 21
0.2467110003469632
 31
0.0
  0
LINE
  5
EA4
330
E7D
100
AcDbEntity
  8
10
100
AcDbLine
 10
0.3860173827363553
 20
0.2155441394742277
 30
0.0
 11
0.4799999692803567
 21
0.269805011114542
 31
0.0
  0
ARC
  5
EA5
330
E7D
100
AcDbEntity
  8
10
100
AcDbCircle
 10
0.37665060437498
 20
0.2120422166982596
 30
0.0
 40
0.01
100
AcDbArc
 50
20.49907611913283
 51
120.0000000000061
  0
LINE
  5
EA6
330
E7D
100
AcDbEntity
  8
10
100
AcDbLine
 10
0.3853226110081849
 20
0.192049002062356
 30
0.0
 11
0.3853226110081813
 21
0.1857245431213443
 31
0.0
  0
LINE
  5
EA7
330
E7D
100
AcDbEntity
  8
10
100
AcDbLine
 10
0.4799999692803603
 20
0.2467110003469597
 30
0.0
 11
0.4799999692803639
 21
0.1370144492009322
 31
0.0
  0
LINE
  5
EA8
330
E7D
100
AcDbEntity
  8
10
100
AcDbLine
 10
0.4799999692803567
 20
0.3564075514929921
 30
0.0
 11
0.4799999692803567
 21
0.2698050111145451
 31
0.0
  0
ARC
  5
EA9
330
E7D
100
AcDbEntity
  8
10
100
AcDbCircle
 10
0.3533493341857579
 20
0.1722355030579732
 30
0.0
 40
0.01
100
AcDbArc
 50
180.0
 51
301.5450923819967
  0
LINE
  5
EAA
330
E7D
100
AcDbEntity
  8
10
100
AcDbLine
 10
0.3805543054044094
 20
0.1772022562366846
 30
0.0
 11
0.358581028581991
 21
0.1637132161733139
 31
0.0
  0
LINE
  5
EAB
330
E7D
100
AcDbEntity
  8
10
100
AcDbLine
 10
0.3433493341857599
 20
0.1793627247739491
 30
0.0
 11
0.3433493341857563
 21
0.1722355030579732
 31
0.0
  0
ARC
  5
EAC
330
E7D
100
AcDbEntity
  8
10
100
AcDbCircle
 10
0.3753226110081798
 20
0.1857245431213443
 30
0.0
 40
0.01
100
AcDbArc
 50
301.5450923819923
 51
0.0
  0
LINE
  5
EAD
330
E7D
100
AcDbEntity
  8
10
100
AcDbLine
 10
0.3483493341857553
 20
0.2072494761198902
 30
0.0
 11
0.3716506043749774
 21
0.2207024707361036
 31
0.0
  0
ARC
  5
EAE
330
E7D
100
AcDbEntity
  8
10
100
AcDbCircle
 10
0.3533493341857579
 20
0.1985892220820467
 30
0.0
 40
0.01
100
AcDbArc
 50
120.0000000000091
 51
180.0
  0
LINE
  5
EAF
330
E7D
100
AcDbEntity
  8
10
100
AcDbLine
 10
0.3433493341857599
 20
0.1793627247739509
 30
0.0
 11
0.3433493341857563
 21
0.1985892220820467
 31
0.0
  0
ARC
  5
EB0
330
E7D
100
AcDbEntity
  8
10
100
AcDbCircle
 10
0.2699999692803701
 20
0.2467110003469646
 30
0.0
 40
0.02
100
AcDbArc
 50
120.0000000000001
 51
180.0000000000028
  0
LINE
  5
EB1
330
E7D
100
AcDbEntity
  8
10
100
AcDbLine
 10
0.2499999692803705
 20
0.2467110003469637
 30
0.0
 11
0.2499999692803705
 21
0.0273178980548985
 31
0.0
  0
ARC
  5
EB2
330
E7D
100
AcDbEntity
  8
10
100
AcDbCircle
 10
0.2699999692803701
 20
0.0273178980548989
 30
0.0
 40
0.02
100
AcDbArc
 50
180.0000000000015
 51
300.0000000000004
  0
LINE
  5
EB3
330
E7D
100
AcDbEntity
  8
10
100
AcDbLine
 10
0.2799999692803716
 20
0.0099973899792101
 30
0.0
 11
0.4699999692803658
 21
0.1196939411252429
 31
0.0
  0
ARC
  5
EB4
330
E7D
100
AcDbEntity
  8
10
100
AcDbCircle
 10
0.4599999692803643
 20
0.1370144492009317
 30
0.0
 40
0.02
100
AcDbArc
 50
300.0000000000004
 51
0.0000000000017175
  0
ARC
  5
EB5
330
E7D
100
AcDbEntity
  8
10
100
AcDbCircle
 10
0.2699999692803594
 20
0.2467110003469637
 30
0.0
 40
0.02
100
AcDbArc
 50
120.0000000000008
 51
180.0000000000007
  0
ARC
  5
EB6
330
E7D
100
AcDbEntity
  8
10
100
AcDbCircle
 10
0.4499999692803627
 20
0.4083690757200605
 30
0.0
 40
0.01
100
AcDbArc
 50
300.000000000001
 51
60.00000000000074
  0
LINE
  5
EB7
330
E7D
100
AcDbEntity
  8
10
100
AcDbLine
 10
0.3599999691803148
 20
0.471877605388678
 30
0.0
 11
0.4549999692803617
 21
0.4170293297579049
 31
0.0
  0
LINE
  5
EB8
330
E7D
100
AcDbEntity
  8
10
100
AcDbLine
 10
0.2449999692803608
 20
0.5382728862877224
 30
0.0
 11
0.3399999691803188
 21
0.4834246107724694
 31
0.0
  0
LINE
  5
EB9
330
E7D
100
AcDbEntity
  8
10
100
AcDbLine
 10
0.2660173827513717
 20
0.4176167338147874
 30
0.0
 11
0.3599999691803148
 21
0.471877605388678
 31
0.0
  0
LINE
  5
EBA
330
E7D
100
AcDbEntity
  8
10
100
AcDbLine
 10
0.2460173826459275
 20
0.429163739137699
 30
0.0
 11
0.3399999691803188
 21
0.4834246107724694
 31
0.0
  0
LINE
  5
EBB
330
E7D
100
AcDbEntity
  8
10
100
AcDbLine
 10
0.2460173826459311
 20
0.4291637391376977
 30
0.0
 11
0.2443667475655182
 21
0.4301167337356575
 31
0.0
  0
LINE
  5
EBC
330
E7D
100
AcDbEntity
  8
10
100
AcDbLine
 10
0.267668017831781
 20
0.4166637392168293
 30
0.0
 11
0.2660173827513788
 21
0.417616733814787
 31
0.0
  0
LINE
  5
EBD
330
E7D
100
AcDbEntity
  8
10
100
AcDbLine
 10
0.2449999692581493
 20
0.3862558271698191
 30
0.0
 11
0.2676680178317312
 21
0.3993432311411684
 31
0.0
  0
ARC
  5
EBE
330
E7D
100
AcDbEntity
  8
10
100
AcDbCircle
 10
0.2626680178317322
 20
0.4080034851790129
 30
0.0
 40
0.01
100
AcDbArc
 50
300.0
 51
59.99999999968121
  0
ENDBLK
  5
EBF
330
E7D
100
AcDbEntity
  8
0
100
AcDbBlockEnd
  0
BLOCK
  5
EC1
330
EC0
100
AcDbEntity
  8
0
100
AcDbBlockBegin
  2
A$C2BF30918
 70
     0
 10
0.0
 20
0.0
 30
0.0
  3
A$C2BF30918
  1

  0
INSERT
  5
EC2
330
EC0
100
AcDbEntity
  8
10
100
AcDbBlockReference
  2
A$C708B5813
 10
0.0000000098500248
 20
-0.0001119937962062
 30
0.0
 41
0.75
 42
0.75
 43
0.75
  0
ENDBLK
  5
EC3
330
EC0
100
AcDbEntity
  8
0
100
AcDbBlockEnd
  0
BLOCK
  5
EC5
330
EC4
100
AcDbEntity
  8
0
 62
     1
100
AcDbBlockBegin
  2
A$C5A7A0274
 70
     0
 10
0.0
 20
0.0
 30
0.0
  3
A$C5A7A0274
  1

  0
ELLIPSE
  5
EC6
330
EC4
100
AcDbEntity
  8
0
100
AcDbEllipse
 10
0.9687500026610944
 20
1.55578654199639
 30
0.0
 11
-0.0441941738241592
 21
0.0
 31
0.0
210
0.0
220
0.0
230
1.0
 40
0.5773502691896219
 41
7.068583470577035
 42
8.63937979737193
  0
ELLIPSE
  5
EC7
330
EC4
100
AcDbEntity
  8
0
100
AcDbEllipse
 10
0.9687500026610962
 20
1.158858231928522
 30
0.0
 11
-0.0441941738241592
 21
0.0
 31
0.0
210
0.0
220
0.0
230
1.0
 40
0.5773502691896219
 41
0.7853981633974491
 42
2.356194490192344
  0
ELLIPSE
  5
EC8
330
EC4
100
AcDbEntity
  8
0
100
AcDbEllipse
 10
0.9687500026610944
 20
2.16922120301037
 30
0.0
 11
-0.0441941738241592
 21
0.0
 31
0.0
210
0.0
220
0.0
230
1.0
 40
0.5773502691896219
 41
3.926990816987241
 42
5.497787143782137
  0
LINE
  5
EC9
330
EC4
100
AcDbEntity
  8
0
100
AcDbLine
 10
1.375000002661095
 20
1.970757047976435
 30
0.0
 11
0.9687500026610953
 21
1.736208501118149
 31
0.0
  0
ELLIPSE
  5
ECA
330
EC4
100
AcDbEntity
  8
0
100
AcDbEllipse
 10
0.3750000026610971
 20
0.9603940768945896
 30
0.0
 11
0.0220970869120795
 21
-0.0382732772309876
 31
0.0
210
0.0
220
0.0
230
1.0
 40
0.5773502691896241
 41
8.639379797371937
 42
10.21017612416683
  0
ELLIPSE
  5
ECB
330
EC4
100
AcDbEntity
  8
0
100
AcDbEllipse
 10
0.5000000026610963
 20
0.8882252932458861
 30
0.0
 11
0.0220970869120795
 21
-0.0382732772309876
 31
0.0
210
0.0
220
0.0
230
1.0
 40
0.5773502691896241
 41
7.068583470577035
 42
8.639379797371937
  0
ELLIPSE
  5
ECC
330
EC4
100
AcDbEntity
  8
0
100
AcDbEllipse
 10
0.5000000026610954
 20
0.6717189422997773
 30
0.0
 11
0.0220970869120795
 21
-0.0382732772309876
 31
0.0
210
0.0
220
0.0
230
1.0
 40
0.5773502691896241
 41
5.497787143782145
 42
7.068583470577059
  0
ELLIPSE
  5
ECD
330
EC4
100
AcDbEntity
  8
0
100
AcDbEllipse
 10
0.3750000026610962
 20
0.74388772594848
 30
0.0
 11
0.0220970869120795
 21
-0.0382732772309876
 31
0.0
210
0.0
220
0.0
230
1.0
 40
0.5773502691896241
 41
3.926990816987241
 42
5.497787143782145
  0
ELLIPSE
  5
ECE
330
EC4
100
AcDbEntity
  8
0
100
AcDbEllipse
 10
0.0312500026610962
 20
0.5454235709145463
 30
0.0
 11
0.0220970869120795
 21
-0.0382732772309876
 31
0.0
210
0.0
220
0.0
230
1.0
 40
0.5773502691896241
 41
3.926990816987241
 42
5.497787143782145
  0
ELLIPSE
  5
ECF
330
EC4
100
AcDbEntity
  8
0
100
AcDbEllipse
 10
0.9062500026610944
 20
0.0402420853736236
 30
0.0
 11
0.0220970869120795
 21
-0.0382732772309876
 31
0.0
210
0.0
220
0.0
230
1.0
 40
0.5773502691896241
 41
5.497787143782145
 42
7.068583470577035
  0
ELLIPSE
  5
ED0
330
EC4
100
AcDbEntity
  8
0
100
AcDbEllipse
 10
0.906250002661098
 20
1.050605056455468
 30
0.0
 11
0.0220970869120795
 21
-0.0382732772309876
 31
0.0
210
0.0
220
0.0
230
1.0
 40
0.5773502691896241
 41
7.068583470577035
 42
8.639379797371937
  0
ELLIPSE
  5
ED1
330
EC4
100
AcDbEntity
  8
0
100
AcDbEllipse
 10
0.0312500026610962
 20
1.555786541996392
 30
0.0
 11
0.0220970869120795
 21
-0.0382732772309876
 31
0.0
210
0.0
220
0.0
230
1.0
 40
0.5773502691896241
 41
2.356194490192351
 42
3.926990816987241
  0
ELLIPSE
  5
ED2
330
EC4
100
AcDbEntity
  8
0
100
AcDbEllipse
 10
0.9062500026610962
 20
1.73620850111815
 30
0.0
 11
-0.0441941738241592
 21
0.0
 31
0.0
210
0.0
220
0.0
230
1.0
 40
0.5773502691896219
 41
3.926990816987229
 42
5.497787143782137
  0
ELLIPSE
  5
ED3
330
EC4
100
AcDbEntity
  8
0
100
AcDbEllipse
 10
0.7812500026610945
 20
1.664039717469445
 30
0.0
 11
-0.0441941738241592
 21
0.0
 31
0.0
210
0.0
220
0.0
230
1.0
 40
0.5773502691896219
 41
5.497787143782137
 42
7.068583470577035
  0
ELLIPSE
  5
ED4
330
EC4
100
AcDbEntity
  8
0
100
AcDbEllipse
 10
0.0937500026610954
 20
1.664039717469446
 30
0.0
 11
-0.0441941738241592
 21
0.0
 31
0.0
210
0.0
220
0.0
230
1.0
 40
0.5773502691896219
 41
5.497787143782137
 42
7.068583470577035
  0
LINE
  5
ED5
330
EC4
100
AcDbEntity
  8
0
100
AcDbLine
 10
0.9062500026610944
 20
0.004157693549272
 30
0.0
 11
0.0312500026610962
 21
0.5093391790901947
 31
0.0
  0
LINE
  5
ED6
330
EC4
100
AcDbEntity
  8
0
100
AcDbLine
 10
0.9375000026610971
 20
0.4552125913536669
 30
0.0
 11
0.5312500026610954
 21
0.6897611382119524
 31
0.0
  0
LINE
  5
ED7
330
EC4
100
AcDbEntity
  8
0
100
AcDbLine
 10
0.9375000026610971
 20
0.4552125913536669
 30
0.0
 11
0.9375000026610944
 21
0.0221998894614475
 31
0.0
  0
LINE
  5
ED8
330
EC4
100
AcDbEntity
  8
0
100
AcDbLine
 10
0.0625000026610954
 20
1.682081913381622
 30
0.0
 11
0.9375000026610944
 21
2.187263398922545
 31
0.0
  0
LINE
  5
ED9
330
EC4
100
AcDbEntity
  8
0
100
AcDbLine
 10
0.906250002661098
 20
1.086689448279819
 30
0.0
 11
0.0312500026610962
 21
1.591870933820743
 31
0.0
  0
LINE
  5
EDA
330
EC4
100
AcDbEntity
  8
0
100
AcDbLine
 10
0.0000000026610962
 20
1.573828737908567
 30
0.0
 11
0.0000000026610962
 21
0.5634657668267225
 31
0.0
  0
LINE
  5
EDB
330
EC4
100
AcDbEntity
  8
0
100
AcDbLine
 10
0.9375000026610962
 20
1.140816036016346
 30
0.0
 11
0.0625000026610954
 21
1.64599752155727
 31
0.0
  0
LINE
  5
EDC
330
EC4
100
AcDbEntity
  8
0
100
AcDbLine
 10
0.3437500026610971
 20
0.9784362728067655
 30
0.0
 11
0.3437500026610962
 21
0.7619299218606562
 31
0.0
  0
LINE
  5
EDD
330
EC4
100
AcDbEntity
  8
0
100
AcDbLine
 10
0.5000000026610954
 20
0.6356345504754256
 30
0.0
 11
0.3750000026610962
 21
0.7078033341241284
 31
0.0
  0
LINE
  5
EDE
330
EC4
100
AcDbEntity
  8
0
100
AcDbLine
 10
0.5000000026610963
 20
0.9243096850702379
 30
0.0
 11
0.3750000026610971
 21
0.9964784687189411
 31
0.0
  0
LINE
  5
EDF
330
EC4
100
AcDbEntity
  8
0
100
AcDbLine
 10
0.937500002661098
 20
1.032562860543292
 30
0.0
 11
0.9375000026610971
 21
0.5995501586510719
 31
0.0
  0
LINE
  5
EE0
330
EC4
100
AcDbEntity
  8
0
100
AcDbLine
 10
0.9375000026610971
 20
0.5995501586510719
 30
0.0
 11
0.5312500026610963
 21
0.8340987055093584
 31
0.0
  0
LINE
  5
EE1
330
EC4
100
AcDbEntity
  8
0
100
AcDbLine
 10
0.5312500026610954
 20
0.6536767463876006
 30
0.0
 11
0.5312500026610954
 21
0.6897611382119524
 31
0.0
  0
LINE
  5
EE2
330
EC4
100
AcDbEntity
  8
0
100
AcDbLine
 10
0.5312500026610963
 20
0.8701830973337099
 30
0.0
 11
0.5312500026610963
 21
0.8340987055093588
 31
0.0
  0
LINE
  5
EE3
330
EC4
100
AcDbEntity
  8
0
100
AcDbLine
 10
0.8750000026610962
 20
1.754250697030325
 30
0.0
 11
0.7500000026610945
 21
1.682081913381621
 31
0.0
  0
LINE
  5
EE4
330
EC4
100
AcDbEntity
  8
0
100
AcDbLine
 10
0.9375000026610944
 20
1.537744346084215
 30
0.0
 11
0.7500000026610954
 21
1.64599752155727
 31
0.0
  0
LINE
  5
EE5
330
EC4
100
AcDbEntity
  8
0
100
AcDbLine
 10
0.9375000026610962
 20
1.754250697030325
 30
0.0
 11
0.9687500026610953
 21
1.736208501118149
 31
0.0
  0
ELLIPSE
  5
EE6
330
EC4
100
AcDbEntity
  8
0
100
AcDbEllipse
 10
1.375000002661096
 20
0.8521409014215347
 30
0.0
 11
-0.0220970869120792
 21
-0.0382732772309871
 31
0.0
210
0.0
220
0.0
230
0.9999999999999998
 40
0.5773502691896314
 41
3.926990816987228
 42
5.497787143782119
  0
ELLIPSE
  5
EE7
330
EC4
100
AcDbEntity
  8
0
100
AcDbEllipse
 10
1.500000002661096
 20
0.9243096850702379
 30
0.0
 11
-0.0220970869120792
 21
-0.0382732772309871
 31
0.0
210
0.0
220
0.0
230
0.9999999999999998
 40
0.5773502691896314
 41
8.639379797371912
 42
10.21017612416681
  0
ELLIPSE
  5
EE8
330
EC4
100
AcDbEntity
  8
0
100
AcDbEllipse
 10
1.500000002661098
 20
0.707803334124127
 30
0.0
 11
-0.0220970869120792
 21
-0.0382732772309871
 31
0.0
210
0.0
220
0.0
230
0.9999999999999998
 40
0.5773502691896314
 41
7.068583470577021
 42
8.63937979737193
  0
ELLIPSE
  5
EE9
330
EC4
100
AcDbEntity
  8
0
100
AcDbEllipse
 10
1.375000002661096
 20
0.6356345504754235
 30
0.0
 11
-0.0220970869120792
 21
-0.0382732772309871
 31
0.0
210
0.0
220
0.0
230
0.9999999999999998
 40
0.5773502691896314
 41
5.497787143782125
 42
7.068583470577021
  0
ELLIPSE
  5
EEA
330
EC4
100
AcDbEntity
  8
0
100
AcDbEllipse
 10
1.031250002661096
 20
0.0402420853736238
 30
0.0
 11
-0.0220970869120792
 21
-0.0382732772309871
 31
0.0
210
0.0
220
0.0
230
0.9999999999999998
 40
0.5773502691896314
 41
5.497787143782125
 42
7.068583470577021
  0
ELLIPSE
  5
EEB
330
EC4
100
AcDbEntity
  8
0
100
AcDbEllipse
 10
1.906250002661098
 20
0.5454235709145462
 30
0.0
 11
-0.0220970869120792
 21
-0.0382732772309871
 31
0.0
210
0.0
220
0.0
230
0.9999999999999998
 40
0.5773502691896314
 41
0.7853981633974354
 42
2.356194490192332
  0
ELLIPSE
  5
EEC
330
EC4
100
AcDbEntity
  8
0
100
AcDbEllipse
 10
1.906250002661097
 20
1.555786541996391
 30
0.0
 11
-0.0220970869120792
 21
-0.0382732772309871
 31
0.0
210
0.0
220
0.0
230
0.9999999999999998
 40
0.5773502691896314
 41
2.356194490192338
 42
3.926990816987228
  0
ELLIPSE
  5
EED
330
EC4
100
AcDbEntity
  8
0
100
AcDbEllipse
 10
1.031250002661098
 20
1.050605056455469
 30
0.0
 11
-0.0220970869120792
 21
-0.0382732772309871
 31
0.0
210
0.0
220
0.0
230
0.9999999999999998
 40
0.5773502691896314
 41
3.926990816987228
 42
5.497787143782105
  0
ELLIPSE
  5
EEE
330
EC4
100
AcDbEntity
  8
0
100
AcDbEllipse
 10
1.093750002661096
 20
1.627955325645094
 30
0.0
 11
-0.0441941738241592
 21
0.0
 31
0.0
210
0.0
220
0.0
230
1.0
 40
0.5773502691896219
 41
2.356194490192317
 42
3.926990816987241
  0
ELLIPSE
  5
EEF
330
EC4
100
AcDbEntity
  8
0
100
AcDbEllipse
 10
1.843750002661097
 20
1.664039717469445
 30
0.0
 11
-0.0441941738241592
 21
0.0
 31
0.0
210
0.0
220
0.0
230
1.0
 40
0.5773502691896219
 41
2.356194490192344
 42
3.926990816987241
  0
LINE
  5
EF0
330
EC4
100
AcDbEntity
  8
0
100
AcDbLine
 10
1.031250002661096
 20
0.004157693549272
 30
0.0
 11
1.906250002661098
 21
0.5093391790901945
 31
0.0
  0
LINE
  5
EF1
330
EC4
100
AcDbEntity
  8
0
100
AcDbLine
 10
1.000000002661097
 20
1.032562860543293
 30
0.0
 11
1.000000002661096
 21
0.0221998894614484
 31
0.0
  0
LINE
  5
EF2
330
EC4
100
AcDbEntity
  8
0
100
AcDbLine
 10
1.875000002661097
 20
1.682081913381621
 30
0.0
 11
1.500000002661095
 21
1.898588264327731
 31
0.0
  0
LINE
  5
EF3
330
EC4
100
AcDbEntity
  8
0
100
AcDbLine
 10
1.500000002661095
 20
1.898588264327731
 30
0.0
 11
1.093750002661096
 21
1.664039717469446
 31
0.0
  0
LINE
  5
EF4
330
EC4
100
AcDbEntity
  8
0
100
AcDbLine
 10
1.531250002661097
 20
0.7619299218606546
 30
0.0
 11
1.937500002661098
 21
0.9964784687189403
 31
0.0
  0
LINE
  5
EF5
330
EC4
100
AcDbEntity
  8
0
100
AcDbLine
 10
1.531250002661097
 20
0.9062674891580616
 30
0.0
 11
1.937500002661098
 21
1.140816036016348
 31
0.0
  0
LINE
  5
EF6
330
EC4
100
AcDbEntity
  8
0
100
AcDbLine
 10
1.031250002661098
 20
1.08668944827982
 30
0.0
 11
1.906250002661097
 21
1.591870933820743
 31
0.0
  0
LINE
  5
EF7
330
EC4
100
AcDbEntity
  8
0
100
AcDbLine
 10
1.000000002661096
 20
1.140816036016346
 30
0.0
 11
1.875000002661097
 21
1.64599752155727
 31
0.0
  0
LINE
  5
EF8
330
EC4
100
AcDbEntity
  8
0
100
AcDbLine
 10
1.375000002661096
 20
0.5995501586510719
 30
0.0
 11
1.500000002661098
 21
0.6717189422997754
 31
0.0
  0
LINE
  5
EF9
330
EC4
100
AcDbEntity
  8
0
100
AcDbLine
 10
1.375000002661096
 20
0.8882252932458861
 30
0.0
 11
1.500000002661096
 21
0.9603940768945889
 31
0.0
  0
LINE
  5
EFA
330
EC4
100
AcDbEntity
  8
0
100
AcDbLine
 10
1.343750002661096
 20
0.8340987055093593
 30
0.0
 11
1.343750002661096
 21
0.6175923545632481
 31
0.0
  0
LINE
  5
EFB
330
EC4
100
AcDbEntity
  8
0
100
AcDbLine
 10
1.531250002661097
 20
0.7619299218606548
 30
0.0
 11
1.531250002661098
 21
0.725845530036303
 31
0.0
  0
LINE
  5
EFC
330
EC4
100
AcDbEntity
  8
0
100
AcDbLine
 10
1.531250002661096
 20
0.9423518809824145
 30
0.0
 11
1.531250002661096
 21
0.9062674891580613
 31
0.0
  0
LINE
  5
EFD
330
EC4
100
AcDbEntity
  8
0
100
AcDbLine
 10
1.093750002661097
 20
1.664039717469446
 30
0.0
 11
1.125000002661096
 21
1.64599752155727
 31
0.0
  0
LINE
  5
EFE
330
EC4
100
AcDbEntity
  8
0
100
AcDbLine
 10
1.125000002661095
 20
1.609913129732918
 30
0.0
 11
1.000000002661094
 21
1.537744346084215
 31
0.0
  0
LINE
  5
EFF
330
EC4
100
AcDbEntity
  8
0
100
AcDbLine
 10
1.937500002661097
 20
1.573828737908567
 30
0.0
 11
1.937500002661098
 21
1.140816036016348
 31
0.0
  0
LINE
  5
F00
330
EC4
100
AcDbEntity
  8
0
100
AcDbLine
 10
1.937500002661098
 20
0.9964784687189403
 30
0.0
 11
1.937500002661098
 21
0.5634657668267216
 31
0.0
  0
LINE
  5
F01
330
EC4
100
AcDbEntity
  8
0
100
AcDbLine
 10
1.375000002661095
 20
1.970757047976435
 30
0.0
 11
1.000000002661094
 21
2.187263398922545
 31
0.0
  0
ENDBLK
  5
F02
330
EC4
100
AcDbEntity
  8
0
 62
     1
100
AcDbBlockEnd
  0
BLOCK
  5
F06
330
F03
100
AcDbEntity
  8
0
100
AcDbBlockBegin
  2
BLOCK1
 70
     0
 10
0.0
 20
0.0
 30
0.0
  3
BLOCK1
  1

  0
MTEXT
  5
F07
330
F03
100
AcDbEntity
  8
10
 62
     7
100
AcDbMText
 10
6.711034280529553
 20
13.28956519178314
 30
0.0
 40
0.09
 41
0.0
 71
     2
 72
     5
  1
{\fArial|b0|i0|c0|p34;\LTOLERANCE:\P\P\l  .XX +/- 0.02\P .XXX +/- 0.005\P.XXXX +/- 0.001\PANGLES +/- 0.5 DEG\P\H0.7778x;\P\H1.286x;UNLESS OTHERWISE \PSPECIFIED}
 73
     1
 44
1.0
  0
MTEXT
  5
F08
330
F03
100
AcDbEntity
  8
10
 62
     7
100
AcDbMText
 10
8.127666109371762
 20
12.36798589435038
 30
0.0
 40
0.1
 41
4.122956750395385
 71
     1
 72
     5
  1
{\fArial|b0|i0|c0|p34;P.O. BOX 496^IBEAVER, PA 15009^I\C256;www.c3controls.com}
 73
     1
 44
1.0
  0
LINE
  5
F09
330
F03
100
AcDbEntity
  8
0
100
AcDbLine
 10
7.667110091834601
 20
12.21325811248016
 30
0.0
 11
12.6671100918346
 21
12.21325811248016
 31
0.0
  0
MTEXT
  5
F0A
330
F03
100
AcDbEntity
  8
0
100
AcDbMText
 10
6.680292549726473
 20
11.3112653072963
 30
0.0
 40
0.1
 41
1.986817542108126
 71
     5
 72
     5
  1
{\fArial|b0|i0|c0|p34;\C7;This drawing is the property of \C5;c3\C7;controls.  The drawing may not be copied, used or disclosed, for any purpose except as authorized in writing by \C5;c3\C7;controls.}
  7
ADESK1
 73
     1
 44
1.0
  0
LINE
  5
F0B
330
F03
100
AcDbEntity
  8
0
100
AcDbLine
 10
12.6671100918346
 20
11.21325811248016
 30
0.0
 11
7.667110091834601
 21
11.21325811248016
 31
0.0
  0
LINE
  5
F0C
330
F03
100
AcDbEntity
  8
0
100
AcDbLine
 10
5.667110091834601
 20
10.71325811248016
 30
0.0
 11
12.6671100918346
 21
10.71325811248016
 31
0.0
  0
MTEXT
  5
F0D
330
F03
100
AcDbEntity
  8
0
100
AcDbMText
 10
7.716796256136134
 20
12.16810483438634
 30
0.0
 40
0.09
 41
0.8658878108033007
 71
     1
 72
     5
  1
{\fArial|b0|i0|c0|p34;\LDescription\l:}
  7
ADESK1
 73
     1
 44
1.0
  0
LINE
  5
F0E
330
F03
100
AcDbEntity
  8
0
100
AcDbLine
 10
10.1671100918346
 20
10.71325811248016
 30
0.0
 11
7.667110091834601
 21
10.71325811248016
 31
0.0
  0
MTEXT
  5
F0F
330
F03
100
AcDbEntity
  8
0
100
AcDbMText
 10
7.71550440136373
 20
10.89465349197563
 30
0.0
 40
0.09
 41
0.384193607157087
 71
     1
 72
     5
  1
{\fArial|b0|i0|c0|p34;\LDate\l:}
  7
ADESK1
 73
     1
 44
1.0
  0
LINE
  5
F10
330
F03
100
AcDbEntity
  8
0
100
AcDbLine
 10
7.667110091834601
 20
11.21325811248016
 30
0.0
 11
7.667110091834601
 21
11.46325811248016
 31
0.0
  0
MTEXT
  5
F11
330
F03
100
AcDbEntity
  8
0
100
AcDbMText
 10
7.708132746996554
 20
11.14458739414986
 30
0.0
 40
0.09
 41
0.7497570415333997
 71
     1
 72
     5
  1
{\fArial|b0|i0|c0|p34;\LDrawn By\l:}
  7
ADESK1
 73
     1
 44
1.0
  0
LINE
  5
F12
330
F03
100
AcDbEntity
  8
0
100
AcDbLine
 10
5.667110091834601
 20
11.96325811248016
 30
0.0
 11
7.667110091834601
 21
11.96325811248016
 31
0.0
  0
MTEXT
  5
F13
330
F03
100
AcDbEntity
  8
0
100
AcDbMText
 10
9.197411036053196
 20
10.89516108875997
 30
0.0
 40
0.09
 41
0.3303643432308405
 71
     1
 72
     5
  1
{\fArial|b0|i0|c0|p34;\LScale\l:}
  7
ADESK1
 73
     1
 44
1.0
  0
MTEXT
  5
F14
330
F03
100
AcDbEntity
  8
0
100
AcDbMText
 10
10.21235124952641
 20
11.16269294915084
 30
0.0
 40
0.09
 41
1.303856884813882
 71
     1
 72
     5
  1
{\fArial|b0|i0|c0|p34;\LDrawing Number\l:}
  7
ADESK1
 73
     1
 44
1.0
  0
LINE
  5
F15
330
F03
100
AcDbEntity
  8
0
100
AcDbLine
 10
5.667110091834601
 20
13.33825811248016
 30
0.0
 11
5.667110091834601
 21
10.71325811248016
 31
0.0
  0
LINE
  5
F16
330
F03
100
AcDbEntity
  8
0
100
AcDbLine
 10
5.667110091834601
 20
13.33825811248016
 30
0.0
 11
12.6671100918346
 21
13.33825811248017
 31
0.0
  0
LINE
  5
F17
330
F03
100
AcDbEntity
  8
0
100
AcDbLine
 10
12.6671100918346
 20
13.33825811248017
 30
0.0
 11
12.6671100918346
 21
10.71325811248016
 31
0.0
  0
LINE
  5
F18
330
F03
100
AcDbEntity
  8
0
100
AcDbLine
 10
7.6671100918346
 20
13.33825811248016
 30
0.0
 11
7.667110091834601
 21
10.71325811248016
 31
0.0
  0
LINE
  5
F19
330
F03
100
AcDbEntity
  8
0
100
AcDbLine
 10
10.1671100918346
 20
11.21325811248016
 30
0.0
 11
10.1671100918346
 21
10.71325811248016
 31
0.0
  0
LINE
  5
F1A
330
F03
100
AcDbEntity
  8
0
100
AcDbLine
 10
7.667110091834601
 20
10.96325811248016
 30
0.0
 11
10.1671100918346
 21
10.96325811248016
 31
0.0
  0
MTEXT
  5
F1B
330
F03
100
AcDbEntity
  8
0
100
AcDbMText
 10
8.341013405886343
 20
11.1434052468619
 30
0.0
 40
0.125
 41
1.771714365360821
 71
     1
 72
     5
  1
{\fArial|b0|i0|c0|p34;NAME}
  7
ADESK1
 73
     1
 44
1.0
  0
MTEXT
  5
F1C
330
F03
100
AcDbEntity
  8
0
100
AcDbMText
 10
8.132724889397977
 20
10.88540557091899
 30
0.0
 40
0.1
 41
0.7449364758073216
 71
     1
 72
     5
  1
{\fArial|b0|i0|c0|p34;MM-DD-YYYY}
  7
ADESK1
 73
     1
 44
1.0
  0
MTEXT
  5
F1D
330
F03
100
AcDbEntity
  8
0
100
AcDbMText
 10
7.743995244054929
 20
11.94804782520594
 30
0.0
 40
0.125
 41
2.230442729182442
 71
     1
 72
     5
  1
{\fArial|b0|i0|c0|p34;<Prompt (Text Size 0.125")>}
  7
ADESK1
 73
     1
 44
1.0
  0
MTEXT
  5
F1E
330
F03
100
AcDbEntity
  8
0
100
AcDbMText
 10
10.26973511976186
 20
10.94585451581953
 30
0.0
 40
0.15
 41
2.262622634115132
 71
     1
 72
     5
  1
{\fArial|b0|i0|c0|p34;##X#####}
  7
ADESK1
 73
     1
 44
1.0
  0
MTEXT
  5
F1F
330
F03
100
AcDbEntity
  8
0
100
AcDbMText
 10
9.711274382750701
 20
10.9171026030377
 30
0.0
 40
0.125
 41
0.2871883947329365
 71
     1
 72
     5
  1
{\fArial|b0|i0|c0|p34;1:1}
  7
ADESK1
 73
     1
 44
1.0
  0
LINE
  5
F20
330
F03
100
AcDbEntity
  8
0
100
AcDbLine
 10
9.167110091834601
 20
10.96325811248016
 30
0.0
 11
9.167110091834601
 21
10.71325811248016
 31
0.0
  0
IMAGE
  5
F21
330
F03
100
AcDbEntity
  8
0
 92
      140
310
8C00000001000000840000000600000005000000E0AE6E9EFB522040B00296A1D3D428400000000000000000E0AE6E9EFB52204092D8A7CFC5842A4000000000000000006BE15DF0644D284092D8A7CFC5842A4000000000000000006BE15DF0644D2840B00296A1D3D428400000000000000000E0AE6E9EFB522040B00296
310
A1D3D428400000000000000000
100
AcDbRasterImage
 90
        0
 10
8.16207594967949
 20
12.41567711788352
 30
0.0
 11
0.0104153649562928
 21
0.0
 31
0.0
 12
0.0
 22
0.0104153649562928
 32
0.0
 13
383.0
 23
81.0
340
FE6
 70
     7
280
     0
281
    50
282
    50
283
     0
360
F22
 71
     1
 91
        2
 14
-0.5
 24
-0.5
 14
382.5
 24
80.5
  0
ENDBLK
  5
F23
330
F03
100
AcDbEntity
  8
0
100
AcDbBlockEnd
  0
BLOCK
  5
F26
330
F24
100
AcDbEntity
  8
0
100
AcDbBlockBegin
  2
Title Block
 70
     2
 10
0.0
 20
0.0
 30
0.0
  3
Title Block
  1

  0
MTEXT
  5
F27
330
F24
100
AcDbEntity
  8
10
 62
     7
100
AcDbMText
 10
1.043924196673284
 20
2.576307073912303
 30
0.0
 40
0.09
 41
0.0
 71
     2
 72
     5
  1
{\LTOLERANCE:\P\P}  .XX +/- 0.02\P .XXX +/- 0.005\P.XXXX +/- 0.001\PANGLES +/- 0.5 DEG\P\PUNLESS OTHERWISE \PSPECIFIED
  7
c3controls
 73
     1
 44
1.0
  0
MTEXT
  5
F28
330
F24
100
AcDbEntity
  8
10
 62
     7
100
AcDbMText
 10
2.460556025515494
 20
1.654727776479541
 30
0.0
 40
0.1
 41
4.122956750395385
 71
     1
 72
     5
  1
P.O. BOX 496^IBEAVER, PA 15009^I{\C256;www.c3controls.com}
  7
c3controls
 73
     1
 44
1.0
  0
LINE
  5
F29
330
F24
100
AcDbEntity
  8
0
100
AcDbLine
 10
2.000000007978332
 20
1.499999994609325
 30
0.0
 11
7.000000007978332
 21
1.499999994609325
 31
0.0
  0
MTEXT
  5
F2A
330
F24
100
AcDbEntity
  8
0
100
AcDbMText
 10
1.013182465870205
 20
0.5980071894254646
 30
0.0
 40
0.1
 41
1.986817542108126
 71
     5
 72
     5
  1
{\C7;This drawing is the property of \C5;c3\C7;controls.  The drawing may not be copied, used or disclosed, for any purpose except as authorized in writing by \C5;c3\C7;controls.}
  7
c3controls
 73
     1
 44
1.0
  0
LINE
  5
F2B
330
F24
100
AcDbEntity
  8
0
100
AcDbLine
 10
7.000000007978332
 20
0.4999999946093255
 30
0.0
 11
2.000000007978332
 21
0.4999999946093255
 31
0.0
  0
LINE
  5
F2C
330
F24
100
AcDbEntity
  8
0
100
AcDbLine
 10
0.0000000079783327
 20
-0.0000000053906746
 30
0.0
 11
7.000000007978332
 21
-0.0000000053906746
 31
0.0
  0
MTEXT
  5
F2D
330
F24
100
AcDbEntity
  8
0
100
AcDbMText
 10
2.049686172279866
 20
1.454846716515504
 30
0.0
 40
0.09
 41
0.8658878108033007
 71
     1
 72
     5
  1
{\LDescription}:
  7
c3controls
 73
     1
 44
1.0
  0
LINE
  5
F2E
330
F24
100
AcDbEntity
  8
0
100
AcDbLine
 10
4.500000007978332
 20
-0.0000000053906746
 30
0.0
 11
2.000000007978332
 21
-0.0000000053906746
 31
0.0
  0
MTEXT
  5
F2F
330
F24
100
AcDbEntity
  8
0
100
AcDbMText
 10
2.048394317507462
 20
0.1813953741047953
 30
0.0
 40
0.09
 41
0.384193607157087
 71
     1
 72
     5
  1
{\LDate}:
  7
c3controls
 73
     1
 44
1.0
  0
LINE
  5
F30
330
F24
100
AcDbEntity
  8
0
100
AcDbLine
 10
2.000000007978332
 20
0.4999999946093272
 30
0.0
 11
2.000000007978332
 21
0.7499999946093272
 31
0.0
  0
MTEXT
  5
F31
330
F24
100
AcDbEntity
  8
0
100
AcDbMText
 10
2.041022663140285
 20
0.4313292762790315
 30
0.0
 40
0.09
 41
0.7497570415333997
 71
     1
 72
     5
  1
{\LDrawn By}:
  7
c3controls
 73
     1
 44
1.0
  0
LINE
  5
F32
330
F24
100
AcDbEntity
  8
0
100
AcDbLine
 10
0.0000000079783327
 20
1.249999994609325
 30
0.0
 11
2.000000007978332
 21
1.249999994609325
 31
0.0
  0
MTEXT
  5
F33
330
F24
100
AcDbEntity
  8
0
100
AcDbMText
 10
3.530300952196927
 20
0.1819029708891406
 30
0.0
 40
0.09
 41
0.3303643432308405
 71
     1
 72
     5
  1
{\LScale}:
  7
c3controls
 73
     1
 44
1.0
  0
MTEXT
  5
F34
330
F24
100
AcDbEntity
  8
0
100
AcDbMText
 10
4.545241165670137
 20
0.4494348312800014
 30
0.0
 40
0.09
 41
1.303856884813882
 71
     1
 72
     5
  1
{\LDrawing Number}:
  7
c3controls
 73
     1
 44
1.0
  0
LINE
  5
F35
330
F24
100
AcDbEntity
  8
0
100
AcDbLine
 10
0.0000000079783327
 20
2.624999994609325
 30
0.0
 11
0.0000000079783327
 21
-0.0000000053906746
 31
0.0
  0
LINE
  5
F36
330
F24
100
AcDbEntity
  8
0
100
AcDbLine
 10
0.0000000079783327
 20
2.624999994609325
 30
0.0
 11
7.000000007978334
 21
2.624999994609334
 31
0.0
  0
LINE
  5
F37
330
F24
100
AcDbEntity
  8
0
100
AcDbLine
 10
7.000000007978334
 20
2.624999994609334
 30
0.0
 11
7.000000007978334
 21
-0.0000000053906746
 31
0.0
  0
LINE
  5
F38
330
F24
100
AcDbEntity
  8
0
100
AcDbLine
 10
2.000000007978331
 20
2.624999994609325
 30
0.0
 11
2.000000007978332
 21
-0.0000000053906746
 31
0.0
  0
LINE
  5
F39
330
F24
100
AcDbEntity
  8
0
100
AcDbLine
 10
4.50000000797833
 20
0.4999999946093255
 30
0.0
 11
4.500000007978332
 21
-0.0000000053906746
 31
0.0
  0
LINE
  5
F3A
330
F24
100
AcDbEntity
  8
0
100
AcDbLine
 10
2.000000007978332
 20
0.2499999946093254
 30
0.0
 11
4.500000007978332
 21
0.2499999946093254
 31
0.0
  0
LINE
  5
F3B
330
F24
100
AcDbEntity
  8
0
100
AcDbLine
 10
3.500000007978332
 20
0.2499999946093254
 30
0.0
 11
3.500000007978332
 21
-0.0000000053906746
 31
0.0
  0
IMAGE
  5
F3C
330
F24
100
AcDbEntity
  8
0
 92
      140
310
8C00000001000000840000000600000005000000C8C6F2A9B0F50340C04B92B41B3DFB3F0000000000000000C8C6F2A9B0F503406A7D9092565E044000000000000000007AC8D7F8AAEF19406A7D9092565E044000000000000000007AC8D7F8AAEF1940C04B92B41B3DFB3F0000000000000000C8C6F2A9B0F50340C04B92
310
B41B3DFB3F0000000000000000
100
AcDbRasterImage
 90
        0
 10
2.494965865823221
 20
1.702419000012682
 30
0.0
 11
0.0104153649562928
 21
0.0
 31
0.0
 12
0.0
 22
0.0104153649562928
 32
0.0
 13
383.0
 23
81.0
340
FE6
 70
     7
280
     0
281
    50
282
    50
283
     0
360
F3D
 71
     1
 91
        2
 14
-0.5
 24
-0.5
 14
382.5
 24
80.5
  0
ATTDEF
  5
F3E
330
F24
100
AcDbEntity
  8
0
100
AcDbText
 10
2.651062769271845
 20
0.3158430657325937
 30
0.0
 40
0.125
  1
Your Name
  7
c3controls
 11
2.651062769271845
 21
0.3783430657325937
 31
0.0
100
AcDbAttributeDefinition
  3
Type Name:
  2
NAME
 70
     0
 74
     2
  0
ATTDEF
  5
F3F
330
F24
100
AcDbEntity
  8
0
100
AcDbText
 10
2.0456293532187
 20
1.16659293196254
 30
0.0
 40
0.125
  1
Description
  7
c3controls
100
AcDbAttributeDefinition
  3
Type Description Here:
  2
DESCRIPTION
 70
     0
  0
ATTDEF
  5
F40
330
F24
100
AcDbEntity
  8
0
100
AcDbText
 10
4.843116636280641
 20
0.0394471703968549
 30
0.0
 40
0.25
  1
XX#XXXXX
  7
c3controls
 72
     1
 11
5.75554842345663
 21
0.1644471703968549
 31
0.0
100
AcDbAttributeDefinition
  3
Drawing Number
  2
XX#XXXXX
 70
     0
 74
     2
  0
ATTDEF
  5
F41
330
F24
100
AcDbEntity
  8
0
100
AcDbText
 10
4.038931983541327
 20
0.0657556150057985
 30
0.0
 40
0.125
  1
1:1
  7
c3controls
 72
     1
 11
4.160308177265747
 21
0.1282556150057985
 31
0.0
100
AcDbAttributeDefinition
  3
Scale
  2
1:1
 70
     0
 74
     2
  0
ATTDEF
  5
F42
330
F24
100
AcDbEntity
  8
0
100
AcDbText
 10
2.311122557773952
 20
0.0631452242737112
 30
0.0
 40
0.125
  1
MM-DD-YYYY
  7
c3controls
 72
     1
 11
2.873793089833979
 21
0.1256452242737112
 31
0.0
100
AcDbAttributeDefinition
  3
Date
  2
DATE
 70
     0
 74
     2
  0
ATTDEF
  5
F43
330
F24
100
AcDbEntity
  8
0
100
AcDbText
 10
0.0000000079783368
 20
0.0
 30
0.0
 40
0.125
  1

  7
c3controls
100
AcDbAttributeDefinition
  3
Outline Drawing (Y or N)?
  2
OUTLINE_DRAWING
 70
     1
  0
ENDBLK
  5
F44
330
F24
100
AcDbEntity
  8
0
100
AcDbBlockEnd
  0
BLOCK
  5
FE2
330
F51
100
AcDbEntity
  8
0
100
AcDbBlockBegin
  2
STD50009-D-SIZE
 70
     0
 10
0.0
 20
0.0
 30
0.0
  3
STD50009-D-SIZE
  1

  0
LINE
  5
F53
330
F51
100
AcDbEntity
  8
10
100
AcDbLine
 10
0.5000000293787004
 20
21.49999997647868
 30
0.0
 11
33.50000002937868
 21
21.49999997647868
 31
0.0
  0
LINE
  5
F54
330
F51
100
AcDbEntity
  8
10
100
AcDbLine
 10
0.5000000293786862
 20
0.4999999764786774
 30
0.0
 11
33.50000002937868
 21
0.4999999764786569
 31
0.0
  0
LINE
  5
F55
330
F51
100
AcDbEntity
  8
10
100
AcDbLine
 10
0.5000000293787004
 20
21.49999997647868
 30
0.0
 11
0.5000000293786862
 21
0.4999999764786783
 31
0.0
  0
CIRCLE
  5
F56
330
F51
100
AcDbEntity
  8
10
 62
     1
100
AcDbCircle
 10
0.5000000293786791
 20
0.4999999764786765
 30
0.0
 40
0.283176754747501
  0
LINE
  5
F57
330
F51
100
AcDbEntity
  8
10
100
AcDbLine
 10
0.0000000293786862
 20
-0.0000000235213236
 30
0.0
 11
0.5000000293786862
 21
-0.0000000235213244
 31
0.0
  0
LINE
  5
F58
330
F51
100
AcDbEntity
  8
10
100
AcDbLine
 10
0.0000000293786933
 20
0.4999999764786765
 30
0.0
 11
0.0000000293786862
 21
-0.0000000235213236
 31
0.0
  0
LINE
  5
F59
330
F51
100
AcDbEntity
  8
10
100
AcDbLine
 10
0.0000000293786862
 20
21.99999997647868
 30
0.0
 11
0.5000000293786862
 21
21.99999997647868
 31
0.0
  0
LINE
  5
F5A
330
F51
100
AcDbEntity
  8
10
100
AcDbLine
 10
0.0000000293786862
 20
21.99999997647868
 30
0.0
 11
0.0000000293786933
 21
21.49999997647868
 31
0.0
  0
LINE
  5
F5B
330
F51
100
AcDbEntity
  8
10
100
AcDbLine
 10
33.50000002937868
 20
21.49999997647868
 30
0.0
 11
33.50000002937868
 21
0.4999999764786569
 31
0.0
  0
LINE
  5
F5C
330
F51
100
AcDbEntity
  8
10
100
AcDbLine
 10
37.50000002937868
 20
-0.0000000235213209
 30
0.0
 11
38.00000002937869
 21
-0.0000000235213209
 31
0.0
  0
LINE
  5
F5D
330
F51
100
AcDbEntity
  8
10
100
AcDbLine
 10
38.00000002937867
 20
0.4999999764786783
 30
0.0
 11
38.00000002937869
 21
-0.0000000235213209
 31
0.0
  0
LINE
  5
F5E
330
F51
100
AcDbEntity
  8
10
100
AcDbLine
 10
37.50000002937868
 20
21.99999997647868
 30
0.0
 11
38.00000002937871
 21
21.99999997647868
 31
0.0
  0
LINE
  5
F5F
330
F51
100
AcDbEntity
  8
10
100
AcDbLine
 10
38.00000002937869
 20
21.99999997647868
 30
0.0
 11
38.00000002937867
 21
21.49999997647868
 31
0.0
  0
LINE
  5
F60
330
F51
100
AcDbEntity
  8
L-REV
100
AcDbLine
 10
34.00000002937867
 20
0.4999999764786552
 30
0.0
 11
34.0000000293787
 21
21.49999997647867
 31
0.0
  0
LINE
  5
F61
330
F51
100
AcDbEntity
  8
L-REV
100
AcDbLine
 10
34.50000002937867
 20
0.4999999764786552
 30
0.0
 11
34.5000000293787
 21
21.49999997647867
 31
0.0
  0
LINE
  5
F62
330
F51
100
AcDbEntity
  8
L-REV
100
AcDbLine
 10
37.00000002937867
 20
0.4999999764786552
 30
0.0
 11
37.0000000293787
 21
21.49999997647867
 31
0.0
  0
LINE
  5
F63
330
F51
100
AcDbEntity
  8
L-REV
100
AcDbLine
 10
37.50000002937867
 20
0.4999999764786552
 30
0.0
 11
37.50000002937869
 21
21.49999997647867
 31
0.0
  0
LINE
  5
F64
330
F51
100
AcDbEntity
  8
L-REV
100
AcDbLine
 10
33.50000002937867
 20
0.7499999764786552
 30
0.0
 11
37.50000002937867
 21
0.7499999764786481
 31
0.0
  0
LINE
  5
F65
330
F51
100
AcDbEntity
  8
L-REV
100
AcDbLine
 10
33.50000002937867
 20
1.249999976478655
 30
0.0
 11
37.50000002937867
 21
1.249999976478648
 31
0.0
  0
LINE
  5
F66
330
F51
100
AcDbEntity
  8
L-REV
100
AcDbLine
 10
33.50000002937867
 20
1.749999976478655
 30
0.0
 11
37.50000002937867
 21
1.749999976478648
 31
0.0
  0
LINE
  5
F67
330
F51
100
AcDbEntity
  8
L-REV
100
AcDbLine
 10
33.50000002937867
 20
2.249999976478655
 30
0.0
 11
37.50000002937867
 21
2.249999976478648
 31
0.0
  0
LINE
  5
F68
330
F51
100
AcDbEntity
  8
L-REV
100
AcDbLine
 10
33.50000002937867
 20
2.749999976478648
 30
0.0
 11
37.50000002937867
 21
2.749999976478648
 31
0.0
  0
LINE
  5
F69
330
F51
100
AcDbEntity
  8
L-REV
100
AcDbLine
 10
33.50000002937867
 20
3.249999976478648
 30
0.0
 11
37.50000002937868
 21
3.249999976478648
 31
0.0
  0
LINE
  5
F6A
330
F51
100
AcDbEntity
  8
L-REV
100
AcDbLine
 10
33.50000002937867
 20
3.749999976478648
 30
0.0
 11
37.50000002937868
 21
3.749999976478648
 31
0.0
  0
LINE
  5
F6B
330
F51
100
AcDbEntity
  8
L-REV
100
AcDbLine
 10
33.50000002937867
 20
4.249999976478648
 30
0.0
 11
37.50000002937868
 21
4.249999976478648
 31
0.0
  0
LINE
  5
F6C
330
F51
100
AcDbEntity
  8
L-REV
100
AcDbLine
 10
33.50000002937867
 20
4.749999976478648
 30
0.0
 11
37.50000002937868
 21
4.749999976478648
 31
0.0
  0
LINE
  5
F6D
330
F51
100
AcDbEntity
  8
L-REV
100
AcDbLine
 10
33.50000002937867
 20
5.249999976478648
 30
0.0
 11
37.50000002937868
 21
5.249999976478648
 31
0.0
  0
LINE
  5
F6E
330
F51
100
AcDbEntity
  8
L-REV
100
AcDbLine
 10
33.50000002937867
 20
5.749999976478648
 30
0.0
 11
37.50000002937868
 21
5.749999976478648
 31
0.0
  0
LINE
  5
F6F
330
F51
100
AcDbEntity
  8
L-REV
100
AcDbLine
 10
33.50000002937867
 20
0.9999999764786551
 30
0.0
 11
37.50000002937867
 21
0.999999976478648
 31
0.0
  0
LINE
  5
F70
330
F51
100
AcDbEntity
  8
L-REV
100
AcDbLine
 10
33.50000002937867
 20
1.499999976478655
 30
0.0
 11
37.50000002937867
 21
1.499999976478648
 31
0.0
  0
LINE
  5
F71
330
F51
100
AcDbEntity
  8
L-REV
100
AcDbLine
 10
33.50000002937867
 20
1.999999976478655
 30
0.0
 11
37.50000002937867
 21
1.999999976478648
 31
0.0
  0
LINE
  5
F72
330
F51
100
AcDbEntity
  8
L-REV
100
AcDbLine
 10
33.50000002937867
 20
2.499999976478655
 30
0.0
 11
37.50000002937867
 21
2.499999976478648
 31
0.0
  0
LINE
  5
F73
330
F51
100
AcDbEntity
  8
L-REV
100
AcDbLine
 10
33.50000002937867
 20
2.999999976478648
 30
0.0
 11
37.50000002937867
 21
2.999999976478648
 31
0.0
  0
LINE
  5
F74
330
F51
100
AcDbEntity
  8
L-REV
100
AcDbLine
 10
33.50000002937867
 20
3.499999976478648
 30
0.0
 11
37.50000002937868
 21
3.499999976478648
 31
0.0
  0
LINE
  5
F75
330
F51
100
AcDbEntity
  8
L-REV
100
AcDbLine
 10
33.50000002937867
 20
3.999999976478648
 30
0.0
 11
37.50000002937868
 21
3.999999976478648
 31
0.0
  0
LINE
  5
F76
330
F51
100
AcDbEntity
  8
L-REV
100
AcDbLine
 10
33.50000002937867
 20
4.499999976478648
 30
0.0
 11
37.50000002937868
 21
4.499999976478648
 31
0.0
  0
LINE
  5
F77
330
F51
100
AcDbEntity
  8
L-REV
100
AcDbLine
 10
33.50000002937867
 20
4.999999976478648
 30
0.0
 11
37.50000002937868
 21
4.999999976478648
 31
0.0
  0
LINE
  5
F78
330
F51
100
AcDbEntity
  8
L-REV
100
AcDbLine
 10
33.50000002937867
 20
5.499999976478648
 30
0.0
 11
37.50000002937868
 21
5.499999976478648
 31
0.0
  0
LINE
  5
F79
330
F51
100
AcDbEntity
  8
L-REV
100
AcDbLine
 10
37.50000002937867
 20
0.4999999764786552
 30
0.0
 11
33.50000002937868
 21
0.4999999764786552
 31
0.0
  0
MTEXT
  5
F7A
330
F51
100
AcDbEntity
  8
L-REV
100
AcDbMText
 10
33.59568526472396
 20
0.6655795213986622
 30
0.0
 40
0.09
 41
0.0
 71
     1
 72
     5
  1
REV#
 73
     1
 44
1.0
  0
MTEXT
  5
F7B
330
F51
100
AcDbEntity
  8
L-REV
100
AcDbMText
 10
34.17448481894672
 20
0.6655795213986622
 30
0.0
 40
0.09
 41
0.0
 71
     1
 72
     5
  1
BY
 73
     1
 44
1.0
  0
MTEXT
  5
F7C
330
F51
100
AcDbEntity
  8
L-REV
100
AcDbMText
 10
35.3041830125825
 20
0.675128447922063
 30
0.0
 40
0.09
 41
0.0
 71
     1
 72
     5
  1
DESCRIPTION
 73
     1
 44
1.0
  0
MTEXT
  5
F7D
330
F51
100
AcDbEntity
  8
L-REV
100
AcDbMText
 10
37.09900131259495
 20
0.6655795213986587
 30
0.0
 40
0.09
 41
0.0
 71
     1
 72
     5
  1
DATE
 73
     1
 44
1.0
  0
LINE
  5
F7E
330
F51
100
AcDbEntity
  8
L-REV
100
AcDbLine
 10
33.50000002937868
 20
11.24999997647865
 30
0.0
 11
37.50000002937868
 21
11.24999997647865
 31
0.0
  0
LINE
  5
F7F
330
F51
100
AcDbEntity
  8
L-REV
100
AcDbLine
 10
33.50000002937868
 20
11.49999997647865
 30
0.0
 11
37.50000002937869
 21
11.49999997647865
 31
0.0
  0
LINE
  5
F80
330
F51
100
AcDbEntity
  8
L-REV
100
AcDbLine
 10
33.50000002937868
 20
9.999999976478655
 30
0.0
 11
37.50000002937869
 21
9.999999976478655
 31
0.0
  0
LINE
  5
F81
330
F51
100
AcDbEntity
  8
L-REV
100
AcDbLine
 10
33.50000002937868
 20
10.49999997647865
 30
0.0
 11
37.50000002937869
 21
10.49999997647865
 31
0.0
  0
LINE
  5
F82
330
F51
100
AcDbEntity
  8
L-REV
100
AcDbLine
 10
33.50000002937867
 20
10.99999997647865
 30
0.0
 11
37.50000002937868
 21
10.99999997647865
 31
0.0
  0
LINE
  5
F83
330
F51
100
AcDbEntity
  8
L-REV
100
AcDbLine
 10
33.50000002937868
 20
9.749999976478655
 30
0.0
 11
37.50000002937869
 21
9.749999976478655
 31
0.0
  0
LINE
  5
F84
330
F51
100
AcDbEntity
  8
L-REV
100
AcDbLine
 10
33.50000002937868
 20
10.24999997647865
 30
0.0
 11
37.50000002937869
 21
10.24999997647865
 31
0.0
  0
LINE
  5
F85
330
F51
100
AcDbEntity
  8
L-REV
100
AcDbLine
 10
33.50000002937868
 20
10.74999997647865
 30
0.0
 11
37.50000002937868
 21
10.74999997647865
 31
0.0
  0
LINE
  5
F86
330
F51
100
AcDbEntity
  8
L-REV
100
AcDbLine
 10
33.50000002937867
 20
6.249999976478648
 30
0.0
 11
37.50000002937868
 21
6.249999976478648
 31
0.0
  0
LINE
  5
F87
330
F51
100
AcDbEntity
  8
L-REV
100
AcDbLine
 10
33.50000002937867
 20
6.749999976478648
 30
0.0
 11
37.50000002937868
 21
6.749999976478648
 31
0.0
  0
LINE
  5
F88
330
F51
100
AcDbEntity
  8
L-REV
100
AcDbLine
 10
33.50000002937867
 20
7.249999976478648
 30
0.0
 11
37.50000002937868
 21
7.249999976478648
 31
0.0
  0
LINE
  5
F89
330
F51
100
AcDbEntity
  8
L-REV
100
AcDbLine
 10
33.50000002937867
 20
7.749999976478648
 30
0.0
 11
37.50000002937868
 21
7.749999976478648
 31
0.0
  0
LINE
  5
F8A
330
F51
100
AcDbEntity
  8
L-REV
100
AcDbLine
 10
33.50000002937868
 20
8.249999976478648
 30
0.0
 11
37.50000002937868
 21
8.249999976478648
 31
0.0
  0
LINE
  5
F8B
330
F51
100
AcDbEntity
  8
L-REV
100
AcDbLine
 10
33.50000002937868
 20
8.749999976478648
 30
0.0
 11
37.50000002937869
 21
8.749999976478648
 31
0.0
  0
LINE
  5
F8C
330
F51
100
AcDbEntity
  8
L-REV
100
AcDbLine
 10
33.50000002937868
 20
9.249999976478648
 30
0.0
 11
37.50000002937869
 21
9.249999976478648
 31
0.0
  0
LINE
  5
F8D
330
F51
100
AcDbEntity
  8
L-REV
100
AcDbLine
 10
33.50000002937867
 20
5.999999976478648
 30
0.0
 11
37.50000002937868
 21
5.999999976478648
 31
0.0
  0
LINE
  5
F8E
330
F51
100
AcDbEntity
  8
L-REV
100
AcDbLine
 10
33.50000002937867
 20
6.499999976478648
 30
0.0
 11
37.50000002937868
 21
6.499999976478648
 31
0.0
  0
LINE
  5
F8F
330
F51
100
AcDbEntity
  8
L-REV
100
AcDbLine
 10
33.50000002937867
 20
6.999999976478648
 30
0.0
 11
37.50000002937868
 21
6.999999976478648
 31
0.0
  0
LINE
  5
F90
330
F51
100
AcDbEntity
  8
L-REV
100
AcDbLine
 10
33.50000002937867
 20
7.499999976478648
 30
0.0
 11
37.50000002937868
 21
7.499999976478648
 31
0.0
  0
LINE
  5
F91
330
F51
100
AcDbEntity
  8
L-REV
100
AcDbLine
 10
33.50000002937867
 20
7.999999976478648
 30
0.0
 11
37.50000002937868
 21
7.999999976478648
 31
0.0
  0
LINE
  5
F92
330
F51
100
AcDbEntity
  8
L-REV
100
AcDbLine
 10
33.50000002937868
 20
8.499999976478648
 30
0.0
 11
37.50000002937869
 21
8.499999976478648
 31
0.0
  0
LINE
  5
F93
330
F51
100
AcDbEntity
  8
L-REV
100
AcDbLine
 10
33.50000002937868
 20
8.999999976478648
 30
0.0
 11
37.50000002937869
 21
8.999999976478648
 31
0.0
  0
LINE
  5
F94
330
F51
100
AcDbEntity
  8
L-REV
100
AcDbLine
 10
37.50000002937868
 20
9.499999976478655
 30
0.0
 11
33.50000002937868
 21
9.49999997647864
 31
0.0
  0
LINE
  5
F95
330
F51
100
AcDbEntity
  8
L-REV
100
AcDbLine
 10
33.50000002937867
 20
18.74999997647866
 30
0.0
 11
37.50000002937868
 21
18.74999997647866
 31
0.0
  0
LINE
  5
F96
330
F51
100
AcDbEntity
  8
L-REV
100
AcDbLine
 10
33.50000002937867
 20
18.24999997647866
 30
0.0
 11
37.50000002937868
 21
18.24999997647866
 31
0.0
  0
LINE
  5
F97
330
F51
100
AcDbEntity
  8
L-REV
100
AcDbLine
 10
33.50000002937867
 20
17.74999997647866
 30
0.0
 11
37.50000002937868
 21
17.74999997647866
 31
0.0
  0
LINE
  5
F98
330
F51
100
AcDbEntity
  8
L-REV
100
AcDbLine
 10
33.50000002937867
 20
17.24999997647866
 30
0.0
 11
37.50000002937868
 21
17.24999997647866
 31
0.0
  0
LINE
  5
F99
330
F51
100
AcDbEntity
  8
L-REV
100
AcDbLine
 10
33.50000002937867
 20
18.49999997647866
 30
0.0
 11
37.50000002937868
 21
18.49999997647866
 31
0.0
  0
LINE
  5
F9A
330
F51
100
AcDbEntity
  8
L-REV
100
AcDbLine
 10
33.50000002937867
 20
17.99999997647866
 30
0.0
 11
37.50000002937868
 21
17.99999997647866
 31
0.0
  0
LINE
  5
F9B
330
F51
100
AcDbEntity
  8
L-REV
100
AcDbLine
 10
33.50000002937867
 20
17.49999997647866
 30
0.0
 11
37.50000002937868
 21
17.49999997647866
 31
0.0
  0
LINE
  5
F9C
330
F51
100
AcDbEntity
  8
L-REV
100
AcDbLine
 10
33.50000002937868
 20
12.99999997647865
 30
0.0
 11
37.50000002937869
 21
12.99999997647865
 31
0.0
  0
LINE
  5
F9D
330
F51
100
AcDbEntity
  8
L-REV
100
AcDbLine
 10
33.50000002937868
 20
12.49999997647865
 30
0.0
 11
37.50000002937869
 21
12.49999997647865
 31
0.0
  0
LINE
  5
F9E
330
F51
100
AcDbEntity
  8
L-REV
100
AcDbLine
 10
33.50000002937867
 20
11.99999997647865
 30
0.0
 11
37.50000002937868
 21
11.99999997647865
 31
0.0
  0
LINE
  5
F9F
330
F51
100
AcDbEntity
  8
L-REV
100
AcDbLine
 10
33.50000002937868
 20
13.24999997647865
 30
0.0
 11
37.50000002937869
 21
13.24999997647865
 31
0.0
  0
LINE
  5
FA0
330
F51
100
AcDbEntity
  8
L-REV
100
AcDbLine
 10
33.50000002937868
 20
12.74999997647865
 30
0.0
 11
37.50000002937869
 21
12.74999997647865
 31
0.0
  0
LINE
  5
FA1
330
F51
100
AcDbEntity
  8
L-REV
100
AcDbLine
 10
33.50000002937868
 20
12.24999997647865
 30
0.0
 11
37.50000002937868
 21
12.24999997647865
 31
0.0
  0
LINE
  5
FA2
330
F51
100
AcDbEntity
  8
L-REV
100
AcDbLine
 10
33.50000002937867
 20
16.74999997647866
 30
0.0
 11
37.50000002937868
 21
16.74999997647866
 31
0.0
  0
LINE
  5
FA3
330
F51
100
AcDbEntity
  8
L-REV
100
AcDbLine
 10
33.50000002937867
 20
16.24999997647866
 30
0.0
 11
37.50000002937868
 21
16.24999997647866
 31
0.0
  0
LINE
  5
FA4
330
F51
100
AcDbEntity
  8
L-REV
100
AcDbLine
 10
33.50000002937867
 20
15.74999997647866
 30
0.0
 11
37.50000002937868
 21
15.74999997647866
 31
0.0
  0
LINE
  5
FA5
330
F51
100
AcDbEntity
  8
L-REV
100
AcDbLine
 10
33.50000002937867
 20
15.24999997647866
 30
0.0
 11
37.50000002937868
 21
15.24999997647866
 31
0.0
  0
LINE
  5
FA6
330
F51
100
AcDbEntity
  8
L-REV
100
AcDbLine
 10
33.50000002937868
 20
14.74999997647866
 30
0.0
 11
37.50000002937868
 21
14.74999997647866
 31
0.0
  0
LINE
  5
FA7
330
F51
100
AcDbEntity
  8
L-REV
100
AcDbLine
 10
33.50000002937868
 20
14.24999997647866
 30
0.0
 11
37.50000002937869
 21
14.24999997647866
 31
0.0
  0
LINE
  5
FA8
330
F51
100
AcDbEntity
  8
L-REV
100
AcDbLine
 10
33.50000002937868
 20
13.74999997647866
 30
0.0
 11
37.50000002937869
 21
13.74999997647866
 31
0.0
  0
LINE
  5
FA9
330
F51
100
AcDbEntity
  8
L-REV
100
AcDbLine
 10
33.50000002937867
 20
16.99999997647866
 30
0.0
 11
37.50000002937868
 21
16.99999997647866
 31
0.0
  0
LINE
  5
FAA
330
F51
100
AcDbEntity
  8
L-REV
100
AcDbLine
 10
33.50000002937867
 20
16.49999997647866
 30
0.0
 11
37.50000002937868
 21
16.49999997647866
 31
0.0
  0
LINE
  5
FAB
330
F51
100
AcDbEntity
  8
L-REV
100
AcDbLine
 10
33.50000002937867
 20
15.99999997647866
 30
0.0
 11
37.50000002937868
 21
15.99999997647866
 31
0.0
  0
LINE
  5
FAC
330
F51
100
AcDbEntity
  8
L-REV
100
AcDbLine
 10
33.50000002937867
 20
15.49999997647866
 30
0.0
 11
37.50000002937868
 21
15.49999997647866
 31
0.0
  0
LINE
  5
FAD
330
F51
100
AcDbEntity
  8
L-REV
100
AcDbLine
 10
33.50000002937867
 20
14.99999997647866
 30
0.0
 11
37.50000002937868
 21
14.99999997647866
 31
0.0
  0
LINE
  5
FAE
330
F51
100
AcDbEntity
  8
L-REV
100
AcDbLine
 10
33.50000002937868
 20
14.49999997647866
 30
0.0
 11
37.50000002937869
 21
14.49999997647866
 31
0.0
  0
LINE
  5
FAF
330
F51
100
AcDbEntity
  8
L-REV
100
AcDbLine
 10
33.50000002937868
 20
13.99999997647866
 30
0.0
 11
37.50000002937869
 21
13.99999997647866
 31
0.0
  0
LINE
  5
FB0
330
F51
100
AcDbEntity
  8
L-REV
100
AcDbLine
 10
37.50000002937868
 20
13.49999997647865
 30
0.0
 11
33.50000002937868
 21
13.49999997647867
 31
0.0
  0
LINE
  5
FB1
330
F51
100
AcDbEntity
  8
L-REV
100
AcDbLine
 10
33.50000002937867
 20
19.74999997647866
 30
0.0
 11
37.50000002937868
 21
19.74999997647866
 31
0.0
  0
LINE
  5
FB2
330
F51
100
AcDbEntity
  8
L-REV
100
AcDbLine
 10
33.50000002937867
 20
19.24999997647866
 30
0.0
 11
37.50000002937868
 21
19.24999997647866
 31
0.0
  0
LINE
  5
FB3
330
F51
100
AcDbEntity
  8
L-REV
100
AcDbLine
 10
33.50000002937867
 20
19.49999997647866
 30
0.0
 11
37.50000002937868
 21
19.49999997647866
 31
0.0
  0
LINE
  5
FB4
330
F51
100
AcDbEntity
  8
L-REV
100
AcDbLine
 10
33.50000002937867
 20
18.99999997647866
 30
0.0
 11
37.50000002937868
 21
18.99999997647866
 31
0.0
  0
LINE
  5
FB5
330
F51
100
AcDbEntity
  8
L-REV
100
AcDbLine
 10
33.50000002937868
 20
11.74999997647865
 30
0.0
 11
37.50000002937868
 21
11.74999997647865
 31
0.0
  0
LINE
  5
FB6
330
F51
100
AcDbEntity
  8
L-REV
100
AcDbLine
 10
33.50000002937867
 20
21.49999997647866
 30
0.0
 11
37.50000002937868
 21
21.49999997647866
 31
0.0
  0
LINE
  5
FB7
330
F51
100
AcDbEntity
  8
L-REV
100
AcDbLine
 10
33.50000002937867
 20
19.99999997647866
 30
0.0
 11
37.50000002937868
 21
19.99999997647866
 31
0.0
  0
LINE
  5
FB8
330
F51
100
AcDbEntity
  8
L-REV
100
AcDbLine
 10
33.50000002937867
 20
20.49999997647866
 30
0.0
 11
37.50000002937868
 21
20.49999997647866
 31
0.0
  0
LINE
  5
FB9
330
F51
100
AcDbEntity
  8
L-REV
100
AcDbLine
 10
33.50000002937867
 20
20.74999997647866
 30
0.0
 11
37.50000002937868
 21
20.74999997647866
 31
0.0
  0
LINE
  5
FBA
330
F51
100
AcDbEntity
  8
L-REV
100
AcDbLine
 10
33.50000002937867
 20
21.24999997647866
 30
0.0
 11
37.50000002937868
 21
21.24999997647866
 31
0.0
  0
LINE
  5
FBB
330
F51
100
AcDbEntity
  8
L-REV
100
AcDbLine
 10
33.50000002937867
 20
20.99999997647866
 30
0.0
 11
37.50000002937868
 21
20.99999997647866
 31
0.0
  0
LINE
  5
FBC
330
F51
100
AcDbEntity
  8
L-REV
100
AcDbLine
 10
33.50000002937867
 20
20.24999997647866
 30
0.0
 11
37.50000002937868
 21
20.24999997647866
 31
0.0
  0
MTEXT
  5
FBD
330
F51
100
AcDbEntity
  8
10
100
AcDbMText
 10
24.36718679875366
 20
21.35156246460367
 30
0.0000000000000001
 40
0.1562500125
 41
0.0
 71
     4
 72
     5
  1
 XXXXX
  7
ACANSTS
 73
     1
 44
1.0
  0
MTEXT
  5
FBE
330
F51
100
AcDbEntity
  8
10
100
AcDbMText
 10
24.36718679875366
 20
21.01971719996083
 30
0.0000000000000001
 40
0.1562500125
 41
3.812500305
 71
     4
 72
     5
  1
 XXXXX
  7
ACANSTS
 73
     1
 44
1.0
  0
LINE
  5
FBF
330
F51
100
AcDbEntity
  8
10
100
AcDbLine
 10
33.50000002937867
 20
20.17261891790725
 30
0.0
 11
23.78013318036081
 21
20.17261891790725
 31
0.0
  0
LINE
  5
FC0
330
F51
100
AcDbEntity
  8
10
100
AcDbLine
 10
23.78013318036081
 20
20.5044641825501
 30
0.0
 11
33.50000002937867
 21
20.5044641825501
 31
0.0
  0
LINE
  5
FC1
330
F51
100
AcDbEntity
  8
10
100
AcDbLine
 10
23.78013318036081
 20
20.83630944719296
 30
0.0
 11
33.50000002937867
 21
20.83630944719296
 31
0.0
  0
LINE
  5
FC2
330
F51
100
AcDbEntity
  8
10
100
AcDbLine
 10
23.78013318036081
 20
21.49999997647868
 30
0.0
 11
33.50000002937867
 21
21.49999997647868
 31
0.0
  0
LINE
  5
FC3
330
F51
100
AcDbEntity
  8
10
100
AcDbLine
 10
23.78013318036081
 20
21.16815471183582
 30
0.0
 11
33.50000002937867
 21
21.16815471183582
 31
0.0
  0
LINE
  5
FC4
330
F51
100
AcDbEntity
  8
10
100
AcDbLine
 10
24.32031179500366
 20
21.49999997647868
 30
0.0
 11
24.32031179500366
 21
21.16815471183582
 31
0.0
  0
MTEXT
  5
FC5
330
F51
100
AcDbEntity
  8
10
100
AcDbMText
 10
24.05022248768224
 20
21.42968747085368
 30
0.0000000000000001
 40
0.1562500125
 41
0.446469943125
 71
     2
 72
     5
  1
H02
  7
ACANSTS
 73
     1
 44
1.0
  0
LINE
  5
FC6
330
F51
100
AcDbEntity
  8
10
100
AcDbLine
 10
23.78013318036081
 20
20.17261891790725
 30
0.0
 11
23.78013318036081
 21
21.49999997647868
 31
0.0
  0
MTEXT
  5
FC7
330
F51
100
AcDbEntity
  8
10
100
AcDbMText
 10
24.05022248768224
 20
20.76599694156796
 30
0.0000000000000001
 40
0.1562500125
 41
0.4464286071428573
 71
     2
 72
     5
  1
Item
  7
ACANSTS
 73
     1
 44
1.0
  0
MTEXT
  5
FC8
330
F51
100
AcDbEntity
  8
10
100
AcDbMText
 10
24.05022248768224
 20
21.09784220621082
 30
0.0000000000000001
 40
0.1562500125
 41
0.446469943125
 71
     2
 72
     5
  1
H01
  7
ACANSTS
 73
     1
 44
1.0
  0
LINE
  5
FC9
330
F51
100
AcDbEntity
  8
10
100
AcDbLine
 10
24.32031179500366
 20
21.16815471183582
 30
0.0
 11
24.32031179500366
 21
20.83630944719296
 31
0.0
  0
LINE
  5
FCA
330
F51
100
AcDbEntity
  8
10
100
AcDbLine
 10
24.32031179500366
 20
20.83630944719296
 30
0.0
 11
24.32031179500366
 21
20.5044641825501
 31
0.0
  0
MTEXT
  5
FCB
330
F51
100
AcDbEntity
  8
10
100
AcDbMText
 10
32.58344652180156
 20
21.42968747085368
 30
0.0000000000000001
 40
0.1562500125
 41
1.444010532187499
 71
     2
 72
     5
  1
RED
  7
ACANSTS
 73
     1
 44
1.0
  0
MTEXT
  5
FCC
330
F51
100
AcDbEntity
  8
10
100
AcDbMText
 10
32.58344652180156
 20
20.76599694156796
 30
0.0000000000000001
 40
0.1562500125
 41
1.444010532187499
 71
     2
 72
     5
  1
Color
  7
ACANSTS
 73
     1
 44
1.0
  0
MTEXT
  5
FCD
330
F51
100
AcDbEntity
  8
10
100
AcDbMText
 10
32.58344652180156
 20
21.09784220621082
 30
0.0000000000000001
 40
0.1562500125
 41
1.444010532187499
 71
     2
 72
     5
  1
GREEN
  7
ACANSTS
 73
     1
 44
1.0
  0
MTEXT
  5
FCE
330
F51
100
AcDbEntity
  8
10
100
AcDbMText
 10
28.64006660486973
 20
20.33854155022868
 30
0.0000000000000001
 40
0.1562500125
 41
0.0
 71
     5
 72
     5
  1
PART DESCRIPTION (MOLD NUMBER)
  7
ACANSTS
 73
     1
 44
1.0
  0
MTEXT
  5
FCF
330
F51
100
AcDbEntity
  8
10
100
AcDbMText
 10
27.02775990713957
 20
20.76599694156796
 30
0.0000000000000001
 40
0.1562500125
 41
3.812500305
 71
     2
 72
     5
  1
Description
  7
ACANSTS
 73
     1
 44
1.0
  0
LINE
  5
FD0
330
F51
100
AcDbEntity
  8
10
100
AcDbLine
 10
31.68145046945353
 20
20.5044641825501
 30
0.0
 11
31.68145046945353
 21
21.49999997647868
 31
0.0
  0
LINE
  5
FD1
330
F51
100
AcDbEntity
  8
10
100
AcDbLine
 10
29.24711662839814
 20
21.49999997647868
 30
0.0
 11
29.24711662839814
 21
21.16815471183582
 31
0.0
  0
MTEXT
  5
FD2
330
F51
100
AcDbEntity
  8
10
100
AcDbMText
 10
30.58249204820353
 20
21.42968747085368
 30
0.0000000000000001
 40
0.1562500125
 41
2.104166835
 71
     2
 72
     5
  1
VALOX 357
  7
ACANSTS
 73
     1
 44
1.0
  0
MTEXT
  5
FD3
330
F51
100
AcDbEntity
  8
10
100
AcDbMText
 10
30.58249204820353
 20
20.76599694156796
 30
0.0000000000000001
 40
0.1562500125
 41
2.104166835
 71
     2
 72
     5
  1
Material
  7
ACANSTS
 73
     1
 44
1.0
  0
MTEXT
  5
FD4
330
F51
100
AcDbEntity
  8
10
100
AcDbMText
 10
30.58249204820353
 20
21.09784220621082
 30
0.0000000000000001
 40
0.1562500125
 41
2.104166835
 71
     2
 72
     5
  1
VALOX 357
  7
ACANSTS
 73
     1
 44
1.0
  0
LINE
  5
FD5
330
F51
100
AcDbEntity
  8
10
100
AcDbLine
 10
29.24711662839814
 20
21.16815471183582
 30
0.0
 11
29.24711662839814
 21
20.83630944719296
 31
0.0
  0
LINE
  5
FD6
330
F51
100
AcDbEntity
  8
10
100
AcDbLine
 10
29.24711662839814
 20
20.83630944719296
 30
0.0
 11
29.24711662839814
 21
20.5044641825501
 31
0.0
  0
LINE
  5
FD7
330
F51
100
AcDbEntity
  8
10
100
AcDbLine
 10
33.50000002937867
 20
21.49999997647868
 30
0.0
 11
33.50000002937867
 21
20.17261891790725
 31
0.0
  0
INSERT
  5
FD8
330
F51
100
AcDbEntity
  8
0
100
AcDbBlockReference
 66
     1
  2
Title Block
 10
26.50000002140035
 20
0.4999999818693315
 30
0.0
  0
ATTRIB
  5
FD9
330
FD8
100
AcDbEntity
  8
0
100
AcDbText
 10
29.15106279067219
 20
0.8158430476019251
 30
0.0
 40
0.125
  1
Your Name
  7
c3controls
 11
29.15106279067219
 21
0.8783430476019251
 31
0.0
100
AcDbAttribute
  2
NAME
 70
     0
 74
     2
  0
ATTRIB
  5
FDA
330
FD8
100
AcDbEntity
  8
0
100
AcDbText
 10
28.54562937461905
 20
1.666592913831872
 30
0.0
 40
0.125
  1
Description
  7
c3controls
100
AcDbAttribute
  2
DESCRIPTION
 70
     0
  0
ATTRIB
  5
FDB
330
FD8
100
AcDbEntity
  8
0
100
AcDbText
 10
31.34311665768099
 20
0.5394471522661864
 30
0.0
 40
0.25
  1
XX#XXXXX
  7
c3controls
 72
     1
 11
32.25554844485698
 21
0.6644471522661864
 31
0.0
100
AcDbAttribute
  2
XX#XXXXX
 70
     0
 74
     2
  0
ATTRIB
  5
FDC
330
FD8
100
AcDbEntity
  8
0
100
AcDbText
 10
30.53893200494167
 20
0.56575559687513
 30
0.0
 40
0.125
  1
1:1
  7
c3controls
 72
     1
 11
30.6603081986661
 21
0.62825559687513
 31
0.0
100
AcDbAttribute
  2
1:1
 70
     0
 74
     2
  0
ATTRIB
  5
FDD
330
FD8
100
AcDbEntity
  8
0
100
AcDbText
 10
28.8111225791743
 20
0.5631452061430427
 30
0.0
 40
0.125
  1
MM-DD-YYYY
  7
c3controls
 72
     1
 11
29.37379311123433
 21
0.6256452061430427
 31
0.0
100
AcDbAttribute
  2
DATE
 70
     0
 74
     2
  0
ATTRIB
  5
FDE
330
FD8
100
AcDbEntity
  8
0
100
AcDbText
 10
26.50000002937868
 20
0.4999999818693315
 30
0.0
 40
0.125
  1

  7
c3controls
100
AcDbAttribute
  2
OUTLINE_DRAWING
 70
     1
  0
SEQEND
  5
FDF
330
FD8
100
AcDbEntity
  8
0
  0
ENDBLK
  5
FE3
330
F51
100
AcDbEntity
  8
0
100
AcDbBlockEnd
  0
BLOCK
  5
1240
330
1234
100
AcDbEntity
  8
0
100
AcDbBlockBegin
  2
*D11
 70
     1
 10
0.0
 20
0.0
 30
0.0
  3
*D11
  1

  0
LINE
  5
16AC
330
1234
100
AcDbEntity
  8
L0
 62
     0
370
    -2
100
AcDbLine
 10
15.4747080832854
 20
17.18442122401558
 30
0.0
 11
14.23540983680268
 21
17.18442122401558
 31
0.0
  0
LINE
  5
16AD
330
1234
100
AcDbEntity
  8
L0
 62
     0
370
    -2
100
AcDbLine
 10
15.4747080832854
 20
14.49642122401559
 30
0.0
 11
14.23540983680268
 21
14.49642122401559
 31
0.0
  0
LINE
  5
16AE
330
1234
100
AcDbEntity
  8
L0
 62
     0
370
    -2
100
AcDbLine
 10
14.41540983680268
 20
17.05942122401558
 30
0.0
 11
14.41540983680268
 21
16.22767906849034
 31
0.0
  0
LINE
  5
16AF
330
1234
100
AcDbEntity
  8
L0
 62
     0
370
    -2
100
AcDbLine
 10
14.41540983680268
 20
14.62142122401559
 30
0.0
 11
14.41540983680268
 21
15.45316337954082
 31
0.0
  0
SOLID
  5
16B0
330
1234
100
AcDbEntity
  8
L0
 62
     0
100
AcDbTrace
 10
14.39457650346934
 20
17.05942122401558
 30
0.0
 11
14.43624317013601
 21
17.05942122401558
 31
0.0
 12
14.41540983680268
 22
17.18442122401558
 32
0.0
 13
14.41540983680268
 23
17.18442122401558
 33
0.0
  0
SOLID
  5
16B1
330
1234
100
AcDbEntity
  8
L0
 62
     0
100
AcDbTrace
 10
14.39457650346934
 20
14.62142122401559
 30
0.0
 11
14.43624317013601
 21
14.62142122401559
 31
0.0
 12
14.41540983680268
 22
14.49642122401559
 32
0.0
 13
14.41540983680268
 23
14.49642122401559
 33
0.0
  0
MTEXT
  5
16B2
330
1234
100
AcDbEntity
  8
L0
 62
     0
100
AcDbMText
 10
14.41540983680268
 20
16.02232436180549
 30
0.0
 40
0.18
 41
0.0
 71
     5
 72
     1
  1
\A1;68 mm
  7
outline drawings
 73
     1
 44
1.0
  0
MTEXT
  5
16B3
330
1234
100
AcDbEntity
  8
L0
 62
     0
100
AcDbMText
 10
14.41540983680268
 20
15.63506651733073
 30
0.0
 40
0.18
 41
0.0
 71
     5
 72
     1
  1
\A1;[2.69 in]
  7
outline drawings
 73
     1
 44
1.0
  0
POINT
  5
16B4
330
1234
100
AcDbEntity
  8
DEFPOINTS
 62
     0
100
AcDbPoint
 10
15.5372080832854
 20
17.18442122401558
 30
0.0
  0
POINT
  5
16B5
330
1234
100
AcDbEntity
  8
DEFPOINTS
 62
     0
100
AcDbPoint
 10
15.5372080832854
 20
14.49642122401559
 30
0.0
  0
POINT
  5
16B6
330
1234
100
AcDbEntity
  8
DEFPOINTS
 62
     0
100
AcDbPoint
 10
14.41540983680268
 20
14.49642122401559
 30
0.0
  0
ENDBLK
  5
1241
330
1234
100
AcDbEntity
  8
0
100
AcDbBlockEnd
  0
BLOCK
  5
124E
330
1242
100
AcDbEntity
  8
0
100
AcDbBlockBegin
  2
*D12
 70
     1
 10
0.0
 20
0.0
 30
0.0
  3
*D12
  1

  0
LINE
  5
1882
330
1242
100
AcDbEntity
  8
L0
 62
     0
370
    -2
100
AcDbLine
 10
9.969457760392231
 20
18.61149943935814
 30
0.0
 11
9.969457760392231
 21
17.59202125376687
 31
0.0
  0
LINE
  5
1883
330
1242
100
AcDbEntity
  8
L0
 62
     0
370
    -2
100
AcDbLine
 10
11.38745776039221
 20
18.61149943935813
 30
0.0
 11
11.38745776039221
 21
17.59202125376687
 31
0.0
  0
LINE
  5
1884
330
1242
100
AcDbEntity
  8
L0
 62
     0
370
    -2
100
AcDbLine
 10
9.844457760392231
 20
17.77202125376687
 30
0.0
 11
9.719457760392231
 21
17.77202125376687
 31
0.0
  0
LINE
  5
1885
330
1242
100
AcDbEntity
  8
L0
 62
     0
370
    -2
100
AcDbLine
 10
11.51245776039221
 20
17.77202125376687
 30
0.0
 11
11.63745776039221
 21
17.77202125376687
 31
0.0
  0
SOLID
  5
1886
330
1242
100
AcDbEntity
  8
L0
 62
     0
100
AcDbTrace
 10
9.844457760392231
 20
17.7928545871002
 30
0.0
 11
9.844457760392231
 21
17.75118792043353
 31
0.0
 12
9.969457760392231
 22
17.77202125376687
 32
0.0
 13
9.969457760392231
 23
17.77202125376687
 33
0.0
  0
SOLID
  5
1887
330
1242
100
AcDbEntity
  8
L0
 62
     0
100
AcDbTrace
 10
11.51245776039221
 20
17.7928545871002
 30
0.0
 11
11.51245776039221
 21
17.75118792043353
 31
0.0
 12
11.38745776039221
 22
17.77202125376687
 32
0.0
 13
11.38745776039221
 23
17.77202125376687
 33
0.0
  0
MTEXT
  5
1888
330
1242
100
AcDbEntity
  8
L0
 62
     0
100
AcDbMText
 10
10.67845776039222
 20
17.95398578309838
 30
0.0
 40
0.18
 41
0.0
 71
     5
 72
     1
  1
\A1;36 mm
  7
outline drawings
 73
     1
 44
1.0
  0
MTEXT
  5
1889
330
1242
100
AcDbEntity
  8
L0
 62
     0
100
AcDbMText
 10
10.67845776039222
 20
17.56666654708201
 30
0.0
 40
0.18
 41
0.0
 71
     5
 72
     1
  1
\A1;[1.42 in]
  7
outline drawings
 73
     1
 44
1.0
  0
POINT
  5
188A
330
1242
100
AcDbEntity
  8
DEFPOINTS
 62
     0
100
AcDbPoint
 10
9.969457760392231
 20
18.67399943935814
 30
0.0
  0
POINT
  5
188B
330
1242
100
AcDbEntity
  8
DEFPOINTS
 62
     0
100
AcDbPoint
 10
11.38745776039221
 20
18.67399943935813
 30
0.0
  0
POINT
  5
188C
330
1242
100
AcDbEntity
  8
DEFPOINTS
 62
     0
100
AcDbPoint
 10
11.38745776039221
 20
17.77202125376687
 30
0.0
  0
ENDBLK
  5
124F
330
1242
100
AcDbEntity
  8
0
100
AcDbBlockEnd
  0
BLOCK
  5
125C
330
1250
100
AcDbEntity
  8
0
100
AcDbBlockBegin
  2
*D13
 70
     1
 10
0.0
 20
0.0
 30
0.0
  3
*D13
  1

  0
LINE
  5
16C2
330
1250
100
AcDbEntity
  8
L0
 62
     0
370
    -2
100
AcDbLine
 10
11.62762617474887
 20
20.27009369083732
 30
0.0
 11
13.03883612983874
 21
20.27009369083732
 31
0.0
  0
LINE
  5
16C3
330
1250
100
AcDbEntity
  8
L0
 62
     0
370
    -2
100
AcDbLine
 10
11.64067626980595
 20
18.85209369083731
 30
0.0
 11
13.03883612983873
 21
18.85209369083731
 31
0.0
  0
LINE
  5
16C4
330
1250
100
AcDbEntity
  8
L0
 62
     0
370
    -2
100
AcDbLine
 10
12.85883612983873
 20
20.14509369083731
 30
0.0
 11
12.85883612983873
 21
19.94841292685368
 31
0.0
  0
LINE
  5
16C5
330
1250
100
AcDbEntity
  8
L0
 62
     0
370
    -2
100
AcDbLine
 10
12.85883612983873
 20
18.97709369083731
 30
0.0
 11
12.85883612983873
 21
19.17377445482094
 31
0.0
  0
SOLID
  5
16C6
330
1250
100
AcDbEntity
  8
L0
 62
     0
100
AcDbTrace
 10
12.8380027965054
 20
20.14509369083731
 30
0.0
 11
12.87966946317207
 21
20.14509369083731
 31
0.0
 12
12.85883612983873
 22
20.27009369083732
 32
0.0
 13
12.85883612983873
 23
20.27009369083732
 33
0.0
  0
SOLID
  5
16C7
330
1250
100
AcDbEntity
  8
L0
 62
     0
100
AcDbTrace
 10
12.8380027965054
 20
18.97709369083731
 30
0.0
 11
12.87966946317207
 21
18.97709369083731
 31
0.0
 12
12.85883612983873
 22
18.85209369083731
 32
0.0
 13
12.85883612983873
 23
18.85209369083731
 33
0.0
  0
MTEXT
  5
16C8
330
1250
100
AcDbEntity
  8
L0
 62
     0
100
AcDbMText
 10
12.85883612983873
 20
19.74305822016883
 30
0.0
 40
0.18
 41
0.0
 71
     5
 72
     1
  1
\A1;36 mm
  7
outline drawings
 73
     1
 44
1.0
  0
MTEXT
  5
16C9
330
1250
100
AcDbEntity
  8
L0
 62
     0
100
AcDbMText
 10
12.85883612983873
 20
19.35573898415246
 30
0.0
 40
0.18
 41
0.0
 71
     5
 72
     1
  1
\A1;[1.42 in]
  7
outline drawings
 73
     1
 44
1.0
  0
POINT
  5
16CA
330
1250
100
AcDbEntity
  8
DEFPOINTS
 62
     0
100
AcDbPoint
 10
11.56512617474887
 20
20.27009369083732
 30
0.0
  0
POINT
  5
16CB
330
1250
100
AcDbEntity
  8
DEFPOINTS
 62
     0
100
AcDbPoint
 10
11.57817626980595
 20
18.85209369083731
 30
0.0
  0
POINT
  5
16CC
330
1250
100
AcDbEntity
  8
DEFPOINTS
 62
     0
100
AcDbPoint
 10
12.85883612983873
 20
18.85209369083731
 30
0.0
  0
ENDBLK
  5
125D
330
1250
100
AcDbEntity
  8
0
100
AcDbBlockEnd
  0
BLOCK
  5
126B
330
125E
100
AcDbEntity
  8
0
100
AcDbBlockBegin
  2
*D14
 70
     1
 10
0.0
 20
0.0
 30
0.0
  3
*D14
  1

  0
LINE
  5
1899
330
125E
100
AcDbEntity
  8
L0
 62
     0
370
    -2
100
AcDbLine
 10
16.7112080832854
 20
14.06909615027138
 30
0.0
 11
16.71120808328539
 21
13.32525038456159
 31
0.0
  0
LINE
  5
189A
330
125E
100
AcDbEntity
  8
L0
 62
     0
370
    -2
100
AcDbLine
 10
18.40630161409514
 20
15.84042122401559
 30
0.0
 11
19.2263789227394
 21
15.84042122401559
 31
0.0
  0
ARC
  5
189B
330
125E
100
AcDbEntity
  8
L0
 62
     0
370
    -2
100
AcDbCircle
 10
16.7112080832854
 20
15.84042122401559
 30
0.0
 40
2.335170839454
100
AcDbArc
 50
273.0673677782715
 51
308.2789587584258
  0
ARC
  5
189C
330
125E
100
AcDbEntity
  8
L0
 62
     0
370
    -2
100
AcDbCircle
 10
16.7112080832854
 20
15.84042122401559
 30
0.0
 40
2.335170839454
100
AcDbArc
 50
321.0081649135249
 51
356.9326322217285
  0
SOLID
  5
189D
330
125E
100
AcDbEntity
  8
L0
 62
     0
100
AcDbTrace
 10
16.83672090025771
 20
13.48777009413343
 30
0.0
 11
16.83560570704672
 21
13.5294218342557
 31
0.0
 12
16.71120808328539
 22
13.50525038456159
 32
0.0
 13
16.71120808328539
 23
13.50525038456159
 33
0.0
  0
SOLID
  5
189E
330
125E
100
AcDbEntity
  8
L0
 62
     0
100
AcDbTrace
 10
19.02220747304528
 20
15.71602360025427
 30
0.0
 11
19.06385921316756
 21
15.71490840704328
 31
0.0
 12
19.0463789227394
 22
15.84042122401559
 32
0.0
 13
19.0463789227394
 23
15.84042122401559
 33
0.0
  0
MTEXT
  5
189F
330
125E
100
AcDbEntity
  8
L0
 62
     0
100
AcDbMText
 10
18.3624232190924
 20
14.18920608820858
 30
0.0
 40
0.18
 41
0.0
 71
     5
 72
     1
  1
\A1;90°
  7
outline drawings
 73
     1
 44
1.0
  0
POINT
  5
18A0
330
125E
100
AcDbEntity
  8
DEFPOINTS
 62
     0
100
AcDbPoint
 10
17.8787935030124
 20
13.81810395487179
 30
0.0
  0
POINT
  5
18A1
330
125E
100
AcDbEntity
  8
DEFPOINTS
 62
     0
100
AcDbPoint
 10
16.7112080832854
 20
17.44305594463757
 30
0.0
  0
POINT
  5
18A2
330
125E
100
AcDbEntity
  8
DEFPOINTS
 62
     0
100
AcDbPoint
 10
15.03003327883682
 20
15.84042122401559
 30
0.0
  0
POINT
  5
18A3
330
125E
100
AcDbEntity
  8
DEFPOINTS
 62
     0
100
AcDbPoint
 10
18.34380161409514
 20
15.84042122401559
 30
0.0
  0
POINT
  5
18A4
330
125E
100
AcDbEntity
  8
DEFPOINTS
 62
     0
100
AcDbPoint
 10
16.7112080832854
 20
14.13159615027138
 30
0.0
  0
ENDBLK
  5
126C
330
125E
100
AcDbEntity
  8
0
100
AcDbBlockEnd
  0
BLOCK
  5
1279
330
126D
100
AcDbEntity
  8
0
100
AcDbBlockBegin
  2
*D15
 70
     1
 10
0.0
 20
0.0
 30
0.0
  3
*D15
  1

  0
LINE
  5
16D9
330
126D
100
AcDbEntity
  8
L0
 62
     0
370
    -2
100
AcDbLine
 10
15.3672080832854
 20
17.07692122401559
 30
0.0
 11
15.3672080832854
 21
18.77507287216783
 31
0.0
  0
LINE
  5
16DA
330
126D
100
AcDbEntity
  8
L0
 62
     0
370
    -2
100
AcDbLine
 10
18.05520808328541
 20
17.07692122401559
 30
0.0
 11
18.05520808328541
 21
18.77507287216783
 31
0.0
  0
LINE
  5
16DB
330
126D
100
AcDbEntity
  8
L0
 62
     0
370
    -2
100
AcDbLine
 10
15.4922080832854
 20
18.59507287216784
 30
0.0
 11
16.19054641889249
 21
18.59507287216784
 31
0.0
  0
LINE
  5
16DC
330
126D
100
AcDbEntity
  8
L0
 62
     0
370
    -2
100
AcDbLine
 10
17.93020808328541
 20
18.59507287216784
 30
0.0
 11
17.23186974767831
 21
18.59507287216784
 31
0.0
  0
SOLID
  5
16DD
330
126D
100
AcDbEntity
  8
L0
 62
     0
100
AcDbTrace
 10
15.4922080832854
 20
18.61590620550117
 30
0.0
 11
15.4922080832854
 21
18.5742395388345
 31
0.0
 12
15.3672080832854
 22
18.59507287216784
 32
0.0
 13
15.3672080832854
 23
18.59507287216784
 33
0.0
  0
SOLID
  5
16DE
330
126D
100
AcDbEntity
  8
L0
 62
     0
100
AcDbTrace
 10
17.93020808328541
 20
18.61590620550117
 30
0.0
 11
17.93020808328541
 21
18.5742395388345
 31
0.0
 12
18.05520808328541
 22
18.59507287216784
 32
0.0
 13
18.05520808328541
 23
18.59507287216784
 33
0.0
  0
MTEXT
  5
16DF
330
126D
100
AcDbEntity
  8
L0
 62
     0
100
AcDbMText
 10
16.7112080832854
 20
18.77697600995774
 30
0.0
 40
0.18
 41
0.0
 71
     5
 72
     1
  1
\A1;68 mm
  7
outline drawings
 73
     1
 44
1.0
  0
MTEXT
  5
16E0
330
126D
100
AcDbEntity
  8
L0
 62
     0
100
AcDbMText
 10
16.7112080832854
 20
18.38971816548298
 30
0.0
 40
0.18
 41
0.0
 71
     5
 72
     1
  1
\A1;[2.69 in]
  7
outline drawings
 73
     1
 44
1.0
  0
POINT
  5
16E1
330
126D
100
AcDbEntity
  8
DEFPOINTS
 62
     0
100
AcDbPoint
 10
15.3672080832854
 20
17.01442122401559
 30
0.0
  0
POINT
  5
16E2
330
126D
100
AcDbEntity
  8
DEFPOINTS
 62
     0
100
AcDbPoint
 10
18.05520808328541
 20
17.01442122401559
 30
0.0
  0
POINT
  5
16E3
330
126D
100
AcDbEntity
  8
DEFPOINTS
 62
     0
100
AcDbPoint
 10
18.05520808328541
 20
18.59507287216784
 30
0.0
  0
ENDBLK
  5
127A
330
126D
100
AcDbEntity
  8
0
100
AcDbBlockEnd
  0
BLOCK
  5
1286
330
127B
100
AcDbEntity
  8
0
100
AcDbBlockBegin
  2
*D16
 70
     1
 10
0.0
 20
0.0
 30
0.0
  3
*D16
  1

  0
LINE
  5
16E4
330
127B
100
AcDbEntity
  8
L0
 62
     0
370
    -2
100
AcDbLine
 10
22.59380550771814
 20
12.48960986548472
 30
0.0
 11
22.59380550771814
 21
13.48423994565795
 31
0.0
  0
LINE
  5
16E5
330
127B
100
AcDbEntity
  8
L0
 62
     0
370
    -2
100
AcDbLine
 10
20.97580550771816
 20
15.03392122401559
 30
0.0
 11
20.97580550771816
 21
13.12423994565795
 31
0.0
  0
LINE
  5
16E6
330
127B
100
AcDbEntity
  8
L0
 62
     0
370
    -2
100
AcDbLine
 10
22.46880550771814
 20
13.30423994565795
 30
0.0
 11
22.34039895928704
 21
13.30423994565795
 31
0.0
  0
LINE
  5
16E7
330
127B
100
AcDbEntity
  8
L0
 62
     0
370
    -2
100
AcDbLine
 10
21.10080550771816
 20
13.30423994565795
 30
0.0
 11
21.22921205614925
 21
13.30423994565795
 31
0.0
  0
SOLID
  5
16E8
330
127B
100
AcDbEntity
  8
L0
 62
     0
100
AcDbTrace
 10
22.46880550771814
 20
13.32507327899128
 30
0.0
 11
22.46880550771814
 21
13.28340661232461
 31
0.0
 12
22.59380550771814
 22
13.30423994565795
 32
0.0
 13
22.59380550771814
 23
13.30423994565795
 33
0.0
  0
SOLID
  5
16E9
330
127B
100
AcDbEntity
  8
L0
 62
     0
100
AcDbTrace
 10
21.10080550771816
 20
13.32507327899128
 30
0.0
 11
21.10080550771816
 21
13.28340661232461
 31
0.0
 12
20.97580550771816
 22
13.30423994565795
 32
0.0
 13
20.97580550771816
 23
13.30423994565795
 33
0.0
  0
MTEXT
  5
16EA
330
127B
100
AcDbEntity
  8
L0
 62
     0
100
AcDbMText
 10
21.78480550771815
 20
13.30423994565795
 30
0.0
 40
0.18
 41
0.0
 71
     5
 72
     1
  1
\A1;41 mm\P [1.62 in]
  7
outline drawings
 73
     1
 44
1.0
  0
POINT
  5
16EB
330
127B
100
AcDbEntity
  8
DEFPOINTS
 62
     0
100
AcDbPoint
 10
22.59380550771814
 20
12.42710986548472
 30
0.0
  0
POINT
  5
16EC
330
127B
100
AcDbEntity
  8
DEFPOINTS
 62
     0
100
AcDbPoint
 10
20.97580550771816
 20
15.09642122401559
 30
0.0
  0
POINT
  5
16ED
330
127B
100
AcDbEntity
  8
DEFPOINTS
 62
     0
100
AcDbPoint
 10
20.97580550771816
 20
13.30423994565795
 30
0.0
  0
ENDBLK
  5
1287
330
127B
100
AcDbEntity
  8
0
100
AcDbBlockEnd
  0
BLOCK
  5
129F
330
1296
100
AcDbEntity
  8
0
100
AcDbBlockBegin
  2
*D18
 70
     1
 10
0.0
 20
0.0
 30
0.0
  3
*D18
  1

  0
LINE
  5
1A18
330
1296
100
AcDbEntity
  8
0
 62
     0
370
    -2
100
AcDbLine
 10
8.378790206707105
 20
20.8662950255575
 30
0.0
 11
8.503790206707174
 21
20.8662950255575
 31
0.0
  0
LINE
  5
1A19
330
1296
100
AcDbEntity
  8
0
 62
     0
370
    -2
100
AcDbLine
 10
8.503790206707174
 20
20.8662950255575
 30
0.0
 11
9.766830524858644
 21
20.3525179950201
 31
0.0
  0
MTEXT
  5
1A1A
330
1296
100
AcDbEntity
  8
0
 62
     0
100
AcDbMText
 10
7.725400029353766
 20
20.8662950255575
 30
0.0
 40
0.18
 41
0.0
 71
     5
 72
     1
  1
\A1;\U+22055 mm\P [\U+22050.19 in]\P{\H0.7x;\S3#16;}" Drill\P(4 Holes)
  7
outline drawings
 73
     1
 44
1.0
  0
SOLID
  5
1A1B
330
1296
100
AcDbEntity
  8
0
 62
     0
100
AcDbTrace
 10
9.774680458590339
 20
20.37181582697568
 30
0.0
 11
9.758980591126951
 21
20.33322016306453
 31
0.0
 12
9.882617516592119
 22
20.30541839262994
 32
0.0
 13
9.882617516592119
 23
20.30541839262994
 33
0.0
  0
LINE
  5
1A1C
330
1296
100
AcDbEntity
  8
0
 62
     0
370
    -2
100
AcDbLine
 10
9.879457760392229
 20
20.27009369083731
 30
0.0
 11
10.05945776039223
 21
20.2700936908373
 31
0.0
  0
LINE
  5
1A1D
330
1296
100
AcDbEntity
  8
0
 62
     0
370
    -2
100
AcDbLine
 10
9.969457760392231
 20
20.18009369083731
 30
0.0
 11
9.969457760392231
 21
20.3600936908373
 31
0.0
  0
POINT
  5
1A1E
330
1296
100
AcDbEntity
  8
DEFPOINTS
 62
     0
100
AcDbPoint
 10
9.882617516592119
 20
20.30541839262994
 30
0.0
  0
POINT
  5
1A1F
330
1296
100
AcDbEntity
  8
DEFPOINTS
 62
     0
100
AcDbPoint
 10
10.05629800419234
 20
20.23476898904468
 30
0.0
  0
ENDBLK
  5
12A0
330
1296
100
AcDbEntity
  8
0
100
AcDbBlockEnd
  0
BLOCK
  5
155A
330
154E
100
AcDbEntity
  8
0
100
AcDbBlockBegin
  2
*D20
 70
     1
 10
0.0
 20
0.0
 30
0.0
  3
*D20
  1

  0
LINE
  5
1857
330
154E
100
AcDbEntity
  8
0
 62
     0
370
    -2
100
AcDbLine
 10
10.53022482374971
 20
7.293333041875314
 30
0.0
 11
11.43779816487596
 21
7.293333041875314
 31
0.0
  0
LINE
  5
1858
330
154E
100
AcDbEntity
  8
0
 62
     0
370
    -2
100
AcDbLine
 10
10.61537731258916
 20
7.883333041875296
 30
0.0
 11
11.43779816487596
 21
7.883333041875296
 31
0.0
  0
LINE
  5
1859
330
154E
100
AcDbEntity
  8
0
 62
     0
370
    -2
100
AcDbLine
 10
11.25779816487597
 20
7.418333041875314
 30
0.0
 11
11.25779816487597
 21
7.758333041875296
 31
0.0
  0
LINE
  5
185A
330
154E
100
AcDbEntity
  8
0
 62
     0
370
    -2
100
AcDbLine
 10
11.25779816487597
 20
7.883333041875296
 30
0.0
 11
11.25779816487597
 21
8.774610796140768
 31
0.0
  0
LINE
  5
185B
330
154E
100
AcDbEntity
  8
0
 62
     0
370
    -2
100
AcDbLine
 10
11.25779816487597
 20
8.774610796140768
 30
0.0
 11
11.38279816487597
 21
8.774610796140768
 31
0.0
  0
SOLID
  5
185C
330
154E
100
AcDbEntity
  8
0
 62
     0
100
AcDbTrace
 10
11.23696483154263
 20
7.418333041875314
 30
0.0
 11
11.2786314982093
 21
7.418333041875314
 31
0.0
 12
11.25779816487597
 22
7.293333041875314
 32
0.0
 13
11.25779816487597
 23
7.293333041875314
 33
0.0
  0
SOLID
  5
185D
330
154E
100
AcDbEntity
  8
0
 62
     0
100
AcDbTrace
 10
11.23696483154263
 20
7.758333041875296
 30
0.0
 11
11.2786314982093
 21
7.758333041875296
 31
0.0
 12
11.25779816487597
 22
7.883333041875296
 32
0.0
 13
11.25779816487597
 23
7.883333041875296
 33
0.0
  0
MTEXT
  5
185E
330
154E
100
AcDbEntity
  8
0
 62
     0
100
AcDbMText
 10
11.93839161644486
 20
8.77461079614077
 30
0.0
 40
0.18
 41
0.0
 71
     5
 72
     1
  1
\A1;15 mm\P [0.59 in]
  7
outline drawings
 73
     1
 44
1.0
  0
POINT
  5
185F
330
154E
100
AcDbEntity
  8
DEFPOINTS
 62
     0
100
AcDbPoint
 10
10.46772482374971
 20
7.293333041875314
 30
0.0
  0
POINT
  5
1860
330
154E
100
AcDbEntity
  8
DEFPOINTS
 62
     0
100
AcDbPoint
 10
10.55287731258917
 20
7.883333041875296
 30
0.0
  0
POINT
  5
1861
330
154E
100
AcDbEntity
  8
DEFPOINTS
 62
     0
100
AcDbPoint
 10
11.25779816487597
 20
7.883333041875296
 30
0.0
  0
ENDBLK
  5
155B
330
154E
100
AcDbEntity
  8
0
100
AcDbBlockEnd
  0
BLOCK
  5
1567
330
155C
100
AcDbEntity
  8
0
100
AcDbBlockBegin
  2
*D21
 70
     1
 10
0.0
 20
0.0
 30
0.0
  3
*D21
  1

  0
LINE
  5
19D6
330
155C
100
AcDbEntity
  8
0
 62
     0
370
    -2
100
AcDbLine
 10
14.37740528946894
 20
7.293333041875307
 30
0.0
 11
12.8495450028219
 21
7.293333041875308
 31
0.0
  0
LINE
  5
19D7
330
155C
100
AcDbEntity
  8
0
 62
     0
370
    -2
100
AcDbLine
 10
14.37740528946893
 20
4.45333304187531
 30
0.0
 11
12.8495450028219
 21
4.453333041875311
 31
0.0
  0
LINE
  5
19D8
330
155C
100
AcDbEntity
  8
0
 62
     0
370
    -2
100
AcDbLine
 10
13.0295450028219
 20
7.168333041875308
 30
0.0
 11
13.0295450028219
 21
5.750825692685945
 31
0.0
  0
LINE
  5
19D9
330
155C
100
AcDbEntity
  8
0
 62
     0
370
    -2
100
AcDbLine
 10
13.0295450028219
 20
4.578333041875311
 30
0.0
 11
13.0295450028219
 21
5.039379580816913
 31
0.0
  0
SOLID
  5
19DA
330
155C
100
AcDbEntity
  8
0
 62
     0
100
AcDbTrace
 10
13.00871166948857
 20
7.168333041875308
 30
0.0
 11
13.05037833615524
 21
7.168333041875308
 31
0.0
 12
13.0295450028219
 22
7.293333041875308
 32
0.0
 13
13.0295450028219
 23
7.293333041875308
 33
0.0
  0
SOLID
  5
19DB
330
155C
100
AcDbEntity
  8
0
 62
     0
100
AcDbTrace
 10
13.00871166948857
 20
4.578333041875311
 30
0.0
 11
13.05037833615524
 21
4.578333041875311
 31
0.0
 12
13.0295450028219
 22
4.453333041875311
 32
0.0
 13
13.0295450028219
 23
4.453333041875311
 33
0.0
  0
MTEXT
  5
19DC
330
155C
100
AcDbEntity
  8
0
 62
     0
100
AcDbMText
 10
13.0295450028219
 20
5.395102636751431
 30
0.0
 40
0.18
 41
0.0
 71
     5
 72
     1
  1
\A1;72 mm\P [2.84 in]
  7
outline drawings
 73
     1
 44
1.0
  0
POINT
  5
19DD
330
155C
100
AcDbEntity
  8
DEFPOINTS
 62
     0
100
AcDbPoint
 10
14.43990528946894
 20
7.293333041875307
 30
0.0
  0
POINT
  5
19DE
330
155C
100
AcDbEntity
  8
DEFPOINTS
 62
     0
100
AcDbPoint
 10
14.43990528946893
 20
4.45333304187531
 30
0.0
  0
POINT
  5
19DF
330
155C
100
AcDbEntity
  8
DEFPOINTS
 62
     0
100
AcDbPoint
 10
13.0295450028219
 20
4.453333041875311
 30
0.0
  0
ENDBLK
  5
1568
330
155C
100
AcDbEntity
  8
0
100
AcDbBlockEnd
  0
BLOCK
  5
158E
330
1583
100
AcDbEntity
  8
0
100
AcDbBlockBegin
  2
*D22
 70
     1
 10
0.0
 20
0.0
 30
0.0
  3
*D22
  1

  0
LINE
  5
173D
330
1583
100
AcDbEntity
  8
0
 62
     0
370
    -2
100
AcDbLine
 10
8.44272482374972
 20
2.522521683344436
 30
0.0
 11
8.44272482374972
 21
3.517151763517667
 31
0.0
  0
LINE
  5
173E
330
1583
100
AcDbEntity
  8
0
 62
     0
370
    -2
100
AcDbLine
 10
6.824724823749733
 20
5.066833041875305
 30
0.0
 11
6.824724823749733
 21
3.157151763517667
 31
0.0
  0
LINE
  5
173F
330
1583
100
AcDbEntity
  8
0
 62
     0
370
    -2
100
AcDbLine
 10
8.31772482374972
 20
3.337151763517667
 30
0.0
 11
8.188175380531736
 21
3.337151763517667
 31
0.0
  0
LINE
  5
1740
330
1583
100
AcDbEntity
  8
0
 62
     0
370
    -2
100
AcDbLine
 10
6.949724823749733
 20
3.337151763517667
 30
0.0
 11
7.076988477393947
 21
3.337151763517667
 31
0.0
  0
SOLID
  5
1741
330
1583
100
AcDbEntity
  8
0
 62
     0
100
AcDbTrace
 10
8.31772482374972
 20
3.357985096851
 30
0.0
 11
8.31772482374972
 21
3.316318430184333
 31
0.0
 12
8.44272482374972
 22
3.337151763517667
 32
0.0
 13
8.44272482374972
 23
3.337151763517667
 33
0.0
  0
SOLID
  5
1742
330
1583
100
AcDbEntity
  8
0
 62
     0
100
AcDbTrace
 10
6.949724823749733
 20
3.357985096851
 30
0.0
 11
6.949724823749733
 21
3.316318430184333
 31
0.0
 12
6.824724823749733
 22
3.337151763517667
 32
0.0
 13
6.824724823749733
 23
3.337151763517667
 33
0.0
  0
MTEXT
  5
1743
330
1583
100
AcDbEntity
  8
0
 62
     0
100
AcDbMText
 10
7.632581928962842
 20
3.337151763517667
 30
0.0
 40
0.18
 41
0.0
 71
     5
 72
     1
  1
\A1;41 mm\P [1.62 in]
  7
outline drawings
 73
     1
 44
1.0
  0
POINT
  5
1744
330
1583
100
AcDbEntity
  8
DEFPOINTS
 62
     0
100
AcDbPoint
 10
8.44272482374972
 20
2.460021683344436
 30
0.0
  0
POINT
  5
1745
330
1583
100
AcDbEntity
  8
DEFPOINTS
 62
     0
100
AcDbPoint
 10
6.824724823749733
 20
5.129333041875305
 30
0.0
  0
POINT
  5
1746
330
1583
100
AcDbEntity
  8
DEFPOINTS
 62
     0
100
AcDbPoint
 10
6.824724823749733
 20
3.337151763517667
 30
0.0
  0
ENDBLK
  5
158F
330
1583
100
AcDbEntity
  8
0
100
AcDbBlockEnd
  0
BLOCK
  5
159B
330
1590
100
AcDbEntity
  8
0
100
AcDbBlockBegin
  2
*D23
 70
     1
 10
0.0
 20
0.0
 30
0.0
  3
*D23
  1

  0
LINE
  5
19E0
330
1590
100
AcDbEntity
  8
0
 62
     0
370
    -2
100
AcDbLine
 10
16.40744528946895
 20
7.94583304187531
 30
0.0
 11
16.40744528946895
 21
9.031065436023602
 31
0.0
  0
LINE
  5
19E1
330
1590
100
AcDbEntity
  8
0
 62
     0
370
    -2
100
AcDbLine
 10
17.11644528946895
 20
7.355833041875314
 30
0.0
 11
17.11644528946895
 21
9.031065436023602
 31
0.0
  0
LINE
  5
19E2
330
1590
100
AcDbEntity
  8
0
 62
     0
370
    -2
100
AcDbLine
 10
16.53244528946895
 20
8.851065436023603
 30
0.0
 11
16.99144528946895
 21
8.851065436023603
 31
0.0
  0
LINE
  5
19E3
330
1590
100
AcDbEntity
  8
0
 62
     0
370
    -2
100
AcDbLine
 10
17.11644528946895
 20
8.851065436023603
 30
0.0
 11
17.25513755218577
 21
8.851065436023603
 31
0.0
  0
SOLID
  5
19E4
330
1590
100
AcDbEntity
  8
0
 62
     0
100
AcDbTrace
 10
16.53244528946895
 20
8.871898769356937
 30
0.0
 11
16.53244528946895
 21
8.830232102690269
 31
0.0
 12
16.40744528946895
 22
8.851065436023603
 32
0.0
 13
16.40744528946895
 23
8.851065436023603
 33
0.0
  0
SOLID
  5
19E5
330
1590
100
AcDbEntity
  8
0
 62
     0
100
AcDbTrace
 10
16.99144528946895
 20
8.871898769356937
 30
0.0
 11
16.99144528946895
 21
8.830232102690269
 31
0.0
 12
17.11644528946895
 22
8.851065436023603
 32
0.0
 13
17.11644528946895
 23
8.851065436023603
 33
0.0
  0
MTEXT
  5
19E6
330
1590
100
AcDbEntity
  8
0
 62
     0
100
AcDbMText
 10
17.81073100375466
 20
8.851065436023603
 30
0.0
 40
0.18
 41
0.0
 71
     5
 72
     1
  1
\A1;18 mm\P [0.71 in]
  7
outline drawings
 73
     1
 44
1.0
  0
POINT
  5
19E7
330
1590
100
AcDbEntity
  8
DEFPOINTS
 62
     0
100
AcDbPoint
 10
16.40744528946895
 20
7.88333304187531
 30
0.0
  0
POINT
  5
19E8
330
1590
100
AcDbEntity
  8
DEFPOINTS
 62
     0
100
AcDbPoint
 10
17.11644528946895
 20
7.293333041875314
 30
0.0
  0
POINT
  5
19E9
330
1590
100
AcDbEntity
  8
DEFPOINTS
 62
     0
100
AcDbPoint
 10
17.11644528946895
 20
8.851065436023603
 30
0.0
  0
ENDBLK
  5
159C
330
1590
100
AcDbEntity
  8
0
100
AcDbBlockEnd
  0
BLOCK
  5
15A8
330
159D
100
AcDbEntity
  8
0
100
AcDbBlockBegin
  2
*D24
 70
     1
 10
0.0
 20
0.0
 30
0.0
  3
*D24
  1

  0
LINE
  5
1751
330
159D
100
AcDbEntity
  8
0
 62
     0
370
    -2
100
AcDbLine
 10
18.77334102999214
 20
5.101833041875309
 30
0.0
 11
18.77334102999214
 21
3.652422877978942
 31
0.0
  0
LINE
  5
1752
330
159D
100
AcDbEntity
  8
0
 62
     0
370
    -2
100
AcDbLine
 10
20.19134102999214
 20
5.101833041875309
 30
0.0
 11
20.19134102999214
 21
3.652422877978942
 31
0.0
  0
LINE
  5
1753
330
159D
100
AcDbEntity
  8
0
 62
     0
370
    -2
100
AcDbLine
 10
18.89834102999214
 20
3.832422877978942
 30
0.0
 11
20.06634102999214
 21
3.832422877978942
 31
0.0
  0
LINE
  5
1754
330
159D
100
AcDbEntity
  8
0
 62
     0
370
    -2
100
AcDbLine
 10
20.19134102999214
 20
3.832422877978942
 30
0.0
 11
20.81702199273615
 21
3.832422877978942
 31
0.0
  0
SOLID
  5
1755
330
159D
100
AcDbEntity
  8
0
 62
     0
100
AcDbTrace
 10
18.89834102999214
 20
3.853256211312275
 30
0.0
 11
18.89834102999214
 21
3.811589544645608
 31
0.0
 12
18.77334102999214
 22
3.832422877978942
 32
0.0
 13
18.77334102999214
 23
3.832422877978942
 33
0.0
  0
SOLID
  5
1756
330
159D
100
AcDbEntity
  8
0
 62
     0
100
AcDbTrace
 10
20.06634102999214
 20
3.853256211312275
 30
0.0
 11
20.06634102999214
 21
3.811589544645608
 31
0.0
 12
20.19134102999214
 22
3.832422877978942
 32
0.0
 13
20.19134102999214
 23
3.832422877978942
 33
0.0
  0
MTEXT
  5
1757
330
159D
100
AcDbEntity
  8
0
 62
     0
100
AcDbMText
 10
21.37261544430505
 20
3.832422877978942
 30
0.0
 40
0.18
 41
0.0
 71
     5
 72
     1
  1
\A1;36 mm\P [1.42 in]
  7
outline drawings
 73
     1
 44
1.0
  0
POINT
  5
1758
330
159D
100
AcDbEntity
  8
DEFPOINTS
 62
     0
100
AcDbPoint
 10
18.77334102999214
 20
5.164333041875309
 30
0.0
  0
POINT
  5
1759
330
159D
100
AcDbEntity
  8
DEFPOINTS
 62
     0
100
AcDbPoint
 10
20.19134102999214
 20
5.164333041875309
 30
0.0
  0
POINT
  5
175A
330
159D
100
AcDbEntity
  8
DEFPOINTS
 62
     0
100
AcDbPoint
 10
20.19134102999214
 20
3.832422877978942
 30
0.0
  0
ENDBLK
  5
15A9
330
159D
100
AcDbEntity
  8
0
100
AcDbBlockEnd
  0
BLOCK
  5
15B5
330
15AA
100
AcDbEntity
  8
0
100
AcDbBlockBegin
  2
*D25
 70
     1
 10
0.0
 20
0.0
 30
0.0
  3
*D25
  1

  0
LINE
  5
175B
330
15AA
100
AcDbEntity
  8
0
 62
     0
370
    -2
100
AcDbLine
 10
11.24072482374972
 20
5.105833041875307
 30
0.0
 11
11.24072482374972
 21
2.211533422916772
 31
0.0
  0
LINE
  5
175C
330
15AA
100
AcDbEntity
  8
0
 62
     0
370
    -2
100
AcDbLine
 10
8.562724823749718
 20
2.333786739024439
 30
0.0
 11
8.562724823749718
 21
2.211533422916772
 31
0.0
  0
LINE
  5
175D
330
15AA
100
AcDbEntity
  8
0
 62
     0
370
    -2
100
AcDbLine
 10
11.11572482374972
 20
2.391533422916772
 30
0.0
 11
10.50816404178827
 21
2.391533422916772
 31
0.0
  0
LINE
  5
175E
330
15AA
100
AcDbEntity
  8
0
 62
     0
370
    -2
100
AcDbLine
 10
8.687724823749718
 20
2.391533422916772
 30
0.0
 11
9.396977138650479
 21
2.391533422916772
 31
0.0
  0
SOLID
  5
175F
330
15AA
100
AcDbEntity
  8
0
 62
     0
100
AcDbTrace
 10
11.11572482374972
 20
2.412366756250106
 30
0.0
 11
11.11572482374972
 21
2.370700089583439
 31
0.0
 12
11.24072482374972
 22
2.391533422916772
 32
0.0
 13
11.24072482374972
 23
2.391533422916772
 33
0.0
  0
SOLID
  5
1760
330
15AA
100
AcDbEntity
  8
0
 62
     0
100
AcDbTrace
 10
8.687724823749718
 20
2.412366756250106
 30
0.0
 11
8.687724823749718
 21
2.370700089583439
 31
0.0
 12
8.562724823749718
 22
2.391533422916772
 32
0.0
 13
8.562724823749718
 23
2.391533422916772
 33
0.0
  0
MTEXT
  5
1761
330
15AA
100
AcDbEntity
  8
0
 62
     0
100
AcDbMText
 10
9.952570590219373
 20
2.391533422916772
 30
0.0
 40
0.18
 41
0.0
 71
     5
 72
     1
  1
\A1;68 mm\P [2.68 in]
  7
outline drawings
 73
     1
 44
1.0
  0
POINT
  5
1762
330
15AA
100
AcDbEntity
  8
DEFPOINTS
 62
     0
100
AcDbPoint
 10
11.24072482374972
 20
5.168333041875307
 30
0.0
  0
POINT
  5
1763
330
15AA
100
AcDbEntity
  8
DEFPOINTS
 62
     0
100
AcDbPoint
 10
8.562724823749718
 20
2.396286739024439
 30
0.0
  0
POINT
  5
1764
330
15AA
100
AcDbEntity
  8
DEFPOINTS
 62
     0
100
AcDbPoint
 10
8.562724823749718
 20
2.391533422916772
 30
0.0
  0
ENDBLK
  5
15B6
330
15AA
100
AcDbEntity
  8
0
100
AcDbBlockEnd
  0
BLOCK
  5
15CD
330
15C4
100
AcDbEntity
  8
0
100
AcDbBlockBegin
  2
*D26
 70
     1
 10
0.0
 20
0.0
 30
0.0
  3
*D26
  1

  0
LINE
  5
19AC
330
15C4
100
AcDbEntity
  8
0
 62
     0
370
    -2
100
AcDbLine
 10
21.81887673737988
 20
7.886105197413551
 30
0.0
 11
21.69387673737988
 21
7.886105197413553
 31
0.0
  0
LINE
  5
19AD
330
15C4
100
AcDbEntity
  8
0
 62
     0
370
    -2
100
AcDbLine
 10
21.69387673737988
 20
7.886105197413553
 30
0.0
 11
20.33749104177185
 21
6.709149539448753
 31
0.0
  0
MTEXT
  5
19AE
330
15C4
100
AcDbEntity
  8
0
 62
     0
100
AcDbMText
 10
22.47226691473322
 20
7.886105197413549
 30
0.0
 40
0.18
 41
0.0
 71
     5
 72
     1
  1
\A1;\U+22053.5 mm\P [\U+22050.14 in]\P(4 Places)
  7
outline drawings
 73
     1
 44
1.0
  0
SOLID
  5
19AF
330
15C4
100
AcDbEntity
  8
0
 62
     0
100
AcDbTrace
 10
20.32383724143018
 20
6.724884898167498
 30
0.0
 11
20.35114484211352
 21
6.693414180730009
 31
0.0
 12
20.24307888945938
 22
6.627226737398724
 32
0.0
 13
20.24307888945938
 23
6.627226737398724
 33
0.0
  0
LINE
  5
19B0
330
15C4
100
AcDbEntity
  8
0
 62
     0
370
    -2
100
AcDbLine
 10
20.10134102999214
 20
6.5823330418753
 30
0.0
 11
20.28134102999214
 21
6.582333041875301
 31
0.0
  0
LINE
  5
19B1
330
15C4
100
AcDbEntity
  8
0
 62
     0
370
    -2
100
AcDbLine
 10
20.19134102999215
 20
6.492333041875301
 30
0.0
 11
20.19134102999214
 21
6.6723330418753
 31
0.0
  0
POINT
  5
19B2
330
15C4
100
AcDbEntity
  8
DEFPOINTS
 62
     0
100
AcDbPoint
 10
20.24307888945938
 20
6.627226737398724
 30
0.0
  0
POINT
  5
19B3
330
15C4
100
AcDbEntity
  8
DEFPOINTS
 62
     0
100
AcDbPoint
 10
20.13960317052491
 20
6.537439346351878
 30
0.0
  0
ENDBLK
  5
15CE
330
15C4
100
AcDbEntity
  8
0
100
AcDbBlockEnd
  0
BLOCK
  5
19A2
330
1996
100
AcDbEntity
  8
0
100
AcDbBlockBegin
  2
*D27
 70
     1
 10
0.0
 20
0.0
 30
0.0
  3
*D27
  1

  0
LINE
  5
1997
330
1996
100
AcDbEntity
  8
0
 62
     0
370
    -2
100
AcDbLine
 10
20.25384102999214
 20
6.582333041875308
 30
0.0
 11
22.17001753092041
 21
6.582333041875307
 31
0.0
  0
LINE
  5
1998
330
1996
100
AcDbEntity
  8
0
 62
     0
370
    -2
100
AcDbLine
 10
20.25384102999214
 20
5.164333041875309
 30
0.0
 11
22.17001753092041
 21
5.164333041875308
 31
0.0
  0
LINE
  5
1999
330
1996
100
AcDbEntity
  8
0
 62
     0
370
    -2
100
AcDbLine
 10
21.99001753092041
 20
6.457333041875308
 30
0.0
 11
21.99001753092041
 21
6.26065227789168
 31
0.0
  0
LINE
  5
199A
330
1996
100
AcDbEntity
  8
0
 62
     0
370
    -2
100
AcDbLine
 10
21.99001753092041
 20
5.289333041875309
 30
0.0
 11
21.99001753092041
 21
5.486013805858937
 31
0.0
  0
SOLID
  5
199B
330
1996
100
AcDbEntity
  8
0
 62
     0
100
AcDbTrace
 10
21.96918419758708
 20
6.457333041875308
 30
0.0
 11
22.01085086425374
 21
6.457333041875307
 31
0.0
 12
21.99001753092041
 22
6.582333041875308
 32
0.0
 13
21.99001753092041
 23
6.582333041875308
 33
0.0
  0
SOLID
  5
199C
330
1996
100
AcDbEntity
  8
0
 62
     0
100
AcDbTrace
 10
21.96918419758708
 20
5.289333041875309
 30
0.0
 11
22.01085086425374
 21
5.289333041875308
 31
0.0
 12
21.99001753092041
 22
5.164333041875309
 32
0.0
 13
21.99001753092041
 23
5.164333041875309
 33
0.0
  0
MTEXT
  5
199D
330
1996
100
AcDbEntity
  8
0
 62
     0
100
AcDbMText
 10
21.99001753092041
 20
6.055297571206826
 30
0.0
 40
0.18
 41
0.0
 71
     5
 72
     1
  1
\A1;36 mm
  7
outline drawings
 73
     1
 44
1.0
  0
MTEXT
  5
199E
330
1996
100
AcDbEntity
  8
0
 62
     0
100
AcDbMText
 10
21.99001753092041
 20
5.667978335190455
 30
0.0
 40
0.18
 41
0.0
 71
     5
 72
     1
  1
\A1;[1.42 in]
  7
outline drawings
 73
     1
 44
1.0
  0
POINT
  5
199F
330
1996
100
AcDbEntity
  8
DEFPOINTS
 62
     0
100
AcDbPoint
 10
20.19134102999214
 20
6.582333041875308
 30
0.0
  0
POINT
  5
19A0
330
1996
100
AcDbEntity
  8
DEFPOINTS
 62
     0
100
AcDbPoint
 10
20.19134102999214
 20
5.164333041875309
 30
0.0
  0
POINT
  5
19A1
330
1996
100
AcDbEntity
  8
DEFPOINTS
 62
     0
100
AcDbPoint
 10
21.99001753092041
 20
5.164333041875309
 30
0.0
  0
ENDBLK
  5
19A3
330
1996
100
AcDbEntity
  8
0
100
AcDbBlockEnd
  0
BLOCK
  5
19F7
330
19EB
100
AcDbEntity
  8
0
100
AcDbBlockBegin
  2
*D28
 70
     1
 10
0.0
 20
0.0
 30
0.0
  3
*D28
  1

  0
LINE
  5
19EC
330
19EB
100
AcDbEntity
  8
0
 62
     0
370
    -2
100
AcDbLine
 10
14.43990528946894
 20
7.94583304187531
 30
0.0
 11
14.43990528946894
 21
9.633298334102718
 31
0.0
  0
LINE
  5
19ED
330
19EB
100
AcDbEntity
  8
0
 62
     0
370
    -2
100
AcDbLine
 10
16.40744528946896
 20
7.94583304187531
 30
0.0
 11
16.40744528946896
 21
9.633298334102718
 31
0.0
  0
LINE
  5
19EE
330
19EB
100
AcDbEntity
  8
0
 62
     0
370
    -2
100
AcDbLine
 10
14.56490528946894
 20
9.453298334102719
 30
0.0
 11
14.90301362507604
 21
9.453298334102719
 31
0.0
  0
LINE
  5
19EF
330
19EB
100
AcDbEntity
  8
0
 62
     0
370
    -2
100
AcDbLine
 10
16.28244528946896
 20
9.453298334102719
 30
0.0
 11
15.94433695386185
 21
9.453298334102719
 31
0.0
  0
SOLID
  5
19F0
330
19EB
100
AcDbEntity
  8
0
 62
     0
100
AcDbTrace
 10
14.56490528946894
 20
9.474131667436052
 30
0.0
 11
14.56490528946894
 21
9.432465000769385
 31
0.0
 12
14.43990528946894
 22
9.453298334102719
 32
0.0
 13
14.43990528946894
 23
9.453298334102719
 33
0.0
  0
SOLID
  5
19F1
330
19EB
100
AcDbEntity
  8
0
 62
     0
100
AcDbTrace
 10
16.28244528946896
 20
9.474131667436052
 30
0.0
 11
16.28244528946896
 21
9.432465000769385
 31
0.0
 12
16.40744528946896
 22
9.453298334102719
 32
0.0
 13
16.40744528946896
 23
9.453298334102719
 33
0.0
  0
MTEXT
  5
19F2
330
19EB
100
AcDbEntity
  8
0
 62
     0
100
AcDbMText
 10
15.42367528946895
 20
9.635201471892623
 30
0.0
 40
0.18
 41
0.0
 71
     5
 72
     1
  1
\A1;50 mm
  7
outline drawings
 73
     1
 44
1.0
  0
MTEXT
  5
19F3
330
19EB
100
AcDbEntity
  8
0
 62
     0
100
AcDbMText
 10
15.42367528946895
 20
9.247943627417862
 30
0.0
 40
0.18
 41
0.0
 71
     5
 72
     1
  1
\A1;[1.97 in]
  7
outline drawings
 73
     1
 44
1.0
  0
POINT
  5
19F4
330
19EB
100
AcDbEntity
  8
DEFPOINTS
 62
     0
100
AcDbPoint
 10
14.43990528946894
 20
7.88333304187531
 30
0.0
  0
POINT
  5
19F5
330
19EB
100
AcDbEntity
  8
DEFPOINTS
 62
     0
100
AcDbPoint
 10
16.40744528946896
 20
7.88333304187531
 30
0.0
  0
POINT
  5
19F6
330
19EB
100
AcDbEntity
  8
DEFPOINTS
 62
     0
100
AcDbPoint
 10
16.40744528946896
 20
9.453298334102719
 30
0.0
  0
ENDBLK
  5
19F8
330
19EB
100
AcDbEntity
  8
0
100
AcDbBlockEnd
  0
BLOCK
  5
1A06
330
19FA
100
AcDbEntity
  8
0
100
AcDbBlockBegin
  2
*D29
 70
     1
 10
0.0
 20
0.0
 30
0.0
  3
*D29
  1

  0
LINE
  5
19FB
330
19FA
100
AcDbEntity
  8
0
 62
     0
370
    -2
100
AcDbLine
 10
14.43990528946894
 20
7.94583304187531
 30
0.0
 11
14.43990528946894
 21
9.620655006532075
 31
0.0
  0
LINE
  5
19FC
330
19FA
100
AcDbEntity
  8
0
 62
     0
370
    -2
100
AcDbLine
 10
13.72990528946894
 20
7.120833041875314
 30
0.0
 11
13.72990528946894
 21
9.620655006532075
 31
0.0
  0
LINE
  5
19FD
330
19FA
100
AcDbEntity
  8
0
 62
     0
370
    -2
100
AcDbLine
 10
14.31490528946894
 20
9.440655006532075
 30
0.0
 11
13.85490528946894
 21
9.440655006532075
 31
0.0
  0
LINE
  5
19FE
330
19FA
100
AcDbEntity
  8
0
 62
     0
370
    -2
100
AcDbLine
 10
13.72990528946894
 20
9.440655006532075
 30
0.0
 11
13.60490528946894
 21
9.440655006532075
 31
0.0
  0
SOLID
  5
19FF
330
19FA
100
AcDbEntity
  8
0
 62
     0
100
AcDbTrace
 10
14.31490528946894
 20
9.461488339865409
 30
0.0
 11
14.31490528946894
 21
9.419821673198741
 31
0.0
 12
14.43990528946894
 22
9.440655006532075
 32
0.0
 13
14.43990528946894
 23
9.440655006532075
 33
0.0
  0
SOLID
  5
1A00
330
19FA
100
AcDbEntity
  8
0
 62
     0
100
AcDbTrace
 10
13.85490528946894
 20
9.461488339865409
 30
0.0
 11
13.85490528946894
 21
9.419821673198741
 31
0.0
 12
13.72990528946894
 22
9.440655006532075
 32
0.0
 13
13.72990528946894
 23
9.440655006532075
 33
0.0
  0
MTEXT
  5
1A01
330
19FA
100
AcDbEntity
  8
0
 62
     0
100
AcDbMText
 10
13.08424362507603
 20
9.622558144321979
 30
0.0
 40
0.18
 41
0.0
 71
     5
 72
     1
  1
\A1;18 mm
  7
outline drawings
 73
     1
 44
1.0
  0
MTEXT
  5
1A02
330
19FA
100
AcDbEntity
  8
0
 62
     0
100
AcDbMText
 10
13.08424362507603
 20
9.235300299847219
 30
0.0
 40
0.18
 41
0.0
 71
     5
 72
     1
  1
\A1;[0.71 in]
  7
outline drawings
 73
     1
 44
1.0
  0
POINT
  5
1A03
330
19FA
100
AcDbEntity
  8
DEFPOINTS
 62
     0
100
AcDbPoint
 10
14.43990528946894
 20
7.88333304187531
 30
0.0
  0
POINT
  5
1A04
330
19FA
100
AcDbEntity
  8
DEFPOINTS
 62
     0
100
AcDbPoint
 10
13.72990528946894
 20
7.058333041875314
 30
0.0
  0
POINT
  5
1A05
330
19FA
100
AcDbEntity
  8
DEFPOINTS
 62
     0
100
AcDbPoint
 10
13.72990528946894
 20
9.440655006532075
 30
0.0
  0
ENDBLK
  5
1A07
330
19FA
100
AcDbEntity
  8
0
100
AcDbBlockEnd
  0
BLOCK
  5
1A16
330
1A0A
100
AcDbEntity
  8
0
100
AcDbBlockBegin
  2
*D30
 70
     1
 10
0.0
 20
0.0
 30
0.0
  3
*D30
  1

  0
LINE
  5
1A0B
330
1A0A
100
AcDbEntity
  8
0
 62
     0
370
    -2
100
AcDbLine
 10
8.562724823749718
 20
4.866433041875311
 30
0.0
 11
8.562724823749718
 21
3.264659173411104
 31
0.0
  0
LINE
  5
1A0C
330
1A0A
100
AcDbEntity
  8
0
 62
     0
370
    -2
100
AcDbLine
 10
10.78009482374972
 20
5.105833041875307
 30
0.0
 11
10.78009482374972
 21
3.264659173411104
 31
0.0
  0
LINE
  5
1A0D
330
1A0A
100
AcDbEntity
  8
0
 62
     0
370
    -2
100
AcDbLine
 10
8.687724823749718
 20
3.444659173411103
 30
0.0
 11
9.150748159356814
 21
3.444659173411103
 31
0.0
  0
LINE
  5
1A0E
330
1A0A
100
AcDbEntity
  8
0
 62
     0
370
    -2
100
AcDbLine
 10
10.65509482374972
 20
3.444659173411103
 30
0.0
 11
10.19207148814262
 21
3.444659173411103
 31
0.0
  0
SOLID
  5
1A0F
330
1A0A
100
AcDbEntity
  8
0
 62
     0
100
AcDbTrace
 10
8.687724823749718
 20
3.465492506744437
 30
0.0
 11
8.687724823749718
 21
3.42382584007777
 31
0.0
 12
8.562724823749718
 22
3.444659173411103
 32
0.0
 13
8.562724823749718
 23
3.444659173411103
 33
0.0
  0
SOLID
  5
1A10
330
1A0A
100
AcDbEntity
  8
0
 62
     0
100
AcDbTrace
 10
10.65509482374972
 20
3.465492506744437
 30
0.0
 11
10.65509482374972
 21
3.42382584007777
 31
0.0
 12
10.78009482374972
 22
3.444659173411103
 32
0.0
 13
10.78009482374972
 23
3.444659173411103
 33
0.0
  0
MTEXT
  5
1A11
330
1A0A
100
AcDbEntity
  8
0
 62
     0
100
AcDbMText
 10
9.671409823749719
 20
3.626562311201008
 30
0.0
 40
0.18
 41
0.0
 71
     5
 72
     1
  1
\A1;56 mm
  7
outline drawings
 73
     1
 44
1.0
  0
MTEXT
  5
1A12
330
1A0A
100
AcDbEntity
  8
0
 62
     0
100
AcDbMText
 10
9.671409823749719
 20
3.239304466726247
 30
0.0
 40
0.18
 41
0.0
 71
     5
 72
     1
  1
\A1;[2.22 in]
  7
outline drawings
 73
     1
 44
1.0
  0
POINT
  5
1A13
330
1A0A
100
AcDbEntity
  8
DEFPOINTS
 62
     0
100
AcDbPoint
 10
8.562724823749718
 20
4.928933041875311
 30
0.0
  0
POINT
  5
1A14
330
1A0A
100
AcDbEntity
  8
DEFPOINTS
 62
     0
100
AcDbPoint
 10
10.78009482374972
 20
5.168333041875307
 30
0.0
  0
POINT
  5
1A15
330
1A0A
100
AcDbEntity
  8
DEFPOINTS
 62
     0
100
AcDbPoint
 10
10.78009482374972
 20
3.444659173411103
 30
0.0
  0
ENDBLK
  5
1A17
330
1A0A
100
AcDbEntity
  8
0
100
AcDbBlockEnd
  0
BLOCK
  5
1A51
330
1A49
100
AcDbEntity
  8
0
100
AcDbBlockBegin
  2
*D31
 70
     1
 10
0.0
 20
0.0
 30
0.0
  3
*D31
  1

  0
LINE
  5
1A53
330
1A49
100
AcDbEntity
  8
0
 62
     0
370
    -2
100
AcDbLine
 10
7.911363899865246
 20
19.2747666457977
 30
0.0
 11
10.27461402687162
 21
19.51930566747959
 31
0.0
  0
MTEXT
  5
1A54
330
1A49
100
AcDbEntity
  8
0
 62
     0
100
AcDbMText
 10
6.68850578253919
 20
19.2747666457977
 30
0.0
 40
0.18
 41
0.0
 71
     5
 72
     1
  1
\A1;\U+220514 mm\P [\U+22050.56 in]\PCLEARANCE HOLE\PFOR SHAFT
  7
outline drawings
 73
     1
 44
1.0
  0
SOLID
  5
1A55
330
1A49
100
AcDbEntity
  8
0
 62
     0
100
AcDbTrace
 10
10.27246973174859
 20
19.54002835495499
 30
0.0
 11
10.27675832199466
 21
19.49858298000419
 31
0.0
 12
10.39895015172402
 22
19.5321714382178
 32
0.0
 13
10.39895015172402
 23
19.5321714382178
 33
0.0
  0
LINE
  5
1A56
330
1A49
100
AcDbEntity
  8
0
 62
     0
370
    -2
100
AcDbLine
 10
10.58845776039222
 20
19.56109369083731
 30
0.0
 11
10.76845776039222
 21
19.56109369083731
 31
0.0
  0
LINE
  5
1A57
330
1A49
100
AcDbEntity
  8
0
 62
     0
370
    -2
100
AcDbLine
 10
10.67845776039222
 20
19.47109369083731
 30
0.0
 11
10.67845776039222
 21
19.65109369083731
 31
0.0
  0
POINT
  5
1A58
330
1A49
100
AcDbEntity
  8
DEFPOINTS
 62
     0
100
AcDbPoint
 10
10.39895015172402
 20
19.5321714382178
 30
0.0
  0
POINT
  5
1A59
330
1A49
100
AcDbEntity
  8
DEFPOINTS
 62
     0
100
AcDbPoint
 10
10.95796536906041
 20
19.59001594345682
 30
0.0
  0
ENDBLK
  5
1A52
330
1A49
100
AcDbEntity
  8
0
100
AcDbBlockEnd
  0
ENDSEC
  0
SECTION
  2
ENTITIES
  0
MTEXT
  5
9C6
330
19
100
AcDbEntity
  8
0
100
AcDbMText
 10
33.76033212554395
 20
26.11481778582533
 30
0.0
 40
0.18
 41
0.0
 71
     9
 72
     1
  1

 73
     1
 44
1.0
  0
DIMENSION
  5
11BC
330
19
100
AcDbEntity
  8
0
100
AcDbDimension
  2
*D11
 10
14.41540983680268
 20
14.49642122401559
 30
0.0
 11
14.41540983680268
 21
15.84042122401559
 31
0.0
 70
    32
  1
<>[]
 71
     5
 42
68.27519999999997
  3
Outline Drawings
100
AcDbAlignedDimension
 13
15.5372080832854
 23
17.18442122401558
 33
0.0
 14
15.5372080832854
 24
14.49642122401559
 34
0.0
 50
90.0
100
AcDbRotatedDimension
  0
LINE
  5
11BD
330
19
100
AcDbEntity
  8
0
  6
CENTER2
100
AcDbLine
 10
10.67845776039222
 20
17.28096294916389
 30
0.0
 11
10.67845776039222
 21
14.39987949886728
 31
0.0
  0
LINE
  5
11BE
330
19
100
AcDbEntity
  8
0
 62
     7
100
AcDbLine
 10
11.92245776039223
 20
16.88442122401558
 30
0.0
 11
11.92245776039222
 21
14.79642122401559
 31
0.0
  0
LINE
  5
11BF
330
19
100
AcDbEntity
  8
0
 62
     7
100
AcDbLine
 10
9.43445776039222
 20
16.88442122401558
 30
0.0
 11
9.434457760392213
 21
14.79642122401559
 31
0.0
  0
CIRCLE
  5
11C0
330
19
100
AcDbEntity
  8
0
100
AcDbCircle
 10
10.67845776039222
 20
15.84042122401559
 30
0.0
 40
0.8349999999999999
  0
LINE
  5
11C1
330
19
100
AcDbEntity
  8
0
 62
     7
100
AcDbLine
 10
9.634457760392216
 20
14.59642122401559
 30
0.0
 11
11.72245776039221
 21
14.59642122401559
 31
0.0
  0
LINE
  5
11C2
330
19
100
AcDbEntity
  8
0
 62
     7
100
AcDbLine
 10
9.634457760392216
 20
14.59642122401559
 30
0.0
 11
9.434457760392213
 21
14.79642122401559
 31
0.0
  0
LINE
  5
11C3
330
19
100
AcDbEntity
  8
0
 62
     7
100
AcDbLine
 10
11.92245776039222
 20
14.79642122401559
 30
0.0
 11
11.72245776039221
 21
14.59642122401559
 31
0.0
  0
LINE
  5
11C4
330
19
100
AcDbEntity
  8
0
  6
CENTER2
100
AcDbLine
 10
9.094856985814388
 20
15.84042122401559
 30
0.0
 11
12.26205853497005
 21
15.84042122401559
 31
0.0
  0
LINE
  5
11C5
330
19
100
AcDbEntity
  8
0
  6
CENTER2
100
AcDbLine
 10
11.38745776039222
 20
20.4481879423165
 30
0.0
 11
11.38745776039221
 21
18.67399943935813
 31
0.0
  0
LINE
  5
11C6
330
19
100
AcDbEntity
  8
0
  6
CENTER2
100
AcDbLine
 10
9.969457760392231
 20
20.44818794231648
 30
0.0
 11
9.969457760392231
 21
18.67399943935814
 31
0.0
  0
LINE
  5
11C7
330
19
100
AcDbEntity
  8
0
 62
     7
100
AcDbLine
 10
11.72245776039223
 20
17.08442122401559
 30
0.0
 11
11.92245776039223
 21
16.88442122401558
 31
0.0
  0
LINE
  5
11C8
330
19
100
AcDbEntity
  8
0
 62
     7
100
AcDbLine
 10
9.43445776039222
 20
16.88442122401558
 30
0.0
 11
9.634457760392223
 21
17.08442122401559
 31
0.0
  0
LINE
  5
11C9
330
19
100
AcDbEntity
  8
0
100
AcDbLine
 10
9.968457760392219
 20
16.07242122401559
 30
0.0
 11
11.38845776039222
 21
16.07242122401559
 31
0.0
  0
LINE
  5
11CA
330
19
100
AcDbEntity
  8
0
100
AcDbLine
 10
9.968457760392219
 20
15.60842122401558
 30
0.0
 11
11.38845776039222
 21
15.60842122401558
 31
0.0
  0
ARC
  5
11CB
330
19
100
AcDbEntity
  8
0
100
AcDbCircle
 10
9.968457760392219
 20
15.98242122401559
 30
0.0
 40
0.09
100
AcDbArc
 50
90.0
 51
180.0
  0
ARC
  5
11CC
330
19
100
AcDbEntity
  8
0
100
AcDbCircle
 10
9.968457760392219
 20
15.69842122401558
 30
0.0
 40
0.09
100
AcDbArc
 50
180.0
 51
270.0
  0
LINE
  5
11CD
330
19
100
AcDbEntity
  8
0
100
AcDbLine
 10
9.878457760392223
 20
15.98242122401559
 30
0.0
 11
9.878457760392223
 21
15.69842122401558
 31
0.0
  0
LINE
  5
11CE
330
19
100
AcDbEntity
  8
0
100
AcDbLine
 10
9.929979771093513
 20
15.84042122401558
 30
0.0
 11
10.0694822351207
 21
15.9209630091743
 31
0.0
  0
LINE
  5
11CF
330
19
100
AcDbEntity
  8
0
100
AcDbLine
 10
9.929979771093513
 20
15.84042122401558
 30
0.0
 11
10.0694822351207
 21
15.75987943885687
 31
0.0
  0
LINE
  5
11D0
330
19
100
AcDbEntity
  8
0
100
AcDbLine
 10
10.0694822351207
 20
15.9209630091743
 30
0.0
 11
10.0694822351207
 21
15.75987943885687
 31
0.0
  0
ARC
  5
11D1
330
19
100
AcDbEntity
  8
0
100
AcDbCircle
 10
11.38845776039222
 20
15.98242122401559
 30
0.0
 40
0.09
100
AcDbArc
 50
0.0
 51
90.0
  0
ARC
  5
11D2
330
19
100
AcDbEntity
  8
0
100
AcDbCircle
 10
11.38845776039222
 20
15.69842122401558
 30
0.0
 40
0.09
100
AcDbArc
 50
270.0
 51
0.0
  0
LINE
  5
11D3
330
19
100
AcDbEntity
  8
0
100
AcDbLine
 10
11.47845776039221
 20
15.98242122401559
 30
0.0
 11
11.47845776039221
 21
15.69842122401558
 31
0.0
  0
DIMENSION
  5
11D4
330
19
100
AcDbEntity
  8
0
100
AcDbDimension
  2
*D12
 10
11.38745776039221
 20
17.77202125376687
 30
0.0
 11
10.67845776039222
 21
17.77202125376687
 31
0.0
 70
    32
  1
<>[]
 71
     5
 42
36.01719999999958
  3
Outline Drawings
100
AcDbAlignedDimension
 13
9.969457760392231
 23
18.67399943935814
 33
0.0
 14
11.38745776039221
 24
18.67399943935813
 34
0.0
100
AcDbRotatedDimension
  0
LINE
  5
11D5
330
19
100
AcDbEntity
  8
0
 62
     7
100
AcDbLine
 10
9.634457760392223
 20
17.08442122401559
 30
0.0
 11
11.72245776039223
 21
17.08442122401559
 31
0.0
  0
DIMENSION
  5
11D6
330
19
100
AcDbEntity
  8
0
100
AcDbDimension
  2
*D13
 10
12.85883612983873
 20
18.85209369083731
 30
0.0
 11
12.85883612983873
 21
19.56109369083732
 31
0.0
 70
    32
  1
<>[]
 71
     5
 42
36.01720000000007
  3
Outline Drawings
100
AcDbAlignedDimension
 13
11.56512617474887
 23
20.27009369083732
 33
0.0
 14
11.57817626980595
 24
18.85209369083731
 34
0.0
 50
90.0
100
AcDbRotatedDimension
  0
LINE
  5
11D7
330
19
100
AcDbEntity
  8
0
  6
CENTER2
100
AcDbLine
 10
10.17588248201438
 20
19.56109369083731
 30
0.0
 11
11.18103303877005
 21
19.56109369083731
 31
0.0
  0
LINE
  5
11D8
330
19
100
AcDbEntity
  8
0
  6
CENTER2
100
AcDbLine
 10
9.79031861612033
 20
20.27009369083732
 30
0.0
 11
11.56512617474887
 21
20.27009369083732
 31
0.0
  0
LINE
  5
11D9
330
19
100
AcDbEntity
  8
0
  6
CENTER2
100
AcDbLine
 10
9.783793465339201
 20
18.85209369083731
 30
0.0
 11
11.57817626980595
 21
18.85209369083731
 31
0.0
  0
LINE
  5
11DA
330
19
100
AcDbEntity
  8
0
  6
CENTER2
100
AcDbLine
 10
10.67845776039222
 20
20.05232919385063
 30
0.0
 11
10.67845776039222
 21
19.069858187824
 31
0.0
  0
DIMENSION
  5
11DB
330
19
100
AcDbEntity
  8
0
100
AcDbDimension
  2
*D14
 10
16.7112080832854
 20
14.13159615027138
 30
0.0
 11
18.3624232190924
 21
14.18920608820858
 31
0.0
 70
    34
  1
<>
 71
     5
 42
1.570796326794896
  3
Outline Drawings
100
AcDb2LineAngularDimension
 13
15.03003327883682
 23
15.84042122401559
 33
0.0
 14
18.34380161409514
 24
15.84042122401559
 34
0.0
 15
16.7112080832854
 25
17.44305594463757
 35
0.0
 16
17.8787935030124
 26
13.81810395487179
 36
0.0
1001
ACAD
1000
DSTYLE
1002
{
1070
     3
1000

1002
}
  0
LINE
  5
11DC
330
19
100
AcDbEntity
  8
0
  6
CENTER2
100
AcDbLine
 10
16.7112080832854
 20
17.5492462977598
 30
0.0
 11
16.7112080832854
 21
14.13159615027138
 31
0.0
  0
CIRCLE
  5
11DD
330
19
100
AcDbEntity
  8
0
100
AcDbCircle
 10
16.7112080832854
 20
15.84042122401559
 30
0.0
 40
0.8349999999999999
  0
CIRCLE
  5
11DE
330
19
100
AcDbEntity
  8
0
 62
   253
100
AcDbCircle
 10
16.7112080832854
 20
15.84042122401559
 30
0.0
 40
1.0
  0
CIRCLE
  5
11DF
330
19
100
AcDbEntity
  8
0
100
AcDbCircle
 10
16.7112080832854
 20
15.84042122401559
 30
0.0
 40
0.9200000000000001
  0
LINE
  5
11E0
330
19
100
AcDbEntity
  8
0
 62
     7
100
AcDbLine
 10
18.05520808328541
 20
17.01442122401559
 30
0.0
 11
18.05520808328541
 21
14.66642122401559
 31
0.0
  0
LINE
  5
11E1
330
19
100
AcDbEntity
  8
0
 62
     7
100
AcDbLine
 10
15.3672080832854
 20
17.01442122401559
 30
0.0
 11
15.3672080832854
 21
14.66642122401559
 31
0.0
  0
LINE
  5
11E2
330
19
100
AcDbEntity
  8
0
 62
     7
100
AcDbLine
 10
15.5372080832854
 20
14.49642122401559
 30
0.0
 11
17.8852080832854
 21
14.49642122401559
 31
0.0
  0
ARC
  5
11E3
330
19
100
AcDbEntity
  8
0
 62
     7
100
AcDbCircle
 10
15.5372080832854
 20
14.66642122401559
 30
0.0
 40
0.17
100
AcDbArc
 50
180.0
 51
270.0
  0
ARC
  5
11E4
330
19
100
AcDbEntity
  8
0
 62
     7
100
AcDbCircle
 10
17.8852080832854
 20
14.66642122401559
 30
0.0
 40
0.17
100
AcDbArc
 50
270.0
 51
0.0
  0
DIMENSION
  5
11E5
330
19
100
AcDbEntity
  8
0
100
AcDbDimension
  2
*D15
 10
18.05520808328541
 20
18.59507287216784
 30
0.0
 11
16.7112080832854
 21
18.59507287216784
 31
0.0
 70
    32
  1
<>[]
 71
     5
 42
68.27520000000024
  3
Outline Drawings
100
AcDbAlignedDimension
 13
15.3672080832854
 23
17.01442122401559
 33
0.0
 14
18.05520808328541
 24
17.01442122401559
 34
0.0
100
AcDbRotatedDimension
  0
LINE
  5
11E6
330
19
100
AcDbEntity
  8
0
  6
CENTER2
100
AcDbLine
 10
15.07861455247566
 20
15.84042122401559
 30
0.0
 11
18.34380161409514
 21
15.84042122401559
 31
0.0
  0
LINE
  5
11E7
330
19
100
AcDbEntity
  8
0
 62
     7
100
AcDbLine
 10
15.5372080832854
 20
17.18442122401558
 30
0.0
 11
17.8852080832854
 21
17.18442122401558
 31
0.0
  0
TEXT
  5
11E8
330
19
100
AcDbEntity
  8
0
100
AcDbText
 10
16.51623326967677
 20
16.92905969069366
 30
0.0
 40
0.15
  1
1 ON
  7
outline drawings
100
AcDbText
  0
ARC
  5
11E9
330
19
100
AcDbEntity
  8
0
 62
     7
100
AcDbCircle
 10
15.5372080832854
 20
17.01442122401559
 30
0.0
 40
0.17
100
AcDbArc
 50
90.0
 51
180.0
  0
LINE
  5
11EA
330
19
100
AcDbEntity
  8
0
100
AcDbLine
 10
16.0012080832854
 20
15.60842122401558
 30
0.0
 11
17.4212080832854
 21
15.60842122401558
 31
0.0
  0
LINE
  5
11EB
330
19
100
AcDbEntity
  8
0
100
AcDbLine
 10
16.0012080832854
 20
16.07242122401559
 30
0.0
 11
17.4212080832854
 21
16.07242122401559
 31
0.0
  0
TEXT
  5
11EC
330
19
100
AcDbEntity
  8
0
100
AcDbText
 10
15.63797515593346
 20
15.6829897438282
 30
0.0
 40
0.15
  1
0 OFF
 50
90.0
  7
outline drawings
100
AcDbText
  0
LINE
  5
11ED
330
19
100
AcDbEntity
  8
0
100
AcDbLine
 10
16.10223255801388
 20
15.9209630091743
 30
0.0
 11
16.10223255801388
 21
15.75987943885687
 31
0.0
  0
LINE
  5
11EE
330
19
100
AcDbEntity
  8
0
100
AcDbLine
 10
15.96273009398669
 20
15.84042122401558
 30
0.0
 11
16.10223255801388
 21
15.75987943885687
 31
0.0
  0
LINE
  5
11EF
330
19
100
AcDbEntity
  8
0
100
AcDbLine
 10
15.96273009398669
 20
15.84042122401558
 30
0.0
 11
16.10223255801388
 21
15.9209630091743
 31
0.0
  0
LINE
  5
11F0
330
19
100
AcDbEntity
  8
0
100
AcDbLine
 10
15.9112080832854
 20
15.98242122401558
 30
0.0
 11
15.9112080832854
 21
15.69842122401558
 31
0.0
  0
ARC
  5
11F1
330
19
100
AcDbEntity
  8
0
100
AcDbCircle
 10
16.0012080832854
 20
15.69842122401558
 30
0.0
 40
0.09
100
AcDbArc
 50
180.0
 51
270.0
  0
ARC
  5
11F2
330
19
100
AcDbEntity
  8
0
100
AcDbCircle
 10
16.0012080832854
 20
15.98242122401558
 30
0.0
 40
0.09
100
AcDbArc
 50
90.0
 51
180.0
  0
LINE
  5
11F3
330
19
100
AcDbEntity
  8
0
100
AcDbLine
 10
17.51120808328539
 20
15.98242122401558
 30
0.0
 11
17.51120808328539
 21
15.69842122401558
 31
0.0
  0
ARC
  5
11F4
330
19
100
AcDbEntity
  8
0
100
AcDbCircle
 10
17.4212080832854
 20
15.69842122401558
 30
0.0
 40
0.09
100
AcDbArc
 50
270.0
 51
0.0
  0
ARC
  5
11F5
330
19
100
AcDbEntity
  8
0
100
AcDbCircle
 10
17.4212080832854
 20
15.98242122401558
 30
0.0
 40
0.09
100
AcDbArc
 50
0.0
 51
90.0
  0
ARC
  5
11F6
330
19
100
AcDbEntity
  8
0
 62
     7
100
AcDbCircle
 10
17.8852080832854
 20
17.01442122401559
 30
0.0
 40
0.17
100
AcDbArc
 50
0.0
 51
90.0
  0
CIRCLE
  5
11F7
330
19
100
AcDbEntity
  8
0
100
AcDbCircle
 10
9.969457760392216
 20
16.54942122401558
 30
0.0
 40
0.1605
  0
CIRCLE
  5
11F8
330
19
100
AcDbEntity
  8
0
100
AcDbCircle
 10
9.969457760392216
 20
16.54942122401558
 30
0.0
 40
0.08
  0
CIRCLE
  5
11F9
330
19
100
AcDbEntity
  8
0
100
AcDbCircle
 10
11.38745776039222
 20
16.54942122401558
 30
0.0
 40
0.1605
  0
CIRCLE
  5
11FA
330
19
100
AcDbEntity
  8
0
100
AcDbCircle
 10
11.38745776039222
 20
16.54942122401558
 30
0.0
 40
0.08
  0
CIRCLE
  5
11FB
330
19
100
AcDbEntity
  8
0
100
AcDbCircle
 10
9.969457760392216
 20
15.13142122401558
 30
0.0
 40
0.1605
  0
CIRCLE
  5
11FC
330
19
100
AcDbEntity
  8
0
100
AcDbCircle
 10
9.969457760392216
 20
15.13142122401558
 30
0.0
 40
0.08
  0
CIRCLE
  5
11FD
330
19
100
AcDbEntity
  8
0
100
AcDbCircle
 10
11.38745776039222
 20
15.13142122401558
 30
0.0
 40
0.1605
  0
CIRCLE
  5
11FE
330
19
100
AcDbEntity
  8
0
100
AcDbCircle
 10
11.38745776039222
 20
15.13142122401558
 30
0.0
 40
0.08
  0
LEADER
  5
11FF
330
19
100
AcDbEntity
  8
0
100
AcDbLeader
  3
STANDARD
 73
     0
 75
     1
 40
0.7800000000000002
 41
3.719999999999999
 76
     3
 10
9.838331277737026
 20
15.00970218761657
 30
0.0
 10
8.467349111620627
 20
14.5766961901625
 30
0.0
 10
8.287349111620628
 20
14.5766961901625
 30
0.0
213
0.0
223
0.09
233
0.0
1001
ACAD
1000
DSTYLE
1002
{
1070
   147
1040
0.09
1070
    77
1070
     0
1002
}
  0
MTEXT
  5
1200
102
{ACAD_REACTORS
330
11FF
102
}
330
19
100
AcDbEntity
  8
0
100
AcDbMText
 10
8.197349111620624
 20
14.4866961901625
 30
0.0
 40
0.18
 41
0.0
 71
     9
 72
     1
  1
USE (4) 3/16 FLAT HEAD\PSCREWS PROVIDED WITH\PHANDLE MECHANSIM
  7
outline drawings
 73
     1
 44
1.0
  0
TEXT
  5
1204
330
19
100
AcDbEntity
  8
0
100
AcDbText
 10
0.8993849011410972
 20
20.91797450373242
 30
0.0
 40
0.3
  1
MOUNTING HOLE PATTERN
  7
outline drawings
100
AcDbText
  0
TEXT
  5
1205
330
19
100
AcDbEntity
  8
0
100
AcDbText
 10
7.609675257709092
 20
13.55812621165719
 30
0.0
 40
0.3
  1
HANDLE AND BASE MOUNTED
  7
outline drawings
100
AcDbText
  0
LEADER
  5
1206
330
19
100
AcDbEntity
  8
0
100
AcDbLeader
  3
STANDARD
 73
     0
 75
     1
 40
0.4893315143246931
 41
2.587530695770805
 76
     3
 10
21.33532339898966
 20
16.49369590042614
 30
0.0
 10
20.67251572361735
 20
20.30252152130777
 30
0.0
 10
20.49251572361736
 20
20.30252152130777
 30
0.0
340
1207
  0
MTEXT
  5
1207
102
{ACAD_REACTORS
330
1206
102
}
330
19
100
AcDbEntity
  8
0
100
AcDbMText
 10
20.40251572361736
 20
20.30252152130777
 30
0.0
 40
0.18
 41
0.0
 71
     6
 72
     1
  1
OPERATING \PHANDLE MECHANISM
  7
outline drawings
 73
     1
 44
1.0
  0
DIMENSION
  5
1209
330
19
100
AcDbEntity
  8
0
100
AcDbDimension
  2
*D16
 10
20.97580550771816
 20
13.30423994565795
 30
0.0
 11
21.78480550771815
 21
13.30423994565795
 31
0.0
 70
   160
  1
<>[]
 71
     5
 42
41.09719999999951
  3
Outline Drawings
100
AcDbAlignedDimension
 13
22.59380550771814
 23
12.42710986548472
 33
0.0
 14
20.97580550771816
 24
15.09642122401559
 34
0.0
100
AcDbRotatedDimension
  0
HATCH
  5
120A
330
19
100
AcDbEntity
  8
0
100
AcDbHatch
 10
0.0
 20
0.0
 30
0.0
210
0.0
220
0.0
230
1.0
  2
ANSI31
 70
     0
 71
     1
 91
        1
 92
       33
 93
        2
 72
     1
 10
22.71380550771814
 20
17.91892044288516
 11
22.71380550771814
 21
12.36337492116472
 72
     1
 10
22.59380550771814
 20
17.98265538720515
 11
22.59380550771814
 21
12.42710986548472
 97
        2
330
120B
330
120C
 75
     0
 76
     1
 52
0.0
 41
0.5
 77
     0
 78
     1
 53
45.0
 43
-12.08696637931629
 44
2.399693255744562
 45
-0.0441941738241592
 46
0.0441941738241592
 79
     0
 98
        1
 10
-12.08696637931629
 20
2.399693255744562
  0
LINE
  5
120B
102
{ACAD_REACTORS
330
120A
102
}
330
19
100
AcDbEntity
  8
0
100
AcDbLine
 10
22.71380550771814
 20
17.91892044288516
 30
0.0
 11
22.71380550771814
 21
12.36337492116472
 31
0.0
  0
LINE
  5
120C
102
{ACAD_REACTORS
330
120A
102
}
330
19
100
AcDbEntity
  8
0
100
AcDbLine
 10
22.59380550771814
 20
17.98265538720515
 30
0.0
 11
22.59380550771814
 21
12.42710986548472
 31
0.0
  0
LINE
  5
120D
330
19
100
AcDbEntity
  8
0
  6
CENTER2
100
AcDbLine
 10
23.10555935702361
 20
15.84042122401559
 30
0.0
 11
20.79519329974303
 21
15.84042122401559
 31
0.0
  0
ARC
  5
120F
330
19
100
AcDbEntity
  8
0
100
AcDbCircle
 10
22.19380550771815
 20
17.00042122401559
 30
0.0
 40
0.1
100
AcDbArc
 50
90.0
 51
180.0
  0
LINE
  5
1210
330
19
100
AcDbEntity
  8
0
 62
     7
100
AcDbLine
 10
21.65380550771813
 20
16.75842122401559
 30
0.0
 11
22.09380550771815
 21
16.84667807690393
 31
0.0
  0
LINE
  5
1211
330
19
100
AcDbEntity
  8
0
 62
     7
100
AcDbLine
 10
21.65380550771813
 20
14.92242122401559
 30
0.0
 11
22.09380550771815
 21
14.83416437112725
 31
0.0
  0
ARC
  5
1212
330
19
100
AcDbEntity
  8
0
100
AcDbCircle
 10
22.19380550771815
 20
14.68042122401559
 30
0.0
 40
0.1
100
AcDbArc
 50
180.0
 51
270.0
  0
LINE
  5
1213
330
19
100
AcDbEntity
  8
0
  6
HIDDEN
100
AcDbLine
 10
20.97580550771814
 20
16.58442122401559
 30
0.0
 11
20.97580550771814
 21
16.15455371000036
 31
0.0
  0
LINE
  5
1214
330
19
100
AcDbEntity
  8
0
100
AcDbLine
 10
21.49380550771814
 20
16.75842122401559
 30
0.0
 11
21.49380550771814
 21
14.92242122401559
 31
0.0
  0
LINE
  5
1215
330
19
100
AcDbEntity
  8
0
100
AcDbLine
 10
21.65380550771813
 20
16.75842122401559
 30
0.0
 11
21.65380550771813
 21
14.92242122401559
 31
0.0
  0
LINE
  5
1216
330
19
100
AcDbEntity
  8
0
 62
     7
100
AcDbLine
 10
21.03580550771814
 20
16.08542122401559
 30
0.0
 11
21.49380550771814
 21
16.08542122401559
 31
0.0
  0
LINE
  5
1218
330
19
100
AcDbEntity
  8
0
 62
     7
100
AcDbLine
 10
21.03580550771815
 20
15.59542122401559
 30
0.0
 11
21.49380550771814
 21
15.59542122401559
 31
0.0
  0
LINE
  5
1219
330
19
100
AcDbEntity
  8
0
  6
HIDDEN
100
AcDbLine
 10
21.03580550771817
 20
15.03642122401559
 30
0.0
 11
21.49380550771814
 21
15.03642122401559
 31
0.0
  0
LINE
  5
121A
330
19
100
AcDbEntity
  8
0
  6
HIDDEN
100
AcDbLine
 10
20.97580550771815
 20
15.51999683056699
 30
0.0
 11
20.97580550771816
 21
15.09642122401559
 31
0.0
  0
ARC
  5
121B
330
19
100
AcDbEntity
  8
0
  6
HIDDEN
100
AcDbCircle
 10
21.03580550771817
 20
15.09642122401559
 30
0.0
 40
0.06
100
AcDbArc
 50
180.0000000000012
 51
270.0
  0
LINE
  5
121C
330
19
100
AcDbEntity
  8
0
100
AcDbLine
 10
20.97580550771814
 20
16.02837921613567
 30
0.0
 11
20.97580550771815
 21
15.65542122401559
 31
0.0
  0
ARC
  5
121D
330
19
100
AcDbEntity
  8
0
100
AcDbCircle
 10
21.03580550771815
 20
15.65542122401559
 30
0.0
 40
0.06
100
AcDbArc
 50
180.0
 51
270.0
  0
ARC
  5
121E
330
19
100
AcDbEntity
  8
0
100
AcDbCircle
 10
21.03580550771814
 20
16.02542122401559
 30
0.0
 40
0.06
100
AcDbArc
 50
90.0
 51
180.0
  0
LINE
  5
121F
330
19
100
AcDbEntity
  8
0
 62
     7
100
AcDbLine
 10
21.49380550771814
 20
14.92242122401559
 30
0.0
 11
21.65380550771813
 21
14.92242122401559
 31
0.0
  0
LINE
  5
1220
330
19
100
AcDbEntity
  8
0
  6
HIDDEN
100
AcDbLine
 10
21.03580550771814
 20
16.64442122401559
 30
0.0
 11
21.49380550771814
 21
16.64442122401559
 31
0.0
  0
ARC
  5
1221
330
19
100
AcDbEntity
  8
0
  6
HIDDEN
100
AcDbCircle
 10
21.03580550771814
 20
16.58442122401559
 30
0.0
 40
0.06
100
AcDbArc
 50
90.0
 51
180.000000000001
  0
LINE
  5
1222
330
19
100
AcDbEntity
  8
0
 62
     7
100
AcDbLine
 10
21.49380550771814
 20
16.75842122401559
 30
0.0
 11
21.65380550771815
 21
16.75842122401559
 31
0.0
  0
LINE
  5
1223
330
19
100
AcDbEntity
  8
0
100
AcDbLine
 10
22.59380550771814
 20
16.92042122401559
 30
0.0
 11
22.59380550771814
 21
14.76042122401559
 31
0.0
  0
LINE
  5
1224
330
19
100
AcDbEntity
  8
0
100
AcDbLine
 10
22.09380550771815
 20
17.00042122401559
 30
0.0
 11
22.09380550771815
 21
14.68042122401559
 31
0.0
  0
LINE
  5
1225
330
19
100
AcDbEntity
  8
0
 62
     7
100
AcDbLine
 10
22.71380550771815
 20
16.78482122401559
 30
0.0
 11
22.71380550771814
 21
14.89602122401559
 31
0.0
  0
LINE
  5
1226
330
19
100
AcDbEntity
  8
0
 62
     7
100
AcDbLine
 10
22.19380550771815
 20
14.58042122401559
 30
0.0
 11
22.59380550771814
 21
14.58042122401559
 31
0.0
  0
LINE
  5
1227
330
19
100
AcDbEntity
  8
0
100
AcDbLine
 10
22.09380550771813
 20
15.84042122401559
 30
0.0
 11
22.09380550771815
 21
15.35042122401559
 31
0.0
  0
LINE
  5
1228
330
19
100
AcDbEntity
  8
0
 62
     7
100
AcDbLine
 10
22.19380550771815
 20
17.10042122401559
 30
0.0
 11
22.59380550771814
 21
17.10042122401559
 31
0.0
  0
TEXT
  5
1229
330
19
100
AcDbEntity
  8
0
100
AcDbText
 10
17.55857500870191
 20
19.79128947057935
 30
0.0
 40
0.15
  1
TYPE 1,2,3/3R,4/4X,12,13
  7
outline drawings
100
AcDbText
  0
TEXT
  5
122A
330
19
100
AcDbEntity
  8
0
100
AcDbText
 10
8.42173586980401
 20
15.76391330105879
 30
0.0
 40
0.15
  1
0 OFF
  7
outline drawings
100
AcDbText
  0
LEADER
  5
122B
330
19
100
AcDbEntity
  8
0
100
AcDbLeader
  3
STANDARD
 73
     0
 75
     1
 40
0.7925238744884038
 41
2.802769440654842
 76
     3
 10
9.924888325668007
 20
15.93877364963075
 30
0.0
 10
8.657971108951432
 20
16.9612376207884
 30
0.0
 10
8.477971108951432
 20
16.9612376207884
 30
0.0
340
122C
213
0.0
223
0.09
233
0.0
1001
ACAD
1000
DSTYLE
1002
{
1070
   147
1040
0.09
1070
    77
1070
     0
1002
}
  0
MTEXT
  5
122C
102
{ACAD_REACTORS
330
122B
102
}
330
19
100
AcDbEntity
  8
0
100
AcDbMText
 10
8.387971108951433
 20
16.8712376207884
 30
0.0
 40
0.18
 41
0.0
 71
     9
 72
     1
  1
INSTALL WITH HANDLE\PIN THE "OFF" POSITION\PAS SHOWN
  7
outline drawings
 73
     1
 44
1.0
  0
CIRCLE
  5
122D
330
19
100
AcDbEntity
  8
0
100
AcDbCircle
 10
9.969457760392224
 20
20.27009369083732
 30
0.0
 40
0.09375
  0
CIRCLE
  5
122E
330
19
100
AcDbEntity
  8
0
100
AcDbCircle
 10
11.38745776039222
 20
20.27009369083732
 30
0.0
 40
0.09375
  0
CIRCLE
  5
122F
330
19
100
AcDbEntity
  8
0
100
AcDbCircle
 10
11.38745776039221
 20
18.85209369083731
 30
0.0
 40
0.09375
  0
CIRCLE
  5
1230
330
19
100
AcDbEntity
  8
0
100
AcDbCircle
 10
9.969457760392224
 20
18.85209369083731
 30
0.0
 40
0.09375
  0
DIMENSION
  5
1232
330
19
100
AcDbEntity
  8
0
100
AcDbDimension
  2
*D18
 10
10.05629800419234
 20
20.23476898904468
 30
0.0
 11
7.725400029353766
 21
20.8662950255575
 31
0.0
 70
   163
  1
<>\P{\H0.7x;\S3#16;}" Drill\P(4 Holes)
 71
     5
 42
4.762500000000202
  3
Outline Drawings
100
AcDbDiametricDimension
 15
9.882617516592119
 25
20.30541839262994
 35
0.0
 40
0.0
1001
ACAD
1000
DSTYLE
1002
{
1070
   288
1070
     1
1002
}
  0
LINE
  5
146F
330
19
100
AcDbEntity
  8
0
  6
CENTER2
100
AcDbLine
 10
19.48234102999215
 20
8.05560763625484
 30
0.0
 11
19.48234102999215
 21
4.16391920971607
 31
0.0
  0
LINE
  5
1470
330
19
100
AcDbEntity
  8
0
  6
CENTER2
100
AcDbLine
 10
20.99364542434558
 20
5.873333041875312
 30
0.0
 11
17.96421086575729
 21
5.873333041875312
 31
0.0
  0
LINE
  5
1471
330
19
100
AcDbEntity
  8
0
 62
     7
100
AcDbLine
 10
20.42674102999215
 20
6.677733041875306
 30
0.0
 11
20.42674102999215
 21
5.068933041875311
 31
0.0
  0
LINE
  5
1472
330
19
100
AcDbEntity
  8
0
 62
     7
100
AcDbLine
 10
18.53794102999214
 20
6.677733041875306
 30
0.0
 11
18.53794102999213
 21
5.068933041875311
 31
0.0
  0
LINE
  5
1473
330
19
100
AcDbEntity
  8
0
 62
     7
100
AcDbLine
 10
20.28674102999214
 20
6.817733041875307
 30
0.0
 11
18.67794102999214
 21
6.817733041875307
 31
0.0
  0
LINE
  5
1474
330
19
100
AcDbEntity
  8
0
 62
     7
100
AcDbLine
 10
20.28674102999214
 20
4.928933041875311
 30
0.0
 11
18.67794102999213
 21
4.928933041875311
 31
0.0
  0
ARC
  5
1475
330
19
100
AcDbEntity
  8
0
 62
     7
100
AcDbCircle
 10
18.67794102999214
 20
6.677733041875306
 30
0.0
 40
0.14
100
AcDbArc
 50
90.0
 51
180.0
  0
ARC
  5
1476
330
19
100
AcDbEntity
  8
0
 62
     7
100
AcDbCircle
 10
20.28674102999214
 20
6.677733041875306
 30
0.0
 40
0.14
100
AcDbArc
 50
0.0
 51
90.0
  0
ARC
  5
1477
330
19
100
AcDbEntity
  8
0
 62
     7
100
AcDbCircle
 10
20.28674102999214
 20
5.068933041875311
 30
0.0
 40
0.14
100
AcDbArc
 50
270.0
 51
0.0
  0
ARC
  5
1478
330
19
100
AcDbEntity
  8
0
 62
     7
100
AcDbCircle
 10
18.67794102999213
 20
5.068933041875311
 30
0.0
 40
0.14
100
AcDbArc
 50
180.0
 51
270.0
  0
CIRCLE
  5
1479
330
19
100
AcDbEntity
  8
0
100
AcDbCircle
 10
19.48234102999215
 20
5.873333041875312
 30
0.0
 40
0.195
  0
LINE
  5
147A
330
19
100
AcDbEntity
  8
0
100
AcDbLine
 10
19.41421369822777
 20
5.75533304187531
 30
0.0
 11
19.55046836175652
 21
5.75533304187531
 31
0.0
  0
LINE
  5
147B
330
19
100
AcDbEntity
  8
0
100
AcDbLine
 10
19.34608636646339
 20
5.873333041875305
 30
0.0
 11
19.41421369822777
 21
5.75533304187531
 31
0.0
  0
LINE
  5
147C
330
19
100
AcDbEntity
  8
0
100
AcDbLine
 10
19.41421369822775
 20
5.991333041875307
 30
0.0
 11
19.34608636646339
 21
5.873333041875305
 31
0.0
  0
LINE
  5
147D
330
19
100
AcDbEntity
  8
0
100
AcDbLine
 10
19.55046836175652
 20
5.991333041875314
 30
0.0
 11
19.41421369822775
 21
5.991333041875307
 31
0.0
  0
LINE
  5
147E
330
19
100
AcDbEntity
  8
0
100
AcDbLine
 10
19.5720863664634
 20
5.953889559364746
 30
0.0
 11
19.55046836175652
 21
5.991333041875314
 31
0.0
  0
LINE
  5
147F
330
19
100
AcDbEntity
  8
0
100
AcDbLine
 10
19.55046836175652
 20
5.75533304187531
 30
0.0
 11
19.57208636646338
 21
5.79277652438585
 31
0.0
  0
LINE
  5
1480
330
19
100
AcDbEntity
  8
0
100
AcDbLine
 10
19.57208636646338
 20
5.79277652438585
 30
0.0
 11
19.5720863664634
 21
5.953889559364746
 31
0.0
  0
CIRCLE
  5
1481
330
19
100
AcDbEntity
  8
0
 62
   253
100
AcDbCircle
 10
19.48234102999215
 20
6.489333041875312
 30
0.0
 40
0.156
  0
CIRCLE
  5
1482
330
19
100
AcDbEntity
  8
0
 62
   253
100
AcDbCircle
 10
19.48234102999215
 20
5.257333041875313
 30
0.0
 40
0.156
  0
LINE
  5
1483
330
19
100
AcDbEntity
  8
0
  6
CENTER2
100
AcDbLine
 10
11.07477578306901
 20
5.873333041875312
 30
0.0
 11
5.313011870776605
 21
5.873333041875305
 31
0.0
  0
LINE
  5
1484
330
19
100
AcDbEntity
  8
0
 62
     7
100
AcDbLine
 10
8.562724823749725
 20
6.817733041875307
 30
0.0
 11
8.562724823749718
 21
4.928933041875311
 31
0.0
  0
LINE
  5
1485
330
19
100
AcDbEntity
  8
0
 62
     7
100
AcDbLine
 10
9.467724823749726
 20
7.293333041875307
 30
0.0
 11
9.467724823749698
 21
4.45333304187531
 31
0.0
  0
LINE
  5
1486
330
19
100
AcDbEntity
  8
0
 62
     7
100
AcDbLine
 10
10.46772482374971
 20
7.293333041875314
 30
0.0
 11
10.46772482374971
 21
4.45333304187531
 31
0.0
  0
LINE
  5
1488
330
19
100
AcDbEntity
  8
0
 62
     7
100
AcDbLine
 10
10.78009482374973
 20
6.57833304187531
 30
0.0
 11
10.46772482374971
 21
6.57833304187531
 31
0.0
  0
LINE
  5
1489
330
19
100
AcDbEntity
  8
0
 62
     7
100
AcDbLine
 10
10.78009482374972
 20
5.168333041875306
 30
0.0
 11
10.46772482374971
 21
5.168333041875314
 31
0.0
  0
LINE
  5
148A
330
19
100
AcDbEntity
  8
0
 62
     7
100
AcDbLine
 10
10.46772482374971
 20
7.293333041875314
 30
0.0
 11
9.467724823749726
 21
7.293333041875307
 31
0.0
  0
LINE
  5
148B
330
19
100
AcDbEntity
  8
0
 62
     7
100
AcDbLine
 10
10.46772482374971
 20
4.45333304187531
 30
0.0
 11
9.467724823749698
 21
4.45333304187531
 31
0.0
  0
LINE
  5
148C
330
19
100
AcDbEntity
  8
0
 62
     7
100
AcDbLine
 10
8.737724823749715
 20
6.817733041875307
 30
0.0
 11
8.737724823749708
 21
4.928933041875311
 31
0.0
  0
LINE
  5
148D
330
19
100
AcDbEntity
  8
0
 62
     7
100
AcDbLine
 10
8.737724823749708
 20
4.928933041875311
 30
0.0
 11
8.562724823749718
 21
4.928933041875311
 31
0.0
  0
LINE
  5
148E
330
19
100
AcDbEntity
  8
0
 62
     7
100
AcDbLine
 10
8.737724823749715
 20
6.817733041875307
 30
0.0
 11
8.562724823749725
 21
6.817733041875307
 31
0.0
  0
LINE
  5
148F
330
19
100
AcDbEntity
  8
0
 62
     7
100
AcDbLine
 10
9.467724823749712
 20
6.57833304187531
 30
0.0
 11
8.737724823749715
 21
6.57833304187531
 31
0.0
  0
LINE
  5
1490
330
19
100
AcDbEntity
  8
0
 62
     7
100
AcDbLine
 10
9.467724823749698
 20
5.168333041875307
 30
0.0
 11
8.737724823749715
 21
5.168333041875314
 31
0.0
  0
LINE
  5
1491
330
19
100
AcDbEntity
  8
0
100
AcDbLine
 10
7.727724823749717
 20
5.991333041875314
 30
0.0
 11
7.72772482374971
 21
5.75533304187531
 31
0.0
  0
LINE
  5
1492
330
19
100
AcDbEntity
  8
0
100
AcDbLine
 10
8.562724823749718
 20
5.991333041875314
 30
0.0
 11
7.727724823749717
 21
5.991333041875314
 31
0.0
  0
LINE
  5
1493
330
19
100
AcDbEntity
  8
0
100
AcDbLine
 10
7.72772482374971
 20
5.75533304187531
 30
0.0
 11
8.562724823749725
 21
5.75533304187531
 31
0.0
  0
LINE
  5
1494
330
19
100
AcDbEntity
  8
0
 62
     7
100
AcDbLine
 10
20.46611102999215
 20
7.293333041875314
 30
0.0
 11
18.49857102999213
 21
7.293333041875307
 31
0.0
  0
LINE
  5
1495
330
19
100
AcDbEntity
  8
0
 62
     7
100
AcDbLine
 10
20.46611102999215
 20
4.45333304187531
 30
0.0
 11
18.49857102999212
 21
4.453333041875318
 31
0.0
  0
LINE
  5
1498
330
19
100
AcDbEntity
  8
0
100
AcDbLine
 10
20.46076881296445
 20
7.88333304187531
 30
0.0
 11
18.49588861972257
 21
7.88333304187531
 31
0.0
  0
LINE
  5
1499
330
19
100
AcDbEntity
  8
0
100
AcDbLine
 10
20.46076881296445
 20
7.88333304187531
 30
0.0
 11
20.46076881296445
 21
7.381565889621015
 31
0.0
  0
LINE
  5
149A
330
19
100
AcDbEntity
  8
0
100
AcDbLine
 10
18.49588861972257
 20
7.88333304187531
 30
0.0
 11
18.49588861972256
 21
7.381239368439715
 31
0.0
  0
LINE
  5
149B
330
19
100
AcDbEntity
  8
0
100
AcDbLine
 10
20.40576881296444
 20
7.82833304187531
 30
0.0
 11
20.40576881296444
 21
7.381565889621015
 31
0.0
  0
LINE
  5
149C
330
19
100
AcDbEntity
  8
0
100
AcDbLine
 10
20.40576881296444
 20
7.82833304187531
 30
0.0
 11
19.80974102999216
 21
7.82833304187531
 31
0.0
  0
LINE
  5
149D
330
19
100
AcDbEntity
  8
0
100
AcDbLine
 10
18.55088861972257
 20
7.828333041875303
 30
0.0
 11
18.55088861972256
 21
7.381239368439715
 31
0.0
  0
LINE
  5
149E
330
19
100
AcDbEntity
  8
0
100
AcDbLine
 10
19.75474102999215
 20
7.82833304187531
 30
0.0
 11
19.75474102999215
 21
7.381565889621015
 31
0.0
  0
LINE
  5
149F
330
19
100
AcDbEntity
  8
0
100
AcDbLine
 10
19.80974102999216
 20
7.82833304187531
 30
0.0
 11
19.80974102999216
 21
7.381565889621015
 31
0.0
  0
LINE
  5
14A0
330
19
100
AcDbEntity
  8
0
100
AcDbLine
 10
19.15494102999214
 20
7.82833304187531
 30
0.0
 11
19.15494102999214
 21
7.381565889621015
 31
0.0
  0
LINE
  5
14A1
330
19
100
AcDbEntity
  8
0
100
AcDbLine
 10
19.20994102999213
 20
7.82833304187531
 30
0.0
 11
19.20994102999213
 21
7.381565889621015
 31
0.0
  0
LINE
  5
14A2
330
19
100
AcDbEntity
  8
0
100
AcDbLine
 10
19.15494102999214
 20
7.82833304187531
 30
0.0
 11
18.55088861972257
 21
7.828333041875303
 31
0.0
  0
LINE
  5
14A3
330
19
100
AcDbEntity
  8
0
100
AcDbLine
 10
19.75474102999215
 20
7.82833304187531
 30
0.0
 11
19.20994102999213
 21
7.82833304187531
 31
0.0
  0
LINE
  5
14A4
330
19
100
AcDbEntity
  8
0
  6
CENTER2
100
AcDbLine
 10
15.42367528946894
 20
8.098605651578715
 30
0.0
 11
15.42367528946894
 21
4.16391920971607
 31
0.0
  0
LINE
  5
14A5
330
19
100
AcDbEntity
  8
0
  6
HIDDEN
 62
   253
100
AcDbLine
 10
16.31307528946895
 20
7.82833304187531
 30
0.0
 11
15.75107528946896
 21
7.82833304187531
 31
0.0
  0
LINE
  5
14A6
330
19
100
AcDbEntity
  8
0
100
AcDbLine
 10
16.40744528946896
 20
7.88333304187531
 30
0.0
 11
14.43990528946894
 21
7.88333304187531
 31
0.0
  0
LINE
  5
14A7
330
19
100
AcDbEntity
  8
0
 62
     7
100
AcDbLine
 10
16.40744528946895
 20
4.45333304187531
 30
0.0
 11
14.43990528946893
 21
4.453333041875318
 31
0.0
  0
LINE
  5
14A8
330
19
100
AcDbEntity
  8
0
 62
     7
100
AcDbLine
 10
16.40744528946895
 20
7.293333041875315
 30
0.0
 11
14.43990528946894
 21
7.293333041875307
 31
0.0
  0
LINE
  5
14A9
330
19
100
AcDbEntity
  8
0
  6
CENTER2
100
AcDbLine
 10
17.21975204945146
 20
5.873333041875313
 30
0.0
 11
13.62759852948643
 21
5.873333041875313
 31
0.0
  0
LINE
  5
14AA
330
19
100
AcDbEntity
  8
0
 62
     7
100
AcDbLine
 10
16.40744528946895
 20
7.293333041875315
 30
0.0
 11
16.40744528946895
 21
7.234102699062631
 31
0.0
  0
LINE
  5
14AB
330
19
100
AcDbEntity
  8
0
  6
HIDDEN
 62
   253
100
AcDbLine
 10
16.35244528946896
 20
7.82833304187531
 30
0.0
 11
16.35244528946896
 21
7.381565889621015
 31
0.0
  0
LINE
  5
14AC
330
19
100
AcDbEntity
  8
0
100
AcDbLine
 10
16.40744528946896
 20
7.88333304187531
 30
0.0
 11
16.40744528946895
 21
7.381565889621015
 31
0.0
  0
LINE
  5
14AD
330
19
100
AcDbEntity
  8
0
 62
     7
100
AcDbLine
 10
14.43990528946894
 20
7.293333041875307
 30
0.0
 11
14.43990528946893
 21
4.453333041875318
 31
0.0
  0
LINE
  5
14AE
330
19
100
AcDbEntity
  8
0
  6
HIDDEN
 62
   253
100
AcDbLine
 10
15.69607528946896
 20
7.82833304187531
 30
0.0
 11
15.15127528946893
 21
7.82833304187531
 31
0.0
  0
LINE
  5
14AF
330
19
100
AcDbEntity
  8
0
  6
HIDDEN
 62
   253
100
AcDbLine
 10
15.75107528946896
 20
7.82833304187531
 30
0.0
 11
15.75107528946896
 21
7.381565889621015
 31
0.0
  0
LINE
  5
14B0
330
19
100
AcDbEntity
  8
0
  6
HIDDEN
 62
   253
100
AcDbLine
 10
15.69607528946896
 20
7.82833304187531
 30
0.0
 11
15.69607528946896
 21
7.381565889621015
 31
0.0
  0
LINE
  5
14B1
330
19
100
AcDbEntity
  8
0
  6
HIDDEN
 62
   253
100
AcDbLine
 10
15.15127528946893
 20
7.82833304187531
 30
0.0
 11
15.15127528946893
 21
7.381565889621015
 31
0.0
  0
LINE
  5
14B2
330
19
100
AcDbEntity
  8
0
  6
HIDDEN
 62
   253
100
AcDbLine
 10
15.09627528946894
 20
7.82833304187531
 30
0.0
 11
14.53427528946894
 21
7.828333041875303
 31
0.0
  0
LINE
  5
14B3
330
19
100
AcDbEntity
  8
0
  6
HIDDEN
 62
   253
100
AcDbLine
 10
15.09627528946894
 20
7.82833304187531
 30
0.0
 11
15.09627528946893
 21
7.381565889621015
 31
0.0
  0
LINE
  5
14B4
330
19
100
AcDbEntity
  8
0
  6
HIDDEN
 62
   253
100
AcDbLine
 10
14.49490528946894
 20
7.828333041875303
 30
0.0
 11
14.49490528946893
 21
7.381565889621022
 31
0.0
  0
LINE
  5
14B5
330
19
100
AcDbEntity
  8
0
100
AcDbLine
 10
14.43990528946894
 20
7.88333304187531
 30
0.0
 11
14.43990528946893
 21
7.381565889621022
 31
0.0
  0
LINE
  5
14B6
330
19
100
AcDbEntity
  8
0
 62
     7
100
AcDbLine
 10
16.36807528946895
 20
6.57833304187531
 30
0.0
 11
14.47927528946894
 21
6.57833304187531
 31
0.0
  0
LINE
  5
14B7
330
19
100
AcDbEntity
  8
0
 62
     7
100
AcDbLine
 10
16.36807528946895
 20
5.168333041875307
 30
0.0
 11
14.47927528946894
 21
5.168333041875314
 31
0.0
  0
LINE
  5
14B8
330
19
100
AcDbEntity
  8
0
  6
CENTER2
100
AcDbLine
 10
16.26742632234971
 20
6.817333041875308
 30
0.0
 11
14.56240345952017
 21
6.817333041875308
 31
0.0
  0
CIRCLE
  5
14B9
330
19
100
AcDbEntity
  8
0
100
AcDbCircle
 10
15.42367528946894
 20
6.817333041875308
 30
0.0
 40
0.14
  0
CIRCLE
  5
14BA
330
19
100
AcDbEntity
  8
0
100
AcDbCircle
 10
16.06367528946895
 20
6.817333041875308
 30
0.0
 40
0.14
  0
CIRCLE
  5
14BB
330
19
100
AcDbEntity
  8
0
100
AcDbCircle
 10
14.78367528946894
 20
6.817333041875308
 30
0.0
 40
0.14
  0
LINE
  5
14BC
330
19
100
AcDbEntity
  8
0
  6
CENTER2
100
AcDbLine
 10
16.26742632234971
 20
4.92933304187531
 30
0.0
 11
14.56240345952017
 21
4.92933304187531
 31
0.0
  0
CIRCLE
  5
14BD
330
19
100
AcDbEntity
  8
0
100
AcDbCircle
 10
15.42367528946894
 20
4.92933304187531
 30
0.0
 40
0.14
  0
CIRCLE
  5
14BE
330
19
100
AcDbEntity
  8
0
100
AcDbCircle
 10
16.06367528946895
 20
4.92933304187531
 30
0.0
 40
0.14
  0
CIRCLE
  5
14BF
330
19
100
AcDbEntity
  8
0
100
AcDbCircle
 10
14.78367528946894
 20
4.92933304187531
 30
0.0
 40
0.14
  0
ARC
  5
14C0
330
19
100
AcDbEntity
  8
0
100
AcDbCircle
 10
6.884724823749728
 20
5.68833304187531
 30
0.0
 40
0.06
100
AcDbArc
 50
180.0
 51
270.0
  0
LINE
  5
14C1
330
19
100
AcDbEntity
  8
0
100
AcDbLine
 10
7.502724823749716
 20
6.791333041875304
 30
0.0
 11
7.502724823749709
 21
4.955333041875306
 31
0.0
  0
LINE
  5
14C2
330
19
100
AcDbEntity
  8
0
100
AcDbLine
 10
7.342724823749719
 20
6.791333041875304
 30
0.0
 11
7.342724823749719
 21
4.955333041875306
 31
0.0
  0
LINE
  5
14C3
330
19
100
AcDbEntity
  8
0
100
AcDbLine
 10
7.94272482374972
 20
7.033333041875309
 30
0.0
 11
7.94272482374972
 21
4.713333041875308
 31
0.0
  0
LINE
  5
14C4
330
19
100
AcDbEntity
  8
0
100
AcDbLine
 10
7.942724823749713
 20
5.873333041875305
 30
0.0
 11
7.94272482374972
 21
5.38333304187531
 31
0.0
  0
LINE
  5
14C5
330
19
100
AcDbEntity
  8
0
100
AcDbLine
 10
8.44272482374972
 20
6.95333304187531
 30
0.0
 11
8.44272482374972
 21
4.793333041875307
 31
0.0
  0
LINE
  5
14C6
102
{ACAD_REACTORS
330
14E4
102
}
330
19
100
AcDbEntity
  8
0
100
AcDbLine
 10
8.44272482374972
 20
8.015567205064868
 30
0.0
 11
8.44272482374972
 21
2.460021683344436
 31
0.0
  0
LINE
  5
14C7
330
19
100
AcDbEntity
  8
0
 62
     7
100
AcDbLine
 10
8.042724823749722
 20
4.613333041875307
 30
0.0
 11
8.44272482374972
 21
4.613333041875314
 31
0.0
  0
ARC
  5
14C8
330
19
100
AcDbEntity
  8
0
100
AcDbCircle
 10
8.042724823749722
 20
4.713333041875308
 30
0.0
 40
0.1
100
AcDbArc
 50
180.0
 51
270.0
  0
LINE
  5
14C9
330
19
100
AcDbEntity
  8
0
 62
     7
100
AcDbLine
 10
7.342724823749719
 20
4.955333041875306
 30
0.0
 11
7.502724823749709
 21
4.955333041875306
 31
0.0
  0
LINE
  5
14CA
330
19
100
AcDbEntity
  8
0
  6
HIDDEN
100
AcDbLine
 10
6.824724823749725
 20
5.552908648426701
 30
0.0
 11
6.824724823749733
 21
5.129333041875305
 31
0.0
  0
ARC
  5
14CB
330
19
100
AcDbEntity
  8
0
  6
HIDDEN
100
AcDbCircle
 10
6.884724823749735
 20
5.129333041875305
 30
0.0
 40
0.06
100
AcDbArc
 50
180.0000000000013
 51
270.0
  0
LINE
  5
14CC
330
19
100
AcDbEntity
  8
0
  6
HIDDEN
100
AcDbLine
 10
6.884724823749735
 20
5.069333041875303
 30
0.0
 11
7.342724823749712
 21
5.069333041875303
 31
0.0
  0
LINE
  5
14CD
330
19
100
AcDbEntity
  8
0
 62
     7
100
AcDbLine
 10
6.884724823749728
 20
5.628333041875308
 30
0.0
 11
7.342724823749712
 21
5.628333041875308
 31
0.0
  0
LINE
  5
14CE
330
19
100
AcDbEntity
  8
0
 62
     7
100
AcDbLine
 10
7.502724823749716
 20
4.955333041875306
 30
0.0
 11
7.94272482374972
 21
4.86707618898697
 31
0.0
  0
MTEXT
  5
14D0
102
{ACAD_REACTORS
330
14D2
102
}
330
19
100
AcDbEntity
  8
0
100
AcDbMText
 10
5.654006601302249
 20
7.492920903766773
 30
0.0
 40
0.18
 41
0.0
 71
     6
 72
     1
  1
OPERATING \PHANDLE MECHANISM
  7
outline drawings
 73
     1
 44
1.0
  0
LEADER
  5
14D2
330
19
100
AcDbEntity
  8
0
100
AcDbLeader
  3
STANDARD
 73
     0
 75
     1
 40
0.48
 41
2.760000000000001
 76
     3
 10
7.184242715021234
 20
6.526607718285859
 30
0.0
 10
5.924006601302252
 20
7.492920903766773
 30
0.0
 10
5.744006601302253
 20
7.492920903766773
 30
0.0
  0
LINE
  5
14D3
330
19
100
AcDbEntity
  8
0
 62
     7
100
AcDbLine
 10
8.042724823749722
 20
7.13333304187531
 30
0.0
 11
8.44272482374972
 21
7.13333304187531
 31
0.0
  0
LINE
  5
14D4
330
19
100
AcDbEntity
  8
0
  6
HIDDEN
100
AcDbLine
 10
6.824724823749704
 20
6.617333041875305
 30
0.0
 11
6.824724823749711
 21
6.187465527860076
 31
0.0
  0
LINE
  5
14D5
330
19
100
AcDbEntity
  8
0
100
AcDbLine
 10
6.824724823749718
 20
6.061291033995395
 30
0.0
 11
6.824724823749725
 21
5.68833304187531
 31
0.0
  0
LINE
  5
14D6
330
19
100
AcDbEntity
  8
0
 62
     7
100
AcDbLine
 10
6.884724823749721
 20
6.11833304187531
 30
0.0
 11
7.342724823749719
 21
6.11833304187531
 31
0.0
  0
ARC
  5
14D7
330
19
100
AcDbEntity
  8
0
100
AcDbCircle
 10
6.884724823749721
 20
6.058333041875307
 30
0.0
 40
0.06
100
AcDbArc
 50
90.0
 51
180.0
  0
LINE
  5
14D8
330
19
100
AcDbEntity
  8
0
 62
     7
100
AcDbLine
 10
7.342724823749719
 20
6.791333041875304
 30
0.0
 11
7.502724823749723
 21
6.791333041875304
 31
0.0
  0
ARC
  5
14D9
330
19
100
AcDbEntity
  8
0
  6
HIDDEN
100
AcDbCircle
 10
6.884724823749706
 20
6.617333041875305
 30
0.0
 40
0.06
100
AcDbArc
 50
90.0
 51
180.000000000001
  0
LINE
  5
14DA
330
19
100
AcDbEntity
  8
0
  6
HIDDEN
100
AcDbLine
 10
6.884724823749706
 20
6.677333041875307
 30
0.0
 11
7.342724823749719
 21
6.677333041875307
 31
0.0
  0
LINE
  5
14DB
330
19
100
AcDbEntity
  8
0
 62
     7
100
AcDbLine
 10
7.502724823749716
 20
6.791333041875311
 30
0.0
 11
7.94272482374972
 21
6.879589894763647
 31
0.0
  0
ARC
  5
14DC
330
19
100
AcDbEntity
  8
0
100
AcDbCircle
 10
8.042724823749722
 20
7.033333041875309
 30
0.0
 40
0.1
100
AcDbArc
 50
90.0
 51
180.0
  0
LINE
  5
14DD
330
19
100
AcDbEntity
  8
0
  6
HIDDEN
 62
   253
100
AcDbLine
 10
10.45487430022151
 20
7.828333041875303
 30
0.0
 11
9.352724823749731
 21
7.828333041875289
 31
0.0
  0
LINE
  5
14DE
330
19
100
AcDbEntity
  8
0
100
AcDbLine
 10
10.55287731258917
 20
7.883333041875296
 30
0.0
 11
9.297724823749732
 21
7.883333041875289
 31
0.0
  0
LINE
  5
14DF
330
19
100
AcDbEntity
  8
0
  6
HIDDEN
 62
   253
100
AcDbLine
 10
9.352724823749731
 20
7.828333041875289
 30
0.0
 11
9.35272482374971
 21
6.672564867571757
 31
0.0
  0
LINE
  5
14E0
330
19
100
AcDbEntity
  8
0
100
AcDbLine
 10
9.297724823749732
 20
7.883333041875289
 30
0.0
 11
9.297724823749717
 21
6.639908532631721
 31
0.0
  0
LINE
  5
14E1
330
19
100
AcDbEntity
  8
0
100
AcDbLine
 10
10.55287731258917
 20
7.883333041875296
 30
0.0
 11
10.55287731258916
 21
7.381565889621008
 31
0.0
  0
LINE
  5
14E2
102
{ACAD_REACTORS
330
14E4
102
}
330
19
100
AcDbEntity
  8
0
100
AcDbLine
 10
8.562724823749718
 20
7.951832260744872
 30
0.0
 11
8.562724823749718
 21
2.396286739024439
 31
0.0
  0
HATCH
  5
14E4
330
19
100
AcDbEntity
  8
0
100
AcDbHatch
 10
0.0
 20
0.0
 30
0.0
210
0.0
220
0.0
230
1.0
  2
ANSI31
 70
     0
 71
     1
 91
        1
 92
       33
 93
        2
 72
     1
 10
8.562724823749718
 20
7.951832260744872
 11
8.562724823749718
 21
2.396286739024439
 72
     1
 10
8.44272482374972
 20
8.015567205064868
 11
8.44272482374972
 21
2.460021683344436
 97
        2
330
14E2
330
14C6
 75
     0
 76
     1
 52
0.0
 41
0.5
 77
     0
 78
     1
 53
45.0
 43
-26.23804706328472
 44
-7.567394926395721
 45
-0.0441941738241592
 46
0.0441941738241592
 79
     0
 98
        1
 10
-26.23804706328472
 20
-7.567394926395721
  0
DIMENSION
  5
14E5
330
19
100
AcDbEntity
  8
0
100
AcDbDimension
  2
*D20
 10
11.25779816487597
 20
7.883333041875296
 30
0.0
 11
11.93839161644486
 21
8.77461079614077
 31
0.0
 70
   160
  1
<>[]
 71
     5
 42
14.98599999999954
  3
Outline Drawings
100
AcDbAlignedDimension
 13
10.46772482374971
 23
7.293333041875314
 33
0.0
 14
10.55287731258917
 24
7.883333041875296
 34
0.0
 50
90.0
100
AcDbRotatedDimension
  0
DIMENSION
  5
14E6
330
19
100
AcDbEntity
  8
0
100
AcDbDimension
  2
*D21
 10
13.0295450028219
 20
4.453333041875311
 30
0.0
 11
13.0295450028219
 21
5.395102636751431
 31
0.0
 70
   160
  1
<>[]
 71
     5
 42
72.13599999999989
  3
Outline Drawings
100
AcDbAlignedDimension
 13
14.43990528946894
 23
7.293333041875307
 33
0.0
 14
14.43990528946893
 24
4.45333304187531
 34
0.0
 50
90.0
100
AcDbRotatedDimension
  0
DIMENSION
  5
14E9
330
19
100
AcDbEntity
  8
0
100
AcDbDimension
  2
*D22
 10
6.824724823749733
 20
3.337151763517667
 30
0.0
 11
7.632581928962842
 21
3.337151763517667
 31
0.0
 70
   160
  1
<>[]
 71
     5
 42
41.09719999999969
  3
Outline Drawings
100
AcDbAlignedDimension
 13
8.44272482374972
 23
2.460021683344436
 33
0.0
 14
6.824724823749733
 24
5.129333041875305
 34
0.0
100
AcDbRotatedDimension
  0
LINE
  5
14EA
330
19
100
AcDbEntity
  8
0
 62
     7
100
AcDbLine
 10
17.11644528946895
 20
7.233333041875319
 30
0.0
 11
17.11644528946895
 21
4.513333041875313
 31
0.0
  0
LINE
  5
14EB
330
19
100
AcDbEntity
  8
0
100
AcDbLine
 10
16.46744528946894
 20
7.293333041875314
 30
0.0
 11
17.05644528946895
 21
7.293333041875321
 31
0.0
  0
LINE
  5
14EC
330
19
100
AcDbEntity
  8
0
100
AcDbLine
 10
16.46744528946895
 20
4.45333304187531
 30
0.0
 11
17.05644528946895
 21
4.45333304187531
 31
0.0
  0
LINE
  5
14ED
330
19
100
AcDbEntity
  8
0
100
AcDbLine
 10
16.40744528946895
 20
6.208232977469677
 30
0.0
 11
17.11644528946896
 21
6.208232977469677
 31
0.0
  0
LINE
  5
14EE
330
19
100
AcDbEntity
  8
0
100
AcDbLine
 10
16.40744528946895
 20
5.53843310628094
 30
0.0
 11
17.11644528946896
 21
5.53843310628094
 31
0.0
  0
DIMENSION
  5
14EF
330
19
100
AcDbEntity
  8
0
100
AcDbDimension
  2
*D23
 10
17.11644528946895
 20
8.851065436023603
 30
0.0
 11
17.81073100375466
 21
8.851065436023603
 31
0.0
 70
   160
  1
<>[]
 71
     5
 42
18.0085999999999
  3
Outline Drawings
100
AcDbAlignedDimension
 13
16.40744528946895
 23
7.88333304187531
 33
0.0
 14
17.11644528946895
 24
7.293333041875314
 34
0.0
100
AcDbRotatedDimension
  0
LINE
  5
14F0
330
19
100
AcDbEntity
  8
0
 62
     7
100
AcDbLine
 10
16.40744528946894
 20
7.233333041875312
 30
0.0
 11
16.40744528946895
 21
4.513333041875306
 31
0.0
  0
LINE
  5
14F1
330
19
100
AcDbEntity
  8
0
 62
     7
100
AcDbLine
 10
16.40744528946895
 20
4.527657308070004
 30
0.0
 11
16.40744528946895
 21
4.45333304187531
 31
0.0
  0
ARC
  5
14F2
330
19
100
AcDbEntity
  8
0
100
AcDbCircle
 10
16.46744528946894
 20
7.233333041875312
 30
0.0
 40
0.06
100
AcDbArc
 50
90.0
 51
180.0
  0
ARC
  5
14F3
330
19
100
AcDbEntity
  8
0
100
AcDbCircle
 10
16.46744528946895
 20
4.513333041875306
 30
0.0
 40
0.06
100
AcDbArc
 50
180.0000000000001
 51
270.0
  0
ARC
  5
14F4
330
19
100
AcDbEntity
  8
0
100
AcDbCircle
 10
17.05644528946895
 20
4.513333041875313
 30
0.0
 40
0.06
100
AcDbArc
 50
270.0
 51
0.0000000000002036
  0
ARC
  5
14F5
330
19
100
AcDbEntity
  8
0
100
AcDbCircle
 10
17.05644528946895
 20
7.233333041875319
 30
0.0
 40
0.06
100
AcDbArc
 50
0.0
 51
90.0
  0
CIRCLE
  5
14F6
330
19
100
AcDbEntity
  8
0
100
AcDbCircle
 10
16.76194528946894
 20
6.824879604285072
 30
0.0
 40
0.14
  0
CIRCLE
  5
14F7
330
19
100
AcDbEntity
  8
0
100
AcDbCircle
 10
16.76194528946894
 20
4.936879604285067
 30
0.0
 40
0.14
  0
LEADER
  5
14F8
330
19
100
AcDbEntity
  8
0
100
AcDbLeader
  3
STANDARD
 73
     0
 74
     0
 75
     1
 40
0.1862619372442019
 41
2.618226466575716
 76
     3
 10
16.76194528946895
 20
4.45333304187531
 30
0.0
 10
17.64501993404124
 20
3.007100770050453
 30
0.0
 10
17.82501993404124
 20
3.007100770050453
 30
0.0
340
14F9
213
0.0
223
-0.09
233
0.0
1001
ACAD
1000
DSTYLE
1002
{
1070
   147
1040
0.09
1070
    77
1070
     0
1002
}
  0
MTEXT
  5
14F9
102
{ACAD_REACTORS
330
14F8
102
}
330
19
100
AcDbEntity
  8
0
100
AcDbMText
 10
17.91501993404124
 20
3.097100770050452
 30
0.0
 40
0.18
 41
0.0
 71
     1
 72
     1
  1
POWER POLE ADDER
  7
outline drawings
 73
     1
 44
1.0
  0
DIMENSION
  5
14FA
330
19
100
AcDbEntity
  8
0
100
AcDbDimension
  2
*D24
 10
20.19134102999214
 20
3.832422877978942
 30
0.0
 11
21.37261544430505
 21
3.832422877978942
 31
0.0
 70
   160
  1
<>[]
 71
     5
 42
36.0171999999998
  3
Outline Drawings
100
AcDbAlignedDimension
 13
18.77334102999214
 23
5.164333041875309
 33
0.0
 14
20.19134102999214
 24
5.164333041875309
 34
0.0
100
AcDbRotatedDimension
  0
TEXT
  5
14FB
330
19
100
AcDbEntity
  8
0
100
AcDbText
 10
14.58325215937257
 20
2.313228178588516
 30
0.0
 40
0.15
  1
VIEW FROM REAR
  7
outline drawings
100
AcDbText
  0
TEXT
  5
14FC
330
19
100
AcDbEntity
  8
0
100
AcDbText
 10
18.83229851466034
 20
2.214447578234128
 30
0.0
 40
0.15
  1
VIEW FROAM PANEL FACE
  7
outline drawings
100
AcDbText
  0
LINE
  5
14FD
330
19
100
AcDbEntity
  8
0
 62
     7
100
AcDbLine
 10
11.24072482374973
 20
6.57833304187531
 30
0.0
 11
11.24072482374972
 21
5.168333041875307
 31
0.0
  0
DIMENSION
  5
14FE
330
19
100
AcDbEntity
  8
0
100
AcDbDimension
  2
*D25
 10
8.562724823749718
 20
2.391533422916772
 30
0.0
 11
9.952570590219373
 21
2.391533422916772
 31
0.0
 70
   160
  1
<>[]
 71
     5
 42
68.02120000000011
  3
Outline Drawings
100
AcDbAlignedDimension
 13
11.24072482374972
 23
5.168333041875307
 33
0.0
 14
8.562724823749718
 24
2.396286739024439
 34
0.0
100
AcDbRotatedDimension
  0
TEXT
  5
14FF
330
19
100
AcDbEntity
  8
0
100
AcDbText
 10
8.402341943980097
 20
1.758911376465825
 30
0.0
 40
0.15
  1
MINIMUM ENCLOSURE DEPTH
  7
outline drawings
100
AcDbText
  0
ARC
  5
1501
330
19
100
AcDbEntity
  8
0
 62
     7
100
AcDbCircle
 10
13.89990528946892
 20
6.753333041875315
 30
0.0
 40
0.1500000000000034
100
AcDbArc
 50
90.0
 51
270.0
  0
LINE
  5
1503
330
19
100
AcDbEntity
  8
0
 62
     7
100
AcDbLine
 10
13.89990528946892
 20
6.603333041875316
 30
0.0
 11
14.12490528946892
 21
6.603333041875309
 31
0.0
  0
TEXT
  5
1504
330
19
100
AcDbEntity
  8
0
100
AcDbText
 10
13.8509462581288
 20
6.32933170144085
 30
0.0
 40
0.09
  1
AUX
  7
outline drawings
100
AcDbText
  0
LINE
  5
1505
330
19
100
AcDbEntity
  8
0
 62
     7
100
AcDbLine
 10
13.72990528946894
 20
7.058333041875314
 30
0.0
 11
14.43990528946892
 21
7.058333041875314
 31
0.0
  0
LINE
  5
1506
330
19
100
AcDbEntity
  8
0
  6
CENTER2
100
AcDbLine
 10
13.71249170868823
 20
6.753333041875315
 30
0.0
 11
14.01088717759046
 21
6.753333041875315
 31
0.0
  0
LINE
  5
1507
330
19
100
AcDbEntity
  8
0
 62
     7
100
AcDbLine
 10
13.89990528946892
 20
6.903333041875313
 30
0.0
 11
14.06290528946892
 21
6.903333041875313
 31
0.0
  0
LINE
  5
1508
330
19
100
AcDbEntity
  8
0
 62
     7
100
AcDbLine
 10
13.89990528946892
 20
6.843333041875318
 30
0.0
 11
14.06290528946892
 21
6.843333041875318
 31
0.0
  0
ARC
  5
1509
330
19
100
AcDbEntity
  8
0
 62
     7
100
AcDbCircle
 10
13.89990528946892
 20
6.753333041875315
 30
0.0
 40
0.0900000000000034
100
AcDbArc
 50
90.0
 51
270.0
  0
LINE
  5
150A
330
19
100
AcDbEntity
  8
0
 62
     7
100
AcDbLine
 10
13.89990528946892
 20
6.663333041875311
 30
0.0
 11
14.06290528946892
 21
6.663333041875311
 31
0.0
  0
CIRCLE
  5
150B
330
19
100
AcDbEntity
  8
0
100
AcDbCircle
 10
13.89990528946892
 20
6.753333041875315
 30
0.0
 40
0.075000000000002
  0
ARC
  5
150C
330
19
100
AcDbEntity
  8
0
 62
     7
100
AcDbCircle
 10
14.22577658298175
 20
6.75326429265727
 30
0.0
 40
0.1500000000000034
100
AcDbArc
 50
269.975824565965
 51
89.97582456596495
  0
LINE
  5
150D
330
19
100
AcDbEntity
  8
0
 62
     7
100
AcDbLine
 10
14.12490528946892
 20
6.603333041875309
 30
0.0
 11
14.12490528946892
 21
7.058333041875314
 31
0.0
  0
LINE
  5
150E
330
19
100
AcDbEntity
  8
0
 62
     7
100
AcDbLine
 10
14.06290528946892
 20
6.603333041875309
 30
0.0
 11
14.06290528946892
 21
6.663333041875311
 31
0.0
  0
LINE
  5
150F
330
19
100
AcDbEntity
  8
0
 62
     7
100
AcDbLine
 10
14.43990528946894
 20
7.293333041875307
 30
0.0
 11
14.43990528946893
 21
4.453333041875318
 31
0.0
  0
LINE
  5
1510
330
19
100
AcDbEntity
  8
0
 62
     7
100
AcDbLine
 10
13.72990528946893
 20
4.688333041875317
 30
0.0
 11
14.43990528946892
 21
4.688333041875317
 31
0.0
  0
ARC
  5
1511
330
19
100
AcDbEntity
  8
0
 62
     7
100
AcDbCircle
 10
14.22577658298176
 20
4.993401791093283
 30
0.0
 40
0.1500000000000034
100
AcDbArc
 50
270.0241754340354
 51
90.02417543403586
  0
ARC
  5
1512
330
19
100
AcDbEntity
  8
0
 62
     7
100
AcDbCircle
 10
14.22577658298176
 20
4.993401791093283
 30
0.0
 40
0.0900000000000034
100
AcDbArc
 50
270.0241754340354
 51
90.02417543403586
  0
CIRCLE
  5
1513
330
19
100
AcDbEntity
  8
0
100
AcDbCircle
 10
14.22577658298176
 20
4.993401791093283
 30
0.0
 40
0.075000000000002
  0
LINE
  5
1514
330
19
100
AcDbEntity
  8
0
 62
     7
100
AcDbLine
 10
14.12490528946892
 20
4.688333041875317
 30
0.0
 11
14.12490528946893
 21
5.143333041875244
 31
0.0
  0
CIRCLE
  5
1515
330
19
100
AcDbEntity
  8
0
100
AcDbCircle
 10
13.89990528946893
 20
4.993333041875239
 30
0.0
 40
0.075000000000002
  0
ARC
  5
1516
330
19
100
AcDbEntity
  8
0
 62
     7
100
AcDbCircle
 10
13.89990528946893
 20
4.993333041875239
 30
0.0
 40
0.0900000000000034
100
AcDbArc
 50
90.00000000000081
 51
270.0000000000004
  0
ARC
  5
1517
330
19
100
AcDbEntity
  8
0
 62
     7
100
AcDbCircle
 10
13.89990528946893
 20
4.993333041875239
 30
0.0
 40
0.1500000000000034
100
AcDbArc
 50
90.00000000000081
 51
270.0000000000004
  0
LINE
  5
1518
330
19
100
AcDbEntity
  8
0
 62
     7
100
AcDbLine
 10
14.00290528946894
 20
5.083333041875242
 30
0.0
 11
14.00290528946894
 21
4.903333041875235
 31
0.0
  0
LINE
  5
1519
330
19
100
AcDbEntity
  8
0
 62
     7
100
AcDbLine
 10
14.06290528946892
 20
4.688333041875317
 30
0.0
 11
14.06290528946892
 21
5.143333041875237
 31
0.0
  0
LINE
  5
151A
330
19
100
AcDbEntity
  8
0
 62
     7
100
AcDbLine
 10
13.89990528946894
 20
4.843333041875233
 30
0.0
 11
14.06290528946894
 21
4.84333304187524
 31
0.0
  0
LINE
  5
151B
330
19
100
AcDbEntity
  8
0
 62
     7
100
AcDbLine
 10
13.89990528946894
 20
4.903333041875235
 30
0.0
 11
14.06290528946893
 21
4.903333041875235
 31
0.0
  0
LINE
  5
151C
330
19
100
AcDbEntity
  8
0
 62
     7
100
AcDbLine
 10
14.22581455766362
 20
4.90340179910482
 30
0.0
 11
14.12490528946894
 21
4.90335922135263
 31
0.0
  0
LINE
  5
151D
330
19
100
AcDbEntity
  8
0
100
AcDbLine
 10
14.22583987411819
 20
4.843401804445839
 30
0.0
 11
14.12490528946894
 21
4.843401804445839
 31
0.0
  0
LINE
  5
151E
330
19
100
AcDbEntity
  8
0
 62
     7
100
AcDbLine
 10
13.89990528946893
 20
5.143333041875237
 30
0.0
 11
14.12490528946893
 21
5.143333041875244
 31
0.0
  0
LINE
  5
151F
330
19
100
AcDbEntity
  8
0
 62
     7
100
AcDbLine
 10
13.89990528946893
 20
5.083333041875242
 30
0.0
 11
14.06290528946893
 21
5.083333041875242
 31
0.0
  0
LINE
  5
1520
330
19
100
AcDbEntity
  8
0
  6
CENTER2
100
AcDbLine
 10
13.71249170868824
 20
4.993333041875239
 30
0.0
 11
14.01088717759047
 21
4.993333041875239
 31
0.0
  0
LINE
  5
1521
330
19
100
AcDbEntity
  8
0
 62
     7
100
AcDbLine
 10
14.12490528946893
 20
5.143333041875244
 30
0.0
 11
14.43990528946893
 21
5.143333041875244
 31
0.0
  0
LINE
  5
1522
330
19
100
AcDbEntity
  8
0
 62
     7
100
AcDbLine
 10
14.22573860829991
 20
5.083401783081747
 30
0.0
 11
14.12490528946894
 21
5.083359237375702
 31
0.0
  0
LINE
  5
1523
330
19
100
AcDbEntity
  8
0
 62
     7
100
AcDbLine
 10
14.12490528946892
 20
6.603333041875316
 30
0.0
 11
14.43990528946892
 21
6.603333041875316
 31
0.0
  0
LINE
  5
1524
330
19
100
AcDbEntity
  8
0
 62
     7
100
AcDbLine
 10
14.00290528946892
 20
6.663333041875311
 30
0.0
 11
14.00290528946892
 21
6.843333041875318
 31
0.0
  0
LINE
  5
1525
330
19
100
AcDbEntity
  8
0
 62
     7
100
AcDbLine
 10
14.06290528946892
 20
6.843333041875318
 30
0.0
 11
14.06290528946892
 21
7.058333041875314
 31
0.0
  0
LINE
  5
1526
330
19
100
AcDbEntity
  8
0
 62
     7
100
AcDbLine
 10
14.22581455766361
 20
6.843264284645734
 30
0.0
 11
14.12490528946892
 21
6.843306862397923
 31
0.0
  0
CIRCLE
  5
1527
330
19
100
AcDbEntity
  8
0
100
AcDbCircle
 10
14.22577658298175
 20
6.75326429265727
 30
0.0
 40
0.075000000000002
  0
ARC
  5
1528
330
19
100
AcDbEntity
  8
0
 62
     7
100
AcDbCircle
 10
14.22577658298175
 20
6.75326429265727
 30
0.0
 40
0.0900000000000034
100
AcDbArc
 50
269.975824565965
 51
89.97582456596495
  0
LINE
  5
1529
330
19
100
AcDbEntity
  8
0
 62
     7
100
AcDbLine
 10
14.2257386082999
 20
6.663264300668807
 30
0.0
 11
14.12490528946892
 21
6.663306846374851
 31
0.0
  0
LINE
  5
152A
330
19
100
AcDbEntity
  8
0
100
AcDbLine
 10
14.22583987411818
 20
6.903264279304714
 30
0.0
 11
14.12490528946892
 21
6.903264279304714
 31
0.0
  0
LEADER
  5
152B
330
19
100
AcDbEntity
  8
0
 62
     7
100
AcDbLeader
  3
STANDARD
 73
     0
 75
     1
 40
0.1862619372442019
 41
2.754147339699863
 76
     3
 10
14.06240528946892
 20
4.688333041875317
 30
0.0
 10
13.64647332588122
 20
1.094750599523845
 30
0.0
 10
13.46647332588122
 20
1.094750599523845
 30
0.0
340
152C
213
0.0
223
0.09
233
0.0
1001
ACAD
1000
DSTYLE
1002
{
1070
   147
1040
0.09
1070
    77
1070
     0
1002
}
  0
MTEXT
  5
152C
102
{ACAD_REACTORS
330
152B
102
}
330
19
100
AcDbEntity
  8
0
 62
     7
100
AcDbMText
 10
13.37647332588122
 20
1.004750599523845
 30
0.0
 40
0.18
 41
0.0
 71
     9
 72
     1
  1
\A1;AUXILIARY CONTACTS
  7
outline drawings
 73
     1
 44
1.0
  0
LEADER
  5
1539
330
19
100
AcDbEntity
  8
0
100
AcDbLeader
  3
STANDARD
 73
     0
 74
     0
 75
     1
 40
1.399031377899044
 41
3.899590723055934
 76
     4
 10
19.28074432331132
 20
6.057967192811787
 30
0.0
 10
19.01799784311723
 20
7.108586671832668
 30
0.0
 10
19.2078042499172
 20
10.30177237275521
 30
0.0
 10
19.3878042499172
 20
10.30177237275521
 30
0.0
340
153A
213
0.0
223
-0.09
233
0.0
1001
ACAD
1000
DSTYLE
1002
{
1070
   147
1040
0.09
1070
    77
1070
     0
1002
}
  0
MTEXT
  5
153A
102
{ACAD_REACTORS
330
1539
102
}
330
19
100
AcDbEntity
  8
0
100
AcDbMText
 10
19.4778042499172
 20
10.39177237275521
 30
0.0
 40
0.18
 41
0.0
 71
     1
 72
     1
  1
NOTE: INSTALL HANDLE WITH\PTHE DISCONNECT IN THE "OFF"\PPOSITION- ROTATED CCW WITH\PFLAT ON SHAFT ON RIGHT \PAS SHOWN.
  7
outline drawings
 73
     1
 44
1.0
  0
CIRCLE
  5
153B
330
19
100
AcDbEntity
  8
0
100
AcDbCircle
 10
20.19134102999214
 20
6.582333041875308
 30
0.0
 40
0.0685
  0
CIRCLE
  5
153C
330
19
100
AcDbEntity
  8
0
100
AcDbCircle
 10
20.19134102999214
 20
5.164333041875309
 30
0.0
 40
0.0685
  0
CIRCLE
  5
153D
330
19
100
AcDbEntity
  8
0
100
AcDbCircle
 10
18.77334102999214
 20
6.582333041875308
 30
0.0
 40
0.0685
  0
CIRCLE
  5
153E
330
19
100
AcDbEntity
  8
0
100
AcDbCircle
 10
18.77334102999214
 20
5.164333041875309
 30
0.0
 40
0.0685
  0
DIMENSION
  5
153F
330
19
100
AcDbEntity
  8
0
100
AcDbDimension
  2
*D26
 10
20.13960317052491
 20
6.537439346351878
 30
0.0
 11
22.47226691473322
 21
7.886105197413549
 31
0.0
 70
   163
  1
<>[]\P(4 Places)
 71
     5
 42
3.479800000000552
  3
Outline Drawings
100
AcDbDiametricDimension
 15
20.24307888945938
 25
6.627226737398724
 35
0.0
 40
0.0
1001
ACAD
1000
DSTYLE
1002
{
1070
   271
1070
     1
1070
   288
1070
     1
1002
}
  0
LINE
  5
1777
330
19
100
AcDbEntity
  8
0
  6
HIDDEN
100
AcDbLine
 10
28.05964588829262
 20
12.6094837501501
 30
0.0
 11
28.0596458882926
 21
9.769483750150108
 31
0.0
  0
LINE
  5
1778
330
19
100
AcDbEntity
  8
0
  6
HIDDEN
100
AcDbLine
 10
29.94844588829263
 20
12.60948375015011
 30
0.0
 11
29.94844588829263
 21
9.769483750150104
 31
0.0
  0
LINE
  5
1779
330
19
100
AcDbEntity
  8
0
  6
HIDDEN
100
AcDbLine
 10
29.94844588829263
 20
9.769483750150104
 30
0.0
 11
28.0596458882926
 21
9.769483750150108
 31
0.0
  0
LINE
  5
177A
330
19
100
AcDbEntity
  8
0
  6
HIDDEN
100
AcDbLine
 10
29.94844588829263
 20
12.60948375015011
 30
0.0
 11
28.05964588829262
 21
12.6094837501501
 31
0.0
  0
LINE
  5
177B
330
19
100
AcDbEntity
  8
0
100
AcDbLine
 10
28.36404588829261
 20
11.5644837501501
 30
0.0
 11
28.36404588829261
 21
14.44111567010355
 31
0.0
  0
LINE
  5
177C
330
19
100
AcDbEntity
  8
0
100
AcDbLine
 10
28.36404588829261
 20
10.81448375015011
 30
0.0
 11
28.36404588829261
 21
7.937851830196649
 31
0.0
  0
LINE
  5
177D
330
19
100
AcDbEntity
  8
0
100
AcDbLine
 10
29.00404588829263
 20
11.5644837501501
 30
0.0
 11
29.00404588829263
 21
14.44111567010355
 31
0.0
  0
LINE
  5
177E
330
19
100
AcDbEntity
  8
0
100
AcDbLine
 10
29.00404588829263
 20
10.81448375015011
 30
0.0
 11
29.00404588829263
 21
7.937851830196649
 31
0.0
  0
LINE
  5
177F
330
19
100
AcDbEntity
  8
0
100
AcDbLine
 10
29.64404588829261
 20
11.5644837501501
 30
0.0
 11
29.64404588829261
 21
14.44111567010355
 31
0.0
  0
LINE
  5
1780
330
19
100
AcDbEntity
  8
0
100
AcDbLine
 10
29.64404588829261
 20
10.81448375015011
 30
0.0
 11
29.64404588829261
 21
7.937851830196649
 31
0.0
  0
CIRCLE
  5
1781
330
19
100
AcDbEntity
  8
0
100
AcDbCircle
 10
28.36404588829261
 20
10.81448375015011
 30
0.0
 40
0.043496220949887
  0
LINE
  5
1782
330
19
100
AcDbEntity
  8
0
100
AcDbLine
 10
28.37530353866443
 20
10.85649787331158
 30
0.0
 11
28.61171567691272
 21
11.73879998478021
 31
0.0
  0
CIRCLE
  5
1783
330
19
100
AcDbEntity
  8
0
100
AcDbCircle
 10
29.00404588829263
 20
10.81448375015011
 30
0.0
 40
0.043496220949887
  0
LINE
  5
1784
330
19
100
AcDbEntity
  8
0
100
AcDbLine
 10
29.01530353866444
 20
10.85649787331158
 30
0.0
 11
29.25171567691272
 21
11.73879998478021
 31
0.0
  0
CIRCLE
  5
1785
330
19
100
AcDbEntity
  8
0
100
AcDbCircle
 10
29.64404588829261
 20
10.81448375015011
 30
0.0
 40
0.043496220949887
  0
LINE
  5
1786
330
19
100
AcDbEntity
  8
0
100
AcDbLine
 10
29.65530353866443
 20
10.85649787331158
 30
0.0
 11
29.89171567691272
 21
11.73879998478021
 31
0.0
  0
CIRCLE
  5
1787
330
19
100
AcDbEntity
  8
0
100
AcDbCircle
 10
29.64404588829261
 20
14.54111567010356
 30
0.0
 40
0.1
  0
CIRCLE
  5
1788
330
19
100
AcDbEntity
  8
0
100
AcDbCircle
 10
29.00404588829263
 20
14.54111567010356
 30
0.0
 40
0.1
  0
CIRCLE
  5
1789
330
19
100
AcDbEntity
  8
0
100
AcDbCircle
 10
28.36404588829261
 20
14.54111567010356
 30
0.0
 40
0.1
  0
CIRCLE
  5
178A
330
19
100
AcDbEntity
  8
0
100
AcDbCircle
 10
29.64404588829261
 20
7.837851830196647
 30
0.0
 40
0.1
  0
CIRCLE
  5
178B
330
19
100
AcDbEntity
  8
0
100
AcDbCircle
 10
29.00404588829263
 20
7.837851830196647
 30
0.0
 40
0.1
  0
CIRCLE
  5
178C
330
19
100
AcDbEntity
  8
0
100
AcDbCircle
 10
28.36404588829261
 20
7.837851830196647
 30
0.0
 40
0.1
  0
TEXT
  5
178D
330
19
100
AcDbEntity
  8
0
100
AcDbText
 10
30.18370207531297
 20
6.858373487449448
 30
0.0
 40
0.15
  1
DEVICE SCHEMATIC
  7
outline drawings
100
AcDbText
  0
LWPOLYLINE
  5
178E
330
19
100
AcDbEntity
  8
0
100
AcDbPolyline
 90
        4
 70
     1
 43
0.0
 10
25.09176762218323
 20
15.49384914085558
 10
32.86606026176867
 20
15.49384914085558
 10
32.86606026176867
 20
6.631124139425914
 10
25.09176762218323
 20
6.631124139425914
  0
LINE
  5
1790
330
19
100
AcDbEntity
  8
10
100
AcDbLine
 10
0.5000000293787004
 20
21.49999997647868
 30
0.0
 11
33.50000002937868
 21
21.49999997647868
 31
0.0
  0
LINE
  5
1791
330
19
100
AcDbEntity
  8
10
100
AcDbLine
 10
0.5000000293786862
 20
0.4999999764786774
 30
0.0
 11
33.50000002937868
 21
0.4999999764786569
 31
0.0
  0
LINE
  5
1792
330
19
100
AcDbEntity
  8
10
100
AcDbLine
 10
0.5000000293787004
 20
21.49999997647868
 30
0.0
 11
0.5000000293786862
 21
0.4999999764786783
 31
0.0
  0
CIRCLE
  5
1793
330
19
100
AcDbEntity
  8
10
 62
     1
100
AcDbCircle
 10
0.5000000293786791
 20
0.4999999764786765
 30
0.0
 40
0.283176754747501
  0
LINE
  5
1794
330
19
100
AcDbEntity
  8
10
100
AcDbLine
 10
0.0000000293786862
 20
-0.0000000235213236
 30
0.0
 11
0.5000000293786862
 21
-0.0000000235213244
 31
0.0
  0
LINE
  5
1795
330
19
100
AcDbEntity
  8
10
100
AcDbLine
 10
0.0000000293786933
 20
0.4999999764786765
 30
0.0
 11
0.0000000293786862
 21
-0.0000000235213236
 31
0.0
  0
LINE
  5
1796
330
19
100
AcDbEntity
  8
10
100
AcDbLine
 10
0.0000000293786862
 20
21.99999997647868
 30
0.0
 11
0.5000000293786862
 21
21.99999997647868
 31
0.0
  0
LINE
  5
1797
330
19
100
AcDbEntity
  8
10
100
AcDbLine
 10
0.0000000293786862
 20
21.99999997647868
 30
0.0
 11
0.0000000293786933
 21
21.49999997647868
 31
0.0
  0
LINE
  5
1798
330
19
100
AcDbEntity
  8
10
100
AcDbLine
 10
33.50000002937868
 20
21.49999997647868
 30
0.0
 11
33.50000002937868
 21
0.4999999764786569
 31
0.0
  0
LINE
  5
1799
330
19
100
AcDbEntity
  8
10
100
AcDbLine
 10
33.50000002937868
 20
-0.0000000235213165
 30
0.0
 11
34.00000002937869
 21
-0.0000000235213165
 31
0.0
  0
LINE
  5
179A
330
19
100
AcDbEntity
  8
10
100
AcDbLine
 10
34.00000002937868
 20
0.49999997647868
 30
0.0
 11
34.00000002937869
 21
-0.0000000235213165
 31
0.0
  0
LINE
  5
179B
330
19
100
AcDbEntity
  8
10
100
AcDbLine
 10
33.50000002937868
 20
21.99999997647868
 30
0.0
 11
34.00000002937871
 21
21.99999997647868
 31
0.0
  0
LINE
  5
179C
330
19
100
AcDbEntity
  8
10
100
AcDbLine
 10
34.00000002937869
 20
21.99999997647868
 30
0.0
 11
34.00000002937868
 21
21.49999997647868
 31
0.0
  0
INSERT
  5
1815
330
19
100
AcDbEntity
  8
0
100
AcDbBlockReference
 66
     1
  2
Title Block
 10
26.50000002140035
 20
0.4999999818693315
 30
0.0
  0
ATTRIB
  5
1816
330
1815
100
AcDbEntity
  8
0
100
AcDbText
 10
29.15106279067219
 20
0.8158430476019251
 30
0.0
 40
0.125
  1
R. JOHNSTON
  7
c3controls
 11
29.15106279067219
 21
0.8783430476019251
 31
0.0
100
AcDbAttribute
  2
NAME
 70
     0
 74
     2
  0
ATTRIB
  5
1817
330
1815
100
AcDbEntity
  8
0
100
AcDbText
 10
28.54562937461905
 20
1.666592913831872
 30
0.0
 40
0.125
  1
 
  7
c3controls
100
AcDbAttribute
  2
DESCRIPTION
 70
     0
  0
ATTRIB
  5
1818
330
1815
100
AcDbEntity
  8
0
100
AcDbText
 10
31.44961392916803
 20
0.5394471522661864
 30
0.0
 40
0.25
  1
60D10098
  7
c3controls
 72
     1
 11
32.25554844485698
 21
0.6644471522661864
 31
0.0
100
AcDbAttribute
  2
XX#XXXXX
 70
     0
 74
     2
  0
ATTRIB
  5
1819
330
1815
100
AcDbEntity
  8
0
100
AcDbText
 10
30.53893200494167
 20
0.56575559687513
 30
0.0
 40
0.125
  1
1:1
  7
c3controls
 72
     1
 11
30.6603081986661
 21
0.62825559687513
 31
0.0
100
AcDbAttribute
  2
1:1
 70
     0
 74
     2
  0
ATTRIB
  5
181A
330
1815
100
AcDbEntity
  8
0
100
AcDbText
 10
28.92716964602287
 20
0.5631452061430427
 30
0.0
 40
0.125
  1
02-27-2006
  7
c3controls
 72
     1
 11
29.37379311123433
 21
0.6256452061430427
 31
0.0
100
AcDbAttribute
  2
DATE
 70
     0
 74
     2
  0
ATTRIB
  5
181B
330
1815
100
AcDbEntity
  8
0
100
AcDbText
 10
26.50000002937868
 20
0.4999999818693315
 30
0.0
 40
0.125
  1
Y
  7
c3controls
100
AcDbAttribute
  2
OUTLINE_DRAWING
 70
     1
  0
SEQEND
  5
181C
330
1815
100
AcDbEntity
  8
0
  0
MTEXT
  5
1820
330
19
100
AcDbEntity
  8
0
100
AcDbMText
 10
28.54365830728724
 20
1.782763465333403
 30
0.0
 40
0.12
 41
4.928720719359503
 71
     1
 72
     5
  1
25 - 63 Amp DOOR MOUNTED DISCONNECT WITH DHM HANDLE OUTLINE DIMENSION DRAWING
  7
outline drawings
 73
     1
 44
1.0
  0
DIMENSION
  5
1995
330
19
100
AcDbEntity
  8
0
100
AcDbDimension
  2
*D27
 10
21.99001753092041
 20
5.164333041875309
 30
0.0
 11
21.99001753092041
 21
5.873333041875311
 31
0.0
 70
    32
 71
     5
 42
36.01719999999998
  3
Outline Drawings
100
AcDbAlignedDimension
 13
20.19134102999214
 23
6.582333041875308
 33
0.0
 14
20.19134102999214
 24
5.164333041875309
 34
0.0
 50
90.0
100
AcDbRotatedDimension
  0
LINE
  5
19D2
330
19
100
AcDbEntity
  8
0
 62
     7
100
AcDbLine
 10
13.72990528946894
 20
7.058333041875314
 30
0.0
 11
13.72990528946893
 21
4.688333041875317
 31
0.0
  0
LINE
  5
19D3
330
19
100
AcDbEntity
  8
0
 62
     7
100
AcDbLine
 10
17.11744528946894
 20
7.233333041875313
 30
0.0
 11
17.11744528946895
 21
4.513333041875307
 31
0.0
  0
LINE
  5
19D4
330
19
100
AcDbEntity
  8
0
 62
     7
100
AcDbLine
 10
18.49857102999213
 20
7.293333041875307
 30
0.0
 11
18.49857102999212
 21
4.453333041875318
 31
0.0
  0
LINE
  5
19D5
330
19
100
AcDbEntity
  8
0
 62
     7
100
AcDbLine
 10
20.46611102999215
 20
7.293333041875314
 30
0.0
 11
20.46611102999215
 21
4.45333304187531
 31
0.0
  0
DIMENSION
  5
19EA
330
19
100
AcDbEntity
  8
0
100
AcDbDimension
  2
*D28
 10
16.40744528946896
 20
9.453298334102719
 30
0.0
 11
15.42367528946895
 21
9.453298334102719
 31
0.0
 70
    32
 71
     5
 42
49.97551600000053
  3
Outline Drawings
100
AcDbAlignedDimension
 13
14.43990528946894
 23
7.88333304187531
 33
0.0
 14
16.40744528946896
 24
7.88333304187531
 34
0.0
100
AcDbRotatedDimension
  0
DIMENSION
  5
19F9
330
19
100
AcDbEntity
  8
0
100
AcDbDimension
  2
*D29
 10
13.72990528946894
 20
9.440655006532075
 30
0.0
 11
13.08424362507603
 21
9.440655006532075
 31
0.0
 70
    32
 71
     5
 42
18.03400000000002
  3
Outline Drawings
100
AcDbAlignedDimension
 13
14.43990528946894
 23
7.88333304187531
 33
0.0
 14
13.72990528946894
 24
7.058333041875314
 34
0.0
100
AcDbRotatedDimension
  0
LINE
  5
1A08
330
19
100
AcDbEntity
  8
0
 62
     7
100
AcDbLine
 10
10.78009482374973
 20
6.57833304187531
 30
0.0
 11
10.78009482374972
 21
5.168333041875306
 31
0.0
  0
DIMENSION
  5
1A09
330
19
100
AcDbEntity
  8
0
100
AcDbDimension
  2
*D30
 10
10.78009482374972
 20
3.444659173411103
 30
0.0
 11
9.671409823749719
 21
3.444659173411103
 31
0.0
 70
    32
 71
     5
 42
56.32119800000011
  3
Outline Drawings
100
AcDbAlignedDimension
 13
8.562724823749718
 23
4.928933041875311
 33
0.0
 14
10.78009482374972
 24
5.168333041875307
 34
0.0
100
AcDbRotatedDimension
  0
CIRCLE
  5
1A47
330
19
100
AcDbEntity
  8
0
100
AcDbCircle
 10
10.67845776039222
 20
19.56109369083731
 30
0.0
 40
0.281
  0
DIMENSION
  5
1A48
330
19
100
AcDbEntity
  8
0
100
AcDbDimension
  2
*D31
 10
10.95796536906041
 20
19.59001594345682
 30
0.0
 11
7.911363899865246
 21
19.2747666457977
 31
0.0
 70
   163
  1
<>\PCLEARANCE HOLE\PFOR SHAFT
 71
     5
 42
14.27479999999998
  3
Outline Drawings
100
AcDbDiametricDimension
 15
10.39895015172402
 25
19.5321714382178
 35
0.0
 40
0.0
1001
ACAD
1000
DSTYLE
1002
{
1070
   288
1070
     1
1002
}
  0
LINE
  5
1AAB
330
19
100
AcDbEntity
  8
0
100
AcDbLine
 10
22.71380550771814
 20
17.98142044288516
 30
0.0
 11
22.71380550771814
 21
19.33652469245178
 31
0.0
  0
LINE
  5
1AAC
330
19
100
AcDbEntity
  8
0
100
AcDbLine
 10
22.59380550771814
 20
18.04515538720515
 30
0.0
 11
22.59380550771814
 21
19.33652469245178
 31
0.0
  0
LINE
  5
1AAD
330
19
100
AcDbEntity
  8
0
100
AcDbLine
 10
22.83880550771813
 20
19.15652469245178
 30
0.0
 11
22.96380550771814
 21
19.15652469245178
 31
0.0
  0
LINE
  5
1AAE
330
19
100
AcDbEntity
  8
0
100
AcDbLine
 10
22.46880550771814
 20
19.15652469245178
 30
0.0
 11
22.34380550771815
 21
19.15652469245178
 31
0.0
  0
SOLID
  5
1AAF
330
19
100
AcDbEntity
  8
0
100
AcDbTrace
 10
22.83880550771813
 20
19.17735802578511
 30
0.0
 11
22.83880550771813
 21
19.13569135911845
 31
0.0
 12
22.71380550771814
 22
19.15652469245178
 32
0.0
 13
22.71380550771814
 23
19.15652469245178
 33
0.0
  0
SOLID
  5
1AB0
330
19
100
AcDbEntity
  8
0
100
AcDbTrace
 10
22.46880550771814
 20
19.17735802578511
 30
0.0
 11
22.46880550771814
 21
19.13569135911845
 31
0.0
 12
22.59380550771814
 22
19.15652469245178
 32
0.0
 13
22.59380550771814
 23
19.15652469245178
 33
0.0
  0
MTEXT
  5
1AB1
330
19
100
AcDbEntity
  8
0
100
AcDbMText
 10
23.95352518011477
 20
19.15652469245178
 30
0.0
 40
0.18
 41
0.0
 71
     5
 72
     1
  1
3 mm - 6mm\P0.12" - 0.25"\PPanel Thickness
  7
outline drawings
 73
     1
 44
1.0
  0
MTEXT
  5
1AB6
330
19
100
AcDbEntity
  8
0
100
AcDbMText
 10
7.286056418762541
 20
9.189436510311494
 30
0.0
 40
0.18
 41
0.0
 71
     5
 72
     1
  1
3 mm - 6mm\P0.12" - 0.25"\PPanel Thickness
  7
outline drawings
 73
     1
 44
1.0
  0
LINE
  5
1AB7
330
19
100
AcDbEntity
  8
0
100
AcDbLine
 10
8.562724823749718
 20
8.014332260744872
 30
0.0
 11
8.562724823749718
 21
9.369436510311494
 31
0.0
  0
LINE
  5
1AB8
330
19
100
AcDbEntity
  8
0
100
AcDbLine
 10
8.44272482374972
 20
8.078067205064868
 30
0.0
 11
8.44272482374972
 21
9.369436510311494
 31
0.0
  0
LINE
  5
1AB9
330
19
100
AcDbEntity
  8
0
100
AcDbLine
 10
8.687724823749718
 20
9.189436510311494
 30
0.0
 11
8.812724823749718
 21
9.189436510311494
 31
0.0
  0
LINE
  5
1ABA
330
19
100
AcDbEntity
  8
0
100
AcDbLine
 10
8.31772482374972
 20
9.189436510311494
 30
0.0
 11
8.19272482374972
 21
9.189436510311494
 31
0.0
  0
SOLID
  5
1ABB
330
19
100
AcDbEntity
  8
0
100
AcDbTrace
 10
8.687724823749718
 20
9.210269843644828
 30
0.0
 11
8.687724823749718
 21
9.168603176978161
 31
0.0
 12
8.562724823749718
 22
9.189436510311494
 32
0.0
 13
8.562724823749718
 23
9.189436510311494
 33
0.0
  0
SOLID
  5
1ABC
330
19
100
AcDbEntity
  8
0
100
AcDbTrace
 10
8.31772482374972
 20
9.210269843644828
 30
0.0
 11
8.31772482374972
 21
9.168603176978161
 31
0.0
 12
8.44272482374972
 22
9.189436510311494
 32
0.0
 13
8.44272482374972
 23
9.189436510311494
 33
0.0
  0
VIEWPORT
  5
BA
330
16
100
AcDbEntity
 67
     1
  8
0
100
AcDbViewport
 10
5.249999639556164
 20
6.140308632623733
 30
0.0
 40
11.99666166085311
 41
13.27361724380106
 68
     1
 69
     1
 12
5.249999639556164
 22
6.140308632623733
 13
0.0
 23
0.0
 14
0.5
 24
0.5
 15
0.5
 25
0.5
 16
0.0
 26
0.0
 36
1.0
 17
0.0
 27
0.0
 37
0.0
 42
50.0
 43
0.0
 44
0.0
 45
13.27361724380106
 50
0.0
 51
0.0
 72
   100
 90
    32800
  1

281
     0
 71
     1
 74
     0
110
0.0
120
0.0
130
0.0
111
1.0
121
0.0
131
0.0
112
0.0
122
1.0
132
0.0
 79
     0
146
0.0
170
     0
  0
ENDSEC
  0
SECTION
  2
OBJECTS
  0
DICTIONARY
  5
C
330
0
100
AcDbDictionary
281
     1
  3
ACAD_COLOR
350
3F8
  3
ACAD_GROUP
350
D
  3
ACAD_IMAGE_DICT
350
FE4
  3
ACAD_IMAGE_VARS
350
FF9
  3
ACAD_LAYOUT
350
150
  3
ACAD_MATERIAL
350
3F7
  3
ACAD_MLINESTYLE
350
E
  3
ACAD_PLOTSETTINGS
350
151
  3
ACAD_PLOTSTYLENAME
350
14E
  3
ACAD_TABLESTYLE
350
3F9
  3
ACDBVARIABLEDICTIONARY
350
FA
  3
AcmDictionary
350
189
  3
AMG
350
158
  3
AMGSNAPSETTINGS
350
1BA
  3
MAPISURF_MODULE
350
2A1
  0
DICTIONARY
  5
44C
330
2
100
AcDbDictionary
280
     1
281
     1
  3
ACAD_LAYERSTATES
360
44D
  0
DICTIONARY
  5
11F
330
19
100
AcDbDictionary
280
     1
281
     1
  3
ACAD_INDEX
360
1AC9
  3
ACAD_SORTENTS
360
178F
  0
DICTIONARY
  5
725
330
724
100
AcDbDictionary
280
     1
281
     1
  3
ACAD_SORTENTS
360
726
  0
DICTIONARY
  5
F04
330
F03
100
AcDbDictionary
280
     1
281
     1
  3
ACAD_SORTENTS
360
F05
  0
DICTIONARY
  5
F25
330
F24
100
AcDbDictionary
280
     1
281
     1
  0
DICTIONARY
  5
FE0
330
F51
100
AcDbDictionary
280
     1
281
     1
  3
ACAD_SORTENTS
360
FE1
  0
IMAGEDEF_REACTOR
  5
F22
330
F21
100
AcDbRasterImageDefReactor
 90
        2
330
F21
  0
IMAGEDEF_REACTOR
  5
F3D
330
F3C
100
AcDbRasterImageDefReactor
 90
        2
330
F3C
  0
DICTIONARY
  5
3F8
102
{ACAD_REACTORS
330
C
102
}
330
C
100
AcDbDictionary
281
     1
  0
DICTIONARY
  5
D
102
{ACAD_REACTORS
330
C
102
}
330
C
100
AcDbDictionary
281
     1
  0
DICTIONARY
  5
FE4
102
{ACAD_REACTORS
330
C
102
}
330
C
100
AcDbDictionary
281
     1
  3
c3 logo
350
FE5
  3
c3 logo B_C_D Size Title Block Image
350
FE6
  0
RASTERVARIABLES
  5
FF9
102
{ACAD_REACTORS
330
C
102
}
330
C
100
AcDbRasterVariables
 90
        0
 70
     1
 71
     1
 72
     5
  0
DICTIONARY
  5
150
102
{ACAD_REACTORS
330
C
102
}
330
C
100
AcDbDictionary
281
     1
  3
Layout1
350
153
  3
Model
350
152
  0
DICTIONARY
  5
3F7
102
{ACAD_REACTORS
330
C
102
}
330
C
100
AcDbDictionary
281
     1
  0
DICTIONARY
  5
E
102
{ACAD_REACTORS
330
C
102
}
330
C
100
AcDbDictionary
281
     1
  3
STANDARD
350
1C
  0
DICTIONARY
  5
151
102
{ACAD_REACTORS
330
C
102
}
330
C
100
AcDbDictionary
281
     1
  0
ACDBDICTIONARYWDFLT
  5
14E
102
{ACAD_REACTORS
330
C
102
}
330
C
100
AcDbDictionary
281
     1
  3
Normal
350
14F
100
AcDbDictionaryWithDefault
340
14F
  0
DICTIONARY
  5
3F9
102
{ACAD_REACTORS
330
C
102
}
330
C
100
AcDbDictionary
281
     1
  3
Standard
350
3FA
  0
DICTIONARY
  5
FA
102
{ACAD_REACTORS
330
C
102
}
330
C
100
AcDbDictionary
281
     1
  3
CTABLESTYLE
350
429
  3
DIMASSOC
350
3F5
  3
INDEXCTL
350
FB
  0
DICTIONARY
  5
189
102
{ACAD_REACTORS
330
C
102
}
330
C
100
AcDbDictionary
281
     1
  3
AcmBOMDATA
350
18A
  3
AcmStdDictionary
350
2C1
  3
AMDTSECTSYM_ARROWCOLOR
350
402
  0
DICTIONARY
  5
158
102
{ACAD_REACTORS
330
C
102
}
330
C
100
AcDbDictionary
281
     1
  3
AcMgSettings
350
159
  3
AMGLAYCFG
350
15B
  0
DICTIONARY
  5
1BA
102
{ACAD_REACTORS
330
C
102
}
330
C
100
AcDbDictionary
281
     1
  3
DIMENSION
350
1BE
  3
FEA
350
1BD
  3
HATCH
350
1BB
  3
SYMBOLS
350
1BC
  0
DICTIONARY
  5
44D
102
{ACAD_REACTORS
330
44C
102
}
330
44C
100
AcDbDictionary
281
     1
  0
DICTIONARY
  5
1AC9
102
{ACAD_REACTORS
330
11F
102
}
330
11F
100
AcDbDictionary
281
     1
  3
*A1
350
1ACA
  0
SORTENTSTABLE
  5
178F
102
{ACAD_REACTORS
330
11F
102
}
330
11F
100
AcDbSortentsTable
330
19
331
11D8
  5
11D8
331
11E0
  5
11E0
331
14A4
  5
14AF
331
14DB
  5
14E6
331
151A
  5
153B
331
11E8
  5
11E8
331
121F
  5
1227
331
14AC
  5
14B7
331
1522
  5
177A
331
14B4
  5
14BF
331
11F0
  5
11F0
331
1227
  5
122F
331
1475
  5
147D
331
14EB
  5
14FE
331
152A
  5
1782
331
122F
  5
1474
331
147D
  5
1485
331
14BC
  5
14C7
331
14F3
  5
1509
331
153A
  5
1786
331
1791
  5
1A08
331
1799
  5
1AAF
331
1AB1
  5
1215
331
1AB9
  5
14F3
331
11F8
  5
11F8
331
1200
  5
1200
331
11C1
  5
11C1
331
1485
  5
148E
331
14C4
  5
14D0
331
14FB
  5
1511
331
14CC
  5
14D9
331
11C9
  5
11C9
331
148D
  5
1497
331
1503
  5
1517
331
11D1
  5
11D1
331
1495
  5
14A0
331
14D4
  5
14DF
331
150B
  5
151F
331
149D
  5
14A8
331
1513
  5
1528
331
177A
  5
1790
331
1782
  5
1798
331
178A
  5
19D2
331
11D9
  5
11D9
331
1210
  5
1219
331
11E1
  5
11E1
331
1218
  5
1220
331
14A5
  5
14B0
331
14DC
  5
14E7
331
151B
  5
153C
331
11E9
  5
11E9
331
1220
  5
1228
331
14AD
  5
14B8
331
14E4
  5
14F9
331
1523
  5
177B
331
14B5
  5
14C0
331
11F1
  5
11F1
331
1228
  5
1230
331
1476
  5
147E
331
14EC
  5
14FF
331
152B
  5
1783
331
147E
  5
1486
331
14BD
  5
14C8
331
14F4
  5
150A
331
153B
  5
1787
331
1792
  5
1A09
331
179A
  5
1AB0
331
1ABA
  5
14F4
331
11F9
  5
11F9
331
1230
  5
1475
331
11C2
  5
11C2
331
1486
  5
148F
331
14C5
  5
14D2
331
14FC
  5
1512
331
14CD
  5
14DA
331
11CA
  5
11CA
331
1209
  5
1209
331
148E
  5
1499
331
1504
  5
1518
331
11D2
  5
11D2
331
14D5
  5
14E0
331
150C
  5
1520
331
149E
  5
14A9
331
1514
  5
1529
331
177B
  5
1791
331
1A47
  5
1ABC
331
1783
  5
1799
331
178B
  5
19D3
331
11DA
  5
11DA
331
1211
  5
121A
331
11E2
  5
11E2
331
1219
  5
1221
331
14A6
  5
14B1
331
14DD
  5
14E8
331
151C
  5
153D
331
11EA
  5
11EA
331
1221
  5
1229
331
146F
  5
1477
331
14AE
  5
14B9
331
14E5
  5
14FA
331
1524
  5
177C
331
14B6
  5
14C1
331
11F2
  5
11F2
331
1229
  5
1232
331
1477
  5
147F
331
14ED
  5
1500
331
152C
  5
1784
331
147F
  5
1488
331
14BE
  5
14C9
331
14F5
  5
150B
331
153C
  5
1788
331
1793
  5
1A47
331
1A08
  5
1490
331
179B
  5
1AB1
331
1AAB
  5
120F
331
1ABB
  5
14F5
331
11FA
  5
11FA
331
11C3
  5
11C3
331
14C6
  5
14D3
331
14FD
  5
1513
331
14CE
  5
14DB
331
120A
  5
120A
331
11CB
  5
11CB
331
148F
  5
149A
331
1505
  5
1519
331
11D3
  5
11D3
331
14D6
  5
14E1
331
150D
  5
1521
331
149F
  5
14AA
331
1515
  5
152A
331
177C
  5
1792
331
1A48
  5
1ABD
331
1784
  5
179A
331
178C
  5
19D4
331
19F9
  5
1ABA
331
11DB
  5
11DB
331
1212
  5
121B
331
11E3
  5
11E3
331
121A
  5
1222
331
14A7
  5
14B2
331
14DE
  5
14EB
331
151D
  5
153E
331
14E6
  5
14FB
331
FF4
  5
FF4
331
11EB
  5
11EB
331
1222
  5
122A
331
1470
  5
1478
331
14AF
  5
14BA
331
1525
  5
177D
331
11F3
  5
11F3
331
122A
  5
146F
331
1478
  5
1480
331
14B7
  5
14C2
331
14EE
  5
1502
331
14BF
  5
14CA
331
14F6
  5
150C
331
153D
  5
1789
331
1794
  5
1A48
331
1A09
  5
1ABB
331
179C
  5
1AB2
331
19D2
  5
1524
331
1AAC
  5
1210
331
1ABC
  5
14F6
331
11FB
  5
11FB
331
11BC
  5
11BC
331
1232
  5
1476
331
1480
  5
1489
331
11C4
  5
11C4
331
1488
  5
1491
331
14C7
  5
14D4
331
14FE
  5
1514
331
11CC
  5
11CC
331
120B
  5
120B
331
1490
  5
149B
331
1506
  5
151A
331
14D7
  5
14E2
331
11D4
  5
11D4
331
1498
  5
14A3
331
150E
  5
1522
331
1516
  5
152B
331
177D
  5
1793
331
19EA
  5
1AB9
331
1785
  5
179B
331
178D
  5
19D5
331
11DC
  5
11DC
331
1213
  5
121C
331
14A0
  5
14AB
331
11E4
  5
11E4
331
121B
  5
1223
331
14A8
  5
14B3
331
14DF
  5
14EC
331
151E
  5
153F
331
14B0
  5
14BB
331
11EC
  5
11EC
331
1223
  5
122B
331
1471
  5
1479
331
1526
  5
177E
331
11F4
  5
11F4
331
122B
  5
1470
331
1479
  5
1481
331
14B8
  5
14C3
331
14EF
  5
1504
331
1795
  5
1AAB
331
14F7
  5
150D
331
153E
  5
178A
331
19D3
  5
1506
331
1815
  5
1AB6
331
1AAD
  5
1211
331
11BD
  5
11BD
331
11FC
  5
11FC
331
1481
  5
148A
331
14C0
  5
14CB
331
1204
  5
1204
331
11C5
  5
11C5
331
1489
  5
1492
331
14C8
  5
14D5
331
14FF
  5
1515
331
11CD
  5
11CD
331
120C
  5
120C
331
1491
  5
149C
331
14D0
  5
14DC
331
1507
  5
151B
331
11D5
  5
11D5
331
1499
  5
14A4
331
150F
  5
1523
331
177E
  5
1794
331
1517
  5
152C
331
1786
  5
179C
331
178E
  5
19EA
331
11DD
  5
11DD
331
1214
  5
121D
331
14A1
  5
14AC
331
14D8
  5
14E3
331
11E5
  5
11E5
331
121C
  5
1224
331
14A9
  5
14B4
331
14E0
  5
14ED
331
151F
  5
1777
331
14B1
  5
14BC
331
11ED
  5
11ED
331
1224
  5
122C
331
1472
  5
147A
331
1527
  5
177F
331
11F5
  5
11F5
331
122C
  5
1471
331
147A
  5
1482
331
14B9
  5
14C4
331
14F0
  5
1505
331
1796
  5
1AAC
331
153F
  5
178B
331
19D4
  5
14A1
331
1777
  5
178C
331
1AAE
  5
1212
331
1AB6
  5
1ABE
331
11BE
  5
11BE
331
11FD
  5
11FD
331
1482
  5
148B
331
14C1
  5
14CC
331
14F8
  5
150E
331
11C6
  5
11C6
331
1205
  5
1205
331
148A
  5
1493
331
14C9
  5
14D6
331
11CE
  5
11CE
331
120D
  5
120D
331
1492
  5
149D
331
1508
  5
151C
331
11D6
  5
11D6
331
149A
  5
14A5
331
1510
  5
1525
331
1995
  5
1AB8
331
177F
  5
1795
331
1787
  5
1815
331
11DE
  5
11DE
331
1215
  5
121E
331
14A2
  5
14AD
331
14D9
  5
14E4
331
1518
  5
1539
331
11E6
  5
11E6
331
121D
  5
1225
331
14AA
  5
14B5
331
14E1
  5
14EE
331
1520
  5
1778
331
14E9
  5
14FC
331
11EE
  5
11EE
331
1225
  5
122D
331
1473
  5
147B
331
14B2
  5
14BD
331
1528
  5
1780
331
11F6
  5
11F6
331
122D
  5
1472
331
147B
  5
1483
331
14BA
  5
14C5
331
14F1
  5
1507
331
1797
  5
1AAD
331
19D5
  5
14A2
331
1AAF
  5
1213
331
1AB7
  5
14F1
331
9C6
  5
9C6
331
11FE
  5
11FE
331
11BF
  5
11BF
331
1483
  5
148C
331
14C2
  5
14CD
331
14F9
  5
150F
331
1206
  5
1206
331
11C7
  5
11C7
331
148B
  5
1494
331
14CA
  5
14D7
331
1501
  5
1516
331
11CF
  5
11CF
331
1493
  5
149E
331
14D2
  5
14DD
331
1509
  5
151D
331
1778
  5
178D
331
11D7
  5
11D7
331
149B
  5
14A6
331
1511
  5
1526
331
1780
  5
1796
331
1788
  5
1820
331
11DF
  5
11DF
331
1216
  5
121F
331
14A3
  5
14AE
331
14DA
  5
14E5
331
1519
  5
153A
331
14E2
  5
14EF
331
11E7
  5
11E7
331
121E
  5
1226
331
14AB
  5
14B6
331
1521
  5
1779
331
14EA
  5
14FD
331
11EF
  5
11EF
331
1226
  5
122E
331
1474
  5
147C
331
14B3
  5
14BE
331
1529
  5
1781
331
1790
  5
19F9
331
11F7
  5
11F7
331
122E
  5
1473
331
147C
  5
1484
331
14BB
  5
14C6
331
14F2
  5
1508
331
1539
  5
1785
331
1798
  5
1AAE
331
1AB0
  5
1214
331
1AB8
  5
14F2
331
11C0
  5
11C0
331
11FF
  5
11FF
331
1484
  5
148D
331
14C3
  5
14CE
331
14FA
  5
1510
331
14CB
  5
14D8
331
11C8
  5
11C8
331
1207
  5
1207
331
148C
  5
1495
331
11D0
  5
11D0
331
120F
  5
1218
331
1494
  5
149F
331
14D3
  5
14DE
331
150A
  5
151E
331
1779
  5
178E
331
1820
  5
1AB7
331
149C
  5
14A7
331
1512
  5
1527
331
1781
  5
1797
331
1789
  5
1995
  0
SORTENTSTABLE
  5
726
102
{ACAD_REACTORS
330
725
102
}
330
725
100
AcDbSortentsTable
330
724
  0
SORTENTSTABLE
  5
F05
102
{ACAD_REACTORS
330
F04
102
}
330
F04
100
AcDbSortentsTable
330
F03
  0
SORTENTSTABLE
  5
FE1
102
{ACAD_REACTORS
330
FE0
102
}
330
FE0
100
AcDbSortentsTable
330
F51
  0
IMAGEDEF
  5
FE5
102
{ACAD_REACTORS
330
FE4
102
}
330
FE4
100
AcDbRasterImageDef
 90
        0
  1
\\SBSSERVER\DfsRoot\Home\pdamesimo\My Pictures\c3 logo.bmp
 10
297.0
 20
60.0
 11
0.264550269889837
 21
0.264550269889837
280
     1
281
     2
  0
IMAGEDEF
  5
FE6
102
{ACAD_REACTORS
330
F22
330
FE4
330
F3D
102
}
330
FE4
100
AcDbRasterImageDef
 90
        0
  1
K:\Archive- EngrDwgs\Borders\Title Blocks\c3 logo B,C,D Size Title Block Image.bmp
 10
383.0
 20
81.0
 11
0.264550269889837
 21
0.264550269889837
280
     1
281
     2
  0
LAYOUT
  5
153
102
{ACAD_XDICTIONARY
360
44F
102
}
102
{ACAD_REACTORS
330
150
102
}
330
150
100
AcDbPlotSettings
  1

  2
none_device
  4
Letter_(8.50_x_11.00_Inches)
  6

 40
6.349999904632568
 41
6.349999904632568
 42
6.350006103515625
 43
6.350006103515625
 44
215.8999938964844
 45
279.3999938964844
 46
0.0
 47
0.0
 48
0.0
 49
0.0
140
0.0
141
0.0
142
1.0
143
1.0
 70
   688
 72
     0
 73
     1
 74
     5
  7

 75
     0
147
1.0
 76
     0
 77
     2
 78
   300
148
0.0
149
0.0
100
AcDbLayout
  1
Layout1
 70
     1
 71
     1
 10
-0.2500002402958907
 20
-0.2499999962453767
 11
10.74999951940821
 21
8.249999763458731
 12
0.0
 22
0.0
 32
0.0
 14
1.000000000000000E+20
 24
1.000000000000000E+20
 34
1.000000000000000E+20
 15
-1.000000000000000E+20
 25
-1.000000000000000E+20
 35
-1.000000000000000E+20
146
0.0
 13
0.0
 23
0.0
 33
0.0
 16
1.0
 26
0.0
 36
0.0
 17
0.0
 27
1.0
 37
0.0
 76
     0
330
16
331
BA
  0
LAYOUT
  5
152
102
{ACAD_REACTORS
330
150
102
}
330
150
100
AcDbPlotSettings
  1

  2
\\NOVIBDC\HPLJ4-TPUB
  4

  6

 40
0.0
 41
0.0
 42
0.0
 43
0.0
 44
0.0
 45
0.0
 46
0.0
 47
0.0
 48
0.0
 49
0.0
140
0.0
141
0.0
142
1.0
143
1.0
 70
  1712
 72
     0
 73
     0
 74
     0
  7

 75
     0
147
1.0
 76
     0
 77
     2
 78
   300
148
0.0
149
0.0
100
AcDbLayout
  1
Model
 70
     1
 71
     0
 10
0.0
 20
0.0
 11
12.0
 21
9.0
 12
0.0
 22
0.0
 32
0.0
 14
0.0
 24
0.0
 34
0.0
 15
0.0
 25
0.0
 35
0.0
146
0.0
 13
0.0
 23
0.0
 33
0.0
 16
1.0
 26
0.0
 36
0.0
 17
0.0
 27
1.0
 37
0.0
 76
     0
330
19
  0
MLINESTYLE
  5
1C
102
{ACAD_REACTORS
330
E
102
}
330
E
100
AcDbMlineStyle
  2
STANDARD
 70
     0
  3

 62
     0
 51
90.0
 52
90.0
 71
     2
 49
0.5
 62
   256
  6
BYLAYER
 49
-0.5
 62
   256
  6
BYLAYER
  0
ACDBPLACEHOLDER
  5
14F
102
{ACAD_REACTORS
330
14E
102
}
330
14E
  0
TABLESTYLE
  5
3FA
102
{ACAD_REACTORS
330
3F9
102
}
330
3F9
100
AcDbTableStyle
  3
Standard
 70
     0
 71
     0
 40
0.06
 41
0.06
280
     0
281
     0
  7
STANDARD
140
0.18
170
     2
 62
     0
 63
     7
283
     0
274
    -2
284
     1
 64
     0
275
    -2
285
     1
 65
     0
276
    -2
286
     1
 66
     0
277
    -2
287
     1
 67
     0
278
    -2
288
     1
 68
     0
279
    -2
289
     1
 69
     0
  7
STANDARD
140
0.25
170
     5
 62
     0
 63
     7
283
     0
274
    -2
284
     1
 64
     0
275
    -2
285
     1
 65
     0
276
    -2
286
     1
 66
     0
277
    -2
287
     1
 67
     0
278
    -2
288
     1
 68
     0
279
    -2
289
     1
 69
     0
  7
STANDARD
140
0.18
170
     5
 62
     0
 63
     7
283
     0
274
    -2
284
     1
 64
     0
275
    -2
285
     1
 65
     0
276
    -2
286
     1
 66
     0
277
    -2
287
     1
 67
     0
278
    -2
288
     1
 68
     0
279
    -2
289
     1
 69
     0
  0
DICTIONARYVAR
  5
429
102
{ACAD_REACTORS
330
FA
102
}
330
FA
100
DictionaryVariables
280
     0
  1
STANDARD
  0
DICTIONARYVAR
  5
3F5
102
{ACAD_REACTORS
330
FA
102
}
330
FA
100
DictionaryVariables
280
     0
  1
1
  0
DICTIONARYVAR
  5
FB
102
{ACAD_REACTORS
330
FA
102
}
330
FA
100
DictionaryVariables
280
     0
  1
1
  0
ACMDATADICTIONARY
  5
18A
102
{ACAD_REACTORS
330
189
102
}
330
189
100
AcDbDictionary
281
     1
  3
*A1
350
18B
  3
*A2
350
FE8
100
AcmDataDictionary
  0
DICTIONARY
  5
2C1
102
{ACAD_REACTORS
330
189
102
}
330
189
100
AcDbDictionary
281
     1
  3
ANSI
350
39A
  0
XRECORD
  5
402
102
{ACAD_REACTORS
330
189
102
}
330
189
100
AcDbXrecord
280
     1
 90
-1023410169
  0
DICTIONARY
  5
159
102
{ACAD_REACTORS
330
158
102
}
330
158
100
AcDbDictionary
281
     1
  3
DWGSETTINGS
350
15A
  3
Shaft
350
375
  3
TRANSSETTINGS
350
166
  0
ACAMGFILTERDAT
  5
1BE
102
{ACAD_REACTORS
330
1BA
102
}
330
1BA
100
AcAmgFilterDat
 70
    15
  1
DIMENSION,AMDT_*_DIM
  2
*
  3
*
  4
*
  5
*
290
     1
  0
ACAMGFILTERDAT
  5
1BD
102
{ACAD_REACTORS
330
1BA
102
}
330
1BA
100
AcAmgFilterDat
 70
    15
  1
*
  2
AM_FEA-AM_*
  3
*
  4
*
  5
*
290
     1
  0
ACAMGFILTERDAT
  5
1BB
102
{ACAD_REACTORS
330
1BA
102
}
330
1BA
100
AcAmgFilterDat
 70
    15
  1
HATCH
  2
*
  3
*
  4
*
  5
*
290
     1
  0
ACAMGFILTERDAT
  5
1BC
102
{ACAD_REACTORS
330
1BA
102
}
330
1BA
100
AcAmgFilterDat
 70
    15
  1
ACMFCFRAME,ACMDATUMTARGET,ACMDATUMID,ACMWELDSYM,ACMSURFSYM,ACMFEATID,ACMPARTREF,ACMBALLOON
  2
*
  3
*
  4
*
  5
*
290
     1
  0
LAYER_INDEX
  5
1ACA
102
{ACAD_REACTORS
330
1AC9
102
}
330
1AC9
100
AcDbIndex
 40
2454817.563004688
100
AcDbLayerIndex
  8
0
360
1ACB
 90
      352
  8
DEFPOINTS
360
1ACC
 90
        0
  8
L0
360
1ACD
 90
        0
  8
CENTER
360
1ACE
 90
        0
  8
10
360
1ACF
 90
       13
  8
L-REV
360
1AD0
 90
        0
  8
L-INSPECTION
360
1AD1
 90
        0
  8
L-DIM
360
1AD2
 90
        0
  8
LREV
360
1AD3
 90
        0
  0
DICTIONARY
  5
44F
330
153
100
AcDbDictionary
280
     1
281
     1
  3
ADSK_XREC_LAYOUTTHUMBNAIL
360
450
  0
ACMDATAENTRYBLOCK
  5
18B
102
{ACAD_REACTORS
330
18A
102
}
330
18A
100
AcmDataEntry
100
AcmDataEntryBlock
  0
ACMDATAENTRYBLOCK
  5
FE8
102
{ACAD_REACTORS
330
18A
102
}
330
18A
100
AcmDataEntry
100
AcmDataEntryBlock
  0
IDBUFFER
  5
1ACB
330
0
100
AcDbIdBuffer
330
9C6
330
FF4
330
11BC
330
11BD
330
11BE
330
11BF
330
11C0
330
11C1
330
11C2
330
11C3
330
11C4
330
11C5
330
11C6
330
11C7
330
11C8
330
11C9
330
11CA
330
11CB
330
11CC
330
11CD
330
11CE
330
11CF
330
11D0
330
11D1
330
11D2
330
11D3
330
11D4
330
11D5
330
11D6
330
11D7
330
11D8
330
11D9
330
11DA
330
11DB
330
11DC
330
11DD
330
11DE
330
11DF
330
11E0
330
11E1
330
11E2
330
11E3
330
11E4
330
11E5
330
11E6
330
11E7
330
11E8
330
11E9
330
11EA
330
11EB
330
11EC
330
11ED
330
11EE
330
11EF
330
11F0
330
11F1
330
11F2
330
11F3
330
11F4
330
11F5
330
11F6
330
11F7
330
11F8
330
11F9
330
11FA
330
11FB
330
11FC
330
11FD
330
11FE
330
11FF
330
1200
330
1204
330
1205
330
1206
330
1207
330
1209
330
120A
330
120B
330
120C
330
120D
330
120F
330
1210
330
1211
330
1212
330
1213
330
1214
330
1215
330
1216
330
1218
330
1219
330
121A
330
121B
330
121C
330
121D
330
121E
330
121F
330
1220
330
1221
330
1222
330
1223
330
1224
330
1225
330
1226
330
1227
330
1228
330
1229
330
122A
330
122B
330
122C
330
122D
330
122E
330
122F
330
1230
330
1232
330
146F
330
1470
330
1471
330
1472
330
1473
330
1474
330
1475
330
1476
330
1477
330
1478
330
1479
330
147A
330
147B
330
147C
330
147D
330
147E
330
147F
330
1480
330
1481
330
1482
330
1483
330
1484
330
1485
330
1486
330
1488
330
1489
330
148A
330
148B
330
148C
330
148D
330
148E
330
148F
330
1490
330
1491
330
1492
330
1493
330
1494
330
1495
330
1498
330
1499
330
149A
330
149B
330
149C
330
149D
330
149E
330
149F
330
14A0
330
14A1
330
14A2
330
14A3
330
14A4
330
14A5
330
14A6
330
14A7
330
14A8
330
14A9
330
14AA
330
14AB
330
14AC
330
14AD
330
14AE
330
14AF
330
14B0
330
14B1
330
14B2
330
14B3
330
14B4
330
14B5
330
14B6
330
14B7
330
14B8
330
14B9
330
14BA
330
14BB
330
14BC
330
14BD
330
14BE
330
14BF
330
14C0
330
14C1
330
14C2
330
14C3
330
14C4
330
14C5
330
14C6
330
14C7
330
14C8
330
14C9
330
14CA
330
14CB
330
14CC
330
14CD
330
14CE
330
14D0
330
14D2
330
14D3
330
14D4
330
14D5
330
14D6
330
14D7
330
14D8
330
14D9
330
14DA
330
14DB
330
14DC
330
14DD
330
14DE
330
14DF
330
14E0
330
14E1
330
14E2
330
14E4
330
14E5
330
14E6
330
14E9
330
14EA
330
14EB
330
14EC
330
14ED
330
14EE
330
14EF
330
14F0
330
14F1
330
14F2
330
14F3
330
14F4
330
14F5
330
14F6
330
14F7
330
14F8
330
14F9
330
14FA
330
14FB
330
14FC
330
14FD
330
14FE
330
14FF
330
1501
330
1503
330
1504
330
1505
330
1506
330
1507
330
1508
330
1509
330
150A
330
150B
330
150C
330
150D
330
150E
330
150F
330
1510
330
1511
330
1512
330
1513
330
1514
330
1515
330
1516
330
1517
330
1518
330
1519
330
151A
330
151B
330
151C
330
151D
330
151E
330
151F
330
1520
330
1521
330
1522
330
1523
330
1524
330
1525
330
1526
330
1527
330
1528
330
1529
330
152A
330
152B
330
152C
330
1539
330
153A
330
153B
330
153C
330
153D
330
153E
330
153F
330
1777
330
1778
330
1779
330
177A
330
177B
330
177C
330
177D
330
177E
330
177F
330
1780
330
1781
330
1782
330
1783
330
1784
330
1785
330
1786
330
1787
330
1788
330
1789
330
178A
330
178B
330
178C
330
178D
330
178E
330
1815
330
1820
330
1995
330
19D2
330
19D3
330
19D4
330
19D5
330
19EA
330
19F9
330
1A08
330
1A09
330
1A47
330
1A48
330
1AAB
330
1AAC
330
1AAD
330
1AAE
330
1AAF
330
1AB0
330
1AB1
330
1AB6
330
1AB7
330
1AB8
330
1AB9
330
1ABA
330
1ABB
330
1ABC
  0
IDBUFFER
  5
1ACC
330
0
100
AcDbIdBuffer
  0
IDBUFFER
  5
1ACD
330
0
100
AcDbIdBuffer
  0
IDBUFFER
  5
1ACE
330
0
100
AcDbIdBuffer
  0
IDBUFFER
  5
1ACF
330
0
100
AcDbIdBuffer
330
1790
330
1791
330
1792
330
1793
330
1794
330
1795
330
1796
330
1797
330
1798
330
1799
330
179A
330
179B
330
179C
  0
IDBUFFER
  5
1AD0
330
0
100
AcDbIdBuffer
  0
IDBUFFER
  5
1AD1
330
0
100
AcDbIdBuffer
  0
IDBUFFER
  5
1AD2
330
0
100
AcDbIdBuffer
  0
IDBUFFER
  5
1AD3
330
0
100
AcDbIdBuffer
  0
XRECORD
  5
450
102
{ACAD_REACTORS
330
44F
102
}
330
44F
100
AcDbXrecord
280
     1
310
28000000B40000008B0000000100080000000000BC61000000000000000000000001000000000000FFFFFF0000000000FFFFFF000000000000000000000000000000000000000000000000000000000000000000330000006600000099000000CC000000FF00000000330000333300006633000099330000CC330000FF3300
310
0000660000336600006666000099660000CC660000FF66000000990000339900006699000099990000CC990000FF99000000CC000033CC000066CC000099CC0000CCCC0000FFCC000000FF000033FF000066FF000099FF0000CCFF0000FFFF000000003300330033006600330099003300CC003300FF003300003333003333
310
33006633330099333300CC333300FF33330000663300336633006666330099663300CC663300FF66330000993300339933006699330099993300CC993300FF99330000CC330033CC330066CC330099CC3300CCCC3300FFCC330000FF330033FF330066FF330099FF3300CCFF3300FFFF330000006600330066006600660099
310
006600CC006600FF00660000336600333366006633660099336600CC336600FF33660000666600336666006666660099666600CC666600FF66660000996600339966006699660099996600CC996600FF99660000CC660033CC660066CC660099CC6600CCCC6600FFCC660000FF660033FF660066FF660099FF6600CCFF6600
310
FFFF660000009900330099006600990099009900CC009900FF00990000339900333399006633990099339900CC339900FF33990000669900336699006666990099669900CC669900FF66990000999900339999006699990099999900CC999900FF99990000CC990033CC990066CC990099CC9900CCCC9900FFCC990000FF99
310
0033FF990066FF990099FF9900CCFF9900FFFF99000000CC003300CC006600CC009900CC00CC00CC00FF00CC000033CC003333CC006633CC009933CC00CC33CC00FF33CC000066CC003366CC006666CC009966CC00CC66CC00FF66CC000099CC003399CC006699CC009999CC00CC99CC00FF99CC0000CCCC0033CCCC0066CC
310
CC0099CCCC00CCCCCC00FFCCCC0000FFCC0033FFCC0066FFCC0099FFCC00CCFFCC00FFFFCC000000FF003300FF006600FF009900FF00CC00FF00FF00FF000033FF003333FF006633FF009933FF00CC33FF00FF33FF000066FF003366FF006666FF009966FF00CC66FF00FF66FF000099FF003399FF006699FF009999FF00CC
310
99FF00FF99FF0000CCFF0033CCFF0066CCFF0099CCFF00CCCCFF00FFCCFF0000FFFF0033FFFF0066FFFF0099FFFF00CCFFFF00FFFFFF00000000000D0D0D001A1A1A00282828003535350043434300505050005D5D5D006B6B6B00787878008686860093939300A1A1A100AEAEAE00BBBBBB00C9C9C900D6D6D600E4E4E400
310
F1F1F100FFFFFF0000000000000000000000000000000000000000000000000000000000000000000000000000000000E2E2E2E2E2E2E2E2E2E2E2E2E2E2E2E2E2E2E2E2E2E2E2E2E2E2E2E2E2E2E2E2E2E2E2E2E2E2E2E2E2E2E2E2E2E2E2E2E2E2E2E2E2E2E2E2E2E2E2E2E2E2E2E2E2E2E2E2E2E2E2E2E2E2E2E2E2E2E2
310
E2E2E2E2E2E2E2E2E2E2E2E2E2E2E2E2E2E2E2E2E2E2E2E2E2E2E2E2E2E2E2E2E2E2E2E2E2E2E2E2E2E2E2E2E2E2E2E2E2E2E2E2E2E2E2E2E2E2E2E2E2E2E2E2E2E2E2E2E2E2E2E2E2E2E2E2E2E2E2E2E2E2E2E2E2E2E2E2E2E2E2E2E2E2E2E2E2E2E2E2E2E2F5F5F5F5F5F5F5F5F5F5F5F5F5F5F5F5F5F5F5F5F5F5F5F5F5
310
F5F5F5F5F5F5F5F5F5F5F5F5F5F5F5F5F5F5F5F5F5F5F5F5F5F5F5F5F5F5F5F5F5F5F5F5F5F5F5F5F5F5F5F5F5F5F5F5F5F5F5F5F5F5F5F5F5F5F5F5F5F5F5F5F5F5F5F5F5F5F5F5F5F5F5F5F5F5F5F5F5F5F5F5F5F5F5F5F5F5F5F5F5F5F5F5F5F5F5F5F5F5F5F5F5F5F5F5F5F5F5F5F5F5F5F5F5F5F5F5F5F5F5F5F5F5F5
310
F5F5F5F5F5F5F5F5F5F5F5F5F5F5F5F5F5F5F5F5F5F5F5F5F5F5E2E2F5F5F5F5F5F5F5F5F5F5F5F5F5F5F5F5F5F5F5F5F5F5F5F5F5F5F5F5F5F5F5F5F5F5F5F5F5F5F5F5F5F5F5F5F5F5F5F5F5F5F5F5F5F5F5F5F5F5F5F5F5F5F5F5F5F5F5F5F5F5F5F5F5F5F5F5F5F5F5F5F5F5F5F5F5F5F5F5F5F5F5F5F5F5F5F5F5F5F5
310
F5F5F5F5F5F5F5F5F5F5F5F5F5F5F5F5F5F5F5F5F5F5F5F5F5F5F5F5F5F5F5F5F5F5F5F5F5F5F5F5F5F5F5F5F5F5F5F5F5F5F5F5F5F5F5F5F5F5F5F5F5F5F5F5F5F5F5F5F5F5F5F5F5F5F5F5F5F5F5E2E2F5F5F5F5F5F5F5F5F5F5F5F5F5F5F5F5F5F5F5F5F5F5F5F5F5F5F5F5F5F5F5F5F5F5F5F5F5F5F5F5F5F5F5F5F5F5
310
F5F5F5F5F5F5F5F5F5F5F5F5F5F5F5F5F5F5F5F5F5F5F5F5F5F5F5F5F5F5F5F5F5F5F5F5F5F5F5F5F5F5F5F5F5F5F5F5F5F5F5F5F5F5F5F5F5F5F5F5F5F5F5F5F5F5F5F5F5F5F5F5F5F5F5F5F5F5F5F5F5F5F5F5F5F5F5F5F5F5F5F5F5F5F5F5F5F5F5F5F5F5F5F5F5F5F5F5F5F5F5F5F5F5F5F5F5F5F5F5F5F5F5F5F5F5F5
310
F5F5F5F5F5E2E2F5F5F5F5F5F5F5F5F5F5F5F5F5F5F5F5F5F5F5F5F5F5F5F5F5F5F5F5F5F5F5F5F5F5F5F5F5F5F5F5F5F5F5F5F5F5F5F5F5F5F5F5F5F5F5F5F5F5F5F5F5F5F5F5F5F5F5F5F5F5F5F5F5F5F5F5F5F5F5F5F5F5F5F5F5F5F5F5F5F5F5F5F5F5F5F5F5F5F5F5F5F5F5F5F5F5F5F5F5F5F5F5F5F5F5F5F5F5F5F5
310
F5F5F5F5F5F5F5F5F5F5F5F5F5F5F5F5F5F5F5F5F5F5F5F5F5F5F5F5F5F5F5F5F5F5F5F5F5F5F5F5F5F5F5F5F5F5F5F5F5F5F5F5F5F5F5F5F5F5E2E2F5F5F5E2E2E2E2E2E2E2E2F5F5F5F5F5F5F5F5F5E2E2E2E2E2E2E2E2E2E2E2E2E2E2E2E2F5F5F5F5F5F5F5F5F5E2E2E2E2E2E2E2E2E2E2E2E2E2E2E2F5F5F5F5F5F5F5
310
F5F5E2E2E2E2E2E2E2E2E2E2E2E2E2E2E2E2F5F5F5F5F5F5F5F5E2E2E2E2E2E2E2E2E2E2E2E2E2E2E2E2F5F5F5F5F5F5F5F5F5E2E2E2E2E2E2E2E2E2E2E2E2E2E2E2F5F5F5F5F5F5F5F5F5E2E2E2E2E2E2E2E2E2E2E2E2E2E2E2E2F5F5F5F5F5F5F5F5F5E2E2E2E2E2E2E2E2F5F5F5E2E2F5F5F5E2F5F5F5F5F5F5F5F5F5F5
310
F5F5F5F5F5F5F5F5F5F5F5F5F5F5F5F5F5F5F5F5F5F5F5F5F5F5F5F5F5F5F5F5F5F5F5F5F5F5F5F5F5F5F5F5F5F5F5F5F5F5F5F5F5F5F5F5F5F5F5F5F5F5F5F5F5F5F5F5F5F5F5F5F5F5F5F5F5F5F5F5F5F5F5F5F5F5F5F5F5F5F5F5F5F5F5F5F5F5F5F5F5F5F5F5F5F5F5F5F5F5F5F5F5F5F5F5F5F5F5F5F5F5F5F5F5F5F5
310
F5F5F5F5F5F5F5F5F5F5F5F5F5F5F5F5F5F5F5F5F5F5F5F5F5F5F5F5F5F5F5F5F5E2F5F5F5E2E2F5F5F5E2F5F5F5F5F5F5F5F5F5F5F5F5F5F5F5F5F5F5F5F5F5F5F5F5F5F5F5F5F5F5F5F5F5F5F5F5F5F5F5F5F5F5F5F5F5F5F5F5F5F5F5F5F5F5F5F5F5F5F5F5F5F5F5F5F5F5F5F5F5F5F5F5F5F5F5F5F5F5F5F5F5F5F5F5
310
F5F5F5F5F5F5F5F5F5F5F5F5F5F5F5F5F5F5F5F5F5F5F5F5F5F5F5F5F5F5F5F5F5F5F5F5F5F5F5F5F5F5F5F5F5F5F5F5F5F5F5F5F5F5F5F5F5F5F5F5F5F5F5F5F5F5F5F5F5F5F5F5F5F5F5F5F5F5F5F5F5F5F5F5F5F5E2F5F5F5E2E2F5F5F5E2F5F5F5F5F5F5F5F5F5F5F5F5F5F5F5F5F5F5F5F5F5F5F5F5F5F5F5F5F5F5F5
310
F5F5F5F5F5F5F5F5F5F5F5F5F5F5F5F5F5F5F5F5F5F5F5F5F5F5F5F5F5F5F5F5F5F5F5F5F5F5F5F5F5F5F5F5F5F5F5F5F5F5F5F5F5F5F5F5F5F5F5F5F5F5F5F5F5F5F5F5F5F5F5F5F5F5F5F5F5F5F5F5F5F5F5F5F5F5F5F5F5F5F5F5F5F5F5F5F5F5F5F5F5F5F5F5F5F5F5F5F5F5F5F5F5F5F5F5F5F5F5F5F5F5F5F5F5F5F5
310
F5F5F5F5F5F5F5F5F5F5F5F5E2F5F5F5E2E2F5F5F5E2F5F5F5F5F5F5F5F5F5F5F5F5F5F5F5F5F5F5F5F5F5F5F5F5F5F5F5F5F5F5F5F5F5F5F5F5F5F5F5F5F5F5F5F5F5F5F5F5F5F5F5F5F5F5F5F5F5F5F5F5F5F5F5F5F5F5F5F5F5F5F5F5F5F5F5F5F5F5F5F5F5F5F5F5F5F5F5F5F5F5F5F5F5F5F5F5F5F5F5F5F5F5F5F5F5
310
F5F5F5F5F5F5F5F5F5F5F5F5F5F5F5F5F5F5F5F5F5F5F5F5F5F5F5F5F5F5F5F5F5F5F5F5F5F5F5F5F5F5F5F5F5F5F5F5F5F5F5F5F5F5F5F5F5F5F5F5F5F5F5F5F5E2F5F5F5E2E2F5F5F5E2F5F5F5F5F5F5F5F5F5F5F5F5F5F5F5F5F5F5F5F5F5F5F5F5F5F5F5F5F5F5F5F5F5F5F5F5F5F5F5F5F5F5F5F5F5F5F5F5F5F5F5F5
310
F5F5F5F5F5F5F5F5F5F5F5F5F5F5F5F5F5F5F5F5F5F5F5F5F5F5F5F5F5F5F5F5F5F5F5F5F5F5F5F5F5F5F5F5F5F5F5F5F5F5F5F5F5F5F5F5F5F5F5F5F5F5F5F5F5F5F5F5F5F5F5F5F5F5F5F5F5F5F5F5F5F5F5F5F5F5F5F5F5F5F5F5F5F5F5F5F5F5F5F5F5F5F5F5F5F5F5F5F5F5F5F5F5F5F5F5F5F5E2F5F5F5E2E2F5F5F5
310
E2F5F5F5F5F5F5F5F5F5F5F5F5F5F5F5F5F5F5F5F5F5F5F5F5F5F5F5F5F5F5F5F5F5F5F5F5F5F5F5F5F5F5F5F5F5F5F5F5F5F5F5F5F5F5F5F5F5F5F5F5F5F5F5F5F5F5F5F5F5F5F5F5F5F5F5F5F5F5F5F5F5F5F5F5F5F5F5F5F5F5F5F5F5F5F5F5F5F5F5F5F5F5F5F5F5F5F5F5F5F5F5F5F5F5F5F5F5F5F5F5F5F5F5F5F5F5
310
F5F5F5F5F5F5F5F5F5F5F5F5F5F5F5F5F5F5F5F5F5F5F5F5F5F5F5F5F5F5F5F5F5F5F5F5F5F5F5F5F5F5F5F5E2F5F5F5E2E2F5F5F5E2F5F5F5F5F5F5F5F5F5F5F5F5F5F5F5F5F5F5F5F5F5F5F5F5F5F5F5F5F5F5F5F5F5F5F5F5F5F5F5F5F5F5F5F5F5F5F5F5F5F5F5F5F5F5F5F5F5F5F5F5F5F5F5F5F5F5F5F5F5F5F5F5F5
310
F5F5F5F5F5F5F5F5F5F5F5F5F5F5F5F5F5F5F5F5F5F5F5F5F5F5F5F5F5F5F5F5F5F5F5F5F5F5F5F5F5F5F5F5F5F5F5F5F5F5F5F5F5F5F5F5F5F5F5F5F5F5F5F5F5F5F5F5F5F5F5F5F5F5F5F5F5F5F5F5F5F5F5F5F5F5F5F5F5F5F5F5F5F5F5F5F5E2F5F5F5E2E2F5F5F5E2F5F5F5F5F5F5F5F5F5F5F5F5F5F5F5F5F5F5F5F5
310
F5F5F5F5F5F5F5F5F5F5F5F5F5F5F5F5F5F5F5F5F5F5F5F5F5F5F5F5F5F5F5F5F5F5F5F5F5F5F5F5F5F5F5F5F5F5F5F5F5F5F5F5F5F5F5F5F5F5F5F5F5F5F5F5F5F5F5F5F5F5F5F5F5F5F5F5F5F5F5F5F5F5F5F5F5F5F5F5F5F5F5F5F5F5F5F5F5F5F5F5F5F5F5F5F5F5F5F5F5F5F5F5F5F5F5F5F5F5F5F5F5F5F5F5F5F5F5
310
F5F5F5F5F5F5F5F5F5F5F5F5F5F5F5F5F5F5F5F5F5F5F5E2F5F5F5E2E2F5F5F5F5F5F5F5F5F5F5F5F5F5F5F5F5F5F5F5F5F5F5F5F5F5F5F5F5F5F5F5F5F5F5F5F5F5F5F5F5F5F5F5F5F5F5F5F5F5F5F5F5F5F5F5F5F5F5F5F5F5F5F5F5F5F5F5F5F5F5F5F5F5F5F5F5F5F5F5F5F5F5F5F5F5F5F5F5F5F5F5F5F5F5F5F5F5F5
310
F5F5F5F5F5F5F5F5F5F5F5F5F5F5F5F5F5F5F5F5F5F5F5F5F5F5F5F5F5F5F5F5F5F5F5F5F5F5F5F5F5F5F5F5F5F5F5F5F5F5F5F5F5F5F5F5F5F5F5F5F5F5F5F5F5F5F5F5F5F5F5F5F5F5F5F5F5F5F5F5E2E2F5F5F5F5F5F5F5F5F5F5F5F5F5F5F5F5F5F5F5F5F5F5F5F5F5F5F5F5F5F5F5F5F5F5F5F5F5F5F5F5F5F5F5F5F5
310
F5F5F5F5F5F5F5F5F5F5F5F5F5F5F5F5F5F5F5F5F5F5F5F5F5F5F5F5F5F5F5F5F5F5F5F5F5F5F5F5F5F5F5F5F5F5F5F5F5F5F5F5F5F5F5F5F5F5F5F5F5F5F5F5F5F5F5F5F5F5F5F5F5F5F5F5F5F5F5F5F5F5F5F5F5F5F5F5F5F5F5F5F5F5F5F5F5F5F5F5F5F5F5F5F5F5F5F5F5F5F5F5F5F5F5F5F5F5F5F5F5F5F5F5F5F5F5
310
F5F5F5F5F5F5E2E2F5F5F5F5F5F5F5F5F5F5F5F5F5F5F5F5F5F5F5F5F5F5F5F5F5F5F5F5F5F5F5F5F5F5F5F5F5F5F5F5F5F5F5F5F5F5F5F5F5F5F5F5F5F5F5F5F5F5F5F5F5F5F5F5F5F5F5F5F5F5F5F5F5F5F5F5F5F5F5F5F5F5F5F5F5F5F5F5F5F5F5F5F5F5F5F5F5F5F5F5F5F5F5F5F5F5F5F5F5F5F5F5F5F5F5F5F5F5F5
310
F5F5F5F5F5F5F5F5F5F5F5F5F5F5F5F5F5F5F5F5F5F5F5F5F5F5F5F5F5F5F5F5F5F5F5F5F5F5F5F5F5F5F5F5F5F5F5F5F5F5F5F5F5F5F5F5F5F5F5E2E2F5F5F5F5F5F5F5F5F5F5F5F5F5F5F5F5F5F5F5F5F5F5F5F5F5F5F5F5F5F5F5F5F5F5F5F5F5F5F5F5F5F5F5F5F5F5F5F5F5F5F5F5F5F5F5F5F5F5F5F5F5F5F5F5F5F5
310
F5F5F5F5F5F5F5F5F5F5F5F5F5F5F5F5F5F5F5F5F5F5F5F5F5F5F5F5F5F5F5F5F5F5F5F5F5F5F5F5F5F5F5F5F5F5F5F5F5F5F5F5F5F5F5F5F5F5F5F5F5F5F5F5F5F5F5F5F5F5F5F5F5F5F5F5F5F5F5F5F5F5F5F5F5F5F5F5F5F5F5F5F5F5F5F5F5F5F5F5F5F5F5F5F5F5F5F5F5F5F5F5E2E2F5F5F5F5F5F5F5F5F5F5F5F5F5
310
F5F5F5F5F5F5F5F5F5F5F5F5F5F5F5F5F5F5F5F5F5F5F5F5F5F5F5F5F5F5F5F5F5F5F5F5F5F5F5F5F5F5F5F5F5F5F5F5F5F5F5F5F5F5F5F5F5F5F5F5F5F5F5F5F5F5F5F5F5F5F5F5F5F5F5F5F5F5F5F5F5F5F5F5F5F5F5F5F5F5F5F5F5F5F5F5F5F5F5F5F5F5F5F5F5F5F5F5F5F5F5F5F5F5F5F5F5F5F5F5F5F5F5F5F5F5F5
310
F5F5F5F5F5F5F5F5F5F5F5F5F5F5F5F5F5F5F5F5F5F5F5F5F5F5F5F5F5F5F5F5F5F5F5F5F5F5E2E2F5F5F5F5F5F5F5F5F5F5F5F5F5F5F5F5F5F5F5F5F5F5F5F5F5F5F5F5F5F5F5F5F5F5F5F5F5F5F5F5F5F5F5F5F5F5F5F5F5F5F5F5F5F5F5F5F5F5F5F5F5F5F5F5F5F5F5F5F5F5F5F5F5F5F5F5F5F5F5F5F5F5F5F5F5F5F5
310
F5F5F5F5F5F5F5F5F5F5F5F5F5F5F5F5F5F5F5F5F5F5F5F5F5F5F5F5F5F5F5F5F5F5F5F5F5F5F5F5F5F5F5F5F5F5F5F5F5F5F5F5F5F5F5F5F5F5F5F5F5F5F5F5F5F5F5F5F5F5F5F5F5F5F5F5F5F5F5F5F5F5F5F5F5F5F5F5F5F5F5E2E2F5F5F5F5F5F5F5F5F5F5F5F5F5F5F5F5F5F5F5F5F5F5F5F5F5F5F5F5F5F5F5F5F5F5
310
F5F5F5F5F5F5F5F5F5F5F5F5F5F5F5F5F5F5F5F5F5F5F5F5F5F5F5F5F5F5F5F5F5F5F5F5F5F5F5F5F5F5F5F5F5F5F5F5F5F5F5F5F5F5F5F5F5F5F5F5F5F5F5F5F5F5F5F5F5F5F5F5F5F5F5F5F5F5F5F5F5F5F5F5F5F5F5F5F5F5F5F5F5F5F5F5F5F5F5F5F5F5F5F5F5F5F5F5F5F5F5F5F5F5F5F5F5F5F5F5F5F5F5F5F5F5F5
310
F5F5F5F5F5F5F5F5F5F5F5F5F5F5F5F5F5E2E2F5F5F5F5F5F5F5F5F5F5F5F5F5F5F5F5F5F5F5F5F5F5F5F5F5F5F5F5F5F5F5F5F5F5F5F5F5F5F5F5F5F5F5F5F5F5F5F5F5F5F5F5F5F5F5F5F5F5F5F5F5F5F5F5F5F5F5F5F5F5F5F5F5F5F5F5F5F5F5F5F5F5F5F5F5F5F5F5F5F5F5F5F5F5F5F5F5F5F5F5F5F5F5F5F5F5F5F5
310
F5F5F5F5F5F5F5F5F5F5F5F5F5F5F5F5F5F5F5F5F5F5F5F5F5F5F5F5F5F5F5F5F5F5F5F5F5F5F5F5F5F5F5F5F5F5F5F5F5F5F5F5F5F5F5F5F5F5F5F5F5F5F5F5F5F5F5F5F5F5E2E2F5F5F5F5F5F5F5F5F5F5F5F5F5F5F5F5F5F5F5F5F5F5F5F5F5F5F5F5F5F5F5F5F5F5F5F5F5F5F5F5F5F5F5F5F5F5F5F5F5F5F5F5F5F5F5
310
F5F5F5F5F5F5F5F5F5F5F5F5F5F5F5F5F5F5F5F5F5F5F5F5F5F5F5F5F5F5F5F5F5F5F5F5F5F5F5F5F5F5F5F5F5F5F5F5F5F5F5F5F5F5F5F5F5F5F5F5F5F5F5F5F5F5F5F5F5F5F5F5F5F5F5F5F5F5F5F5F5F5F5F5F5F5F5F5F5F5F5F5F5F5F5F5F5F5F5F5F5F5F5F5F5F5F5F5F5F5F5F5F5F5F5F5F5F5F5F5F5F5F5E2E2F5F5
310
F5E2F5F5F5F5F5F5F5F5F5F5F5F5F5F5F5F5F5F5F5F5F5F5F5F5F5F5F5F5F5F5F5F5F5F5F5F5F5F5F5F5F5F5F5F5F5F5F5F5F5F5F5F5F5F5F5F5F5F5F5F5F5F5F5F5F5F5F5F5F5F5F5F5F5F5F5F5F5F5F5F5F5F5F5F5F5F5F5F5F5F5F5F5F5F5F5F5F5F5F5F5F5F5F5F5F5F5F5F5F5F5F5F5F5F5F5F5F5F5F5F5F5F5F5F5F5
310
F5F5F5F5F5F5F5F5F5F5F5F5F5F5F5F5F5F5F5F5F5F5F5F5F5F5F5F5F5F5F5F5F5F5F5F5F5F5F5F5F5F5F5F5F5E2F5F5F5E2E2F5F5F5E2F5F5F5F5F5F5F5F5F5F5F5F5F5F5F5F5F5F5F5F5F5F5F5F5F5F5F5F5F5F5F5F5F5F5F5F5F5F5F5F5F5F5F5F5F5F5F5F5F5F5F5F5F5F5F5F5F5F5F5F5F5F5F5F5F5F5F5F5F5F5F5F5
310
F5F5F5F5F5F5F5F5F5F5F5F5F5F5F5F5F5F5F5F5F5F5F5F5F5F5F5F5F5F5F5F5F5F5F5F5F5F5F5F5F5F5F5F5F5F5F5F5F5F5F5F5F5F5F5F5F5F5F5F5F5F5F5F5F5F5F5F5F5F5F5F5F5F5F5F5F5F5F5F5F5F5F5F5F5F5F5F5F5F5F5F5F5F5F5F5F5F5E2F5F5F5E2E2F5F5F5E2F5F5F5F5F5F5F5F5F5F5F5F5F5F5F5F5F5F5F5
310
F5F5F5F5F5F5F5F5F5F5F5F5F5F5F5F5F5F5F5F5F5F5F5F5F5F5F5F5F5F5F5F5F5F5F5F5F5F5F5F5F5F5F5F5F5F5F5F5F5F5F5F5F5F5F5F5F5F5F5F5F5F5F5F5F5F5F5F5F5F5F5F5F5F5F5F5F5F5F5F5F5F5F5F5F5F5F5F5F5F5F5F5F5F5F5F5F5F5F5F5F5F5F5F5F5F5F5F5F5F5F5F5F5F5F5F5F5F5F5F5F5F5F5F5F5F5F5
310
F5F5F5F5F5F5F5F5F5F5F5F5F5F5F5F5F5F5F5F5F5F5F5F5E2F5F5F5E2E2F5F5F5E2F5F5F5F5F5F5F5F5F5F5F5F5F5F5F5F5F5F5F5F5F5F5F5F5F5F5F5F5F5F5F5F5F5F5F5F5F5F5F5F5F5F5F5F5F5F5F5F5F5F5F5F5F5F5F5F5F5F5F5F5F5F5F5F5F5F5F5F5F5F5F5F5F5F5F5F5F5F5F5F5F5F5F5F5F5F5F5F5F5F5F5F5F5
310
F5F5F5F5F5F5F5F5F5F5F5F5F5F5F5F5F5F5F5F5F5F5F5F5F5F5F5F5F5F5F5F5F5F5F5F5F5F5F5F5F5F5F5F5F5F5F5F5F5F5F5F5F5F5F5F5F5F5F5F5F5F5F5F5F5F5F5F5F5F5F5F5F5F5F5F5F5E2F5F5F5E2E2F5F5F5E2F5F5F5F5F5F5F5F5F5F5F5F5F5F5F5F5F5F5F5F5F5F5F5F5F5F5F5F5F5F5F5F5F5F5F5F5F5F5F5F5
310
F5F5F5F5F5F5F5F5F5F5F5F5F5F5F5F5F5F5F5F5F5F5F5F5F5F5F5F5F5F5F5F5F5F5F5F5F5F5F5F5F5F5F5F5F5F5F5F5F5F5F5F5F5F5F5F5F5F5F5F5F5F5F5F5F5F5F5F5F5F5F5F5F5F5F5F5F5F5F5F5F5F5F5F5F5F5F5F5F5F5F5F5F5F5F5F5F5F5F5F5F5F5F5F5F5F5F5F5F5F5F5F5F5F5F5F5F5F5F5F5F5F5F5F5F5F5F5
310
F5F5F5E2F5F5F5E2E2F5F5F5E2F5F5F5F5F5F5F5F5F5F5F5F5F5F5F5F5F5F5F5F5F5F5F5F5F5F5F5F5F5F5F5F5F5F5F5F5F5F5F5F5F5F5F5F5F5F5F5F5F5F5F5F5F5F5F5F5F5F5F5F5F5F5F5F5F5F5F5F5F5F5F5F5F5F5F5F5F5F5F5F5F5F5F5F5F5F5F5F5F5F5F5F5F5F5F5F5F5F5F5F5F5F5F5F5F5F5F5F5F5F5F5F5F5F5
310
F5F5F5F5F5F5F5F5F5F5F5F5F5F5F5F5F5F5F5F5F5F5F5F5F5F5F5F5F5F5F5F5F5F5F5F5F5F5F5F5F5F5F5F5F5F5F5F5F5F5F5F5F5F5F5F5E2F5F5F5E2E2F5F5F5E2F5F5F5F5F5F5F5F5F5F5F5F5F5F5F5F5F5F5F5F5F5F5F5F5F5F5F5F5F5F5F5F5F5F5F5F5F5F5F5F5F5F5F5F5F5F5F5F5F5F5F5F5F5F5F5F5F5F5F5F5F5
310
F5F5F5F5F5F5F5F5F5F5F5F5F5F5F5F5F5F5F5F5F5F5F5F5F5F5F5F5F5F5F5F5F5F5F5F5F5F5F5F5F5F5F5F5F5F5F5F5F5F5F5F5F5F5F5F5F5F5F5F5F5F5F5F5F5F5F5F5F5F5F5F5F5F5F5F5F5F5F5F5F5F5F5F5F5F5F5F5F5F5F5F5F5F5F5F5F5F5F5F5F5F5F5F5F5F5F5F5F5E2F5F5F5E2E2F5F5F5E2F5F5F5F5F5F5F5F5
310
F5F5F5F5F5F5F5F5F5F5F5F5F5F5F5F5F5F5F5F5F5F5F5F5F5F5F5F5F5F5F5F5F5F5F5F5F5F5F5F5F5F5F5F5F5F5F5F5F5F5F5F5F5F5F5F5F5F5F5F5F5F5F5F5F5F5F5F5F5F5F5F5F5F5F5F5F5F5F5F5F5F5F5F5F5F5F5F5F5F5F5F5F5F5F5F5F5F5F5F5F5F5F5F5F5F5F5F5F5F5F5F5F5F5F5F5F5F5F5F5F5F5F5F5F5F5F5
310
F5F5F5F5F5F5F5F5F5F5F5F5F5F5F5F5F5F5F5F5F5F5F5F5F5F5F5F5F5F5F5F5F5F5F5E2F5F5F5E2E2F5F5F5E2F5F5F5F5F5F5F5F5F5F5F5F5F5F5F5F5F5F5F5F5F5F5F5F5F5F5F5F5F5F5F5F5F5F5F5F5F5F5F5F5F5F5F5F5F5F5F5F5F5F5F5F5F5F5F5F5F5F5F5F5F5F5F5F5F5F5F5F5F5F5F5F5F5F5F5F5F5F5F5F5F5F5
310
F5F5F5F5F5F5F5F5F5F5F5F5F5F5F5F5F5F5F5F5F5F5F5F5F5F5F5F5F5F5F5F5F5F5F5F5F5F5F5F5F5F5F5F5F5F5F5F5F5F5F5F5F5F5F5F5F5F5F5F5F5F5F5F5F5F5F5F5F5F5F5F5F5F5F5F5F5F5F5F5F5F5F5F5F5F5F5F5E2F5F5F5E2E2F5F5F5E2F5F5F5F5F5F5F5F5F5F5F5F5F5F5F5F5F5F5F5F5F5F5F5F5F5F5F5F5F5
310
F5F5F5F5F5F5F5F5F5F5F5F5F5F5F5F5F5F5F5F5F5F5F5F5F5F5F5F5F5F5F5F5F5F5F5F5F5F5F5F5F5F5F5F5F5F5F5F5F5F5F5F5F5F5F5F5F5F5F5F5F5F5F5F5F5F5F5F5F5F5F5F5F5F5F5F5F5F5F5F5F5F5F5F5F5F5F5F5F5F5F5F5F5F5F5F5F5F5F5F5F5F5F5F5F5F5F5F5F5F5F5F5F5F5F5F5F5F5F5F5F5F5F5F5F5F5F5
310
F5F5F5F5F5F5F5F5F5F5F5F5F5F5E2F5F5F5E2E2F5F5F5E2F5F5F5F5F5F5F5F5F5F5F5F5F5F5F5F5F5F5F5F5F5F5F5F5F5F5F5F5F5F5F5F5F5F5F5F5F5F5F5F5F5F5F5F5F5F5F5F5F5F5F5F5F5F5F5F5F5F5F5F5F5F5F5F5F5F5F5F5F5F5F5F5F5F5F5F5F5F5F5F5F5F5F5F5F5F5F5F5F5F5F5F5F5F5F5F5F5F5F5F5F5F5F5
310
F5F5F5F5F5F5F5F5F5F5F5F5F5F5F5F5F5F5F5F5F5F5F5F5F5F5F5F5F5F5F5F5F5F5F5F5F5F5F5F5F5F5F5F5F5F5F5F5F5F5F5F5F5F5F5F5F5F5F5F5F5F5F5F5F5F5F5E2F5F5F5E2E2F5F5F5E2F5F5F5F5F5F5F5F5F5F5F5F5F5F5F5F5F5F5F5F5F5F5F5F5F5F5F5F5F5F5F5F5F5F5F5F5F5F5F5F5F5F5F5F5F5F5F5F5F5F5
310
F5F5F5F5F5F5F5F5F5F5F5F5F5F5F5F5F5F5F5F5F5F5F5F5F5F5F5F5F5F5F5F5F5F5F5F5F5F5F5F5F5F5F5F5F5F5F5F5F5F5F5F5F5F5F5F5F5F5F5F5F5F5F5F5F5F5F5F5F5F5F5F5F5F5F5F5F5F5F5F5F5F5F5F5F5F5F5F5F5F5F5F5F5F5F5F5F5F5F5F5F5F5F5F5F5F5F5F5F5F5F5F5F5F5F5F5F5F5F5F5E2F5F5F5E2E2F5
310
F5F5E2F5F5F5F5F5F5F5F5F5F5F5F5F5F5F5F5F5F5F5F5F5F5F5F5F5F5F5F5F5F5F5F5F5F5F5F5F5F5F5F5F5F5F5F5F5F5F5F5F5F5F5F5F5F5F5F5F5F5F5F5F5F5F5F5F5F5F5F5F5F5F5F5F5F5F5F5F5F5F5F5F5F5F5F5F5F5F5F5F5F5F5F5F5F5F5F5F5F5F5F5F5F5F5F5F5F5F5F5F5F5F5F5F5F5F5F5F5F5F5F5F5F5F5F5
310
F5F5F5F5F5F5F5F5F5F5F5F5F5F5F5F5F5F5F5F5F5F5F5F5F5F5F5F5F5F5F5F5F5F5F5F5F5F5F5F5F5F5F5F5F5F5E2F5F5F5E2E2F5F5F5E2F5F5F5F5F5F5F5F5F5F5F5F5F5F5F5F5F5F5F5F5F5F5F5F5F5F5F5F5F5F5F5F5F5F5F5F5F5F5F5F5F5F5F5F5F5F5F5F5F5F5F5F5F5F5F5F5F5F5F5F5F5F5F5F5F5F5F5F5F5F5F5
310
F5F5F5F5F5F5F5F5F5F5F5F5F5F5F5F5F5F5F5F5F5F5F5F5F5F5F5F5F5F5F5F5F5F5F5F5F5F5F5F5F5F5F5F5F5F5F5F5F5F5F5F5F5F5F5F5F5F5F5F5F5F5F5F5F5F5F5F5F5F5F5F5F5F5F5F5F5F5F5F5F5F5F5F5F5F5F5F5F5F5F5F5F5F5F5F5F5F5F5E2F5F5F5E2E2F5F5F5E2F5F5F5F5F5F5F5F5F5F5F5F5F5F5F5F5F5F5
310
F5F5F5F5F5F5F5F5F5F5F5F5F5F5F5F5F5F5F5F5F5F5F5F5F5F5F5F5F5F5F5F5F5F5F5F5F5F5F5F5F5F5F5F5F5F5F5F5F5F5F5F5F5F5F5F5F5F5F5F5F5F5F5F5F5F5F5F5F5F5F5F5F5F5F5F5F5F5F5F5F5F5F5F5F5F5F5F5F5F5F5F5F5F5F5F5F5F5F5F5F5F5F5F5F5F5F5F5F5F5F5F5F5F5F5F5F5F5F5F5F5F5F5F5F5F5F5
310
F5F5F5F5F5F5F5F5F5F5F5F5F5F5F5F5F5F5F5F5F5F5F5F5F5E2F5F5F5E2E2F5F5F5E2F5F5F5F5F5F5F5F5F5F5F5F5F5F5F5F5F5F5F5F5F5F5F5F5F5F5F5F5F5F5F5F5F5F5F5F5F5F5F5F5F5F5F5F5F5F5F5F5F5F5F5F5F5F5F5F5F5F5F5F5F5F5F5F5F5F5F5F5F5F5F5F5F5F5F5F5F5F5F5F5F5F5F5F5F5F5F5F5F5F5F5F5
310
F5F5F5F5F5F5F5F5F5F5F5F5F5F5F5F5F5F5F5F5F5F5F5F5F5F5F5F5F5F5F5F5F5F5F5F5F5F5F5F5F5F5F5F5F5F5F5F5F5F5F5F5F5F5F5F5F5F5F5F5F5F5F5F5F5F5F5F5F5F5F5F5F5F5F5F5F5F5E2F5F5F5E2E2F5F5F5F5F5F5F5F5F5F5F5F5F5F5F5F5F5F5F5F5F5F5F5F5F5F5F5F5F5F5F5F5F5F5F5F5F5F5F5F5F5F5F5
310
F5F5F5F5F5F5F5F5F5F5F5F5F5F5F5F5F5F5F5F5F5F5F5F5F5F5F5F5F5F5F5F5F5F5F5F5F5F5F5F5F5F5F5F5F5F5F5F5F5F5F5F5F5F5F5F5F5F5F5F5F5F5F5F5F5F5F5F5F5F5F5F5F5F5F5F5F5F5F5F5F5F5F5F5F5F5F5F5F5F5F5F5F5F5F5F5F5F5F5F5F5F5F5F5F5F5F5F5F5F5F5F5F5F5F5F5F5F5F5F5F5F5F5F5F5F5F5
310
F5F5F5F5F5F5F5F5E2E2F5F5F5F5F5F5F5F5F5F5F5F5F5F5F5F5F5F5F5F5F5F5F5F5F5F5F5F5F5F5F5F5F5F5F5F5F5F5F5F5F5F5F5F5F5F5F5F5F5F5F5F5F5F5F5F5F5F5F5F5F5F5F5F5F5F5F5F5F5F5F5F5F5F5F5F5F5F5F5F5F5F5F5F5F5F5F5F5F5F5F5F5F5F5F5F5F5F5F5F5F5F5F5F5F5F5F5F5F5F5F5F5F5F5F5F5F5
310
F5F5F5F5F5F5F5F5F5F5F5F5F5F5F5F5F5F5F5F5F5F5F5F5F5F5F5F5F5F5F5F5F5F5F5F5F5F5F5F5F5F5F5F5F5F5F5F5F5F5F5F5F5F5F5F5F5F5F5F5F5E2E2F5F5F5F5F5F5F5F5F5F5F5F5F5F5F5F5F5F5F5F5F5F5F5F5F5F5F5F5F5F5F5F5F5F5F5F5F5F5F5F5F5F5F5F5F5F5F5F5F5F5F5F5F5F5F5F5F5F5F5F5F5F5F5F5
310
F5F5F5F5F5F5F5F5F5F5F5F5F5F5F5F5F5F5F5F5F5F5F5F5F5F5F5F5F5F5F5F5F5F5F5F5F5F5F5F5F5F5F5F5F5F5F5F5F5F5F5F5F5F5F5F5F5F5F5F5F5F5F5F5F5F5F5F5F5F5F5F5F5F5F5F5F5F5F5F5F5F5F5F5F5F5F5F5F5F5F5F5F5F5F5F5F5F5F5F5F5F5F5F5F5F5F5F5F5F5F5F5F5F5E2E2F5F5F5F5F5F5F5F5F5F5F5
310
F5F5F5F5F5F5F5F5F5F5F5F5F5F5F5F5F5F5F5F5F5F5F5F5F5F5F5F5F5F5F5F5F5F5F5F5F5F5F5F5F5F5F5F5F5F5F5F5F5F5F5F5F5F5F5F5F5F5F5F5F5F5F5F5F5F5F5F5F5F5F5F5F5F5F5F5F5F5F5F5F5F5F5F5F5F5F5F5F5F5F5F5F5F5F5F5F5F5F5F5F5F5F5F5F5F5F5F5F5F5F5F5F5F5F5F5F5F5F5F5F5F5F5F5F5F5F5
310
F5F5F5F5F5F5F5F5F5F5F5F5F5F5F5F5F5F5F5F5F5F5F5F5F5F5F5F5F5F5F5F5F5F5F5F5F5F5F5F5E2E2F5F5F5F5F5F5F5F5F5F5F5F5F5F5F5F5F5F5F5F5F5F5F5F5F5F5F5F5F5F5F5F5F5F5F5F5F5F5F5F5F5F5F5F5F5F5F5F5F5F5F5F5F5F5F5F5F5F5F5F5F5F5F5F5F5F5F5F5F5F5F5F5F5F5F5F5F5F5F5F5F5F5F5F5F5
310
F5F5F5F5F5F5F5F5F5F5F5F5F5F5F5F5F5F5F5F5F5F5F5F5F5F5F5F5F5F5F5F5F5F5F5F5F5F5F5F5F5F5F5F5F5F5F5F5F5F5F5F5F5F5F5F5F5F5F5F5F5F5F5F5F5F5F5F5F5F5F5F5F5F5F5F5F5F5F5F5F5F5F5F5F5F5F5F5F5F5F5F5F5E2E2F5F5F5F5F5F5F5F5F5F5F5F5F5F5F5F5F5F5F5F5F5F5F5F5F5F5F5F5F5F5F5F5
310
F5F5F5F5F5F5F5F5F5F5F5F5F5F5F5F5F5F5F5F5F5F5F5F5F5F5F5F5F5F5F5F5F5F5F5F5F5F5F5F5F5F5F5F5F5F5F5F5F5F5F5F5F5F5F5F5F5F5F5F5F5F5F5F5F5F5F5F5F5F5F5F5F5F5F5F5F5F5F5F5F5F5F5F5F5F5F5F5F5F5F5F5F5F5F5F5F5F5F5F5F5F5F5F5F5F5F5F5F5F5F5F5F5F5F5F5F5F5F5F5F5F5F5F5F5F5F5
310
F5F5F5F5F5F5F5F5F5F5F5F5F5F5F5F5F5F5F5E2E2F5F5F5F5F5F5F5F5F5F5F5F5F5F5F5F5F5F5F5F5F5F5F5F5F5F5F5F5F5F5F5F5F5F5F5F5F5F5F5F5F5F5F5F5F5F5F5F5F5F5F5F5F5F5F5F5F5F5F5F5F5F5F5F5F5F5F5F5F5F5F5F5F5F5F5F5F5F5F5F5F5F5F5F5F5F5F5F5F5F5F5F5F5F5F5F5F5F5F5F5F5F5F5F5F5F5
310
F5F5F5F5F5F5F5F5F5F5F5F5F5F5F5F5F5F5F5F5F5F5F5F5F5F5F5F5F5F5F5F5F5F5F5F5F5F5F5F5F5F5F5F5F5F5F5F5F5F5F5F5F5F5F5F5F5F5F5F5F5F5F5F5F5F5F5F5F5F5F5F5E2E2F5F5F5F5F5F5F5F5F5F5F5F5F5F5F5F5F5F5F5F5F5F5F5F5F5F5F5F5F5F5F5F5F5F5F5F5F5F5F5F5F5F5F5F5F5F5F5F5F5F5F5F5F5
310
F5F5F5F5F5F5F5F5F5F5F5F5F5F5F5F5F5F5F5F5F5F5F5F5F5F5F5F5F5F5F5F5F5F5F5F5F5F5F5F5F5F5F5F5F5F5F5F5F5F5F5F5F5F5F5F5F5F5F5F5F5F5F5F5F5F5F5F5F5F5F5F5F5F5F5F5F5F5F5F5F5F5F5F5F5F5F5F5F5F5F5F5F5F5F5F5F5F5F5F5F5F5F5F5F5F5F5F5F5F5F5F5F5F5F5F5F5F5F5F5F5F5F5F5F5E2E2
310
F5F5F5F5F5F5F5F5F5F5F5F5F5F5F5F5F5F5F5F5F5F5F5F5F5F5F5F5F5F5F5F5F5F5F5F5F5F5F5F5F5F5F5F5F5F5F5F5F5F5F5F5F5F5F5F5F5F5F5F5F5F5F5F5F5F5F5F5F5F5F5F5F5F5F5F5F5F5F5F5F5F5F5F5F5F5F5F5F5F5F5F5F5F5F5F5F5F5F5F5F5F5F5F5F5F5F5F5F5F5F5F5F5F5F5F5F5F5F5F5F5F5F5F5F5F5F5
310
F5F5F5F5F5F5F5F5F5F5F5F5F5F5F5F5F5F5F5F5F5F5F5F5F5F5F5F5F5F5F5F5F5F5F5F5F5F5F5F5F5F5F5F5F5F5F5F5F5F5F5E2E2F5F5F5F5F5F5F5F5F5F5F5F5F5F5F5F5F5F5F5F5F5F5F5F5F5F5F5F5F5F5F5F5F5F5F5F5F5F5F5F5F5F5F5F5F5F5F5F5F5F5F5F5F5F5F5F5F5F5F5F5F5F5F5F5F5F5F5F5F5F5F5F5F5F5
310
F5F5F5F5F5F5F5F5F5F5F5F5F5F5F5F5F5F5F5F5F5F5F5F5F5F5F5F5F5F5F5F5F5F5F5F5F5F5F5F5F5F5F5F5F5F5F5F5F5F5F5F5F5F5F5F5F5F5F5F5F5F5F5F5F5F5F5F5F5F5F5F5F5F5F5F5F5F5F5F5F5F5F5F5F5F5F5F5F5F5F5F5F5F5F5F5F5F5F5F5F5F5F5F5E2E2F5F5F5E2F5F5F5F5F5F5F5F5F5F5F5F5F5F5F5F5F5
310
F5F5F5F5F5F5F5F5F5F5F5F5F5F5F5F5F5F5F5F5F5F5F5F5F5F5F5F5F5F5F5F5F5F5F5F5F5F5F5F5F5F5F5F5F5F5F5F5F5F5F5F5F5F5F5F5F5F5F5F5F5F5F5F5F5F5F5F5F5F5F5F5F5F5F5F5F5F5F5F5F5F5F5F5F5F5F5F5F5F5F5F5F5F5F5F5F5F5F5F5F5F5F5F5F5F5F5F5F5F5F5F5F5F5F5F5F5F5F5F5F5F5F5F5F5F5F5
310
F5F5F5F5F5F5F5F5F5F5F5F5F5F5F5F5F5F5F5F5F5F5F5F5F5F5E2F5F5F5E2E2F5F5F5E2F5F5F5F5F5F5F5F5F5F5F5F5F5F5F5F5F5F5F5F5F5F5F5F5F5F5F5F5F5F5F5F5F5F5F5F5F5F5F5F5F5F5F5F5F5F5F5F5F5F5F5F5F5F5F5F5F5F5F5F5F5F5F5F5F5F5F5F5F5F5F5F5F5F5F5F5F5F5F5F5F5F5F5F5F5F5F5F5F5F5F5
310
F5F5F5F5F5F5F5F5F5F5F5F5F5F5F5F5F5F5F5F5F5F5F5F5F5F5F5F5F5F5F5F5F5F5F5F5F5F5F5F5F5F5F5F5F5F5F5F5F5F5F5F5F5F5F5F5F5F5F5F5F5F5F5F5F5F5F5F5F5F5F5F5F5F5F5F5F5F5F5E2F5F5F5E2E2F5F5F5E2F5F5F5F5F5F5F5F5F5F5F5F5F5F5F5F5F5F5F5F5F5F5F5F5F5F5F5F5F5F5F5F5F5F5F5F5F5F5
310
F5F5F5F5F5F5F5F5F5F5F5F5F5F5F5F5F5F5F5F5F5F5F5F5F5F5F5F5F5F5F5F5F5F5F5F5F5F5F5F5F5F5F5F5F5F5F5F5F5F5F5F5F5F5F5F5F5F5F5F5F5F5F5F5F5F5F5F5F5F5F5F5F5F5F5F5F5F5F5F5F5F5F5F5F5F5F5F5F5F5F5F5F5F5F5F5F5F5F5F5F5F5F5F5F5F5F5F5F5F5F5F5F5F5F5F5F5F5F5F5F5F5F5F5F5F5F5
310
F5F5F5F5F5E2F5F5F5E2E2F5F5F5E2F5F5F5F5F5F5F5F5F5F5F5F5F5F5F5F5F5F5F5F5F5F5F5F5F5F5F5F5F5F5F5F5F5F5F5F5F5F5F5F5F5F5F5F5F5F5F5F5F5F5F5F5F5F5F5F5F5F5F5F5F5F5F5F5F5F5F5F5F5F5F5F5F5F5F5F5F5F5F5F5F5F5F5F5F5F5F5F5F5F5F5F5F5F5F5F5F5F5F5F5F5F5F5F5F5F5F5F5F5F5F5F5
310
F5F5F5F5F5F5F5F5F5F5F5F5F5F5F5F5F5F5F5F5F5F5F5F5F5F5F5F5F5F5F5F5F5F5F5F5F5F5F5F5F5F5F5F5F5F5F5F5F5F5F5F5F5F5F5F5F5F5E2F5F5F5E2E2F5F5F5E2F5F5F5F5F5F5F5F5F5F5F5F5F5F5F5F5F5F5F5F5F5F5F5F5F5F5F5F5F5F5F5F5F5F5F5F5F5F5F5F5F5F5F5F5F5F5F5F5F5F5F5F5F5F5F5F5F5F5F5
310
F5F5F5F5F5F5F5F5F5F5F5F5F5F5F5F5F5F5F5F5F5F5F5F5F5F5F5F5F5F5F5F5F5F5F5F5F5F5F5F5F5F5F5F5F5F5F5F5F5F5F5F5F5F5F5F5F5F5F5F5F5F5F5F5F5F5F5F5F5F5F5F5F5F5F5F5F5F5F5F5F5F5F5F5F5F5F5F5F5F5F5F5F5F5F5F5F5F5F5F5F5F5F5F5F5F5F5F5F5F5F5E2F5F5F5E2E2F5F5F5E2F5F5F5F5F5F5
310
F5F5F5F5F5F5F5F5F5F5F5F5F5F5F5F5F5F5F5F5F5F5F5F5F5F5F5F5F5F5F5F5F5F5F5F5F5F5F5F5F5F5F5F5F5F5F5F5F5F5F5F5F5F5F5F5F5F5F5F5F5F5F5F5F5F5F5F5F5F5F5F5F5F5F5F5F5F5F5F5F5F5F5F5F5F5F5F5F5F5F5F5F5F5F5F5F5F5F5F5F5F5F5F5F5F5F5F5F5F5F5F5F5F5F5F5F5F5F5F5F5F5F5F5F5F5F5
310
F5F5F5F5F5F5F5F5F5F5F5F5F5F5F5F5F5F5F5F5F5F5F5F5F5F5F5F5F5F5F5F5F5F5F5F5F5E2F5F5F5E2E2F5F5F5E2F5F5F5F5F5F5F5F5F5F5F5F5F5F5F5F5F5F5F5F5F5F5F5F5F5F5F5F5F5F5F5F5F5F5F5F5F5F5F5F5F5F5F5F5F5F5F5F5F5F5F5F5F5F5F5F5F5F5F5F5F5F5F5F5F5F5F5F5F5F5F5F5F5F5F5F5F5F5F5F5
310
F5F5F5F5F5F5F5F5F5F5F5F5F5F5F5F5F5F5F5F5F5F5F5F5F5F5F5F5F5F5F5F5F5F5F5F5F5F5F5F5F5F5F5F5F5F5F5F5F5F5F5F5F5F5F5F5F5F5F5F5F5F5F5F5F5F5F5F5F5F5F5F5F5F5F5F5F5F5F5F5F5F5F5F5F5F5F5F5F5F5E2F5F5F5E2E2F5F5F5E2F5F5F5F5F5F5F5F5F5F5F5F5F5F5F5F5F5F5F5F5F5F5F5F5F5F5F5
310
F5F5F5F5F5F5F5F5F5F5F5F5F5F5F5F5F5F5F5F5F5F5F5F5F5F5F5F5F5F5F5F5F5F5F5F5F5F5F5F5F5F5F5F5F5F5F5F5F5F5F5F5F5F5F5F5F5F5F5F5F5F5F5F5F5F5F5F5F5F5F5F5F5F5F5F5F5F5F5F5F5F5F5F5F5F5F5F5F5F5F5F5F5F5F5F5F5F5F5F5F5F5F5F5F5F5F5F5F5F5F5F5F5F5F5F5F5F5F5F5F5F5F5F5F5F5F5
310
F5F5F5F5F5F5F5F5F5F5F5F5F5F5F5F5E2F5F5F5E2E2F5F5F5E2F5F5F5F5F5F5F5F5F5F5F5F5F5F5F5F5F5F5F5F5F5F5F5F5F5F5F5F5F5F5F5F5F5F5F5F5F5F5F5F5F5F5F5F5F5F5F5F5F5F5F5F5F5F5F5F5F5F5F5F5F5F5F5F5F5F5F5F5F5F5F5F5F5F5F5F5F5F5F5F5F5F5F5F5F5F5F5F5F5F5F5F5F5F5F5F5F5F5F5F5F5
310
F5F5F5F5F5F5F5F5F5F5F5F5F5F5F5F5F5F5F5F5F5F5F5F5F5F5F5F5F5F5F5F5F5F5F5F5F5F5F5F5F5F5F5F5F5F5F5F5F5F5F5F5F5F5F5F5F5F5F5F5F5F5F5F5F5F5F5F5F5E2F5F5F5E2E2F5F5F5E2F5F5F5F5F5F5F5F5F5F5F5F5F5F5F5F5F5F5F5F5F5F5F5F5F5F5F5F5F5F5F5F5F5F5F5F5F5F5F5F5F5F5F5F5F5F5F5F5
310
F5F5F5F5F5F5F5F5F5F5F5F5F5F5F5F5F5F5F5F5F5F5F5F5F5F5F5F5F5F5F5F5F5F5F5F5F5F5F5F5F5F5F5F5F5F5F5F5F5F5F5F5F5F5F5F5F5F5F5F5F5F5F5F5F5F5F5F5F5F5F5F5F5F5F5F5F5F5F5F5F5F5F5F5F5F5F5F5F5F5F5F5F5F5F5F5F5F5F5F5F5F5F5F5F5F5F5F5F5F5F5F5F5F5F5F5F5F5F5F5F5F5E2F5F5F5E2
310
E2F5F5F5E2F5F5F5F5F5F5F5F5F5F5F5F5F5F5F5F5F5F5F5F5F5F5F5F5F5F5F5F5F5F5F5F5F5F5F5F5F5F5F5F5F5F5F5F5F5F5F5F5F5F5F5F5F5F5F5F5F5F5F5F5F5F5F5F5F5F5F5F5F5F5F5F5F5F5F5F5F5F5F5F5F5F5F5F5F5F5F5F5F5F5F5F5F5F5F5F5F5F5F5F5F5F5F5F5F5F5F5F5F5F5F5F5F5F5F5F5F5F5F5F5F5F5
310
F5F5F5F5F5F5F5F5F5F5F5F5F5F5F5F5F5F5F5F5F5F5F5F5F5F5F5F5F5F5F5F5F5F5F5F5F5F5F5F5F5F5F5F5F5F5F5F5E2F5F5F5E2E2F5F5F5E2F5F5F5F5F5F5F5F5F5F5F5F5F5F5F5F5F5F5F5F5F5F5F5F5F5F5F5F5F5F5F5F5F5F5F5F5F5F5F5F5F5F5F5F5F5F5F5F5F5F5F5F5F5F5F5F5F5F5F5F5F5F5F5F5F5F5F5F5F5
310
F5F5F5F5F5F5F5F5F5F5F5F5F5F5F5F5F5F5F5F5F5F5F5F5F5F5F5F5F5F5F5F5F5F5F5F5F5F5F5F5F5F5F5F5F5F5F5F5F5F5F5F5F5F5F5F5F5F5F5F5F5F5F5F5F5F5F5F5F5F5F5F5F5F5F5F5F5F5F5F5F5F5F5F5F5F5F5F5F5F5F5F5F5F5F5F5F5F5F5F5F5E2F5F5F5E2E2F5F5F5E2F5F5F5F5F5F5F5F5F5F5F5F5F5F5F5F5
310
F5F5F5F5F5F5F5F5F5F5F5F5F5F5F5F5F5F5F5F5F5F5F5F5F5F5F5F5F5F5F5F5F5F5F5F5F5F5F5F5F5F5F5F5F5F5F5F5F5F5F5F5F5F5F5F5F5F5F5F5F5F5F5F5F5F5F5F5F5F5F5F5F5F5F5F5F5F5F5F5F5F5F5F5F5F5F5F5F5F5F5F5F5F5F5F5F5F5F5F5F5F5F5F5F5F5F5F5F5F5F5F5F5F5F5F5F5F5F5F5F5F5F5F5F5F5F5
310
F5F5F5F5F5F5F5F5F5F5F5F5F5F5F5F5F5F5F5F5F5F5F5F5F5F5F5E2F5F5F5E2E2F5F5F5E2F5F5F5F5F5F5F5F5F5F5F5F5F5F5F5F5F5F5F5F5F5F5F5F5F5F5F5F5F5F5F5F5F5F5F5F5F5F5F5F5F5F5F5F5F5F5F5F5F5F5F5F5F5F5F5F5F5F5F5F5F5F5F5F5F5F5F5F5F5F5F5F5F5F5F5F5F5F5F5F5F5F5F5F5F5F5F5F5F5F5
310
F5F5F5F5F5F5F5F5F5F5F5F5F5F5F5F5F5F5F5F5F5F5F5F5F5F5F5F5F5F5F5F5F5F5F5F5F5F5F5F5F5F5F5F5F5F5F5F5F5F5F5F5F5F5F5F5F5F5F5F5F5F5F5F5F5F5F5F5F5F5F5F5F5F5F5F5F5F5F5F5E2F5F5F5E2E2F5F5F5E2F5F5F5F5F5F5F5F5F5F5F5F5F5F5F5F5F5F5F5F5F5F5F5F5F5F5F5F5F5F5F5F5F5F5F5F5F5
310
F5F5F5F5F5F5F5F5F5F5F5F5F5F5F5F5F5F5F5F5F5F5F5F5F5F5F5F5F5F5F5F5F5F5F5F5F5F5F5F5F5F5F5F5F5F5F5F5F5F5F5F5F5F5F5F5F5F5F5F5F5F5F5F5F5F5F5F5F5F5F5F5F5F5F5F5F5F5F5F5F5F5F5F5F5F5F5F5F5F5F5F5F5F5F5F5F5F5F5F5F5F5F5F5F5F5F5F5F5F5F5F5F5F5F5F5F5F5F5F5F5F5F5F5F5F5F5
310
F5F5F5F5F5F5E2F5F5F5E2E2F5F5F5E2F5F5F5F5F5F5F5F5F5F5F5F5F5F5F5F5F5F5F5F5F5F5F5F5F5F5F5F5F5F5F5F5F5F5F5F5F5F5F5F5F5F5F5F5F5F5F5F5F5F5F5F5F5F5F5F5F5F5F5F5F5F5F5F5F5F5F5F5F5F5F5F5F5F5F5F5F5F5F5F5F5F5F5F5F5F5F5F5F5F5F5F5F5F5F5F5F5F5F5F5F5F5F5F5F5F5F5F5F5F5F5
310
F5F5F5F5F5F5F5F5F5F5F5F5F5F5F5F5F5F5F5F5F5F5F5F5F5F5F5F5F5F5F5F5F5F5F5F5F5F5F5F5F5F5F5F5F5F5F5F5F5F5F5F5F5F5F5F5F5F5F5E2F5F5F5E2E2F5F5F5F5F5F5F5F5F5F5F5F5F5F5F5F5F5F5F5F5F5F5F5F5F5F5F5F5F5F5F5F5F5F5F5F5F5F5F5F5F5F5F5F5F5F5F5F5F5F5F5F5F5F5F5F5F5F5F5F5F5F5
310
F5F5F5F5F5F5F5F5F5F5F5F5F5F5F5F5F5F5F5F5F5F5F5F5F5F5F5F5F5F5F5F5F5F5F5F5F5F5F5F5F5F5F5F5F5F5F5F5F5F5F5F5F5F5F5F5F5F5F5F5F5F5F5F5F5F5F5F5F5F5F5F5F5F5F5F5F5F5F5F5F5F5F5F5F5F5F5F5F5F5F5F5F5F5F5F5F5F5F5F5F5F5F5F5F5F5F5F5F5F5F5F5F5F5F5F5E2E2F5F5F5F5F5F5F5F5F5
310
F5F5F5F5F5F5F5F5F5F5F5F5F5F5F5F5F5F5F5F5F5F5F5F5F5F5F5F5F5F5F5F5F5F5F5F5F5F5F5F5F5F5F5F5F5F5F5F5F5F5F5F5F5F5F5F5F5F5F5F5F5F5F5F5F5F5F5F5F5F5F5F5F5F5F5F5F5F5F5F5F5F5F5F5F5F5F5F5F5F5F5F5F5F5F5F5F5F5F5F5F5F5F5F5F5F5F5F5F5F5F5F5F5F5F5F5F5F5F5F5F5F5F5F5F5F5F5
310
F5F5F5F5F5F5F5F5F5F5F5F5F5F5F5F5F5F5F5F5F5F5F5F5F5F5F5F5F5F5F5F5F5F5F5F5F5F5F5F5F5F5E2E2F5F5F5F5F5F5F5F5F5F5F5F5F5F5F5F5F5F5F5F5F5F5F5F5F5F5F5F5F5F5F5F5F5F5F5F5F5F5F5F5F5F5F5F5F5F5F5F5F5F5F5F5F5F5F5F5F5F5F5F5F5F5F5F5F5F5F5F5F5F5F5F5F5F5F5F5F5F5F5F5F5F5F5
310
F5F5F5F5F5F5F5F5F5F5F5F5F5F5F5F5F5F5F5F5F5F5F5F5F5F5F5F5F5F5F5F5F5F5F5F5F5F5F5F5F5F5F5F5F5F5F5F5F5F5F5F5F5F5F5F5F5F5F5F5F5F5F5F5F5F5F5F5F5F5F5F5F5F5F5F5F5F5F5F5F5F5F5F5F5F5F5F5F5F5F5F5F5F5F5E2E2F5F5F5F5F5F5F5F5F5F5F5F5F5F5F5F5F5F5F5F5F5F5F5F5F5F5F5F5F5F5
310
F5F5F5F5F5F5F5F5F5F5F5F5F5F5F5F5F5F5F5F5F5F5F5F5F5F5F5F5F5F5F5F5F5F5F5F5F5F5F5F5F5F5F5F5F5F5F5F5F5F5F5F5F5F5F5F5F5F5F5F5F5F5F5F5F5F5F5F5F5F5F5F5F5F5F5F5F5F5F5F5F5F5F5F5F5F5F5F5F5F5F5F5F5F5F5F5F5F5F5F5F5F5F5F5F5F5F5F5F5F5F5F5F5F5F5F5F5F5F5F5F5F5F5F5F5F5F5
310
F5F5F5F5F5F5F5F5F5F5F5F5F5F5F5F5F5F5F5F5F5E2E2F5F5F5F5F5F5F5F5F5F5F5F5F5F5F5F5F5F5F5F5F5F5F5F5F5F5F5F5F5F5F5F5F5F5F5F5F5F5F5F5F5F5F5F5F5F5F5F5F5F5F5F5F5F5F5F5F5F5F5F5F5F5F5F5F5F5F5F5F5F5F5F5F5F5F5F5F5F5F5F5F5F5F5F5F5F5F5F5F5F5F5F5F5F5F5F5F5F5F5F5F5F5F5F5
310
F5F5F5F5F5F5F5F5F5F5F5F5F5F5F5F5F5F5F5F5F5F5F5F5F5F5F5F5F5F5F5F5F5F5F5F5F5F5F5F5F5F5F5F5F5F5F5F5F5F5F5F5F5F5F5F5F5F5F5F5F5F5F5F5F5F5F5F5F5F5F5F5F5F5E2E2F5F5F5F5F5F5F5F5F5F5F5F5F5F5F5F5F5F5F5F5F5F5F5F5F5F5F5F5F5F5F5F5F5F5F5F5F5F5F5F5F5F5F5F5F5F5F5F5F5F5F5
310
F5F5F5F5F5F5F5F5F5F5F5F5F5F5F5F5F5F5F5F5F5F5F5F5F5F5F5F5F5F5F5F5F5F5F5F5F5F5F5F5F5F5F5F5F5F5F5F5F5F5F5F5F5F5F5F5F5F5F5F5F5F5F5F5F5F5F5F5F5F5F5F5F5F5F5F5F5F5F5F5F5F5F5F5F5F5F5F5F5F5F5F5F5F5F5F5F5F5F5F5F5F5F5F5F5F5F5F5F5F5F5F5F5F5F5F5F5F5F5F5F5F5F5F5F5F5F5
310
E2E2F5F5F5F5F5F5F5F5F5F5F5F5F5F5F5F5F5F5F5F5F5F5F5F5F5F5F5F5F5F5F5F5F5F5F5F5F5F5F5F5F5F5F5F5F5F5F5F5F5F5F5F5F5F5F5F5F5F5F5F5F5F5F5F5F5F5F5F5F5F5F5F5F5F5F5F5F5F5F5F5F5F5F5F5F5F5F5F5F5F5F5F5F5F5F5F5F5F5F5F5F5F5F5F5F5F5F5F5F5F5F5F5F5F5F5F5F5F5F5F5F5F5F5F5F5
310
F5F5F5F5F5F5F5F5F5F5F5F5F5F5F5F5F5F5F5F5F5F5F5F5F5F5F5F5F5F5F5F5F5F5F5F5F5F5F5F5F5F5F5F5F5F5F5F5F5F5F5F5F5E2E2F5F5F5F5F5F5F5F5F5F5F5F5F5F5F5F5F5F5F5F5F5F5F5F5F5F5F5F5F5F5F5F5F5F5F5F5F5F5F5F5F5F5F5F5F5F5F5F5F5F5F5F5F5F5F5F5F5F5F5F5F5F5F5F5F5F5F5F5F5F5F5F5
310
F5F5F5F5F5F5F5F5F5F5F5F5F5F5F5F5F5F5F5F5F5F5F5F5F5F5F5F5F5F5F5F5F5F5F5F5F5F5F5F5F5F5F5F5F5F5F5F5F5F5F5F5F5F5F5F5F5F5F5F5F5F5F5F5F5F5F5F5F5F5F5F5F5F5F5F5F5F5F5F5F5F5F5F5F5F5F5F5F5F5F5F5F5F5F5F5F5F5F5F5F5F5F5F5F5F5E2E2F5F5F5F5F5F5F5F5F5F5F5F5F5F5F5F5F5F5F5
310
F5F5F5F5F5F5F5F5F5F5F5F5F5F5F5F5F5F5F5F5F5F5F5F5F5F5F5F5F5F5F5F5F5F5F5F5F5F5F5F5F5F5F5F5F5F5F5F5F5F5F5F5F5F5F5F5F5F5F5F5F5F5F5F5F5F5F5F5F5F5F5F5F5F5F5F5F5F5F5F5F5F5F5F5F5F5F5F5F5F5F5F5F5F5F5F5F5F5F5F5F5F5F5F5F5F5F5F5F5F5F5F5F5F5F5F5F5F5F5F5F5F5F5F5F5F5F5
310
F5F5F5F5F5F5F5F5F5F5F5F5F5F5F5F5F5F5F5F5F5F5F5F5F5F5F5F5F5F5F5F5E2E2F5F5F5E2F5F5F5F5F5F5F5F5F5F5F5F5F5F5F5F5F5F5F5F5F5F5F5F5F5F5F5F5F5F5F5F5F5F5F5F5F5F5F5F5F5F5F5F5F5F5F5F5F5F5F5F5F5F5F5F5F5F5F5F5F5F5F5F5F5F5F5F5F5F5F5F5F5F5F5F5F5F5F5F5F5F5F5F5F5F5F5F5F5
310
F5F5F5F5F5F5F5F5F5F5F5F5F5F5F5F5F5F5F5F5F5F5F5F5F5F5F5F5F5F5F5F5F5F5F5F5F5F5F5F5F5F5F5F5F5F5F5F5F5F5F5F5F5F5F5F5F5F5F5F5F5F5F5F5F5F5F5F5F5F5F5F5F5F5F5F5F5F5F5F5F5E2F5F5F5E2E2F5F5F5E2F5F5F5F5F5F5F5F5F5F5F5F5F5F5F5F5F5F5F5F5F5F5F5F5F5F5F5F5F5F5F5F5F5F5F5F5
310
F5F5F5F5F5F5F5F5F5F5F5F5F5F5F5F5F5F5F5F5F5F5F5F5F5F5F5F5F5F5F5F5F5F5F5F5F5F5F5F5F5F5F5F5F5F5F5F5F5F5F5F5F5F5F5F5F5F5F5F5F5F5F5F5F5F5F5F5F5F5F5F5F5F5F5F5F5F5F5F5F5F5F5F5F5F5F5F5F5F5F5F5F5F5F5F5F5F5F5F5F5F5F5F5F5F5F5F5F5F5F5F5F5F5F5F5F5F5F5F5F5F5F5F5F5F5F5
310
F5F5F5F5F5F5F5E2F5F5F5E2E2F5F5F5E2F5F5F5F5F5F5F5F5F5F5F5F5F5F5F5F5F5F5F5F5F5F5F5F5F5F5F5F5F5F5F5F5F5F5F5F5F5F5F5F5F5F5F5F5F5F5F5F5F5F5F5F5F5F5F5F5F5F5F5F5F5F5F5F5F5F5F5F5F5F5F5F5F5F5F5F5F5F5F5F5F5F5F5F5F5F5F5F5F5F5F5F5F5F5F5F5F5F5F5F5F5F5F5F5F5F5F5F5F5F5
310
F5F5F5F5F5F5F5F5F5F5F5F5F5F5F5F5F5F5F5F5F5F5F5F5F5F5F5F5F5F5F5F5F5F5F5F5F5F5F5F5F5F5F5F5F5F5F5F5F5F5F5F5F5F5F5F5F5F5F5F5E2F5F5F5E2E2F5F5F5E2F5F5F5F5F5F5F5F5F5F5F5F5F5F5F5F5F5F5F5F5F5F5F5F5F5F5F5F5F5F5F5F5F5F5F5F5F5F5F5F5F5F5F5F5F5F5F5F5F5F5F5F5F5F5F5F5F5
310
F5F5F5F5F5F5F5F5F5F5F5F5F5F5F5F5F5F5F5F5F5F5F5F5F5F5F5F5F5F5F5F5F5F5F5F5F5F5F5F5F5F5F5F5F5F5F5F5F5F5F5F5F5F5F5F5F5F5F5F5F5F5F5F5F5F5F5F5F5F5F5F5F5F5F5F5F5F5F5F5F5F5F5F5F5F5F5F5F5F5F5F5F5F5F5F5F5F5F5F5F5F5F5F5F5F5F5F5F5F5F5F5F5E2F5F5F5E2E2F5F5F5E2F5F5F5F5
310
F5F5F5F5F5F5F5F5F5F5F5F5F5F5F5F5F5F5F5F5F5F5F5F5F5F5F5F5F5F5F5F5F5F5F5F5F5F5F5F5F5F5F5F5F5F5F5F5F5F5F5F5F5F5F5F5F5F5F5F5F5F5F5F5F5F5F5F5F5F5F5F5F5F5F5F5F5F5F5F5F5F5F5F5F5F5F5F5F5F5F5F5F5F5F5F5F5F5F5F5F5F5F5F5F5F5F5F5F5F5F5F5F5F5F5F5F5F5F5F5F5F5F5F5F5F5F5
310
F5F5F5F5F5F5F5F5F5F5F5F5F5F5F5F5F5F5F5F5F5F5F5F5F5F5F5F5F5F5F5F5F5F5F5F5F5F5F5E2F5F5F5E2E2F5F5F5E2F5F5F5F5F5F5F5F5F5F5F5F5F5F5F5F5F5F5F5F5F5F5F5F5F5F5F5F5F5F5F5F5F5F5F5F5F5F5F5F5F5F5F5F5F5F5F5F5F5F5F5F5F5F5F5F5F5F5F5F5F5F5F5F5F5F5F5F5F5F5F5F5F5F5F5F5F5F5
310
F5F5F5F5F5F5F5F5F5F5F5F5F5F5F5F5F5F5F5F5F5F5F5F5F5F5F5F5F5F5F5F5F5F5F5F5F5F5F5F5F5F5F5F5F5F5F5F5F5F5F5F5F5F5F5F5F5F5F5F5F5F5F5F5F5F5F5F5F5F5F5F5F5F5F5F5F5F5F5F5F5F5F5F5F5F5F5F5F5F5F5F5E2F5F5F5E2E2F5F5F5E2F5F5F5F5F5F5F5F5F5F5F5F5F5F5F5F5F5F5F5F5F5F5F5F5F5
310
F5F5F5F5F5F5F5F5F5F5F5F5F5F5F5F5F5F5F5F5F5F5F5F5F5F5F5F5F5F5F5F5F5F5F5F5F5F5F5F5F5F5F5F5F5F5F5F5F5F5F5F5F5F5F5F5F5F5F5F5F5F5F5F5F5F5F5F5F5F5F5F5F5F5F5F5F5F5F5F5F5F5F5F5F5F5F5F5F5F5F5F5F5F5F5F5F5F5F5F5F5F5F5F5F5F5F5F5F5F5F5F5F5F5F5F5F5F5F5F5F5F5F5F5F5F5F5
310
F5F5F5F5F5F5F5F5F5F5F5F5F5F5F5F5F5F5E2F5F5F5E2E2F5F5F5E2F5F5F5F5F5F5F5F5F5F5F5F5F5F5F5F5F5F5F5F5F5F5F5F5F5F5F5F5F5F5F5F5F5F5F5F5F5F5F5F5F5F5F5F5F5F5F5F5F5F5F5F5F5F5F5F5F5F5F5F5F5F5F5F5F5F5F5F5F5F5F5F5F5F5F5F5F5F5F5F5F5F5F5F5F5F5F5F5F5F5F5F5F5F5F5F5F5F5F5
310
F5F5F5F5F5F5F5F5F5F5F5F5F5F5F5F5F5F5F5F5F5F5F5F5F5F5F5F5F5F5F5F5F5F5F5F5F5F5F5F5F5F5F5F5F5F5F5F5F5F5F5F5F5F5F5F5F5F5F5F5F5F5F5F5F5F5F5F5F5F5F5E2F5F5F5E2E2F5F5F5E2F5F5F5F5F5F5F5F5F5F5F5F5F5F5F5F5F5F5F5F5F5F5F5F5F5F5F5F5F5F5F5F5F5F5F5F5F5F5F5F5F5F5F5F5F5F5
310
F5F5F5F5F5F5F5F5F5F5F5F5F5F5F5F5F5F5F5F5F5F5F5F5F5F5F5F5F5F5F5F5F5F5F5F5F5F5F5F5F5F5F5F5F5F5F5F5F5F5F5F5F5F5F5F5F5F5F5F5F5F5F5F5F5F5F5F5F5F5F5F5F5F5F5F5F5F5F5F5F5F5F5F5F5F5F5F5F5F5F5F5F5F5F5F5F5F5F5F5F5F5F5F5F5F5F5F5F5F5F5F5F5F5F5F5F5F5F5F5F5F5F5F5E2F5F5
310
F5E2E2F5F5F5E2F5F5F5F5F5F5F5F5F5F5F5F5F5F5F5F5F5F5F5F5F5F5F5F5F5F5F5F5F5F5F5F5F5F5F5F5F5F5F5F5F5F5F5F5F5F5F5F5F5F5F5F5F5F5F5F5F5F5F5F5F5F5F5F5F5F5F5F5F5F5F5F5F5F5F5F5F5F5F5F5F5F5F5F5F5F5F5F5F5F5F5F5F5F5F5F5F5F5F5F5F5F5F5F5F5F5F5F5F5F5F5F5F5F5F5F5F5F5F5F5
310
F5F5F5F5F5F5F5F5F5F5F5F5F5F5F5F5F5F5F5F5F5F5F5F5F5F5F5F5F5F5F5F5F5F5F5F5F5F5F5F5F5F5F5F5F5F5F5F5F5F5E2F5F5F5E2E2F5F5F5E2F5F5F5F5F5F5F5F5F5F5F5F5F5F5F5F5F5F5F5F5F5F5F5F5F5F5F5F5F5F5F5F5F5F5F5F5F5F5F5F5F5F5F5F5F5F5F5F5F5F5F5F5F5F5F5F5F5F5F5F5F5F5F5F5F5F5F5
310
F5F5F5F5F5F5F5F5F5F5F5F5F5F5F5F5F5F5F5F5F5F5F5F5F5F5F5F5F5F5F5F5F5F5F5F5F5F5F5F5F5F5F5F5F5F5F5F5F5F5F5F5F5F5F5F5F5F5F5F5F5F5F5F5F5F5F5F5F5F5F5F5F5F5F5F5F5F5F5F5F5F5F5F5F5F5F5F5F5F5F5F5F5F5F5F5F5F5F5F5F5F5F5E2F5F5F5E2E2F5F5F5E2F5F5F5F5F5F5F5F5F5F5F5F5F5F5
310
F5F5F5F5F5F5F5F5F5F5F5F5F5F5F5F5F5F5F5F5F5F5F5F5F5F5F5F5F5F5F5F5F5F5F5F5F5F5F5F5F5F5F5F5F5F5F5F5F5F5F5F5F5F5F5F5F5F5F5F5F5F5F5F5F5F5F5F5F5F5F5F5F5F5F5F5F5F5F5F5F5F5F5F5F5F5F5F5F5F5F5F5F5F5F5F5F5F5F5F5F5F5F5F5F5F5F5F5F5F5F5F5F5F5F5F5F5F5F5F5F5F5F5F5F5F5F5
310
F5F5F5F5F5F5F5F5F5F5F5F5F5F5F5F5F5F5F5F5F5F5F5F5F5F5F5F5F5E2F5F5F5E2E2F5F5F5E2F5F5F5F5F5F5F5F5F5F5F5F5F5F5F5F5F5F5F5F5F5F5F5F5F5F5F5F5F5F5F5F5F5F5F5F5F5F5F5F5F5F5F5F5F5F5F5F5F5F5F5F5F5F5F5F5F5F5F5F5F5F5F5F5F5F5F5F5F5F5F5F5F5F5F5F5F5F5F5F5F5F5F5F5F5F5F5F5
310
F5F5F5F5F5F5F5F5F5F5F5F5F5F5F5F5F5F5F5F5F5F5F5F5F5F5F5F5F5F5F5F5F5F5F5F5F5F5F5F5F5F5F5F5F5F5F5F5F5F5F5F5F5F5F5F5F5F5F5F5F5F5F5F5F5F5F5F5F5F5F5F5F5F5F5F5F5F5F5F5F5F5E2F5F5F5E2E2F5F5F5E2F5F5F5F5F5F5F5F5F5F5F5F5F5F5F5F5F5F5F5F5F5F5F5F5F5F5F5F5F5F5F5F5F5F5F5
310
F5F5F5F5F5F5F5F5F5F5F5F5F5F5F5F5F5F5F5F5F5F5F5F5F5F5F5F5F5F5F5F5F5F5F5F5F5F5F5F5F5F5F5F5F5F5F5F5F5F5F5F5F5F5F5F5F5F5F5F5F5F5F5F5F5F5F5F5F5F5F5F5F5F5F5F5F5F5F5F5F5F5F5F5F5F5F5F5F5F5F5F5F5F5F5F5F5F5F5F5F5F5F5F5F5F5F5F5F5F5F5F5F5F5F5F5F5F5F5F5F5F5F5F5F5F5F5
310
F5F5F5F5F5F5F5F5E2F5F5F5E2E2F5F5F5E2F5F5F5F5F5F5F5F5F5F5F5F5F5F5F5F5F5F5F5F5F5F5F5F5F5F5F5F5F5F5F5F5F5F5F5F5F5F5F5F5F5F5F5F5F5F5F5F5F5F5F5F5F5F5F5F5F5F5F5F5F5F5F5F5F5F5F5F5F5F5F5F5F5F5F5F5F5F5F5F5F5F5F5F5F5F5F5F5F5F5F5F5F5F5F5F5F5F5F5F5F5F5F5F5F5F5F5F5F5
310
F5F5F5F5F5F5F5F5F5F5F5F5F5F5F5F5F5F5F5F5F5F5F5F5F5F5F5F5F5F5F5F5F5F5F5F5F5F5F5F5F5F5F5F5F5F5F5F5F5F5F5F5F5F5F5F5F5F5F5F5F5E2F5F5F5E2E2F5F5F5E2F5F5F5F5F5F5F5F5F5F5F5F5F5F5F5F5F5F5F5F5F5F5F5F5F5F5F5F5F5F5F5F5F5F5F5F5F5F5F5F5F5F5F5F5F5F5F5F5F5F5F5F5F5F5F5F5
310
F5F5F5F5F5F5F5F5F5F5F5F5F5F5F5F5F5F5F5F5F5F5F5F5F5F5F5F5F5F5F5F5F5F5F5F5F5F5F5F5F5F5F5F5F5F5F5F5F5F5F5F5F5F5F5F5F5F5F5F5F5F5F5F5F5F5F5F5F5F5F5F5F5F5F5F5F5F5F5F5F5F5F5F5F5F5F5F5F5F5F5F5F5F5F5F5F5F5F5F5F5F5F5F5F5F5F5F5F5F5F5F5F5F5E2F5F5F5E2E2F5F5F5F5F5F5F5
310
F5F5F5F5F5F5F5F5F5F5F5F5F5F5F5F5F5F5F5F5F5F5F5F5F5F5F5F5F5F5F5F5F5F5F5F5F5F5F5F5F5F5F5F5F5F5F5F5F5F5F5F5F5F5F5F5F5F5F5F5F5F5F5F5F5F5F5F5F5F5F5F5F5F5F5F5F5F5F5F5F5F5F5F5F5F5F5F5F5F5F5F5F5F5F5F5F5F5F5F5F5F5F5F5F5F5F5F5F5F5F5F5F5F5F5F5F5F5F5F5F5F5F5F5F5F5F5
310
F5F5F5F5F5F5F5F5F5F5F5F5F5F5F5F5F5F5F5F5F5F5F5F5F5F5F5F5F5F5F5F5F5F5F5F5F5F5F5F5F5F5F5F5E2E2F5F5F5F5F5F5F5F5F5F5F5F5F5F5F5F5F5F5F5F5F5F5F5F5F5F5F5F5F5F5F5F5F5F5F5F5F5F5F5F5F5F5F5F5F5F5F5F5F5F5F5F5F5F5F5F5F5F5F5F5F5F5F5F5F5F5F5F5F5F5F5F5F5F5F5F5F5F5F5F5F5
310
F5F5F5F5F5F5F5F5F5F5F5F5F5F5F5F5F5F5F5F5F5F5F5F5F5F5F5F5F5F5F5F5F5F5F5F5F5F5F5F5F5F5F5F5F5F5F5F5F5F5F5F5F5F5F5F5F5F5F5F5F5F5F5F5F5F5F5F5F5F5F5F5F5F5F5F5F5F5F5F5F5F5F5F5F5F5F5F5F5F5F5F5F5F5F5F5F5E2E2F5F5F5F5F5F5F5F5F5F5F5F5F5F5F5F5F5F5F5F5F5F5F5F5F5F5F5F5
310
F5F5F5F5F5F5F5F5F5F5F5F5F5F5F5F5F5F5F5F5F5F5F5F5F5F5F5F5F5F5F5F5F5F5F5F5F5F5F5F5F5F5F5F5F5F5F5F5F5F5F5F5F5F5F5F5F5F5F5F5F5F5F5F5F5F5F5F5F5F5F5F5F5F5F5F5F5F5F5F5F5F5F5F5F5F5F5F5F5F5F5F5F5F5F5F5F5F5F5F5F5F5F5F5F5F5F5F5F5F5F5F5F5F5F5F5F5F5F5F5F5F5F5F5F5F5F5
310
F5F5F5F5F5F5F5F5F5F5F5F5F5F5F5F5F5F5F5F5F5F5F5E2E2F5F5F5F5F5F5F5F5F5F5F5F5F5F5F5F5F5F5F5F5F5F5F5F5F5F5F5F5F5F5F5F5F5F5F5F5F5F5F5F5F5F5F5F5F5F5F5F5F5F5F5F5F5F5F5F5F5F5F5F5F5F5F5F5F5F5F5F5F5F5F5F5F5F5F5F5F5F5F5F5F5F5F5F5F5F5F5F5F5F5F5F5F5F5F5F5F5F5F5F5F5F5
310
F5F5F5F5F5F5F5F5F5F5F5F5F5F5F5F5F5F5F5F5F5F5F5F5F5F5F5F5F5F5F5F5F5F5F5F5F5F5F5F5F5F5F5F5F5F5F5F5F5F5F5F5F5F5F5F5F5F5F5F5F5F5F5F5F5F5F5F5F5F5F5F5F5F5F5F5E2E2F5F5F5F5F5F5F5F5F5F5F5F5F5F5F5F5F5F5F5F5F5F5F5F5F5F5F5F5F5F5F5F5F5F5F5F5F5F5F5F5F5F5F5F5F5F5F5F5F5
310
F5F5F5F5F5F5F5F5F5F5F5F5F5F5F5F5F5F5F5F5F5F5F5F5F5F5F5F5F5F5F5F5F5F5F5F5F5F5F5F5F5F5F5F5F5F5F5F5F5F5F5F5F5F5F5F5F5F5F5F5F5F5F5F5F5F5F5F5F5F5F5F5F5F5F5F5F5F5F5F5F5F5F5F5F5F5F5F5F5F5F5F5F5F5F5F5F5F5F5F5F5F5F5F5F5F5F5F5F5F5F5F5F5F5F5F5F5F5F5F5F5F5F5F5F5F5F5
310
F5F5E2E2F5F5F5F5F5F5F5F5F5F5F5F5F5F5F5F5F5F5F5F5F5F5F5F5F5F5F5F5F5F5F5F5F5F5F5F5F5F5F5F5F5F5F5F5F5F5F5F5F5F5F5F5F5F5F5F5F5F5F5F5F5F5F5F5F5F5F5F5F5F5F5F5F5F5F5F5F5F5F5F5F5F5F5F5F5F5F5F5F5F5F5F5F5F5F5F5F5F5F5F5F5F5F5F5F5F5F5F5F5F5F5F5F5F5F5F5F5F5F5F5F5F5F5
310
F5F5F5F5F5F5F5F5F5F5F5F5F5F5F5F5F5F5F5F5F5F5F5F5F5F5F5F5F5F5F5F5F5F5F5F5F5F5F5F5F5F5F5F5F5F5F5F5F5F5F5F5F5F5F5E2E2F5F5F5F5F5F5F5F5F5F5F5F5F5F5F5F5F5F5F5F5F5F5F5F5F5F5F5F5F5F5F5F5F5F5F5F5F5F5F5F5F5F5F5F5F5F5F5F5F5F5F5F5F5F5F5F5F5F5F5F5F5F5F5F5F5F5F5F5F5F5
310
F5F5F5F5F5F5F5F5F5F5F5F5F5F5F5F5F5F5F5F5F5F5F5F5F5F5F5F5F5F5F5F5F5F5F5F5F5F5F5F5F5F5F5F5F5F5F5F5F5F5F5F5F5F5F5F5F5F5F5F5F5F5F5F5F5F5F5F5F5F5F5F5F5F5F5F5F5F5F5F5F5F5F5F5F5F5F5F5F5F5F5F5F5F5F5F5F5F5F5F5F5F5F5F5F5F5F5F5E2E2F5F5F5F5F5F5F5F5F5F5F5F5F5F5F5F5F5
310
F5F5F5F5F5F5F5F5F5F5F5F5F5F5F5F5F5F5F5F5F5F5F5F5F5F5F5F5F5F5F5F5F5F5F5F5F5F5F5F5F5F5F5F5F5F5F5F5F5F5F5F5F5F5F5F5F5F5F5F5F5F5F5F5F5F5F5F5F5F5F5F5F5F5F5F5F5F5F5F5F5F5F5F5F5F5F5F5F5F5F5F5F5F5F5F5F5F5F5F5F5F5F5F5F5F5F5F5F5F5F5F5F5F5F5F5F5F5F5F5F5F5F5F5F5F5F5
310
F5F5F5F5F5F5F5F5F5F5F5F5F5F5F5F5F5F5F5F5F5F5F5F5F5F5F5F5F5F5F5F5F5F5E2E2F5F5F5F5F5F5F5F5F5F5F5F5F5F5F5F5F5F5F5F5F5F5F5F5F5F5F5F5F5F5F5F5F5F5F5F5F5F5F5F5F5F5F5F5F5F5F5F5F5F5F5F5F5F5F5F5F5F5F5F5F5F5F5F5F5F5F5F5F5F5F5F5F5F5F5F5F5F5F5F5F5F5F5F5F5F5F5F5F5F5F5
310
F5F5F5F5F5F5F5F5F5F5F5F5F5F5F5F5F5F5F5F5F5F5F5F5F5F5F5F5F5F5F5F5F5F5F5F5F5F5F5F5F5F5F5F5F5F5F5F5F5F5F5F5F5F5F5F5F5F5F5F5F5F5F5F5F5F5F5F5F5F5F5F5F5F5F5F5F5F5F5F5F5F5F5F5F5F5F5E2E2F5F5F5F5F5F5F5F5F5F5F5F5F5F5F5F5F5F5F5F5F5F5F5F5F5F5F5F5F5F5F5F5F5F5F5F5F5F5
310
F5F5F5F5F5F5F5F5F5F5F5F5F5F5F5F5F5F5F5F5F5F5F5F5F5F5F5F5F5F5F5F5F5F5F5F5F5F5F5F5F5F5F5F5F5F5F5F5F5F5F5F5F5F5F5F5F5F5F5F5F5F5F5F5F5F5F5F5F5F5F5F5F5F5F5F5F5F5F5F5F5F5F5F5F5F5F5F5F5F5F5F5F5F5F5F5F5F5F5F5F5F5F5F5F5F5F5F5F5F5F5F5F5F5F5F5F5F5F5F5F5F5F5F5F5F5F5
310
F5F5F5F5F5F5F5F5F5F5F5F5F5E2E2F5F5F5E2F5F5F5F5F5F5F5F5F5F5F5F5F5F5F5F5F5F5F5F5F5F5F5F5F5F5F5F5F5F5F5F5F5F5F5F5F5F5F5F5F5F5F5F5F5F5F5F5F5F5F5F5F5F5F5F5F5F5F5F5F5F5F5F5F5F5F5F5F5F5F5F5F5F5F5F5F5F5F5F5F5F5F5F5F5F5F5F5F5F5F5F5F5F5F5F5F5F5F5F5F5F5F5F5F5F5F5F5
310
F5F5F5F5F5F5F5F5F5F5F5F5F5F5F5F5F5F5F5F5F5F5F5F5F5F5F5F5F5F5F5F5F5F5F5F5F5F5F5F5F5F5F5F5F5F5F5F5F5F5F5F5F5F5F5F5F5F5F5F5F5F5E2F5F5F5E2E2F5F5F5E2F5F5F5F5F5F5F5F5F5F5F5F5F5F5F5F5F5F5F5F5F5F5F5F5F5F5F5F5F5F5F5F5F5F5F5F5F5F5F5F5F5F5F5F5F5F5F5F5F5F5F5F5F5F5F5
310
F5F5F5F5F5F5F5F5F5F5F5F5F5F5F5F5F5F5F5F5F5F5F5F5F5F5F5F5F5F5F5F5F5F5F5F5F5F5F5F5F5F5F5F5F5F5F5F5F5F5F5F5F5F5F5F5F5F5F5F5F5F5F5F5F5F5F5F5F5F5F5F5F5F5F5F5F5F5F5F5F5F5F5F5F5F5F5F5F5F5F5F5F5F5F5F5F5F5F5F5F5F5F5F5F5F5F5F5F5F5F5F5F5F5F5E2F5F5F5E2E2F5F5F5E2F5F5
310
F5F5F5F5F5F5F5F5F5F5F5F5F5F5F5F5F5F5F5F5F5F5F5F5F5F5F5F5F5F5F5F5F5F5F5F5F5F5F5F5F5F5F5F5F5F5F5F5F5F5F5F5F5F5F5F5F5F5F5F5F5F5F5F5F5F5F5F5F5F5F5F5F5F5F5F5F5F5F5F5F5F5F5F5F5F5F5F5F5F5F5F5F5F5F5F5F5F5F5F5F5F5F5F5F5F5F5F5F5F5F5F5F5F5F5F5F5F5F5F5F5F5F5F5F5F5F5
310
F5F5F5F5F5F5F5F5F5F5F5F5F5F5F5F5F5F5F5F5F5F5F5F5F5F5F5F5F5F5F5F5F5F5F5F5F5F5F5F5F5E2F5F5F5E2E2F5F5F5E2F5F5F5F5F5F5F5F5F5F5F5F5F5F5F5F5F5F5F5F5F5F5F5F5F5F5F5F5F5F5F5F5F5F5F5F5F5F5F5F5F5F5F5F5F5F5F5F5F5F5F5F5F5F5F5F5F5F5F5F5F5F5F5F5F5F5F5F5F5F5F5F5F5F5F5F5
310
F5F5F5F5F5F5F5F5F5F5F5F5F5F5F5F5F5F5F5F5F5F5F5F5F5F5F5F5F5F5F5F5F5F5F5F5F5F5F5F5F5F5F5F5F5F5F5F5F5F5F5F5F5F5F5F5F5F5F5F5F5F5F5F5F5F5F5F5F5F5F5F5F5F5F5F5F5F5F5F5F5F5F5F5F5F5F5F5F5F5F5F5F5F5E2F5F5F5E2E2F5F5F5E2F5F5F5F5F5F5F5F5F5F5F5F5F5F5F5F5F5F5F5F5F5F5F5
310
F5F5F5F5F5F5F5F5F5F5F5F5F5F5F5F5F5F5F5F5F5F5F5F5F5F5F5F5F5F5F5F5F5F5F5F5F5F5F5F5F5F5F5F5F5F5F5F5F5F5F5F5F5F5F5F5F5F5F5F5F5F5F5F5F5F5F5F5F5F5F5F5F5F5F5F5F5F5F5F5F5F5F5F5F5F5F5F5F5F5F5F5F5F5F5F5F5F5F5F5F5F5F5F5F5F5F5F5F5F5F5F5F5F5F5F5F5F5F5F5F5F5F5F5F5F5F5
310
F5F5F5F5F5F5F5F5F5F5F5F5F5F5F5F5F5F5F5F5E2F5F5F5E2E2F5F5F5E2F5F5F5F5F5F5F5F5F5F5F5F5F5F5F5F5F5F5F5F5F5F5F5F5F5F5F5F5F5F5F5F5F5F5F5F5F5F5F5F5F5F5F5F5F5F5F5F5F5F5F5F5F5F5F5F5F5F5F5F5F5F5F5F5F5F5F5F5F5F5F5F5F5F5F5F5F5F5F5F5F5F5F5F5F5F5F5F5F5F5F5F5F5F5F5F5F5
310
F5F5F5F5F5F5F5F5F5F5F5F5F5F5F5F5F5F5F5F5F5F5F5F5F5F5F5F5F5F5F5F5F5F5F5F5F5F5F5F5F5F5F5F5F5F5F5F5F5F5F5F5F5F5F5F5F5F5F5F5F5F5F5F5F5F5F5F5F5F5F5F5F5E2F5F5F5E2E2F5F5F5E2F5F5F5F5F5F5F5F5F5F5F5F5F5F5F5F5F5F5F5F5F5F5F5F5F5F5F5F5F5F5F5F5F5F5F5F5F5F5F5F5F5F5F5F5
310
F5F5F5F5F5F5F5F5F5F5F5F5F5F5F5F5F5F5F5F5F5F5F5F5F5F5F5F5F5F5F5F5F5F5F5F5F5F5F5F5F5F5F5F5F5F5F5F5F5F5F5F5F5F5F5F5F5F5F5F5F5F5F5F5F5F5F5F5F5F5F5F5F5F5F5F5F5F5F5F5F5F5F5F5F5F5F5F5F5F5F5F5F5F5F5F5F5F5F5F5F5F5F5F5F5F5F5F5F5F5F5F5F5F5F5F5F5F5F5F5F5F5F5F5F5F5E2
310
F5F5F5E2E2F5F5F5E2F5F5F5F5F5F5F5F5F5F5F5F5F5F5F5F5F5F5F5F5F5F5F5F5F5F5F5F5F5F5F5F5F5F5F5F5F5F5F5F5F5F5F5F5F5F5F5F5F5F5F5F5F5F5F5F5F5F5F5F5F5F5F5F5F5F5F5F5F5F5F5F5F5F5F5F5F5F5F5F5F5F5F5F5F5F5F5F5F5F5F5F5F5F5F5F5F5F5F5F5F5F5F5F5F5F5F5F5F5F5F5F5F5F5F5F5F5F5
310
F5F5F5F5F5F5F5F5F5F5F5F5F5F5F5F5F5F5F5F5F5F5F5F5F5F5F5F5F5F5F5F5F5F5F5F5F5F5F5F5F5F5F5F5F5F5F5F5F5F5F5F5E2F5F5F5E2E2F5F5F5E2F5F5F5F5F5F5F5F5F5F5F5F5F5F5F5F5F5F5F5F5F5F5F5F5F5F5F5F5F5F5F5F5F5F5F5F5F5F5F5F5F5F5F5F5F5F5F5F5F5F5F5F5F5F5F5F5F5F5F5F5F5F5F5F5F5
310
F5F5F5F5F5F5F5F5F5F5F5F5F5F5F5F5F5F5F5F5F5F5F5F5F5F5F5F5F5F5F5F5F5F5F5F5F5F5F5F5F5F5F5F5F5F5F5F5F5F5F5F5F5F5F5F5F5F5F5F5F5F5F5F5F5F5F5F5F5F5F5F5F5F5F5F5F5F5F5F5F5F5F5F5F5F5F5F5F5F5F5F5F5F5F5F5F5F5F5F5F5F5F5F5F5E2F5F5F5E2E2F5F5F5E2F5F5F5F5F5F5F5F5F5F5F5F5
310
F5F5F5F5F5F5F5F5F5F5F5F5F5F5F5F5F5F5F5F5F5F5F5F5F5F5F5F5F5F5F5F5F5F5F5F5F5F5F5F5F5F5F5F5F5F5F5F5F5F5F5F5F5F5F5F5F5F5F5F5F5F5F5F5F5F5F5F5F5F5F5F5F5F5F5F5F5F5F5F5F5F5F5F5F5F5F5F5F5F5F5F5F5F5F5F5F5F5F5F5F5F5F5F5F5F5F5F5F5F5F5F5F5F5F5F5F5F5F5F5F5F5F5F5F5F5F5
310
F5F5F5F5F5F5F5F5F5F5F5F5F5F5F5F5F5F5F5F5F5F5F5F5F5F5F5F5F5F5F5E2F5F5F5E2E2F5F5F5E2F5F5F5F5F5F5F5F5F5F5F5F5F5F5F5F5F5F5F5F5F5F5F5F5F5F5F5F5F5F5F5F5F5F5F5F5F5F5F5F5F5F5F5F5F5F5F5F5F5F5F5F5F5F5F5F5F5F5F5F5F5F5F5F5F5F5F5F5F5F5F5F5F5F5F5F5F5F5F5F5F5F5F5F5F5F5
310
F5F5F5F5F5F5F5F5F5F5F5F5F5F5F5F5F5F5F5F5F5F5F5F5F5F5F5F5F5F5F5F5F5F5F5F5F5F5F5F5F5F5F5F5F5F5F5F5F5F5F5F5F5F5F5F5F5F5F5F5F5F5F5F5F5F5F5F5F5F5F5F5F5F5F5F5F5F5F5F5F5F5F5F5E2F5F5F5E2E2F5F5F5E2F5F5F5F5F5F5F5F5F5F5F5F5F5F5F5F5F5F5F5F5F5F5F5F5F5F5F5F5F5F5F5F5F5
310
F5F5F5F5F5F5F5F5F5F5F5F5F5F5F5F5F5F5F5F5F5F5F5F5F5F5F5F5F5F5F5F5F5F5F5F5F5F5F5F5F5F5F5F5F5F5F5F5F5F5F5F5F5F5F5F5F5F5F5F5F5F5F5F5F5F5F5F5F5F5F5F5F5F5F5F5F5F5F5F5F5F5F5F5F5F5F5F5F5F5F5F5F5F5F5F5F5F5F5F5F5F5F5F5F5F5F5F5F5F5F5F5F5F5F5F5F5F5F5F5F5F5F5F5F5F5F5
310
F5F5F5F5F5F5F5F5F5F5E2F5F5F5E2E2F5F5F5E2F5F5F5F5F5F5F5F5F5F5F5F5F5F5F5F5F5F5F5F5F5F5F5F5F5F5F5F5F5F5F5F5F5F5F5F5F5F5F5F5F5F5F5F5F5F5F5F5F5F5F5F5F5F5F5F5F5F5F5F5F5F5F5F5F5F5F5F5F5F5F5F5F5F5F5F5F5F5F5F5F5F5F5F5F5F5F5F5F5F5F5F5F5F5F5F5F5F5F5F5F5F5F5F5F5F5F5
310
F5F5F5F5F5F5F5F5F5F5F5F5F5F5F5F5F5F5F5F5F5F5F5F5F5F5F5F5F5F5F5F5F5F5F5F5F5F5F5F5F5F5F5F5F5F5F5F5F5F5F5F5F5F5F5F5F5F5F5F5F5F5F5E2F5F5F5E2E2F5F5F5E2F5F5F5F5F5F5F5F5F5F5F5F5F5F5F5F5F5F5F5F5F5F5F5F5F5F5F5F5F5F5F5F5F5F5F5F5F5F5F5F5F5F5F5F5F5F5F5F5F5F5F5F5F5F5
310
F5F5F5F5F5F5F5F5F5F5F5F5F5F5F5F5F5F5F5F5F5F5F5F5F5F5F5F5F5F5F5F5F5F5F5F5F5F5F5F5F5F5F5F5F5F5F5F5F5F5F5F5F5F5F5F5F5F5F5F5F5F5F5F5F5F5F5F5F5F5F5F5F5F5F5F5F5F5F5F5F5F5F5F5F5F5F5F5F5F5F5F5F5F5F5F5F5F5F5F5F5F5F5F5F5F5F5F5F5F5F5F5F5F5F5F5E2F5F5F5E2E2F5F5F5E2F5
310
F5F5F5F5F5F5F5F5F5F5F5F5F5F5F5F5F5F5F5F5F5F5F5F5F5F5F5F5F5F5F5F5F5F5F5F5F5F5F5F5F5F5F5F5F5F5F5F5F5F5F5F5F5F5F5F5F5F5F5F5F5F5F5F5F5F5F5F5F5F5F5F5F5F5F5F5F5F5F5F5F5F5F5F5F5F5F5F5F5F5F5F5F5F5F5F5F5F5F5F5F5F5F5F5F5F5F5F5F5F5F5F5F5F5F5F5F5F5F5F5F5F5F5F5F5F5F5
310
F5F5F5F5F5F5F5F5F5F5F5F5F5F5F5F5F5F5F5F5F5F5F5F5F5F5F5F5F5F5F5F5F5F5F5F5F5F5F5F5F5F5E2F5F5F5E2E2F5F5F5E2F5F5F5F5F5F5F5F5F5F5F5F5F5F5F5F5F5F5F5F5F5F5F5F5F5F5F5F5F5F5F5F5F5F5F5F5F5F5F5F5F5F5F5F5F5F5F5F5F5F5F5F5F5F5F5F5F5F5F5F5F5F5F5F5F5F5F5F5F5F5F5F5F5F5F5
310
F5F5F5F5F5F5F5F5F5F5F5F5F5F5F5F5F5F5F5F5F5F5F5F5F5F5F5F5F5F5F5F5F5F5F5F5F5F5F5F5F5F5F5F5F5F5F5F5F5F5F5F5F5F5F5F5F5F5F5F5F5F5F5F5F5F5F5F5F5F5F5F5F5F5F5F5F5F5F5F5F5F5F5F5F5F5F5F5F5F5F5F5F5F5F5E2F5F5F5E2E2F5F5F5F5F5F5F5F5F5F5F5F5F5F5F5F5F5F5F5F5F5F5F5F5F5F5
310
F5F5F5F5F5F5F5F5F5F5F5F5F5F5F5F5F5F5F5F5F5F5F5F5F5F5F5F5F5F5F5F5F5F5F5F5F5F5F5F5F5F5F5F5F5F5F5F5F5F5F5F5F5F5F5F5F5F5F5F5F5F5F5F5F5F5F5F5F5F5F5F5F5F5F5F5F5F5F5F5F5F5F5F5F5F5F5F5F5F5F5F5F5F5F5F5F5F5F5F5F5F5F5F5F5F5F5F5F5F5F5F5F5F5F5F5F5F5F5F5F5F5F5F5F5F5F5
310
F5F5F5F5F5F5F5F5F5F5F5F5F5F5F5F5F5F5F5F5F5F5F5F5F5E2E2F5F5F5F5F5F5F5F5F5F5F5F5F5F5F5F5F5F5F5F5F5F5F5F5F5F5F5F5F5F5F5F5F5F5F5F5F5F5F5F5F5F5F5F5F5F5F5F5F5F5F5F5F5F5F5F5F5F5F5F5F5F5F5F5F5F5F5F5F5F5F5F5F5F5F5F5F5F5F5F5F5F5F5F5F5F5F5F5F5F5F5F5F5F5F5F5F5F5F5F5
310
F5F5F5F5F5F5F5F5F5F5F5F5F5F5F5F5F5F5F5F5F5F5F5F5F5F5F5F5F5F5F5F5F5F5F5F5F5F5F5F5F5F5F5F5F5F5F5F5F5F5F5F5F5F5F5F5F5F5F5F5F5F5F5F5F5F5F5F5F5F5F5F5F5F5F5F5F5F5E2E2F5F5F5F5F5F5F5F5F5F5F5F5F5F5F5F5F5F5F5F5F5F5F5F5F5F5F5F5F5F5F5F5F5F5F5F5F5F5F5F5F5F5F5F5F5F5F5
310
F5F5F5F5F5F5F5F5F5F5F5F5F5F5F5F5F5F5F5F5F5F5F5F5F5F5F5F5F5F5F5F5F5F5F5F5F5F5F5F5F5F5F5F5F5F5F5F5F5F5F5F5F5F5F5F5F5F5F5F5F5F5F5F5F5F5F5F5F5F5F5F5F5F5F5F5F5F5F5F5F5F5F5F5F5F5F5F5F5F5F5F5F5F5F5F5F5F5F5F5F5F5F5F5F5F5F5F5F5F5F5F5F5F5F5F5F5F5F5F5F5F5F5F5F5F5F5
310
F5F5F5F5E2E2F5F5F5F5F5F5F5F5F5F5F5F5F5F5F5F5F5F5F5F5F5F5F5F5F5F5F5F5F5F5F5F5F5F5F5F5F5F5F5F5F5F5F5F5F5F5F5F5F5F5F5F5F5F5F5F5F5F5F5F5F5F5F5F5F5F5F5F5F5F5F5F5F5F5F5F5F5F5F5F5F5F5F5F5F5F5F5F5F5F5F5F5F5F5F5F5F5F5F5F5F5F5F5F5F5F5F5F5F5F5F5F5F5F5F5F5F5F5F5F5F5
310
F5F5F5F5F5F5F5F5F5F5F5F5F5F5F5F5F5F5F5F5F5F5F5F5F5F5F5F5F5F5F5F5F5F5F5F5F5F5F5F5F5F5F5F5F5F5F5F5F5F5F5F5F5F5F5F5F5E2E2F5F5F5F5F5F5F5F5F5F5F5F5F5F5F5F5F5F5F5F5F5F5F5F5F5F5F5F5F5F5F5F5F5F5F5F5F5F5F5F5F5F5F5F5F5F5F5F5F5F5F5F5F5F5F5F5F5F5F5F5F5F5F5F5F5F5F5F5
310
F5F5F5F5F5F5F5F5F5F5F5F5F5F5F5F5F5F5F5F5F5F5F5F5F5F5F5F5F5F5F5F5F5F5F5F5F5F5F5F5F5F5F5F5F5F5F5F5F5F5F5F5F5F5F5F5F5F5F5F5F5F5F5F5F5F5F5F5F5F5F5F5F5F5F5F5F5F5F5F5F5F5F5F5F5F5F5F5F5F5F5F5F5F5F5F5F5F5F5F5F5F5F5F5F5F5F5F5F5F5E2E2F5F5F5F5F5F5F5F5F5F5F5F5F5F5F5
310
F5F5F5F5F5F5F5F5F5F5F5F5F5F5F5F5F5F5F5F5F5F5F5F5F5F5F5F5F5F5F5F5F5F5F5F5F5F5F5F5F5F5F5F5F5F5F5F5F5F5F5F5F5F5F5F5F5F5F5F5F5F5F5F5F5F5F5F5F5F5F5F5F5F5F5F5F5F5F5F5F5F5F5F5F5F5F5F5F5F5F5F5F5F5F5F5F5F5F5F5F5F5F5F5F5F5F5F5F5F5F5F5F5F5F5F5F5F5F5F5F5F5F5F5F5F5F5
310
F5F5F5F5F5F5F5F5F5F5F5F5F5F5F5F5F5F5F5F5F5F5F5F5F5F5F5F5F5F5F5F5F5F5F5F5E2E2F5F5F5F5F5F5F5F5F5F5F5F5F5F5F5F5F5F5F5F5F5F5F5F5F5F5F5F5F5F5F5F5F5F5F5F5F5F5F5F5F5F5F5F5F5F5F5F5F5F5F5F5F5F5F5F5F5F5F5F5F5F5F5F5F5F5F5F5F5F5F5F5F5F5F5F5F5F5F5F5F5F5F5F5F5F5F5F5F5
310
F5F5F5F5F5F5F5F5F5F5F5F5F5F5F5F5F5F5F5F5F5F5F5F5F5F5F5F5F5F5F5F5F5F5F5F5F5F5F5F5F5F5F5F5F5F5F5F5F5F5F5F5F5F5F5F5F5F5F5F5F5F5F5F5F5F5F5F5F5F5F5F5F5F5F5F5F5F5F5F5F5F5F5F5F5F5F5F5F5E2E2F5F5F5F5F5F5F5F5F5F5F5F5F5F5F5F5F5F5F5F5F5F5F5F5F5F5F5F5F5F5F5F5F5F5F5F5
310
F5F5F5F5F5F5F5F5F5F5F5F5F5F5F5F5F5F5F5F5F5F5F5F5F5F5F5F5F5F5F5F5F5F5F5F5F5F5F5F5F5F5F5F5F5F5F5F5F5F5F5F5F5F5F5F5F5F5F5F5F5F5F5F5F5F5F5F5F5F5F5F5F5F5F5F5F5F5F5F5F5F5F5F5F5F5F5F5F5F5F5F5F5F5F5F5F5F5F5F5F5F5F5F5F5F5F5F5F5F5F5F5F5F5F5F5F5F5F5F5F5F5F5F5F5F5F5
310
F5F5F5F5F5F5F5F5F5F5F5F5F5F5F5E2E2F5F5F5F5F5F5F5F5F5F5F5F5F5F5F5F5F5F5F5F5F5F5F5F5F5F5F5F5F5F5F5F5F5F5F5F5F5F5F5F5F5F5F5F5F5F5F5F5F5F5F5F5F5F5F5F5F5F5F5F5F5F5F5F5F5F5F5F5F5F5F5F5F5F5F5F5F5F5F5F5F5F5F5F5F5F5F5F5F5F5F5F5F5F5F5F5F5F5F5F5F5F5F5F5F5F5F5F5F5F5
310
F5F5F5F5F5F5F5F5F5F5F5F5F5F5F5F5F5F5F5F5F5F5F5F5F5F5F5F5F5F5F5F5F5F5F5F5F5F5F5F5F5F5F5F5F5F5F5F5F5F5F5F5F5F5F5F5F5F5F5F5F5F5F5F5F5F5F5F5E2E2F5F5F5E2F5F5F5F5F5F5F5F5F5F5F5F5F5F5F5F5F5F5F5F5F5F5F5F5F5F5F5F5F5F5F5F5F5F5F5F5F5F5F5F5F5F5F5F5F5F5F5F5F5F5F5F5F5
310
F5F5F5F5F5F5F5F5F5F5F5F5F5F5F5F5F5F5F5F5F5F5F5F5F5F5F5F5F5F5F5F5F5F5F5F5F5F5F5F5F5F5F5F5F5F5F5F5F5F5F5F5F5F5F5F5F5F5F5F5F5F5F5F5F5F5F5F5F5F5F5F5F5F5F5F5F5F5F5F5F5F5F5F5F5F5F5F5F5F5F5F5F5F5F5F5F5F5F5F5F5F5F5F5F5F5F5F5F5F5F5F5F5F5F5F5F5E2F5F5F5E2E2F5F5F5E2
310
F5F5F5F5F5F5F5F5F5F5F5F5F5F5F5F5F5F5F5F5F5F5F5F5F5F5F5F5F5F5F5F5F5F5F5F5F5F5F5F5F5F5F5F5F5F5F5F5F5F5F5F5F5F5F5F5F5F5F5F5F5F5F5F5F5F5F5F5F5F5F5F5F5F5F5F5F5F5F5F5F5F5F5F5F5F5F5F5F5F5F5F5F5F5F5F5F5F5F5F5F5F5F5F5F5F5F5F5F5F5F5F5F5F5F5F5F5F5F5F5F5F5F5F5F5F5F5
310
F5F5F5F5F5F5F5F5F5F5F5F5F5F5F5F5F5F5F5F5F5F5F5F5F5F5F5F5F5F5F5F5F5F5F5F5F5F5F5F5F5F5F5E2F5F5F5E2E2F5F5F5E2F5F5F5F5F5F5F5F5F5F5F5F5F5F5F5F5F5F5F5F5F5F5F5F5F5F5F5F5F5F5F5F5F5F5F5F5F5F5F5F5F5F5F5F5F5F5F5F5F5F5F5F5F5F5F5F5F5F5F5F5F5F5F5F5F5F5F5F5F5F5F5F5F5F5
310
F5F5F5F5F5F5F5F5F5F5F5F5F5F5F5F5F5F5F5F5F5F5F5F5F5F5F5F5F5F5F5F5F5F5F5F5F5F5F5F5F5F5F5F5F5F5F5F5F5F5F5F5F5F5F5F5F5F5F5F5F5F5F5F5F5F5F5F5F5F5F5F5F5F5F5F5F5F5F5F5F5F5F5F5F5F5F5F5F5F5F5F5F5F5F5F5E2F5F5F5E2E2F5F5F5E2F5F5F5F5F5F5F5F5F5F5F5F5F5F5F5F5F5F5F5F5F5
310
F5F5F5F5F5F5F5F5F5F5F5F5F5F5F5F5F5F5F5F5F5F5F5F5F5F5F5F5F5F5F5F5F5F5F5F5F5F5F5F5F5F5F5F5F5F5F5F5F5F5F5F5F5F5F5F5F5F5F5F5F5F5F5F5F5F5F5F5F5F5F5F5F5F5F5F5F5F5F5F5F5F5F5F5F5F5F5F5F5F5F5F5F5F5F5F5F5F5F5F5F5F5F5F5F5F5F5F5F5F5F5F5F5F5F5F5F5F5F5F5F5F5F5F5F5F5F5
310
F5F5F5F5F5F5F5F5F5F5F5F5F5F5F5F5F5F5F5F5F5F5E2F5F5F5E2E2F5F5F5E2F5F5F5F5F5F5F5F5F5F5F5F5F5F5F5F5F5F5F5F5F5F5F5F5F5F5F5F5F5F5F5F5F5F5F5F5F5F5F5F5F5F5F5F5F5F5F5F5F5F5F5F5F5F5F5F5F5F5F5F5F5F5F5F5F5F5F5F5F5F5F5F5F5F5F5F5F5F5F5F5F5F5F5F5F5F5F5F5F5F5F5F5F5F5F5
310
F5F5F5F5F5F5F5F5F5F5F5F5F5F5F5F5F5F5F5F5F5F5F5F5F5F5F5F5F5F5F5F5F5F5F5F5F5F5F5F5F5F5F5F5F5F5F5F5F5F5F5F5F5F5F5F5F5F5F5F5F5F5F5F5F5F5F5F5F5F5F5F5F5F5F5E2F5F5F5E2E2F5F5F5E2F5F5F5F5F5F5F5F5F5F5F5F5F5F5F5F5F5F5F5F5F5F5F5F5F5F5F5F5F5F5F5F5F5F5F5F5F5F5F5F5F5F5
310
F5F5F5F5F5F5F5F5F5F5F5F5F5F5F5F5F5F5F5F5F5F5F5F5F5F5F5F5F5F5F5F5F5F5F5F5F5F5F5F5F5F5F5F5F5F5F5F5F5F5F5F5F5F5F5F5F5F5F5F5F5F5F5F5F5F5F5F5F5F5F5F5F5F5F5F5F5F5F5F5F5F5F5F5F5F5F5F5F5F5F5F5F5F5F5F5F5F5F5F5F5F5F5F5F5F5F5F5F5F5F5F5F5F5F5F5F5F5F5F5F5F5F5F5F5F5F5
310
F5E2F5F5F5E2E2F5F5F5E2F5F5F5F5F5F5F5F5F5F5F5F5F5F5F5F5F5F5F5F5F5F5F5F5F5F5F5F5F5F5F5F5F5F5F5F5F5F5F5F5F5F5F5F5F5F5F5F5F5F5F5F5F5F5F5F5F5F5F5F5F5F5F5F5F5F5F5F5F5F5F5F5F5F5F5F5F5F5F5F5F5F5F5F5F5F5F5F5F5F5F5F5F5F5F5F5F5F5F5F5F5F5F5F5F5F5F5F5F5F5F5F5F5F5F5F5
310
F5F5F5F5F5F5F5F5F5F5F5F5F5F5F5F5F5F5F5F5F5F5F5F5F5F5F5F5F5F5F5F5F5F5F5F5F5F5F5F5F5F5F5F5F5F5F5F5F5F5F5F5F5F5E2F5F5F5E2E2F5F5F5E2F5F5F5F5F5F5F5F5F5F5F5F5F5F5F5F5F5F5F5F5F5F5F5F5F5F5F5F5F5F5F5F5F5F5F5F5F5F5F5F5F5F5F5F5F5F5F5F5F5F5F5F5F5F5F5F5F5F5F5F5F5F5F5
310
F5F5F5F5F5F5F5F5F5F5F5F5F5F5F5F5F5F5F5F5F5F5F5F5F5F5F5F5F5F5F5F5F5F5F5F5F5F5F5F5F5F5F5F5F5F5F5F5F5F5F5F5F5F5F5F5F5F5F5F5F5F5F5F5F5F5F5F5F5F5F5F5F5F5F5F5F5F5F5F5F5F5F5F5F5F5F5F5F5F5F5F5F5F5F5F5F5F5F5F5F5F5F5F5F5F5F5E2F5F5F5E2E2F5F5F5E2E2E2E2E2E2E2E2F5F5F5
310
F5F5F5F5F5F5E2E2E2E2E2E2E2E2E2E2E2E2E2E2E2E2F5F5F5F5F5F5F5F5F5E2E2E2E2E2E2E2E2E2E2E2E2E2E2E2F5F5F5F5F5F5F5F5F5E2E2E2E2E2E2E2E2E2E2E2E2E2E2E2E2F5F5F5F5F5F5F5F5E2E2E2E2E2E2E2E2E2E2E2E2E2E2E2E2F5F5F5F5F5F5F5F5F5E2E2E2E2E2E2E2E2E2E2E2E2E2E2E2F5F5F5F5F5F5F5F5
310
F5E2E2E2E2E2E2E2E2E2E2E2E2E2E2E2E2F5F5F5F5F5F5F5F5F5E2E2E2E2E2E2E2E2F5F5F5E2E2F5F5F5F5F5F5F5F5F5F5F5F5F5F5F5F5F5F5F5F5F5F5F5F5F5F5F5F5F5F5F5F5F5F5F5F5F5F5F5F5F5F5F5F5F5F5F5F5F5F5F5F5F5F5F5F5F5F5F5F5F5F5F5F5F5F5F5F5F5F5F5F5F5F5F5F5F5F5F5F5F5F5F5F5F5F5F5F5
310
F5F5F5F5F5F5F5F5F5F5F5F5F5F5F5F5F5F5F5F5F5F5F5F5F5F5F5F5F5F5F5F5F5F5F5F5F5F5F5F5F5F5F5F5F5F5F5F5F5F5F5F5F5F5F5F5F5F5F5F5F5F5F5F5F5F5F5F5F5F5F5F5F5F5F5F5F5F5F5F5F5F5F5F5F5F5F5F5F5F5E2E2F5F5F5F5F5F5F5F5F5F5F5F5F5F5F5F5F5F5F5F5F5F5F5F5F5F5F5F5F5F5F5F5F5F5F5
310
F5F5F5F5F5F5F5F5F5F5F5F5F5F5F5F5F5F5F5F5F5F5F5F5F5F5F5F5F5F5F5F5F5F5F5F5F5F5F5F5F5F5F5F5F5F5F5F5F5F5F5F5F5F5F5F5F5F5F5F5F5F5F5F5F5F5F5F5F5F5F5F5F5F5F5F5F5F5F5F5F5F5F5F5F5F5F5F5F5F5F5F5F5F5F5F5F5F5F5F5F5F5F5F5F5F5F5F5F5F5F5F5F5F5F5F5F5F5F5F5F5F5F5F5F5F5F5
310
F5F5F5F5F5F5F5F5F5F5F5F5F5F5F5F5E2E2F5F5F5F5F5F5F5F5F5F5F5F5F5F5F5F5F5F5F5F5F5F5F5F5F5F5F5F5F5F5F5F5F5F5F5F5F5F5F5F5F5F5F5F5F5F5F5F5F5F5F5F5F5F5F5F5F5F5F5F5F5F5F5F5F5F5F5F5F5F5F5F5F5F5F5F5F5F5F5F5F5F5F5F5F5F5F5F5F5F5F5F5F5F5F5F5F5F5F5F5F5F5F5F5F5F5F5F5F5
310
F5F5F5F5F5F5F5F5F5F5F5F5F5F5F5F5F5F5F5F5F5F5F5F5F5F5F5F5F5F5F5F5F5F5F5F5F5F5F5F5F5F5F5F5F5F5F5F5F5F5F5F5F5F5F5F5F5F5F5F5F5F5F5F5F5F5F5F5F5E2E2F5F5F5F5F5F5F5F5F5F5F5F5F5F5F5F5F5F5F5F5F5F5F5F5F5F5F5F5F5F5F5F5F5F5F5F5F5F5F5F5F5F5F5F5F5F5F5F5F5F5F5F5F5F5F5F5
310
F5F5F5F5F5F5F5F5F5F5F5F5F5F5F5F5F5F5F5F5F5F5F5F5F5F5F5F5F5F5F5F5F5F5F5F5F5F5F5F5F5F5F5F5F5F5F5F5F5F5F5F5F5F5F5F5F5F5F5F5F5F5F5F5F5F5F5F5F5F5F5F5F5F5F5F5F5F5F5F5F5F5F5F5F5F5F5F5F5F5F5F5F5F5F5F5F5F5F5F5F5F5F5F5F5F5F5F5F5F5F5F5F5F5F5F5F5F5F5F5F5F5E2E2E2E2E2
310
E2E2E2E2E2E2E2E2E2E2E2E2E2E2E2E2E2E2E2E2E2E2E2E2E2E2E2E2E2E2E2E2E2E2E2E2E2E2E2E2E2E2E2E2E2E2E2E2E2E2E2E2E2E2E2E2E2E2E2E2E2E2E2E2E2E2E2E2E2E2E2E2E2E2E2E2E2E2E2E2E2E2E2E2E2E2E2E2E2E2E2E2E2E2E2E2E2E2E2E2E2E2E2E2E2E2E2E2E2E2E2E2E2E2E2E2E2E2E2E2E2E2E2E2E2E2E2
310
E2E2E2E2E2E2E2E2E2E2E2E2E2E2E2E2E2E2E2E2E2E2E2E2E2E2E2E2E2E2E2E2E2E2E2E2E2E2E2E2E2E2E2E2E2E2E2E2E2
  0
ENDSEC
  0
EOF
