  0
SECTION
  2
HEADER
  9
$ACADVER
  1
AC1015
  9
$ACADMAINTVER
 70
    20
  9
$DWGCODEPAGE
  3
ANSI_1252
  9
$INSBASE
 10
0.0
 20
0.0
 30
0.0
  9
$EXTMIN
 10
-0.2573346061165154
 20
-0.754208644983315
 30
-0.000000000001831
  9
$EXTMAX
 10
16.74526859148233
 20
10.24753000508077
 30
0.0000000100018311
  9
$LIMMIN
 10
0.0
 20
0.0
  9
$LIMMAX
 10
12.0
 20
9.0
  9
$ORTHOMODE
 70
     0
  9
$REGENMODE
 70
     1
  9
$FILLMODE
 70
     1
  9
$QTEXTMODE
 70
     0
  9
$MIRRTEXT
 70
     1
  9
$LTSCALE
 40
0.25
  9
$ATTMODE
 70
     1
  9
$TEXTSIZE
 40
0.125
  9
$TRACEWID
 40
0.05
  9
$TEXTSTYLE
  7
Standard
  9
$CLAYER
  8
0
  9
$CELTYPE
  6
ByLayer
  9
$CECOLOR
 62
   256
  9
$CELTSCALE
 40
1.0
  9
$DISPSILH
 70
     0
  9
$DIMSCALE
 40
1.0
  9
$DIMASZ
 40
0.125
  9
$DIMEXO
 40
0.0625
  9
$DIMDLI
 40
0.38
  9
$DIMRND
 40
0.0
  9
$DIMDLE
 40
0.0
  9
$DIMEXE
 40
0.0625
  9
$DIMTP
 40
0.0
  9
$DIMTM
 40
0.0
  9
$DIMTXT
 40
0.125
  9
$DIMCEN
 40
0.09
  9
$DIMTSZ
 40
0.0
  9
$DIMTOL
 70
     0
  9
$DIMLIM
 70
     0
  9
$DIMTIH
 70
     1
  9
$DIMTOH
 70
     1
  9
$DIMSE1
 70
     0
  9
$DIMSE2
 70
     0
  9
$DIMTAD
 70
     0
  9
$DIMZIN
 70
     0
  9
$DIMBLK
  1

  9
$DIMASO
 70
     1
  9
$DIMSHO
 70
     1
  9
$DIMPOST
  1

  9
$DIMAPOST
  1

  9
$DIMALT
 70
     0
  9
$DIMALTD
 70
     2
  9
$DIMALTF
 40
25.4
  9
$DIMLFAC
 40
1.0
  9
$DIMTOFL
 70
     0
  9
$DIMTVP
 40
0.0
  9
$DIMTIX
 70
     0
  9
$DIMSOXD
 70
     0
  9
$DIMSAH
 70
     0
  9
$DIMBLK1
  1

  9
$DIMBLK2
  1

  9
$DIMSTYLE
  2
Standard
  9
$DIMCLRD
 70
     0
  9
$DIMCLRE
 70
     0
  9
$DIMCLRT
 70
     0
  9
$DIMTFAC
 40
1.0
  9
$DIMGAP
 40
0.09
  9
$DIMJUST
 70
     0
  9
$DIMSD1
 70
     0
  9
$DIMSD2
 70
     0
  9
$DIMTOLJ
 70
     1
  9
$DIMTZIN
 70
     0
  9
$DIMALTZ
 70
     0
  9
$DIMALTTZ
 70
     0
  9
$DIMUPT
 70
     1
  9
$DIMDEC
 70
     4
  9
$DIMTDEC
 70
     4
  9
$DIMALTU
 70
     2
  9
$DIMALTTD
 70
     2
  9
$DIMTXSTY
  7
Standard
  9
$DIMAUNIT
 70
     0
  9
$DIMADEC
 70
     0
  9
$DIMALTRND
 40
0.0
  9
$DIMAZIN
 70
     0
  9
$DIMDSEP
 70
    46
  9
$DIMATFIT
 70
     3
  9
$DIMFRAC
 70
     0
  9
$DIMLDRBLK
  1

  9
$DIMLUNIT
 70
     5
  9
$DIMLWD
 70
    -2
  9
$DIMLWE
 70
    -2
  9
$DIMTMOVE
 70
     0
  9
$LUNITS
 70
     2
  9
$LUPREC
 70
     4
  9
$SKETCHINC
 40
0.1
  9
$FILLETRAD
 40
0.0
  9
$AUNITS
 70
     0
  9
$AUPREC
 70
     0
  9
$MENU
  1
.
  9
$ELEVATION
 40
0.0
  9
$PELEVATION
 40
0.0
  9
$THICKNESS
 40
0.0
  9
$LIMCHECK
 70
     0
  9
$CHAMFERA
 40
0.5
  9
$CHAMFERB
 40
0.5
  9
$CHAMFERC
 40
1.0
  9
$CHAMFERD
 40
0.0
  9
$SKPOLY
 70
     0
  9
$TDCREATE
 40
2451761.584831991
  9
$TDUCREATE
 40
2451761.751498657
  9
$TDUPDATE
 40
2454018.467069375
  9
$TDUUPDATE
 40
2454018.633736042
  9
$TDINDWG
 40
0.7382850000
  9
$TDUSRTIMER
 40
0.7382846296
  9
$USRTIMER
 70
     1
  9
$ANGBASE
 50
0.0
  9
$ANGDIR
 70
     0
  9
$PDMODE
 70
     0
  9
$PDSIZE
 40
0.0
  9
$PLINEWID
 40
0.0
  9
$SPLFRAME
 70
     0
  9
$SPLINETYPE
 70
     6
  9
$SPLINESEGS
 70
     8
  9
$HANDSEED
  5
7D6
  9
$SURFTAB1
 70
     6
  9
$SURFTAB2
 70
     6
  9
$SURFTYPE
 70
     6
  9
$SURFU
 70
     6
  9
$SURFV
 70
     6
  9
$UCSBASE
  2

  9
$UCSNAME
  2

  9
$UCSORG
 10
0.0
 20
0.0
 30
0.0
  9
$UCSXDIR
 10
1.0
 20
0.0
 30
0.0
  9
$UCSYDIR
 10
0.0
 20
1.0
 30
0.0
  9
$UCSORTHOREF
  2

  9
$UCSORTHOVIEW
 70
     0
  9
$UCSORGTOP
 10
0.0
 20
0.0
 30
0.0
  9
$UCSORGBOTTOM
 10
0.0
 20
0.0
 30
0.0
  9
$UCSORGLEFT
 10
0.0
 20
0.0
 30
0.0
  9
$UCSORGRIGHT
 10
0.0
 20
0.0
 30
0.0
  9
$UCSORGFRONT
 10
0.0
 20
0.0
 30
0.0
  9
$UCSORGBACK
 10
0.0
 20
0.0
 30
0.0
  9
$PUCSBASE
  2

  9
$PUCSNAME
  2

  9
$PUCSORG
 10
0.0
 20
0.0
 30
0.0
  9
$PUCSXDIR
 10
1.0
 20
0.0
 30
0.0
  9
$PUCSYDIR
 10
0.0
 20
1.0
 30
0.0
  9
$PUCSORTHOREF
  2

  9
$PUCSORTHOVIEW
 70
     0
  9
$PUCSORGTOP
 10
0.0
 20
0.0
 30
0.0
  9
$PUCSORGBOTTOM
 10
0.0
 20
0.0
 30
0.0
  9
$PUCSORGLEFT
 10
0.0
 20
0.0
 30
0.0
  9
$PUCSORGRIGHT
 10
0.0
 20
0.0
 30
0.0
  9
$PUCSORGFRONT
 10
0.0
 20
0.0
 30
0.0
  9
$PUCSORGBACK
 10
0.0
 20
0.0
 30
0.0
  9
$USERI1
 70
     0
  9
$USERI2
 70
     0
  9
$USERI3
 70
     0
  9
$USERI4
 70
     0
  9
$USERI5
 70
     0
  9
$USERR1
 40
0.0
  9
$USERR2
 40
0.0
  9
$USERR3
 40
0.0
  9
$USERR4
 40
0.0
  9
$USERR5
 40
0.0
  9
$WORLDVIEW
 70
     1
  9
$SHADEDGE
 70
     3
  9
$SHADEDIF
 70
    70
  9
$TILEMODE
 70
     1
  9
$MAXACTVP
 70
    64
  9
$PINSBASE
 10
0.0
 20
0.0
 30
0.0
  9
$PLIMCHECK
 70
     0
  9
$PEXTMIN
 10
-0.2568097319241076
 20
-0.7539897337284387
 30
-0.4600140370149328
  9
$PEXTMAX
 10
16.74403116863264
 20
10.24697757159225
 30
0.000014039156975
  9
$PLIMMIN
 10
-0.2499999962453767
 20
-0.7499999699630137
  9
$PLIMMAX
 10
16.74999952316284
 20
10.24999978974109
  9
$UNITMODE
 70
     0
  9
$VISRETAIN
 70
     1
  9
$PLINEGEN
 70
     0
  9
$PSLTSCALE
 70
     1
  9
$TREEDEPTH
 70
  3020
  9
$CMLSTYLE
  2
Standard
  9
$CMLJUST
 70
     0
  9
$CMLSCALE
 40
1.0
  9
$PROXYGRAPHICS
 70
     1
  9
$MEASUREMENT
 70
     0
  9
$CELWEIGHT
370
    -1
  9
$ENDCAPS
280
     0
  9
$JOINSTYLE
280
     0
  9
$LWDISPLAY
290
     0
  9
$INSUNITS
 70
     1
  9
$HYPERLINKBASE
  1

  9
$STYLESHEET
  1

  9
$XEDIT
290
     1
  9
$CEPSNTYPE
380
     0
  9
$PSTYLEMODE
290
     1
  9
$FINGERPRINTGUID
  2
{1637ABE6-5443-482E-90B9-2D08310C2CA2}
  9
$VERSIONGUID
  2
{8EC1B3CA-864C-4859-953D-32ABFA52532F}
  9
$EXTNAMES
290
     1
  9
$PSVPSCALE
 40
0.0
  9
$OLESTARTUP
290
     0
  0
ENDSEC
  0
SECTION
  2
CLASSES
  0
CLASS
  1
ACDBDICTIONARYWDFLT
  2
AcDbDictionaryWithDefault
  3
ObjectDBX Classes
 90
        0
280
     0
281
     0
  0
CLASS
  1
ACDBPLACEHOLDER
  2
AcDbPlaceHolder
  3
ObjectDBX Classes
 90
        0
280
     0
281
     0
  0
CLASS
  1
LAYOUT
  2
AcDbLayout
  3
ObjectDBX Classes
 90
        0
280
     0
281
     0
  0
CLASS
  1
ACME_DOCUMENT
  2
AcMeDbDoc
  3
AcMeServices
 90
        0
280
     0
281
     0
  0
CLASS
  1
ACMESCOPE
  2
AcMeScope
  3
AcMeServices
 90
        0
280
     0
281
     0
  0
CLASS
  1
ACMECOMMANDHISTORY
  2
AcMeCommandHistory
  3
AcMeServices
 90
        0
280
     0
281
     0
  0
CLASS
  1
DICTIONARYVAR
  2
AcDbDictionaryVar
  3
ObjectDBX Classes
 90
        0
280
     0
281
     0
  0
CLASS
  1
ACIMSYSVARMAN
  2
AcImSysVarManager
  3
AcMeServices
 90
        0
280
     0
281
     0
  0
CLASS
  1
ACIMREALSYSVAR
  2
AcImRealSysVar
  3
AcMeServices
 90
        0
280
     0
281
     0
  0
CLASS
  1
ACIMINTSYSVAR
  2
AcImIntSysVar
  3
AcMeServices
 90
        0
280
     0
281
     0
  0
CLASS
  1
ACMEDRAWINGMAN
  2
AcMeDrawingMan
  3
AcMeServices
 90
        0
280
     0
281
     0
  0
CLASS
  1
ACMEVIEW
  2
AcMeView
  3
AcMeServices
 90
        0
280
     0
281
     0
  0
CLASS
  1
ACDBENTITYCACHE
  2
AcMeEntityCache
  3
AcMeServices
 90
        0
280
     0
281
     0
  0
CLASS
  1
GSMANAGER
  2
AcMeGSManager
  3
AcMeServices
 90
        0
280
     0
281
     0
  0
CLASS
  1
AMDTINTERNALREACTOR
  2
AmdtInternalReactor
  3
AcMeServices
 90
        0
280
     0
281
     0
  0
CLASS
  1
ACMESTATEMGR
  2
AcMeStateMgr
  3
AcMeServices
 90
        0
280
     0
281
     0
  0
CLASS
  1
ACGREFMASTER
  2
AcGrefMaster
  3
AcAttribServices
 90
        0
280
     0
281
     0
  0
CLASS
  1
AM_DRAWING_MGR
  2
AcDmDwgMgr
  3
AcMechDwgViewMgmt
 90
        0
280
     0
281
     0
  0
CLASS
  1
AM_DWG_DOCUMENT
  2
AcDmDwgDocument
  3
AcMechDwgViewMgmt
 90
        0
280
     0
281
     0
  0
CLASS
  1
AM_DWG_SHEET
  2
AcDmSheet
  3
AcMechDwgViewMgmt
 90
        0
280
     0
281
     0
  0
CLASS
  1
AM_VIEWDIMPARMAP
  2
AcDmViewDimParMap
  3
AcMechDwgViewMgmt
 90
        0
280
     0
281
     0
  0
CLASS
  1
AM_DWGMGR_NAME
  2
AcDmDwgMgrName
  3
AcMechDwgViewMgmt
 90
        0
280
     0
281
     0
  0
CLASS
  1
ACME_DATABASE
  2
AcMeDbDatabase
  3
AcMeServices
 90
        0
280
     0
281
     0
  0
CLASS
  1
ACRFINSADJUSTERMGR
  2
AcRfInsAdjusterMgr
  3
AcMeServices
 90
        0
280
     0
281
     0
  0
CLASS
  1
ACGREFACADMASTER
  2
AcGrefacadMaster
  3
AcGrefServices
 90
        0
280
     0
281
     0
  0
CLASS
  1
AMDTMENUSTATEMGR
  2
AmdtMenuStateMgr
  3
McadcomServices
 90
        0
280
     0
281
     0
  0
CLASS
  1
AMDTMCOMMENUSTATE
  2
AmdtMcomMenuState
  3
McadcomServices
 90
        0
280
     0
281
     0
  0
CLASS
  1
ASAPP
  2
AcAsAppObject
  3
AutoSurfServices
 90
        0
280
     0
281
     0
  0
CLASS
  1
IM_STATIC_MAN
  2
AcImStaticVarManager
  3
AcMeServices
 90
        0
280
     0
281
     0
  0
CLASS
  1
ACIMSTRSYSVAR
  2
AcImStrSysVar
  3
AcMeServices
 90
        0
280
     0
281
     0
  0
CLASS
  1
ACIMDBLSTATICVAR
  2
AcImDblStaticVar
  3
AcMeServices
 90
        0
280
     0
281
     0
  0
CLASS
  1
ACIMSTRSTATICVAR
  2
AcImStrStaticVar
  3
AcMeServices
 90
        0
280
     0
281
     0
  0
CLASS
  1
ACIMINTSTATICVAR
  2
AcImIntStaticVar
  3
AcMeServices
 90
        0
280
     0
281
     0
  0
CLASS
  1
ACADGREFMODULE
  2
AcAdGrefModule
  3
AdGrefServices
 90
        0
280
     0
281
     0
  0
CLASS
  1
AMIMASTER
  2
AmiMaster
  3
AmiServices
 90
        0
280
     0
281
     0
  0
CLASS
  1
ACASGREFMASTER
  2
AcAsGrefMaster
  3
AutoSurfResolverServices
 90
        0
280
     0
281
     0
  0
CLASS
  1
MAPIAMMOUDLE
  2
MApiAmModule
  3
MApiAmServices
 90
        0
280
     0
281
     0
  0
CLASS
  1
AMDTDMMENUSTATE
  2
AmdtDmMenuState
  3
AcMechDwgViewMgmt
 90
        0
280
     0
281
     0
  0
CLASS
  1
AMDTADMENUSTATE
  2
AmdtAdMenuState
  3
DesignerServices
 90
        0
280
     0
281
     0
  0
CLASS
  1
ADAPPL
  2
AcAdAppl
  3
DesignerServices
 90
        0
280
     0
281
     0
  0
CLASS
  1
DEPMGR
  2
AcAdDepMgr
  3
DesignerServices
 90
        0
280
     0
281
     0
  0
CLASS
  1
PARAMMGR
  2
AcAdParamMgr
  3
DesignerServices
 90
        0
280
     0
281
     0
  0
CLASS
  1
PARAMSCOPE
  2
AcAdParamScope
  3
DesignerServices
 90
        0
280
     0
281
     0
  0
CLASS
  1
NAMEDAPPL
  2
AcAdNamedAppl
  3
DesignerServices
 90
        0
280
     0
281
     0
  0
CLASS
  1
ADHNTMPLT
  2
AdHoleNoteTemplateMgr
  3
DesignerServices
 90
    32768
280
     0
281
     0
  0
CLASS
  1
AM_HNTEMPLATE_MGR_NAME
  2
AdHoleNoteTemplateMgrName
  3
DesignerServices
 90
    32768
280
     0
281
     0
  0
CLASS
  1
AMDTAMMENUSTATE
  2
AmdtAmMenuState
  3
DesignerAssemblies
 90
        0
280
     0
281
     0
  0
CLASS
  1
ACAMPROJECT
  2
AcAmProject
  3
DesignerAssemblies
 90
        0
280
     0
281
     0
  0
CLASS
  1
ACAMGRCOMPDEF
  2
AcAmGrCompDef
  3
DesignerAssemblies
 90
        0
280
     0
281
     0
  0
CLASS
  1
ACCMCONTEXT
  2
AcCmContext
  3
DesignerAssemblies
 90
        0
280
     0
281
     0
  0
CLASS
  1
ACAMCOMPDEF
  2
AcAmCompDef
  3
DesignerAssemblies
 90
        0
280
     0
281
     0
  0
CLASS
  1
ACAMCOMPDEFMGR
  2
AcAmCompDefMgr
  3
DesignerAssemblies
 90
        0
280
     0
281
     0
  0
CLASS
  1
AMCONTEXTMGR
  2
AcAmContextMgr
  3
DesignerAssemblies
 90
        0
280
     0
281
     0
  0
CLASS
  1
ACAMCONTEXTMODELER
  2
AcAmContextModeler
  3
DesignerAssemblies
 90
        0
280
     0
281
     0
  0
CLASS
  1
MAPIADMODULE
  2
MApiAdModule
  3
MApiAdServices
 90
        0
280
     0
281
     0
  0
CLASS
  1
ACMDATADICTIONARY
  2
AcmDataDictionary
  3
"AcmSymBB|Product Description: AutoCAD Mechanical 2004 DX|Company: Autodesk"
 90
        0
280
     0
281
     0
  0
CLASS
  1
ACMDATAENTRYBLOCK
  2
AcmDataEntryBlock
  3
"AcmSymBB|Product Description: AutoCAD Mechanical 2004 DX|Company: Autodesk"
 90
        0
280
     0
281
     0
  0
CLASS
  1
AMDTBROWSERDBTAB
  2
AmdtBrowserDbTab
  3
McadcomServices
 90
        0
280
     0
281
     0
  0
CLASS
  1
CBROWSERAPPOBJECT
  2
CBrowserAppObject
  3
McadcomServices
 90
        0
280
     0
281
     0
  0
CLASS
  1
DM_PLACEHOLDER
  2
AcDmSelsetPlaceholder
  3
AcMechDwgViewMgmt
 90
        0
280
     0
281
     0
  0
CLASS
  1
CATALOGSTATE
  2
AcAmCatalogState
  3
DesignerAssemblies
 90
        0
280
     0
281
     0
  0
CLASS
  1
ACAMGRCOMPDEFSET
  2
AcAmGrCompDefSet
  3
DesignerAssemblies
 90
        0
280
     0
281
     0
  0
CLASS
  1
AMGOBJPROPCFG
  2
AmgObjPropCfg
  3
"AmgLay|Product Description: AutoCAD Mechanical 2000|Company: Autodesk"
 90
        1
280
     0
281
     0
  0
CLASS
  1
LAYER_INDEX
  2
AcDbLayerIndex
  3
ObjectDBX Classes
 90
        0
280
     0
281
     0
  0
CLASS
  1
IDBUFFER
  2
AcDbIdBuffer
  3
ObjectDBX Classes
 90
        0
280
     0
281
     0
  0
CLASS
  1
ACRFATTGENMGR
  2
AcRfAttGeneralMgr
  3
AcAttribServices
 90
    32768
280
     0
281
     0
  0
CLASS
  1
ACCMBODY
  2
AcCmBody
  3
DesignerAssemblies
 90
    32768
280
     0
281
     0
  0
CLASS
  1
ACAMCOMPENT
  2
AcAmCompEnt
  3
DesignerAssemblies
 90
    32768
280
     0
281
     1
  0
CLASS
  1
ACAMCOMPFEEDBACK
  2
AcAmCompFeedback
  3
DesignerAssemblies
 90
    32768
280
     0
281
     0
  0
CLASS
  1
ACAMCOMP
  2
AcAmComp
  3
DesignerAssemblies
 90
    32768
280
     0
281
     0
  0
CLASS
  1
ACAMCOMPENTCLONE
  2
AcAmCompEntClone
  3
DesignerAssemblies
 90
    32768
280
     0
281
     1
  0
CLASS
  1
ACAMCLONEREACTOR
  2
AcAmGrCompCloneReactor
  3
DesignerAssemblies
 90
    32768
280
     0
281
     0
  0
CLASS
  1
AM_VIEW_SELECT_FILTER
  2
AcDmSelectViewEntFilter
  3
AcMechDwgViewMgmt
 90
    32768
280
     0
281
     0
  0
CLASS
  1
ACDBSOLPLANERES
  2
AcDbSolPlaneRes
  3
AcGrefServices
 90
    32768
280
     0
281
     0
  0
CLASS
  1
AM_GREF_PLANE
  2
AcDmGrefPlnDef
  3
AcMechDwgViewMgmt
 90
    32768
280
     0
281
     0
  0
CLASS
  1
AM_ABS_AXIS
  2
AcDmAbsAxisDef
  3
AcMechDwgViewMgmt
 90
    32768
280
     0
281
     0
  0
CLASS
  1
AM_BASE_VIEW_ORIENT
  2
AcDmBaseViewOr
  3
AcMechDwgViewMgmt
 90
    32768
280
     0
281
     0
  0
CLASS
  1
ACMELINEARARROW
  2
AcImLinearArrowDisplay
  3
AcMeServices
 90
    32768
280
     0
281
     1
  0
CLASS
  1
AM_DWG_VIEWPORT
  2
AcDmViewport
  3
AcMechDwgViewMgmt
 90
    32768
280
     0
281
     0
  0
CLASS
  1
AM_VIEW_DISPLAY
  2
AcDmDwgViewDisplay
  3
AcMechDwgViewMgmt
 90
    32768
280
     0
281
     0
  0
CLASS
  1
AM_CLDFLTS
  2
AcDmClDflts
  3
AcMechDwgViewMgmt
 90
    32768
280
     0
281
     0
  0
CLASS
  1
AM_BASE_VIEW
  2
AcDmBaseView
  3
AcMechDwgViewMgmt
 90
    32768
280
     0
281
     0
  0
CLASS
  1
ACDMVWEDSPLINE
  2
AcDmViewEdgeSpline
  3
AcMechDwgViewMgmt
 90
    32768
280
     0
281
     1
  0
CLASS
  1
ACDMVWEDLINE
  2
AcDmViewEdgeLine
  3
AcMechDwgViewMgmt
 90
    32768
280
     0
281
     1
  0
CLASS
  1
ACDMVWEDELLIPSE
  2
AcDmViewEdgeEllipse
  3
AcMechDwgViewMgmt
 90
    32768
280
     0
281
     1
  0
CLASS
  1
ACDMVWEDARC
  2
AcDmViewEdgeArc
  3
AcMechDwgViewMgmt
 90
    32768
280
     0
281
     1
  0
CLASS
  1
ACDMVWEDCIRC
  2
AcDmViewEdgeCircle
  3
AcMechDwgViewMgmt
 90
    32768
280
     0
281
     1
  0
CLASS
  1
AM_ISO_VIEW_ORIENT
  2
AcDmIsoViewOr
  3
AcMechDwgViewMgmt
 90
    32768
280
     0
281
     0
  0
CLASS
  1
AM_ISO_VIEW
  2
AcDmIsoView
  3
AcMechDwgViewMgmt
 90
    32768
280
     0
281
     0
  0
CLASS
  1
ACDMVIEWGEOM
  2
AcDmViewGeometry
  3
AcMechDwgViewMgmt
 90
    32768
280
     0
281
     1
  0
CLASS
  1
ACMBOM
  2
AcmBom
  3
"AcmSymBB|Product Description: AutoCAD Mechanical 2004 DX|Company: Autodesk"
 90
    32768
280
     0
281
     0
  0
CLASS
  1
ACMBOMROW
  2
AcmBomRow
  3
"AcmSymBB|Product Description: AutoCAD Mechanical 2004 DX|Company: Autodesk"
 90
    32768
280
     0
281
     0
  0
CLASS
  1
ACMSTANDARDANSI
  2
AcmStandardANSI
  3
"Amdt_StdImp|Product Description: AutoCAD Mechanical 2004 DX|Company: Autodesk"
 90
        0
280
     0
281
     0
  0
CLASS
  1
ACMSURFSTANDARDANSI
  2
AcmSurfTextStdANSI
  3
"Amdt_StdImp|Product Description: AutoCAD Mechanical 2004 DX|Company: Autodesk"
 90
        0
280
     0
281
     0
  0
CLASS
  1
ACMFCFSTANDARDANSI
  2
AcmFCFStdANSI
  3
"Amdt_StdImp|Product Description: AutoCAD Mechanical 2004 DX|Company: Autodesk"
 90
        0
280
     0
281
     0
  0
CLASS
  1
ACMWELDSTANDARDANSI
  2
AcmWeldingStdANSI
  3
"Amdt_StdImp|Product Description: AutoCAD Mechanical 2004 DX|Company: Autodesk"
 90
        0
280
     0
281
     0
  0
CLASS
  1
ACMIDSTANDARDANSI
  2
AcmIdStdANSI
  3
"Amdt_StdImp|Product Description: AutoCAD Mechanical 2004 DX|Company: Autodesk"
 90
        0
280
     0
281
     0
  0
CLASS
  1
ACMDATUMSTANDARDANSI
  2
AcmDatumStdANSI
  3
"Amdt_StdImp|Product Description: AutoCAD Mechanical 2004 DX|Company: Autodesk"
 90
        0
280
     0
281
     0
  0
CLASS
  1
ACMBOMSTANDARDANSI
  2
AcmBOMStdANSI
  3
"Amdt_StdImp|Product Description: AutoCAD Mechanical 2004 DX|Company: Autodesk"
 90
        0
280
     0
281
     0
  0
CLASS
  1
ACMDATAENTRYPART
  2
AcmDataEntryPart
  3
"AcmSymBB|Product Description: AutoCAD Mechanical 2004 DX|Company: Autodesk"
 90
    32768
280
     0
281
     0
  0
CLASS
  1
ACMPARTREF
  2
AcmPartRef
  3
"AcmSymBB|Product Description: AutoCAD Mechanical 2004 DX|Company: Autodesk"
 90
    33791
280
     0
281
     1
  0
CLASS
  1
ACMBALLOON
  2
AcmBalloon
  3
"AcmSymBB|Product Description: AutoCAD Mechanical 2004 DX|Company: Autodesk"
 90
    33791
280
     0
281
     1
  0
CLASS
  1
ACMPICKOBJ
  2
AcmPickEnt
  3
"AcmSymBB|Product Description: AutoCAD Mechanical 2004 DX|Company: Autodesk"
 90
    32768
280
     0
281
     1
  0
CLASS
  1
ADPART
  2
AcAdPart
  3
DesignerServices
 90
    32768
280
     0
281
     1
  0
CLASS
  1
WORKPLANEDISPLAYMGR
  2
AcAdDisplayMgr
  3
DesignerServices
 90
    32768
280
     0
281
     0
  0
CLASS
  1
ADBASE
  2
AcAdBase
  3
DesignerServices
 90
    32768
280
     0
281
     0
  0
CLASS
  1
ADDATUMPLANEABS
  2
AcAdDatumPlaneAbs
  3
DesignerServices
 90
    32768
280
     0
281
     0
  0
CLASS
  1
ADDATUMAXISABS
  2
AcAdDatumAxisAbs
  3
DesignerServices
 90
    32768
280
     0
281
     0
  0
CLASS
  1
PARAM
  2
AcAdParam
  3
DesignerServices
 90
    32768
280
     0
281
     0
  0
CLASS
  1
BODYID
  2
AcAdBodyId
  3
DesignerServices
 90
    32768
280
     0
281
     0
  0
CLASS
  1
ADDATUMORIENTEDPLANE
  2
AcAdDatumOrientedPlane
  3
DesignerServices
 90
    32768
280
     0
281
     0
  0
CLASS
  1
ACADCONSGROUP
  2
AcAdConstraintGroup
  3
DesignerServices
 90
    32768
280
     0
281
     0
  0
CLASS
  1
ACADREFLINEACAD
  2
AcAdVirtualReferenceLine
  3
DesignerServices
 90
    32768
280
     0
281
     0
  0
CLASS
  1
ACADCONSLINE
  2
AcAdConstrainedLine
  3
DesignerServices
 90
    32768
280
     0
281
     0
  0
CLASS
  1
ACADLINEACAD
  2
AcAdVirtualBoundedLineAcad
  3
DesignerServices
 90
    32768
280
     0
281
     0
  0
CLASS
  1
ACADCONSPOINT
  2
AcAdConstrainedPoint
  3
DesignerServices
 90
    32768
280
     0
281
     0
  0
CLASS
  1
ADPCURCNS
  2
AcAdPointCurveConstr
  3
DesignerServices
 90
    32768
280
     0
281
     0
  0
CLASS
  1
ADHORCNS
  2
AcAdHorizontalConstr
  3
DesignerServices
 90
    32768
280
     0
281
     0
  0
CLASS
  1
ADVERCNS
  2
AcAdVerticalConstr
  3
DesignerServices
 90
    32768
280
     0
281
     0
  0
CLASS
  1
ADPARCNS
  2
AcAdParallelConstr
  3
DesignerServices
 90
    32768
280
     0
281
     0
  0
CLASS
  1
ACAD_FIXCONSTRAINT
  2
AcAdFixedConstraint
  3
DesignerServices
 90
    32768
280
     0
281
     0
  0
CLASS
  1
ACADIMPPTACAD
  2
AcAdVirtualImplicitPoint
  3
DesignerServices
 90
    32768
280
     0
281
     0
  0
CLASS
  1
ADCLPROF2D
  2
AcAdClosedProfile2d
  3
DesignerServices
 90
    32768
280
     0
281
     0
  0
CLASS
  1
ACADCIRCLEACAD
  2
AcAdVirtualCircleAcad
  3
DesignerServices
 90
    32768
280
     0
281
     0
  0
CLASS
  1
ACADCONSCIRCLE
  2
AcAdConstrainedCircle
  3
DesignerServices
 90
    32768
280
     0
281
     0
  0
CLASS
  1
ADCTRPTCNS
  2
AcAdCenterPointConstr
  3
DesignerServices
 90
    32768
280
     0
281
     0
  0
CLASS
  1
DEPEDGEFEATUREORDERING
  2
AcAdDepEdgeFeatureOrdering
  3
DesignerServices
 90
    32768
280
     0
281
     0
  0
CLASS
  1
ACADVOLFEATWITHTRIM
  2
AcAdVolFeatWithTrim
  3
DesignerServices
 90
    32768
280
     0
281
     0
  0
CLASS
  1
ACAMCLONECHILDREACTOR
  2
AcAmGrCloneChildReactor
  3
DesignerAssemblies
 90
    32768
280
     0
281
     0
  0
CLASS
  1
AM_ADCIRCTRLINE
  2
AcAdBullsEyeCl
  3
DesignerServices
 90
    32768
280
     0
281
     0
  0
CLASS
  1
AM_ADLINCTRLINE
  2
AcAdLineCl
  3
DesignerServices
 90
    32768
280
     0
281
     0
  0
CLASS
  1
ACDBSOLLINEDGRES
  2
AcDbSolLinEdgRes
  3
AcGrefServices
 90
    32768
280
     0
281
     0
  0
CLASS
  1
AM_GREF_AXIS
  2
AcDmGrefAxisDef
  3
AcMechDwgViewMgmt
 90
    32768
280
     0
281
     0
  0
CLASS
  1
AM_VWNOTEADAPTER
  2
AcDmViewAnnotAdapter
  3
AcMechDwgViewMgmt
 90
    32768
280
     0
281
     0
  0
CLASS
  1
AM_ORTHO_VIEW_ORIENT
  2
AcDmOrthoViewOr
  3
AcMechDwgViewMgmt
 90
    32768
280
     0
281
     0
  0
CLASS
  1
AM_ORTHO_VIEW
  2
AcDmOrthoView
  3
AcMechDwgViewMgmt
 90
    32768
280
     0
281
     0
  0
CLASS
  1
ACAMEXTERNALCOMPDEF
  2
AcAmExternalCompDef
  3
DesignerAssemblies
 90
    32768
280
     0
281
     0
  0
CLASS
  1
ACAMGRBLOCKRECORD
  2
AcAmGrBlockRecord
  3
DesignerAssemblies
 90
    32768
280
     0
281
     0
  0
CLASS
  1
ACAMVIEWREACTOR
  2
AcAmViewReactor
  3
DesignerAssemblies
 90
    32768
280
     0
281
     0
  0
CLASS
  1
AMVIEW
  2
AcAmView
  3
DesignerAssemblies
 90
    32768
280
     0
281
     0
  0
CLASS
  1
ACAMVIEWCONTEXT
  2
AcAmViewContext
  3
DesignerAssemblies
 90
    32768
280
     0
281
     0
  0
CLASS
  1
ACAMCOMPVIEWREACTOR
  2
AcAmGrCompViewReactor
  3
DesignerAssemblies
 90
    32768
280
     0
281
     0
  0
CLASS
  1
ACAMCOMPENTVIEW
  2
AcAmCompEntView
  3
DesignerAssemblies
 90
    32768
280
     0
281
     1
  0
CLASS
  1
ACAMVIEWENTITYFILTER
  2
AcAmViewEntityFilter
  3
DesignerAssemblies
 90
    32768
280
     0
281
     0
  0
CLASS
  1
TABLESTYLE
  2
AcDbTableStyle
  3
ObjectDBX Classes
 90
     2047
280
     0
281
     0
  0
CLASS
  1
AMGSETTINGSOBJ
  2
AmgSettingsObj
  3
"AcadM|Product Description: AutoCAD Mechanical 2000|Company: Autodesk"
 90
        0
280
     0
281
     0
  0
CLASS
  1
AMDTMAPISURFMOUDULE
  2
AmdtMApiSurfModule
  3
MApiSurfServices
 90
        0
280
     0
281
     0
  0
CLASS
  1
ACDMPARTVIEWDATA
  2
AcDmPartViewData
  3
AcMechDwgViewMgmt
 90
    32768
280
     0
281
     0
  0
CLASS
  1
ACDMDISPLAYATTRIBS
  2
AcDmDisplayAttribs
  3
AcMechDwgViewMgmt
 90
    32768
280
     0
281
     0
  0
CLASS
  1
ACDMBODYINSTANCEDATA
  2
AcDmBodyInstanceData
  3
AcMechDwgViewMgmt
 90
    32768
280
     0
281
     0
  0
CLASS
  1
ACRFINSADJ
  2
AcRfInsAdjuster
  3
AcMeServices
 90
    32768
280
     0
281
     0
  0
CLASS
  1
AMDTFORMULAUPDATEDISPATCHER
  2
AmdtFormulaUpdateDispatcher
  3
AcMeServices
 90
    32768
280
     0
281
     0
  0
CLASS
  1
ACAMGTITLESTD
  2
AcAmgTitleStd
  3
"TITLEAPP"
 90
        0
280
     0
281
     0
  0
CLASS
  1
ACMDETAILSTANDARDANSI
  2
AmdtDetailSymStdANSI
  3
"Amdt_StdImp|Product Description: AutoCAD Mechanical 2004 DX|Company: Autodesk"
 90
        0
280
     0
281
     0
  0
CLASS
  1
ACMSECTIONSTANDARDANSI
  2
AmdtSectionSymStdANSI
  3
"Amdt_StdImp|Product Description: AutoCAD Mechanical 2004 DX|Company: Autodesk"
 90
        0
280
     0
281
     0
  0
CLASS
  1
ACMCENTERLINESTANDARDANSI
  2
AmdtCenterLineStdANSI
  3
"Amdt_StdImp|Product Description: AutoCAD Mechanical 2004 DX|Company: Autodesk"
 90
        0
280
     0
281
     0
  0
CLASS
  1
ACMTHREADLINESTANDARDANSI
  2
AmdtThreadLineStdANSI
  3
"Amdt_StdImp|Product Description: AutoCAD Mechanical 2004 DX|Company: Autodesk"
 90
        0
280
     0
281
     0
  0
CLASS
  1
ACMNOTESTANDARDANSI
  2
AmdtNoteStdANSI
  3
"Amdt_StdImp|Product Description: AutoCAD Mechanical 2004 DX|Company: Autodesk"
 90
        0
280
     0
281
     0
  0
CLASS
  1
AMDTNOTETEMPLATEDB
  2
AmdtNoteTemplateDB
  3
AMDT_STDIMP_MODULE_NAME
 90
        0
280
     0
281
     0
  0
CLASS
  1
ACAMGLAYSTD
  2
AcAmgLayStd
  3
"AcAmgLayStd|Product Description: AutoCAD Mechanical 2000|Company: Autodesk"
 90
        0
280
     0
281
     0
  0
CLASS
  1
ACAMGDIMSTD
  2
AcAmgDimStd
  3
"AcAmgDimStd|Product Description: AutoCAD Mechanical 2000|Company: Autodesk"
 90
        0
280
     0
281
     0
  0
CLASS
  1
ACAMGHOLECHARTSTDANSI
  2
AcAmgHoleChartStdANSI
  3
ACMSYMBB_MODULE_NAME
 90
        0
280
     0
281
     0
  0
CLASS
  1
VAACXREFPANELOBJECT
  2
VaAcXREFPanelObject
  3
VAAC_ADDIN
 90
        0
280
     0
281
     0
  0
CLASS
  1
VAACIMAGEINVENTORY
  2
VaAcImageInventory
  3
VAAC_ADDIN
 90
        0
280
     0
281
     0
  0
CLASS
  1
ACAMGFILTERDAT
  2
AcAmgFilterDat
  3
"AcadM|Product Description: AutoCAD Mechanical 2000|Company: Autodesk"
 90
        0
280
     0
281
     0
  0
CLASS
  1
FACEID
  2
AcAdFaceId
  3
DesignerServices
 90
    32768
280
     0
281
     0
  0
CLASS
  1
ACADPARTTORUSFACERES
  2
AcAdPartTorusFaceRes
  3
AdGrefServices
 90
    32768
280
     0
281
     0
  0
CLASS
  1
ACADPARTPLANARFACERES
  2
AcAdPartPlanarFaceRes
  3
AdGrefServices
 90
    32768
280
     0
281
     0
  0
CLASS
  1
ACAMXREFCONTEXTMODELER
  2
AcAmXrefContextModeler
  3
DesignerAssemblies
 90
    32768
280
     0
281
     0
  0
CLASS
  1
ACADARCACAD
  2
AcAdVirtualArcAcad
  3
DesignerServices
 90
    32768
280
     0
281
     0
  0
CLASS
  1
ADTANCNS
  2
AcAdTangentConstr
  3
DesignerServices
 90
    32768
280
     0
281
     0
  0
CLASS
  1
ADEQRADCNS
  2
AcAdEqualRadiusConstr
  3
DesignerServices
 90
    32768
280
     0
281
     0
  0
CLASS
  1
ADPLANEID
  2
AcAdPlaneId
  3
DesignerServices
 90
    32768
280
     0
281
     0
  0
CLASS
  1
ADDATUMPLANEFACE
  2
AcAdDatumPlaneFace
  3
DesignerServices
 90
    32768
280
     0
281
     0
  0
CLASS
  1
ACMEPLINE
  2
AcImPlineDisplay
  3
AcMeServices
 90
    32768
280
     0
281
     1
  0
CLASS
  1
AMACTIVEPARTSELECTFILTER
  2
AcDmActivePartViewEntFilter
  3
DesignerServices
 90
    32768
280
     0
281
     0
  0
CLASS
  1
IMAGE
  2
AcDbRasterImage
  3
ISM
 90
      127
280
     0
281
     1
  0
CLASS
  1
IMAGEDEF_REACTOR
  2
AcDbRasterImageDefReactor
  3
ISM
 90
        1
280
     0
281
     0
  0
CLASS
  1
SORTENTSTABLE
  2
AcDbSortentsTable
  3
ObjectDBX Classes
 90
        0
280
     0
281
     0
  0
CLASS
  1
IMAGEDEF
  2
AcDbRasterImageDef
  3
ISM
 90
        0
280
     0
281
     0
  0
CLASS
  1
RASTERVARIABLES
  2
AcDbRasterVariables
  3
ISM
 90
        0
280
     0
281
     0
  0
CLASS
  1
AM_ABS_PLANE
  2
AcDmAbsPlnDef
  3
AcMechDwgViewMgmt
 90
    32768
280
     0
281
     0
  0
ENDSEC
  0
SECTION
  2
TABLES
  0
TABLE
  2
VPORT
  5
20
330
0
100
AcDbSymbolTable
 70
     3
  0
VPORT
  5
7CE
330
20
100
AcDbSymbolTableRecord
100
AcDbViewportTableRecord
  2
*Active
 70
     0
 10
0.0
 20
0.0
 11
1.0
 21
1.0
 12
-8.603082279858615
 22
-6.786305816515458
 13
0.0
 23
0.0
 14
0.5
 24
0.5
 15
0.5
 25
0.5
 16
0.0
 26
0.0
 36
1.0
 17
16.84704927254152
 27
11.53296649656419
 37
0.0
 40
12.26300034262134
 41
1.392029657089898
 42
50.0
 43
0.0
 44
0.0
 50
0.0
 51
0.0
 71
     0
 72
   100
 73
     1
 74
     1
 75
     0
 76
     0
 77
     0
 78
     0
281
     0
 65
     0
110
0.0
120
0.0
130
0.0
111
1.0
121
0.0
131
0.0
112
0.0
122
1.0
132
0.0
 79
     0
146
0.0
  0
ENDTAB
  0
TABLE
  2
LTYPE
  5
1B
330
0
100
AcDbSymbolTable
 70
    19
  0
LTYPE
  5
1C
330
1B
100
AcDbSymbolTableRecord
100
AcDbLinetypeTableRecord
  2
ByBlock
 70
     0
  3

 72
    65
 73
     0
 40
0.0
  0
LTYPE
  5
1D
330
1B
100
AcDbSymbolTableRecord
100
AcDbLinetypeTableRecord
  2
ByLayer
 70
     0
  3

 72
    65
 73
     0
 40
0.0
  0
LTYPE
  5
9
330
1B
100
AcDbSymbolTableRecord
100
AcDbLinetypeTableRecord
  2
Continuous
 70
     0
  3
Solid line
 72
    65
 73
     0
 40
0.0
  0
LTYPE
  5
2B5
330
1B
100
AcDbSymbolTableRecord
100
AcDbLinetypeTableRecord
  2
HIDDEN
 70
     0
  3
Hidden __ __ __ __ __ __ __ __ __ __ __ __ __ _
 72
    65
 73
     2
 40
0.375
 49
0.25
 74
     0
 49
-0.125
 74
     0
  0
LTYPE
  5
2E3
330
1B
100
AcDbSymbolTableRecord
100
AcDbLinetypeTableRecord
  2
CENTER
 70
     0
  3
Center ____ _ ____ _ ____ _ ____ _ ____ _ ____
 72
    65
 73
     4
 40
2.0
 49
1.25
 74
     0
 49
-0.25
 74
     0
 49
0.25
 74
     0
 49
-0.25
 74
     0
  0
LTYPE
  5
47F
330
1B
100
AcDbSymbolTableRecord
100
AcDbLinetypeTableRecord
  2
PHANTOM
 70
     0
  3
Phantom ______  __  __  ______  __  __  ______
 72
    65
 73
     6
 40
2.5
 49
1.25
 74
     0
 49
-0.25
 74
     0
 49
0.25
 74
     0
 49
-0.25
 74
     0
 49
0.25
 74
     0
 49
-0.25
 74
     0
  0
LTYPE
  5
6F3
330
1B
100
AcDbSymbolTableRecord
100
AcDbLinetypeTableRecord
  2
PHANTOM2
 70
     0
  3
Phantom (.5x) ___ _ _ ___ _ _ ___ _ _ ___ _ _
 72
    65
 73
     6
 40
1.25
 49
0.625
 74
     0
 49
-0.125
 74
     0
 49
0.125
 74
     0
 49
-0.125
 74
     0
 49
0.125
 74
     0
 49
-0.125
 74
     0
  0
LTYPE
  5
742
330
1B
100
AcDbSymbolTableRecord
100
AcDbLinetypeTableRecord
  2
ASULTYPE
 70
     0
  3
Solid line
 72
    65
 73
     2
 40
3.0
 49
2.5
 74
     0
 49
0.5
 74
     0
  0
LTYPE
  5
743
330
1B
100
AcDbSymbolTableRecord
100
AcDbLinetypeTableRecord
  2
ASVLTYPE
 70
     0
  3
__ __ __ __ __ __ __ __ __ __ __ __ __ __ __ __ __ __ __ __ __
 72
    65
 73
     2
 40
0.75
 49
0.5
 74
     0
 49
-0.25
 74
     0
  0
LTYPE
  5
78C
330
1B
100
AcDbSymbolTableRecord
100
AcDbLinetypeTableRecord
  2
AM_ISO02W050
 70
     0
  3
__ __ __ __ __ __ __ __ __ __ __ __ __ __ __
 72
    65
 73
     2
 40
7.5
 49
6.0
 74
     0
 49
-1.5
 74
     0
  0
LTYPE
  5
78D
330
1B
100
AcDbSymbolTableRecord
100
AcDbLinetypeTableRecord
  2
AM_ISO08W050
 70
     0
  3
____ . ____ . ____ . ____ . ____ . ____ . ____
 72
    65
 73
     4
 40
18.0
 49
12.0
 74
     0
 49
-1.5
 74
     0
 49
3.0
 74
     0
 49
-1.5
 74
     0
  0
LTYPE
  5
78E
330
1B
100
AcDbSymbolTableRecord
100
AcDbLinetypeTableRecord
  2
AM_ISO09W050
 70
     0
  3
_____ . . _____ . . _____ . . ____ .. ____
 72
    65
 73
     6
 40
22.5
 49
12.0
 74
     0
 49
-1.5
 74
     0
 49
3.0
 74
     0
 49
-1.5
 74
     0
 49
3.0
 74
     0
 49
-1.5
 74
     0
  0
LTYPE
  5
78F
330
1B
100
AcDbSymbolTableRecord
100
AcDbLinetypeTableRecord
  2
Amconstr
 70
     0
  3
_______________________
 72
    65
 73
     2
 40
9999.0
 49
9999.0
 74
     0
 49
0.0
 74
     0
  0
LTYPE
  5
790
330
1B
100
AcDbSymbolTableRecord
100
AcDbLinetypeTableRecord
  2
AM_ISO08W050x2
 70
     0
  3
__ . __ . __ . __ . __ . __
 72
    65
 73
     4
 40
9.0
 49
6.0
 74
     0
 49
-0.75
 74
     0
 49
1.5
 74
     0
 49
-0.75
 74
     0
  0
LTYPE
  5
791
330
1B
100
AcDbSymbolTableRecord
100
AcDbLinetypeTableRecord
  2
AM_ISO02W050x2
 70
     0
  3
 _ _ _ _ _ _ _ _ _ _ _ _
 72
    65
 73
     2
 40
3.75
 49
3.0
 74
     0
 49
-0.75
 74
     0
  0
LTYPE
  5
794
330
1B
100
AcDbSymbolTableRecord
100
AcDbLinetypeTableRecord
  2
Amzigzag
 70
     0
  3
/\/-/\/-/\/-/\/-/\/-/\/
 72
    65
 73
     2
 40
11.0001
 49
0.0001
 74
     4
 75
   135
340
793
 46
0.04
 50
0.0
 44
0.0
 45
0.0
 49
-11.0
 74
     0
  0
LTYPE
  5
795
330
1B
100
AcDbSymbolTableRecord
100
AcDbLinetypeTableRecord
  2
CENTER2
 70
     0
  3
Center (.5x) ___ _ ___ _ ___ _ ___ _ ___ _ ___
 72
    65
 73
     4
 40
1.125
 49
0.75
 74
     0
 49
-0.125
 74
     0
 49
0.125
 74
     0
 49
-0.125
 74
     0
  0
LTYPE
  5
796
330
1B
100
AcDbSymbolTableRecord
100
AcDbLinetypeTableRecord
  2
HIDDEN2
 70
     0
  3
Hidden (.5x) _ _ _ _ _ _ _ _ _ _ _ _ _ _ _ _ _
 72
    65
 73
     2
 40
0.1875
 49
0.125
 74
     0
 49
-0.0625
 74
     0
  0
LTYPE
  5
797
330
1B
100
AcDbSymbolTableRecord
100
AcDbLinetypeTableRecord
  2
Amzigzag2
 70
     0
  3
/\/-/\/-/\/-/\/-/\/-/\/
 72
    65
 73
     2
 40
0.4401
 49
0.0001
 74
     4
 75
   135
340
793
 46
0.0016
 50
0.0
 44
0.0
 45
0.0
 49
-0.4400000000000001
 74
     0
  0
LTYPE
  5
7A5
330
1B
100
AcDbSymbolTableRecord
100
AcDbLinetypeTableRecord
  2
ACANSTGB
 70
     0
  3
__ . . __ . .
 72
    65
 73
     6
 40
0.35433070866
 49
0.15748031496
 74
     0
 49
-0.03937007874
 74
     0
 49
0.03937007874
 74
     0
 49
-0.03937007874
 74
     0
 49
0.03937007874
 74
     0
 49
-0.03937007874
 74
     0
  0
LTYPE
  5
7A6
330
1B
100
AcDbSymbolTableRecord
100
AcDbLinetypeTableRecord
  2
ACANSTGL
 70
     0
  3
_ _ _ _ _
 72
    65
 73
     2
 40
0.11811023622
 49
0.07874015748
 74
     0
 49
-0.03937007874
 74
     0
  0
ENDTAB
  0
TABLE
  2
LAYER
  5
15
102
{ACAD_XDICTIONARY
360
16
102
}
330
0
100
AcDbSymbolTable
 70
     8
  0
LAYER
  5
5
330
15
100
AcDbSymbolTableRecord
100
AcDbLayerTableRecord
  2
0
 70
     0
 62
     7
  6
Continuous
370
    -3
390
6
  0
LAYER
  5
30
330
15
100
AcDbSymbolTableRecord
100
AcDbLayerTableRecord
  2
AM_VIS
 70
     0
 62
     7
  6
Continuous
370
    30
390
6
  0
LAYER
  5
481
330
15
100
AcDbSymbolTableRecord
100
AcDbLayerTableRecord
  2
CENTER
 70
     0
 62
     5
  6
Continuous
370
    -3
390
6
  0
LAYER
  5
47E
330
15
100
AcDbSymbolTableRecord
100
AcDbLayerTableRecord
  2
PHANTOM
 70
     0
 62
     2
  6
PHANTOM
370
    -3
390
6
  0
LAYER
  5
3B1
330
15
100
AcDbSymbolTableRecord
100
AcDbLayerTableRecord
  2
10
 70
     0
 62
     7
  6
Continuous
370
    -3
390
6
  0
LAYER
  5
270
330
15
100
AcDbSymbolTableRecord
100
AcDbLayerTableRecord
  2
DIMENSION
 70
     0
 62
     1
  6
Continuous
370
    -3
390
6
  0
LAYER
  5
27D
330
15
100
AcDbSymbolTableRecord
100
AcDbLayerTableRecord
  2
Defpoints
 70
     0
 62
     7
  6
Continuous
290
     0
370
    -3
390
6
  0
LAYER
  5
2E2
330
15
100
AcDbSymbolTableRecord
100
AcDbLayerTableRecord
  2
AM_7
 70
     0
 62
    -4
  6
CENTER
370
    15
390
6
  0
ENDTAB
  0
TABLE
  2
STYLE
  5
18
330
0
100
AcDbSymbolTable
 70
     5
  0
STYLE
  5
19
330
18
100
AcDbSymbolTableRecord
100
AcDbTextStyleTableRecord
  2
Standard
 70
     0
 40
0.125
 41
1.0
 50
0.0
 71
     0
 42
0.125
  3
simplex.shx
  4

  0
STYLE
  5
3B5
330
18
100
AcDbSymbolTableRecord
100
AcDbTextStyleTableRecord
  2
ADESK1
 70
     0
 40
0.0
 41
1.0
 50
0.0
 71
     0
 42
0.12
  3
romans.shx
  4

  0
STYLE
  5
793
330
18
100
AcDbSymbolTableRecord
100
AcDbTextStyleTableRecord
  2

 70
     1
 40
0.0
 41
1.0
 50
0.0
 71
     0
 42
0.125
  3
ltypeshp.shx
  4

  0
STYLE
  5
798
330
18
100
AcDbSymbolTableRecord
100
AcDbTextStyleTableRecord
  2
ACANSTS
 70
     0
 40
1.0
 41
1.0
 50
0.0
 71
     0
 42
0.125
  3
romans.shx
  4

  0
STYLE
  5
7A4
330
18
100
AcDbSymbolTableRecord
100
AcDbTextStyleTableRecord
  2
ACANSGDT
 70
     0
 40
0.0
 41
1.0
 50
0.0
 71
     0
 42
0.125
  3
amgdtans.shx
  4

  0
ENDTAB
  0
TABLE
  2
VIEW
  5
1E
330
0
100
AcDbSymbolTable
 70
     0
  0
ENDTAB
  0
TABLE
  2
UCS
  5
1F
330
0
100
AcDbSymbolTable
 70
     0
  0
ENDTAB
  0
TABLE
  2
APPID
  5
22
330
0
100
AcDbSymbolTable
 70
    13
  0
APPID
  5
23
330
22
100
AcDbSymbolTableRecord
100
AcDbRegAppTableRecord
  2
ACAD
 70
     0
  0
APPID
  5
69B
330
22
100
AcDbSymbolTableRecord
100
AcDbRegAppTableRecord
  2
GENIUS_GENDIM_13
 70
     0
  0
APPID
  5
69C
330
22
100
AcDbSymbolTableRecord
100
AcDbRegAppTableRecord
  2
GENIUS_GENDTOL_13
 70
     0
  0
APPID
  5
69D
330
22
100
AcDbSymbolTableRecord
100
AcDbRegAppTableRecord
  2
GENIUS_GE3DTOL_13
 70
     0
  0
APPID
  5
6C4
330
22
100
AcDbSymbolTableRecord
100
AcDbRegAppTableRecord
  2
MCAD_NO_VIS
 70
     0
  0
APPID
  5
6C5
330
22
100
AcDbSymbolTableRecord
100
AcDbRegAppTableRecord
  2
ACAD_TEMP_GRAPHIC
 70
     0
  0
APPID
  5
6F5
330
22
100
AcDbSymbolTableRecord
100
AcDbRegAppTableRecord
  2
AD_DRAW
 70
     0
  0
APPID
  5
6F8
330
22
100
AcDbSymbolTableRecord
100
AcDbRegAppTableRecord
  2
ACATTRIBSERVICES
 70
     0
  0
APPID
  5
744
330
22
100
AcDbSymbolTableRecord
100
AcDbRegAppTableRecord
  2
ASURF_PCURVE_APPNAME
 70
     0
  0
APPID
  5
749
330
22
100
AcDbSymbolTableRecord
100
AcDbRegAppTableRecord
  2
AMG_3D2D_5.0
 70
     0
  0
APPID
  5
778
330
22
100
AcDbSymbolTableRecord
100
AcDbRegAppTableRecord
  2
DESIGNERASSEMBLIES
 70
     0
  0
APPID
  5
77F
330
22
100
AcDbSymbolTableRecord
100
AcDbRegAppTableRecord
  2
ACADM_DIM_EDIT
 70
     0
  0
APPID
  5
780
330
22
100
AcDbSymbolTableRecord
100
AcDbRegAppTableRecord
  2
AMDT_DM_ADJ
 70
     0
  0
ENDTAB
  0
TABLE
  2
DIMSTYLE
  5
24
330
0
100
AcDbSymbolTable
 70
     7
100
AcDbDimStyleTable
 71
     1
340
25
  0
DIMSTYLE
105
25
102
{ACAD_REACTORS
330
272
330
285
330
293
330
2B6
330
2C4
330
2D2
102
}
330
24
100
AcDbSymbolTableRecord
100
AcDbDimStyleTableRecord
  2
Standard
 70
     0
 41
0.125
 44
0.0625
140
0.125
277
     5
288
     1
340
19
  0
DIMSTYLE
105
7AF
330
24
100
AcDbSymbolTableRecord
100
AcDbDimStyleTableRecord
  2
AM_ANSI
 70
     0
  4
mm
 41
0.1
 42
0.05
 43
0.5
 44
0.1
 47
0.1
 48
0.1
 78
     7
 79
     2
140
0.12
141
0.0
146
0.71
147
0.06
176
   256
177
   256
178
     2
274
     4
284
     7
340
19
371
    -1
372
    -1
  0
DIMSTYLE
105
7B0
330
24
100
AcDbSymbolTableRecord
100
AcDbDimStyleTableRecord
  2
AM_ANSI$3
 70
     0
  4
mm
 41
0.1
 42
0.05
 43
0.5
 44
0.1
 47
0.1
 48
0.1
 78
     7
 79
     2
140
0.12
141
0.0
146
0.71
147
0.06
176
   256
177
   256
178
     2
274
     4
284
     7
288
     1
289
     0
340
19
371
    -1
372
    -1
  0
DIMSTYLE
105
7B1
330
24
100
AcDbSymbolTableRecord
100
AcDbDimStyleTableRecord
  2
AM_ANSI$4
 70
     0
  4
mm
 41
0.1
 42
0.05
 43
0.5
 44
0.1
 47
0.1
 48
0.1
 78
     7
 79
     2
140
0.12
141
0.0
146
0.71
147
0.06
176
   256
177
   256
178
     2
274
     4
284
     7
288
     1
289
     0
340
19
371
    -1
372
    -1
  0
DIMSTYLE
105
7B2
330
24
100
AcDbSymbolTableRecord
100
AcDbDimStyleTableRecord
  2
AM_ANSI$7
 70
     0
  4
mm
 41
0.1
 42
0.05
 43
0.5
 44
0.1
 47
0.1
 48
0.1
 78
     7
 79
     2
140
0.24
141
0.0
146
0.71
147
0.06
176
   256
177
   256
178
     2
274
     4
284
     7
340
19
371
    -1
372
    -1
  0
DIMSTYLE
105
7B3
330
24
100
AcDbSymbolTableRecord
100
AcDbDimStyleTableRecord
  2
AM_ANSI$SF
 70
     0
  4
mm
 41
0.1
 42
0.05
 43
0.5
 44
0.1
 47
0.1
 48
0.1
 75
     1
 76
     1
 78
     7
 79
     2
140
0.12
141
0.0
146
0.71
147
0.06
176
   256
177
   256
178
     2
274
     4
284
     7
340
19
371
    -1
372
    -1
  0
DIMSTYLE
105
7B8
330
24
100
AcDbSymbolTableRecord
100
AcDbDimStyleTableRecord
  2
AM_ANSI$SH
 70
     0
  4
mm
 41
0.1
 42
0.05
 43
0.5
 44
0.1
 47
0.1
 48
0.1
 75
     1
 76
     1
 78
     7
 79
     2
140
0.12
141
0.0
146
0.71
147
0.06
173
     1
176
   256
177
   256
178
     2
274
     4
284
     7
340
19
343
7B4
371
    -1
372
    -1
  0
ENDTAB
  0
TABLE
  2
BLOCK_RECORD
  5
1
330
0
100
AcDbSymbolTable
 70
    16
  0
BLOCK_RECORD
  5
2
102
{ACAD_XDICTIONARY
360
3
102
}
330
1
100
AcDbSymbolTableRecord
100
AcDbBlockTableRecord
  2
*Model_Space
340
B
  0
BLOCK_RECORD
  5
D
102
{ACAD_XDICTIONARY
360
E
102
}
330
1
100
AcDbSymbolTableRecord
100
AcDbBlockTableRecord
  2
*Paper_Space
340
12
  0
BLOCK_RECORD
  5
456
330
1
100
AcDbSymbolTableRecord
100
AcDbBlockTableRecord
  2
*U0
340
0
102
{BLKREFS
331
455
102
}
  0
BLOCK_RECORD
  5
45B
330
1
100
AcDbSymbolTableRecord
100
AcDbBlockTableRecord
  2
*U1
340
0
102
{BLKREFS
331
45A
102
}
  0
BLOCK_RECORD
  5
460
330
1
100
AcDbSymbolTableRecord
100
AcDbBlockTableRecord
  2
*U2
340
0
102
{BLKREFS
331
45F
102
}
  0
BLOCK_RECORD
  5
465
330
1
100
AcDbSymbolTableRecord
100
AcDbBlockTableRecord
  2
*U3
340
0
102
{BLKREFS
331
464
102
}
  0
BLOCK_RECORD
  5
46A
330
1
100
AcDbSymbolTableRecord
100
AcDbBlockTableRecord
  2
*U4
340
0
102
{BLKREFS
331
469
102
}
  0
BLOCK_RECORD
  5
46F
330
1
100
AcDbSymbolTableRecord
100
AcDbBlockTableRecord
  2
*U5
340
0
102
{BLKREFS
331
46E
102
}
  0
BLOCK_RECORD
  5
474
330
1
100
AcDbSymbolTableRecord
100
AcDbBlockTableRecord
  2
*U6
340
0
102
{BLKREFS
331
473
102
}
  0
BLOCK_RECORD
  5
479
330
1
100
AcDbSymbolTableRecord
100
AcDbBlockTableRecord
  2
*U7
340
0
102
{BLKREFS
331
478
102
}
  0
BLOCK_RECORD
  5
273
330
1
100
AcDbSymbolTableRecord
100
AcDbBlockTableRecord
  2
*D8
340
0
  0
BLOCK_RECORD
  5
286
330
1
100
AcDbSymbolTableRecord
100
AcDbBlockTableRecord
  2
*D9
340
0
  0
BLOCK_RECORD
  5
294
330
1
100
AcDbSymbolTableRecord
100
AcDbBlockTableRecord
  2
*D10
340
0
  0
BLOCK_RECORD
  5
2B7
330
1
100
AcDbSymbolTableRecord
100
AcDbBlockTableRecord
  2
*D11
340
0
  0
BLOCK_RECORD
  5
2C5
330
1
100
AcDbSymbolTableRecord
100
AcDbBlockTableRecord
  2
*D12
340
0
  0
BLOCK_RECORD
  5
2D3
330
1
100
AcDbSymbolTableRecord
100
AcDbBlockTableRecord
  2
*D13
340
0
  0
BLOCK_RECORD
  5
7B4
330
1
100
AcDbSymbolTableRecord
100
AcDbBlockTableRecord
  2
GENAXEH
340
0
  0
ENDTAB
  0
ENDSEC
  0
SECTION
  2
BLOCKS
  0
BLOCK
  5
4
330
2
100
AcDbEntity
  8
0
100
AcDbBlockBegin
  2
*Model_Space
 70
     0
 10
0.0
 20
0.0
 30
0.0
  3
*Model_Space
  1

  0
ENDBLK
  5
A
330
2
100
AcDbEntity
  8
0
100
AcDbBlockEnd
  0
BLOCK
  5
10
330
D
100
AcDbEntity
 67
     1
  8
0
100
AcDbBlockBegin
  2
*Paper_Space
 70
     0
 10
0.0
 20
0.0
 30
0.0
  3
*Paper_Space
  1

  0
ENDBLK
  5
11
330
D
100
AcDbEntity
 67
     1
  8
0
100
AcDbBlockEnd
  0
BLOCK
  5
457
330
456
100
AcDbEntity
  8
0
  6
ByBlock
 62
     2
100
AcDbBlockBegin
  2
*U0
 70
     1
 10
0.0
 20
0.0
 30
0.0
  3
*U0
  1

  0
TEXT
  5
458
330
456
100
AcDbEntity
  8
0
  6
ByBlock
 62
     2
100
AcDbText
 10
15.253
 20
1.7495
 30
0.0
 40
0.094
  1
 
 41
0.8842105263157966
 72
     5
 11
15.3282
 21
1.7495
 31
0.0
100
AcDbText
  0
ENDBLK
  5
459
330
456
100
AcDbEntity
  8
0
100
AcDbBlockEnd
  0
BLOCK
  5
45C
330
45B
100
AcDbEntity
  8
0
  6
ByBlock
 62
     2
100
AcDbBlockBegin
  2
*U1
 70
     1
 10
0.0
 20
0.0
 30
0.0
  3
*U1
  1

  0
TEXT
  5
45D
330
45B
100
AcDbEntity
  8
0
  6
ByBlock
 62
     2
100
AcDbText
 10
15.253
 20
1.436999999999999
 30
0.0
 40
0.094
  1
 
 41
0.8842105263157966
 72
     5
 11
15.3282
 21
1.436999999999999
 31
0.0
100
AcDbText
  0
ENDBLK
  5
45E
330
45B
100
AcDbEntity
  8
0
100
AcDbBlockEnd
  0
BLOCK
  5
461
330
460
100
AcDbEntity
  8
0
  6
ByBlock
 62
     2
100
AcDbBlockBegin
  2
*U2
 70
     1
 10
0.0
 20
0.0
 30
0.0
  3
*U2
  1

  0
TEXT
  5
462
330
460
100
AcDbEntity
  8
0
  6
ByBlock
 62
     2
100
AcDbText
 10
15.253
 20
1.1245
 30
0.0
 40
0.094
  1
 
 41
0.8842105263157966
 72
     5
 11
15.3282
 21
1.1245
 31
0.0
100
AcDbText
  0
ENDBLK
  5
463
330
460
100
AcDbEntity
  8
0
100
AcDbBlockEnd
  0
BLOCK
  5
466
330
465
100
AcDbEntity
  8
0
  6
ByBlock
 62
     2
100
AcDbBlockBegin
  2
*U3
 70
     1
 10
0.0
 20
0.0
 30
0.0
  3
*U3
  1

  0
TEXT
  5
467
330
465
100
AcDbEntity
  8
0
  6
ByBlock
 62
     2
100
AcDbText
 10
15.253
 20
0.812
 30
0.0
 40
0.094
  1
 
 41
0.8842105263157966
 72
     5
 11
15.3282
 21
0.812
 31
0.0
100
AcDbText
  0
ENDBLK
  5
468
330
465
100
AcDbEntity
  8
0
100
AcDbBlockEnd
  0
BLOCK
  5
46B
330
46A
100
AcDbEntity
  8
0
  6
ByBlock
 62
     2
100
AcDbBlockBegin
  2
*U4
 70
     1
 10
0.0
 20
0.0
 30
0.0
  3
*U4
  1

  0
TEXT
  5
46C
330
46A
100
AcDbEntity
  8
0
  6
ByBlock
 62
     2
100
AcDbText
 10
15.253
 20
1.7495
 30
0.0
 40
0.094
  1
 
 41
0.8842105263157966
 72
     5
 11
15.3282
 21
1.7495
 31
0.0
100
AcDbText
  0
ENDBLK
  5
46D
330
46A
100
AcDbEntity
  8
0
100
AcDbBlockEnd
  0
BLOCK
  5
470
330
46F
100
AcDbEntity
  8
0
  6
ByBlock
 62
     2
100
AcDbBlockBegin
  2
*U5
 70
     1
 10
0.0
 20
0.0
 30
0.0
  3
*U5
  1

  0
TEXT
  5
471
330
46F
100
AcDbEntity
  8
0
  6
ByBlock
 62
     2
100
AcDbText
 10
15.253
 20
1.436999999999999
 30
0.0
 40
0.094
  1
 
 41
0.8842105263157966
 72
     5
 11
15.3282
 21
1.436999999999999
 31
0.0
100
AcDbText
  0
ENDBLK
  5
472
330
46F
100
AcDbEntity
  8
0
100
AcDbBlockEnd
  0
BLOCK
  5
475
330
474
100
AcDbEntity
  8
0
  6
ByBlock
 62
     2
100
AcDbBlockBegin
  2
*U6
 70
     1
 10
0.0
 20
0.0
 30
0.0
  3
*U6
  1

  0
TEXT
  5
476
330
474
100
AcDbEntity
  8
0
  6
ByBlock
 62
     2
100
AcDbText
 10
15.253
 20
1.1245
 30
0.0
 40
0.094
  1
 
 41
0.8842105263157966
 72
     5
 11
15.3282
 21
1.1245
 31
0.0
100
AcDbText
  0
ENDBLK
  5
477
330
474
100
AcDbEntity
  8
0
100
AcDbBlockEnd
  0
BLOCK
  5
47A
330
479
100
AcDbEntity
  8
0
  6
ByBlock
 62
     2
100
AcDbBlockBegin
  2
*U7
 70
     1
 10
0.0
 20
0.0
 30
0.0
  3
*U7
  1

  0
TEXT
  5
47B
330
479
100
AcDbEntity
  8
0
  6
ByBlock
 62
     2
100
AcDbText
 10
15.253
 20
0.812
 30
0.0
 40
0.094
  1
 
 41
0.8842105263157964
 72
     5
 11
15.3282
 21
0.812
 31
0.0
100
AcDbText
  0
ENDBLK
  5
47C
330
479
100
AcDbEntity
  8
0
100
AcDbBlockEnd
  0
BLOCK
  5
274
330
273
100
AcDbEntity
  8
0
100
AcDbBlockBegin
  2
*D8
 70
     1
 10
0.0
 20
0.0
 30
0.0
  3
*D8
  1

  0
LINE
  5
275
330
273
100
AcDbEntity
  8
DIMENSION
 62
     0
370
    -2
100
AcDbLine
 10
7.993858081834101
 20
7.747013814699535
 30
0.0
 11
7.993858081834101
 21
8.563396711041349
 31
0.0
  0
LINE
  5
276
330
273
100
AcDbEntity
  8
DIMENSION
 62
     0
370
    -2
100
AcDbLine
 10
7.31385808162078
 20
6.726918167595576
 30
0.0
 11
7.31385808162078
 21
8.563396711041349
 31
0.0
  0
LINE
  5
277
330
273
100
AcDbEntity
  8
DIMENSION
 62
     0
370
    -2
100
AcDbLine
 10
7.868858081834101
 20
8.500896711041349
 30
0.0
 11
7.43885808162078
 21
8.500896711041349
 31
0.0
  0
LINE
  5
278
330
273
100
AcDbEntity
  8
DIMENSION
 62
     0
370
    -2
100
AcDbLine
 10
7.31385808162078
 20
8.500896711041349
 30
0.0
 11
7.133000566128187
 21
8.500896711041349
 31
0.0
  0
SOLID
  5
279
330
273
100
AcDbEntity
  8
DIMENSION
 62
     0
100
AcDbTrace
 10
7.868858081834101
 20
8.521730044374683
 30
0.0
 11
7.868858081834101
 21
8.480063377708013
 31
0.0
 12
7.993858081834101
 22
8.500896711041349
 32
0.0
 13
7.993858081834101
 23
8.500896711041349
 33
0.0
  0
SOLID
  5
27A
330
273
100
AcDbEntity
  8
DIMENSION
 62
     0
100
AcDbTrace
 10
7.43885808162078
 20
8.521730044374683
 30
0.0
 11
7.43885808162078
 21
8.480063377708013
 31
0.0
 12
7.31385808162078
 22
8.500896711041349
 32
0.0
 13
7.31385808162078
 23
8.500896711041349
 33
0.0
  0
MTEXT
  5
27B
330
273
100
AcDbEntity
  8
DIMENSION
 62
     0
100
AcDbMText
 10
6.956691042318662
 20
8.500896711041349
 30
0.0
 40
0.125
 41
0.0
 71
     5
 72
     1
  1
\A1;{\H1.000000x;\S11/16;}
 73
     1
 44
1.0
1001
ACAD
1000
MTEXTBEGIN
1070
    73
1070
     1
1070
    44
1040
1.0
1070
    74
1070
     0
1000
MTEXTEND
  0
POINT
  5
27C
330
273
100
AcDbEntity
  8
Defpoints
 62
     0
100
AcDbPoint
 10
7.993858081834101
 20
7.684513814699535
 30
0.0
  0
POINT
  5
27E
330
273
100
AcDbEntity
  8
Defpoints
 62
     0
100
AcDbPoint
 10
7.31385808162078
 20
6.664418167595576
 30
0.0
  0
POINT
  5
27F
330
273
100
AcDbEntity
  8
Defpoints
 62
     0
100
AcDbPoint
 10
7.31385808162078
 20
8.500896711041349
 30
0.0
  0
ENDBLK
  5
280
330
273
100
AcDbEntity
  8
0
100
AcDbBlockEnd
  0
BLOCK
  5
287
330
286
100
AcDbEntity
  8
0
100
AcDbBlockBegin
  2
*D9
 70
     1
 10
0.0
 20
0.0
 30
0.0
  3
*D9
  1

  0
LINE
  5
288
330
286
100
AcDbEntity
  8
DIMENSION
 62
     0
370
    -2
100
AcDbLine
 10
4.243441256303778
 20
6.804627823021954
 30
0.0
 11
4.243441256303778
 21
8.073810396329429
 31
0.0
  0
LINE
  5
289
330
286
100
AcDbEntity
  8
DIMENSION
 62
     0
370
    -2
100
AcDbLine
 10
2.699061797423778
 20
6.804627823021954
 30
0.0
 11
2.699061797423778
 21
8.073810396329429
 31
0.0
  0
LINE
  5
28A
330
286
100
AcDbEntity
  8
DIMENSION
 62
     0
370
    -2
100
AcDbLine
 10
4.118441256303778
 20
8.011310396329429
 30
0.0
 11
3.638844027026353
 21
8.011310396329429
 31
0.0
  0
LINE
  5
28B
330
286
100
AcDbEntity
  8
DIMENSION
 62
     0
370
    -2
100
AcDbLine
 10
2.824061797423778
 20
8.011310396329429
 30
0.0
 11
3.190986884169211
 21
8.011310396329429
 31
0.0
  0
SOLID
  5
28C
330
286
100
AcDbEntity
  8
DIMENSION
 62
     0
100
AcDbTrace
 10
4.118441256303778
 20
8.032143729662763
 30
0.0
 11
4.118441256303778
 21
7.990477062996096
 31
0.0
 12
4.243441256303778
 22
8.011310396329429
 32
0.0
 13
4.243441256303778
 23
8.011310396329429
 33
0.0
  0
SOLID
  5
28D
330
286
100
AcDbEntity
  8
DIMENSION
 62
     0
100
AcDbTrace
 10
2.824061797423778
 20
8.032143729662763
 30
0.0
 11
2.824061797423778
 21
7.990477062996096
 31
0.0
 12
2.699061797423778
 22
8.011310396329429
 32
0.0
 13
2.699061797423778
 23
8.011310396329429
 33
0.0
  0
MTEXT
  5
28E
330
286
100
AcDbEntity
  8
DIMENSION
 62
     0
100
AcDbMText
 10
3.414915455597783
 20
8.011310396329429
 30
0.0
 40
0.125
 41
0.0
 71
     5
 72
     1
  1
\A1;1{\H1.000000x;\S9/16;}
 73
     1
 44
1.0
1001
ACAD
1000
MTEXTBEGIN
1070
    73
1070
     1
1070
    44
1040
1.0
1070
    74
1070
     0
1000
MTEXTEND
  0
POINT
  5
28F
330
286
100
AcDbEntity
  8
Defpoints
 62
     0
100
AcDbPoint
 10
4.243441256303778
 20
6.742127823021954
 30
0.0
  0
POINT
  5
290
330
286
100
AcDbEntity
  8
Defpoints
 62
     0
100
AcDbPoint
 10
2.699061797423778
 20
6.742127823021954
 30
0.0
  0
POINT
  5
291
330
286
100
AcDbEntity
  8
Defpoints
 62
     0
100
AcDbPoint
 10
2.699061797423778
 20
8.011310396329429
 30
0.0
  0
ENDBLK
  5
292
330
286
100
AcDbEntity
  8
0
100
AcDbBlockEnd
  0
BLOCK
  5
295
330
294
100
AcDbEntity
  8
0
100
AcDbBlockBegin
  2
*D10
 70
     1
 10
0.0
 20
0.0
 30
0.0
  3
*D10
  1

  0
LINE
  5
296
330
294
100
AcDbEntity
  8
DIMENSION
 62
     0
370
    -2
100
AcDbLine
 10
3.956691256303778
 20
6.94544895897715
 30
0.0
 11
4.985896373508331
 21
6.94544895897715
 31
0.0
  0
LINE
  5
297
330
294
100
AcDbEntity
  8
DIMENSION
 62
     0
370
    -2
100
AcDbLine
 10
4.217409949743778
 20
5.232559216711311
 30
0.0
 11
4.98589637350833
 21
5.232559216711311
 31
0.0
  0
LINE
  5
298
330
294
100
AcDbEntity
  8
DIMENSION
 62
     0
370
    -2
100
AcDbLine
 10
4.923396373508331
 20
6.82044895897715
 30
0.0
 11
4.923396373508331
 21
6.356811716359909
 31
0.0
  0
LINE
  5
299
330
294
100
AcDbEntity
  8
DIMENSION
 62
     0
370
    -2
100
AcDbLine
 10
4.92339637350833
 20
5.357559216711311
 30
0.0
 11
4.92339637350833
 21
5.885145049693242
 31
0.0
  0
SOLID
  5
29A
330
294
100
AcDbEntity
  8
DIMENSION
 62
     0
100
AcDbTrace
 10
4.902563040174998
 20
6.82044895897715
 30
0.0
 11
4.944229706841664
 21
6.82044895897715
 31
0.0
 12
4.923396373508331
 22
6.94544895897715
 32
0.0
 13
4.923396373508331
 23
6.94544895897715
 33
0.0
  0
SOLID
  5
29B
330
294
100
AcDbEntity
  8
DIMENSION
 62
     0
100
AcDbTrace
 10
4.902563040174996
 20
5.357559216711311
 30
0.0
 11
4.944229706841663
 21
5.357559216711311
 31
0.0
 12
4.92339637350833
 22
5.232559216711311
 32
0.0
 13
4.92339637350833
 23
5.232559216711311
 33
0.0
  0
MTEXT
  5
29C
330
294
100
AcDbEntity
  8
DIMENSION
 62
     0
100
AcDbMText
 10
4.923396373508329
 20
6.120978383026575
 30
0.0
 40
0.125
 41
0.0
 71
     5
 72
     1
  1
\A1;1{\H1.000000x;\S11/16;}
 73
     1
 44
1.0
1001
ACAD
1000
MTEXTBEGIN
1070
    73
1070
     1
1070
    44
1040
1.0
1070
    74
1070
     0
1000
MTEXTEND
  0
POINT
  5
29D
330
294
100
AcDbEntity
  8
Defpoints
 62
     0
100
AcDbPoint
 10
3.894191256303778
 20
6.94544895897715
 30
0.0
  0
POINT
  5
29E
330
294
100
AcDbEntity
  8
Defpoints
 62
     0
100
AcDbPoint
 10
4.154909949743778
 20
5.232559216711311
 30
0.0
  0
POINT
  5
29F
330
294
100
AcDbEntity
  8
Defpoints
 62
     0
100
AcDbPoint
 10
4.92339637350833
 20
5.232559216711311
 30
0.0
  0
ENDBLK
  5
2A0
330
294
100
AcDbEntity
  8
0
100
AcDbBlockEnd
  0
BLOCK
  5
2B8
330
2B7
100
AcDbEntity
  8
0
100
AcDbBlockBegin
  2
*D11
 70
     1
 10
0.0
 20
0.0
 30
0.0
  3
*D11
  1

  0
LINE
  5
2B9
330
2B7
100
AcDbEntity
  8
DIMENSION
 62
     0
370
    -2
100
AcDbLine
 10
10.57650608183411
 20
6.895304233119817
 30
0.0
 11
10.57650608183411
 21
8.562364814721393
 31
0.0
  0
LINE
  5
2BA
330
2B7
100
AcDbEntity
  8
DIMENSION
 62
     0
370
    -2
100
AcDbLine
 10
9.711432081834106
 20
6.89382208912003
 30
0.0
 11
9.711432081834106
 21
8.562364814721393
 31
0.0
  0
LINE
  5
2BB
330
2B7
100
AcDbEntity
  8
DIMENSION
 62
     0
370
    -2
100
AcDbLine
 10
9.836432081834106
 20
8.499864814721393
 30
0.0
 11
10.45150608183411
 21
8.499864814721393
 31
0.0
  0
LINE
  5
2BC
330
2B7
100
AcDbEntity
  8
DIMENSION
 62
     0
370
    -2
100
AcDbLine
 10
10.57650608183411
 20
8.499864814721393
 30
0.0
 11
10.76162615564953
 21
8.499864814721393
 31
0.0
  0
SOLID
  5
2BD
330
2B7
100
AcDbEntity
  8
DIMENSION
 62
     0
100
AcDbTrace
 10
9.836432081834106
 20
8.520698148054727
 30
0.0
 11
9.836432081834106
 21
8.479031481388059
 31
0.0
 12
9.711432081834106
 22
8.499864814721393
 32
0.0
 13
9.711432081834106
 23
8.499864814721393
 33
0.0
  0
SOLID
  5
2BE
330
2B7
100
AcDbEntity
  8
DIMENSION
 62
     0
100
AcDbTrace
 10
10.45150608183411
 20
8.520698148054727
 30
0.0
 11
10.45150608183411
 21
8.479031481388059
 31
0.0
 12
10.57650608183411
 22
8.499864814721393
 32
0.0
 13
10.57650608183411
 23
8.499864814721393
 33
0.0
  0
MTEXT
  5
2BF
330
2B7
100
AcDbEntity
  8
DIMENSION
 62
     0
100
AcDbMText
 10
11.13436425088763
 20
8.499864814721393
 30
0.0
 40
0.125
 41
0.0
 71
     5
 72
     1
  1
\A1;{\H1.000000x;\S7/8;}\PADD'L\PBLOCK
 73
     1
 44
1.0
1001
ACAD
1000
MTEXTBEGIN
1070
    73
1070
     1
1070
    44
1040
1.0
1070
    74
1070
     0
1000
MTEXTEND
  0
POINT
  5
2C0
330
2B7
100
AcDbEntity
  8
Defpoints
 62
     0
100
AcDbPoint
 10
10.57650608183411
 20
6.832804233119817
 30
0.0
  0
POINT
  5
2C1
330
2B7
100
AcDbEntity
  8
Defpoints
 62
     0
100
AcDbPoint
 10
9.711432081834106
 20
6.83132208912003
 30
0.0
  0
POINT
  5
2C2
330
2B7
100
AcDbEntity
  8
Defpoints
 62
     0
100
AcDbPoint
 10
9.711432081834106
 20
8.499864814721393
 30
0.0
  0
ENDBLK
  5
2C3
330
2B7
100
AcDbEntity
  8
0
100
AcDbBlockEnd
  0
BLOCK
  5
2C6
330
2C5
100
AcDbEntity
  8
0
100
AcDbBlockBegin
  2
*D12
 70
     1
 10
0.0
 20
0.0
 30
0.0
  3
*D12
  1

  0
LINE
  5
2C7
330
2C5
100
AcDbEntity
  8
DIMENSION
 62
     0
370
    -2
100
AcDbLine
 10
8.243858081834101
 20
7.737566794124652
 30
0.0
 11
8.243858081834101
 21
8.559349171987339
 31
0.0
  0
LINE
  5
2C8
330
2C5
100
AcDbEntity
  8
DIMENSION
 62
     0
370
    -2
100
AcDbLine
 10
9.711432081834106
 20
6.89382208912003
 30
0.0
 11
9.711432081834106
 21
8.559349171987339
 31
0.0
  0
LINE
  5
2C9
330
2C5
100
AcDbEntity
  8
DIMENSION
 62
     0
370
    -2
100
AcDbLine
 10
8.368858081834101
 20
8.496849171987339
 30
0.0
 11
8.697543936545088
 21
8.496849171987339
 31
0.0
  0
LINE
  5
2CA
330
2C5
100
AcDbEntity
  8
DIMENSION
 62
     0
370
    -2
100
AcDbLine
 10
9.586432081834106
 20
8.496849171987339
 30
0.0
 11
9.145401079402232
 21
8.496849171987339
 31
0.0
  0
SOLID
  5
2CB
330
2C5
100
AcDbEntity
  8
DIMENSION
 62
     0
100
AcDbTrace
 10
8.368858081834101
 20
8.517682505320673
 30
0.0
 11
8.368858081834101
 21
8.476015838654005
 31
0.0
 12
8.243858081834101
 22
8.496849171987339
 32
0.0
 13
8.243858081834101
 23
8.496849171987339
 33
0.0
  0
SOLID
  5
2CC
330
2C5
100
AcDbEntity
  8
DIMENSION
 62
     0
100
AcDbTrace
 10
9.586432081834106
 20
8.517682505320673
 30
0.0
 11
9.586432081834106
 21
8.476015838654005
 31
0.0
 12
9.711432081834106
 22
8.496849171987339
 32
0.0
 13
9.711432081834106
 23
8.496849171987339
 33
0.0
  0
MTEXT
  5
2CD
330
2C5
100
AcDbEntity
  8
DIMENSION
 62
     0
100
AcDbMText
 10
8.92147250797366
 20
8.496849171987339
 30
0.0
 40
0.125
 41
0.0
 71
     5
 72
     1
  1
\A1;1{\H1.000000x;\S7/16;}
 73
     1
 44
1.0
1001
ACAD
1000
MTEXTBEGIN
1070
    73
1070
     1
1070
    44
1040
1.0
1070
    74
1070
     0
1000
MTEXTEND
  0
POINT
  5
2CE
330
2C5
100
AcDbEntity
  8
Defpoints
 62
     0
100
AcDbPoint
 10
8.243858081834101
 20
7.675066794124652
 30
0.0
  0
POINT
  5
2CF
330
2C5
100
AcDbEntity
  8
Defpoints
 62
     0
100
AcDbPoint
 10
9.711432081834106
 20
6.83132208912003
 30
0.0
  0
POINT
  5
2D0
330
2C5
100
AcDbEntity
  8
Defpoints
 62
     0
100
AcDbPoint
 10
9.711432081834106
 20
8.496849171987339
 30
0.0
  0
ENDBLK
  5
2D1
330
2C5
100
AcDbEntity
  8
0
100
AcDbBlockEnd
  0
BLOCK
  5
2D4
330
2D3
100
AcDbEntity
  8
0
100
AcDbBlockBegin
  2
*D13
 70
     1
 10
0.0
 20
0.0
 30
0.0
  3
*D13
  1

  0
LINE
  5
2D5
330
2D3
100
AcDbEntity
  8
DIMENSION
 62
     0
370
    -2
100
AcDbLine
 10
7.993858081834101
 20
4.225809253266731
 30
0.0
 11
7.993858081834101
 21
4.119412369927725
 31
0.0
  0
LINE
  5
2D6
330
2D3
100
AcDbEntity
  8
DIMENSION
 62
     0
370
    -2
100
AcDbLine
 10
8.243858081834101
 20
4.206915212116967
 30
0.0
 11
8.243858081834101
 21
4.119412369927725
 31
0.0
  0
LINE
  5
2D7
330
2D3
100
AcDbEntity
  8
DIMENSION
 62
     0
370
    -2
100
AcDbLine
 10
7.868858081834101
 20
4.181912369927725
 30
0.0
 11
7.743858081834101
 21
4.181912369927725
 31
0.0
  0
LINE
  5
2D8
330
2D3
100
AcDbEntity
  8
DIMENSION
 62
     0
370
    -2
100
AcDbLine
 10
8.368858081834101
 20
4.181912369927725
 30
0.0
 11
8.493858081834101
 21
4.181912369927725
 31
0.0
  0
SOLID
  5
2D9
330
2D3
100
AcDbEntity
  8
DIMENSION
 62
     0
100
AcDbTrace
 10
7.868858081834101
 20
4.202745703261058
 30
0.0
 11
7.868858081834101
 21
4.161079036594393
 31
0.0
 12
7.993858081834101
 22
4.181912369927725
 32
0.0
 13
7.993858081834101
 23
4.181912369927725
 33
0.0
  0
SOLID
  5
2DA
330
2D3
100
AcDbEntity
  8
DIMENSION
 62
     0
100
AcDbTrace
 10
8.368858081834101
 20
4.202745703261058
 30
0.0
 11
8.368858081834101
 21
4.161079036594393
 31
0.0
 12
8.243858081834101
 22
4.181912369927725
 32
0.0
 13
8.243858081834101
 23
4.181912369927725
 33
0.0
  0
MTEXT
  5
2DB
330
2D3
100
AcDbEntity
  8
DIMENSION
 62
     0
100
AcDbMText
 10
9.188024748500767
 20
4.181912369927725
 30
0.0
 40
0.125
 41
0.0
 71
     5
 72
     1
  1
\A1;PANEL THICK\P({\H1.000000x;\S1/4;} SHOWN)
 73
     1
 44
1.0
1001
ACAD
1000
MTEXTBEGIN
1070
    73
1070
     1
1070
    44
1040
1.0
1070
    74
1070
     0
1000
MTEXTEND
  0
POINT
  5
2DC
330
2D3
100
AcDbEntity
  8
Defpoints
 62
     0
100
AcDbPoint
 10
7.993858081834101
 20
4.288309253266731
 30
0.0
  0
POINT
  5
2DD
330
2D3
100
AcDbEntity
  8
Defpoints
 62
     0
100
AcDbPoint
 10
8.243858081834101
 20
4.269415212116967
 30
0.0
  0
POINT
  5
2DE
330
2D3
100
AcDbEntity
  8
Defpoints
 62
     0
100
AcDbPoint
 10
8.243858081834101
 20
4.181912369927725
 30
0.0
  0
ENDBLK
  5
2DF
330
2D3
100
AcDbEntity
  8
0
100
AcDbBlockEnd
  0
BLOCK
  5
7B6
330
7B4
100
AcDbEntity
  8
0
100
AcDbBlockBegin
  2
GENAXEH
 70
     0
 10
0.0
 20
0.0
 30
0.0
  3
GENAXEH
  1

  0
LINE
  5
7B5
330
7B4
100
AcDbEntity
  8
0
100
AcDbLine
 10
-1.0
 20
0.0
 30
0.0
 11
1.0
 21
0.0
 31
0.0
  0
ENDBLK
  5
7B7
330
7B4
100
AcDbEntity
  8
0
100
AcDbBlockEnd
  0
ENDSEC
  0
SECTION
  2
ENTITIES
  0
LINE
  5
2F
330
2
100
AcDbEntity
  8
AM_VIS
100
AcDbLine
 10
3.358211211877471
 20
2.913649520616267
 30
0.0
 11
3.406996881472121
 21
2.941815940089334
 31
0.0
  0
LINE
  5
31
330
2
100
AcDbEntity
  8
AM_VIS
100
AcDbLine
 10
3.409122900122901
 20
2.940947581864038
 30
0.0
 11
3.409122900122901
 21
2.896654736829357
 31
0.0
  0
LINE
  5
32
330
2
100
AcDbEntity
  8
AM_VIS
100
AcDbLine
 10
3.338058668613647
 20
2.855625783637736
 30
0.0
 11
3.409122900122901
 21
2.896654736829357
 31
0.0
  0
LINE
  5
33
330
2
100
AcDbEntity
  8
AM_VIS
100
AcDbLine
 10
3.366866545293718
 20
3.611244785864956
 30
0.0
 11
2.985028883452983
 21
3.390790709014471
 31
0.0
  0
LINE
  5
34
330
2
100
AcDbEntity
  8
AM_VIS
100
AcDbLine
 10
4.422236865521215
 20
1.739115292640458
 30
0.0
 11
4.04039920368048
 21
1.518661215789971
 31
0.0
  0
LINE
  5
35
330
2
100
AcDbEntity
  8
AM_VIS
100
AcDbLine
 10
4.202864102101471
 20
3.145056473274776
 30
0.0
 11
3.821026440260736
 21
2.924602396424288
 31
0.0
  0
LINE
  5
36
330
2
100
AcDbEntity
  8
AM_VIS
100
AcDbLine
 10
3.840264693594371
 20
3.354403339384345
 30
0.0
 11
3.458427031753636
 21
3.133949262533859
 31
0.0
  0
LINE
  5
37
330
2
100
AcDbEntity
  8
AM_VIS
100
AcDbLine
 10
3.222714043566731
 20
2.957020696597197
 30
0.0
 11
3.192575785652783
 21
2.939620365277673
 31
0.0
  0
LINE
  5
38
330
2
100
AcDbEntity
  8
AM_VIS
100
AcDbLine
 10
3.802714043566728
 20
1.952431228207252
 30
0.0
 11
3.772575785652788
 21
1.935030896887731
 31
0.0
  0
ELLIPSE
  5
39
330
2
100
AcDbEntity
  8
AM_VIS
100
AcDbEllipse
 10
3.411132198573718
 20
3.534574425353768
 30
0.0
 11
0.0442656532799955
 21
-0.0766703605111907
 31
0.0
210
0.0
220
0.0
230
1.0
 40
0.5773502691896258
 41
2.356194490192515
 42
3.141592653589964
  0
ELLIPSE
  5
3A
330
2
100
AcDbEntity
  8
AM_VIS
100
AcDbEllipse
 10
3.029294536732983
 20
3.314120348503283
 30
0.0
 11
0.0442656532799955
 21
-0.0766703605111907
 31
0.0
210
0.0
220
0.0
230
1.0
 40
0.5773502691896258
 41
2.356194490192515
 42
3.926990816987411
  0
ELLIPSE
  5
3B
330
2
100
AcDbEntity
  8
AM_VIS
100
AcDbEllipse
 10
3.830846440260736
 20
1.63451061757203
 30
0.0
 11
0.009819999999999
 21
-0.017008738930327
 31
0.0
210
0.0
220
0.0
230
1.0
 40
0.5773502691896258
 41
3.970624048287207
 42
5.497787143782232
  0
ELLIPSE
  5
3C
330
2
100
AcDbEntity
  8
AM_VIS
100
AcDbEllipse
 10
4.377971212241217
 20
1.815785653151644
 30
0.0
 11
0.0442656532799951
 21
-0.0766703605111899
 31
0.0
210
0.0
220
0.0
230
0.9999999999999996
 40
0.5773502691896259
 41
0.0000000000001728
 42
0.785398163397622
  0
ELLIPSE
  5
3D
330
2
100
AcDbEntity
  8
AM_VIS
100
AcDbEllipse
 10
3.99613355040048
 20
1.595331576301159
 30
0.0
 11
0.0442656532799951
 21
-0.0766703605111899
 31
0.0
210
0.0
220
0.0
230
0.9999999999999996
 40
0.5773502691896259
 41
5.497787143782309
 42
7.068583470577206
  0
ELLIPSE
  5
3E
330
2
100
AcDbEntity
  8
AM_VIS
100
AcDbEllipse
 10
4.377971212241217
 20
2.976369660549806
 30
0.0
 11
0.0442656532799955
 21
-0.0766703605111907
 31
0.0
210
0.0
220
0.0
230
1.0
 40
0.5773502691896258
 41
0.7853981633976252
 42
2.35619449019252
  0
ELLIPSE
  5
3F
330
2
100
AcDbEntity
  8
AM_VIS
100
AcDbEllipse
 10
3.99613355040048
 20
2.755915583699319
 30
0.0
 11
0.0442656532799955
 21
-0.0766703605111907
 31
0.0
210
0.0
220
0.0
230
1.0
 40
0.5773502691896258
 41
0.7853981633976206
 42
2.356194490192517
  0
ELLIPSE
  5
40
330
2
100
AcDbEntity
  8
AM_VIS
100
AcDbEllipse
 10
4.212684102101473
 20
3.128047734344448
 30
0.0
 11
0.009819999999999
 21
-0.017008738930327
 31
0.0
210
0.0
220
0.0
230
1.0
 40
0.5773502691896258
 41
2.356194490192613
 42
3.141592653589962
  0
ELLIPSE
  5
41
330
2
100
AcDbEntity
  8
AM_VIS
100
AcDbEllipse
 10
3.830846440260736
 20
2.907593657493962
 30
0.0
 11
0.009819999999999
 21
-0.017008738930327
 31
0.0
210
0.0
220
0.0
230
1.0
 40
0.5773502691896258
 41
2.356194490192604
 42
3.883357585687626
  0
ELLIPSE
  5
42
330
2
100
AcDbEntity
  8
AM_VIS
100
AcDbEllipse
 10
3.939018717220561
 20
3.286048517973325
 30
0.0
 11
0.0098199999999991
 21
-0.0170087389303271
 31
0.0
210
0.0
220
0.0
230
0.9999999999999998
 40
0.5773502691896259
 41
0.852780194631579
 42
2.35619449019251
  0
ELLIPSE
  5
43
330
2
100
AcDbEntity
  8
AM_VIS
100
AcDbEllipse
 10
3.557181055379826
 20
3.065594441122839
 30
0.0
 11
0.0098199999999991
 21
-0.0170087389303271
 31
0.0
210
0.0
220
0.0
230
0.9999999999999998
 40
0.5773502691896259
 41
0.8290313946973945
 42
2.356194490192508
  0
ELLIPSE
  5
44
330
2
100
AcDbEntity
  8
AM_VIS
100
AcDbEllipse
 10
3.850084693594371
 20
3.33739460045402
 30
0.0
 11
0.0098199999999992
 21
-0.0170087389303273
 31
0.0
210
0.0
220
0.0
230
0.9999999999999998
 40
0.5773502691896259
 41
2.35619449019251
 42
3.141592653589961
  0
ELLIPSE
  5
45
330
2
100
AcDbEntity
  8
AM_VIS
100
AcDbEllipse
 10
3.468247031753636
 20
3.116940523603533
 30
0.0
 11
0.0098199999999992
 21
-0.0170087389303273
 31
0.0
210
0.0
220
0.0
230
0.9999999999999998
 40
0.5773502691896259
 41
2.35619449019251
 42
3.883357585687443
  0
ELLIPSE
  5
46
330
2
100
AcDbEntity
  8
AM_VIS
100
AcDbEllipse
 10
3.57641930871346
 20
3.495395384082899
 30
0.0
 11
0.009819999999999
 21
-0.0170087389303271
 31
0.0
210
0.0
220
0.0
230
1.0
 40
0.5773502691896258
 41
0.8290313946973974
 42
2.35619449019251
  0
ELLIPSE
  5
47
330
2
100
AcDbEntity
  8
AM_VIS
100
AcDbEllipse
 10
3.194581646872725
 20
3.274941307232413
 30
0.0
 11
0.009819999999999
 21
-0.0170087389303271
 31
0.0
210
0.0
220
0.0
230
1.0
 40
0.5773502691896258
 41
0.8290313946973974
 42
2.35619449019251
  0
ELLIPSE
  5
48
330
2
100
AcDbEntity
  8
AM_VIS
100
AcDbEllipse
 10
3.51271404356673
 20
2.454725962402224
 30
0.0
 11
0.2899999999999691
 21
-0.5022947341949903
 31
0.0
210
0.0
220
0.0
230
1.0
 40
0.5773502691896259
 41
3.095023204012397
 42
3.141592653589964
  0
ELLIPSE
  5
49
330
2
100
AcDbEntity
  8
AM_VIS
100
AcDbEllipse
 10
3.51271404356673
 20
2.454725962402224
 30
0.0
 11
0.2899999999999691
 21
-0.5022947341949903
 31
0.0
210
0.0
220
0.0
230
1.0
 40
0.5773502691896259
 41
0.0000000000001728
 42
0.0465694495777398
  0
ELLIPSE
  5
4A
330
2
100
AcDbEntity
  8
AM_VIS
100
AcDbEllipse
 10
3.428921889996126
 20
2.406348539982258
 30
0.0
 11
0.289999999999999
 21
-0.502294734194973
 31
0.0
210
0.0
220
0.0
230
1.0
 40
0.5773502691896258
 41
2.529474126609884
 42
2.933509568636268
  0
ELLIPSE
  5
4B
330
2
100
AcDbEntity
  8
AM_VIS
100
AcDbEllipse
 10
3.428921889996126
 20
2.406348539982258
 30
0.0
 11
0.289999999999999
 21
-0.502294734194973
 31
0.0
210
0.0
220
0.0
230
1.0
 40
0.5773502691896258
 41
0.2080830849535518
 42
2.182914853774803
  0
ELLIPSE
  5
4C
330
2
100
AcDbEntity
  8
AM_VIS
100
AcDbEllipse
 10
3.004657821284202
 20
2.161399565703943
 30
0.0
 11
0.2899999999999998
 21
-0.5022947341949747
 31
0.0
210
0.0
220
0.0
230
1.0
 40
0.5773502691896258
 41
3.400524327679462
 42
3.774967761393241
  0
ELLIPSE
  5
4D
330
2
100
AcDbEntity
  8
AM_VIS
100
AcDbEllipse
 10
3.004657821284202
 20
2.161399565703943
 30
0.0
 11
0.2899999999999998
 21
-0.5022947341949747
 31
0.0
210
0.0
220
0.0
230
1.0
 40
0.5773502691896258
 41
5.64981019937614
 42
6.024253633089911
  0
ELLIPSE
  5
4E
330
2
100
AcDbEntity
  8
AM_VIS
100
AcDbEllipse
 10
3.344069076253738
 20
2.357358745126592
 30
0.0
 11
0.2899999999999998
 21
-0.5022947341949747
 31
0.0
210
0.0
220
0.0
230
1.0
 40
0.5773502691896258
 41
1.444059630802534
 42
1.697533022787252
  0
ELLIPSE
  5
4F
330
2
100
AcDbEntity
  8
AM_VIS
100
AcDbEllipse
 10
3.372353347501201
 20
2.373688676745147
 30
0.0
 11
0.2899999999999998
 21
-0.5022947341949747
 31
0.0
210
0.0
220
0.0
230
1.0
 40
0.5773502691896258
 41
2.529474126609884
 42
2.576356555949644
  0
ELLIPSE
  5
50
330
2
100
AcDbEntity
  8
AM_VIS
100
AcDbEllipse
 10
3.372353347501201
 20
2.373688676745147
 30
0.0
 11
0.2899999999999998
 21
-0.5022947341949747
 31
0.0
210
0.0
220
0.0
230
1.0
 40
0.5773502691896258
 41
0.5652360976402214
 42
1.005560229154673
  0
ELLIPSE
  5
51
330
2
100
AcDbEntity
  8
AM_VIS
100
AcDbEllipse
 10
3.372353347501201
 20
2.373688676745147
 30
0.0
 11
0.2899999999999998
 21
-0.5022947341949747
 31
0.0
210
0.0
220
0.0
230
1.0
 40
0.5773502691896258
 41
1.107194532721827
 42
2.034398120867959
  0
ELLIPSE
  5
52
330
2
100
AcDbEntity
  8
AM_VIS
100
AcDbEllipse
 10
3.372353347501201
 20
2.373688676745147
 30
0.0
 11
0.2899999999999998
 21
-0.5022947341949747
 31
0.0
210
0.0
220
0.0
230
1.0
 40
0.5773502691896258
 41
2.136032424435045
 42
2.182914853774803
  0
ELLIPSE
  5
53
330
2
100
AcDbEntity
  8
AM_VIS
100
AcDbEllipse
 10
3.400637618748663
 20
2.390018608363701
 30
0.0
 11
0.2899999999999998
 21
-0.5022947341949747
 31
0.0
210
0.0
220
0.0
230
1.0
 40
0.5773502691896258
 41
2.529474126609884
 42
2.791131579501708
  0
ELLIPSE
  5
54
330
2
100
AcDbEntity
  8
AM_VIS
100
AcDbEllipse
 10
3.400637618748663
 20
2.390018608363701
 30
0.0
 11
0.2899999999999998
 21
-0.5022947341949747
 31
0.0
210
0.0
220
0.0
230
1.0
 40
0.5773502691896258
 41
0.3504610740881209
 42
2.182914853774803
  0
ELLIPSE
  5
55
330
2
100
AcDbEntity
  8
AM_VIS
100
AcDbEllipse
 10
2.976373550036733
 20
2.145069634085384
 30
0.0
 11
0.2482499999999742
 21
-0.4299816129789887
 31
0.0
210
0.0
220
0.0
230
1.0
 40
0.5773502691896255
 41
3.080283335512067
 42
3.485064595265551
  0
ELLIPSE
  5
56
330
2
100
AcDbEntity
  8
AM_VIS
100
AcDbEllipse
 10
2.976373550036733
 20
2.145069634085384
 30
0.0
 11
0.2482499999999742
 21
-0.4299816129789887
 31
0.0
210
0.0
220
0.0
230
1.0
 40
0.5773502691896255
 41
5.939713365504173
 42
6.344494625257658
  0
ELLIPSE
  5
57
330
2
100
AcDbEntity
  8
AM_VIS
100
AcDbEllipse
 10
2.976373550036733
 20
2.145069634085384
 30
0.0
 11
0.2722499999999995
 21
-0.4715508323606262
 31
0.0
210
0.0
220
0.0
230
0.9999999999999998
 40
0.5773502691896259
 41
3.232418867138608
 42
3.679884098737259
  0
ELLIPSE
  5
58
330
2
100
AcDbEntity
  8
AM_VIS
100
AcDbEllipse
 10
2.976373550036733
 20
2.145069634085384
 30
0.0
 11
0.2722499999999995
 21
-0.4715508323606262
 31
0.0
210
0.0
220
0.0
230
0.9999999999999998
 40
0.5773502691896259
 41
5.74489386203212
 42
6.192359093630769
  0
LINE
  5
59
330
2
100
AcDbEntity
  8
AM_VIS
100
AcDbLine
 10
3.13771404356673
 20
3.104245015240552
 30
0.0
 11
3.09351986974257
 21
3.078729497086561
 31
0.0
  0
LINE
  5
5A
330
2
100
AcDbEntity
  8
AM_VIS
100
AcDbLine
 10
3.88771404356673
 20
1.805206909563895
 30
0.0
 11
3.84351986974257
 21
1.779691391409903
 31
0.0
  0
ELLIPSE
  5
5B
330
2
100
AcDbEntity
  8
AM_VIS
100
AcDbEllipse
 10
3.46851986974257
 20
2.429210444248232
 30
0.0
 11
0.3749999999999999
 21
-0.649519052838329
 31
0.0
210
0.0
220
0.0
230
1.0
 40
0.5773502691896258
 41
5.847702950455442
 42
9.860260317493562
  0
ELLIPSE
  5
5C
330
2
100
AcDbEntity
  8
AM_VIS
100
AcDbEllipse
 10
3.51271404356673
 20
2.454725962402224
 30
0.0
 11
0.3749999999999611
 21
-0.6495190528383512
 31
0.0
210
0.0
220
0.0
230
0.9999999999999998
 40
0.5773502691896259
 41
0.0000000000001723
 42
3.141592653589964
  0
ELLIPSE
  5
5D
330
2
100
AcDbEntity
  8
AM_VIS
100
AcDbEllipse
 10
3.46851986974257
 20
2.429210444248232
 30
0.0
 11
0.2953749999999693
 21
-0.5116045072856748
 31
0.0
210
0.0
220
0.0
230
1.0
 40
0.5773502691896259
 41
0.0298390533806834
 42
3.111753600209476
  0
ELLIPSE
  5
5E
330
2
100
AcDbEntity
  8
AM_VIS
100
AcDbEllipse
 10
3.51271404356673
 20
2.454725962402224
 30
0.0
 11
0.2953749999999999
 21
-0.5116045072856572
 31
0.0
210
0.0
220
0.0
230
1.0
 40
0.5773502691896258
 41
6.169197150060504
 42
6.208305069040178
  0
ELLIPSE
  5
5F
330
2
100
AcDbEntity
  8
AM_VIS
100
AcDbEllipse
 10
3.51271404356673
 20
2.454725962402224
 30
0.0
 11
0.2953749999999999
 21
-0.5116045072856572
 31
0.0
210
0.0
220
0.0
230
1.0
 40
0.5773502691896258
 41
3.216472891729201
 42
3.255580810708892
  0
LINE
  5
60
330
2
100
AcDbEntity
  8
AM_VIS
100
AcDbLine
 10
4.485738158893423
 20
3.631633452142537
 30
0.0
 11
3.968843101846058
 21
3.333203951813452
 31
0.0
  0
LINE
  5
61
330
2
100
AcDbEntity
  8
AM_VIS
100
AcDbLine
 10
4.1572678515952
 20
3.386469264300024
 30
0.0
 11
4.533821420014108
 21
3.603872568390993
 31
0.0
  0
LINE
  5
62
330
2
100
AcDbEntity
  8
AM_VIS
100
AcDbLine
 10
4.577662040447672
 20
3.578561174382236
 30
0.0
 11
4.577662040447672
 21
3.492118389956761
 31
0.0
  0
LINE
  5
63
330
2
100
AcDbEntity
  8
AM_VIS
100
AcDbLine
 10
4.516738158893423
 20
3.634704239159653
 30
0.0
 11
4.564821420014108
 21
3.606943355408111
 31
0.0
  0
ELLIPSE
  5
64
330
2
100
AcDbEntity
  8
AM_VIS
100
AcDbEllipse
 10
4.485738158893423
 20
3.581010664125019
 30
0.0
 11
0.0309999999999968
 21
0.053693575034637
 31
0.0
210
0.0
220
0.0
230
1.0
 40
0.5773502691896263
 41
-0.0000000000001688
 42
0.7853981633972813
  0
ELLIPSE
  5
65
330
2
100
AcDbEntity
  8
AM_VIS
100
AcDbEllipse
 10
3.968843101846056
 20
3.282581163795935
 30
0.0
 11
0.0309999999999968
 21
0.053693575034637
 31
0.0
210
0.0
220
0.0
230
1.0
 40
0.5773502691896263
 41
0.7853981633972824
 42
1.53888443215379
  0
ELLIPSE
  5
66
330
2
100
AcDbEntity
  8
AM_VIS
100
AcDbEllipse
 10
4.533821420014108
 20
3.553249780373477
 30
0.0
 11
0.031
 21
0.0536935750346352
 31
0.0
210
0.0
220
0.0
230
1.0
 40
0.5773502691896263
 41
5.497787143782136
 42
7.068583470577039
  0
LINE
  5
67
330
2
100
AcDbEntity
  8
AM_VIS
100
AcDbLine
 10
3.627045750398768
 20
3.155839971710217
 30
0.0
 11
3.627045750398768
 21
2.989310538689101
 31
0.0
  0
LINE
  5
68
330
2
100
AcDbEntity
  8
AM_VIS
100
AcDbLine
 10
3.767887279075546
 20
3.262670384358823
 30
0.0
 11
3.649142837310848
 21
3.194113248941203
 31
0.0
  0
LINE
  5
69
330
2
100
AcDbEntity
  8
AM_VIS
100
AcDbLine
 10
4.117807201473596
 20
3.374352215567216
 30
0.0
 11
3.848178189838631
 21
3.218681833118437
 31
0.0
  0
LINE
  5
6A
330
2
100
AcDbEntity
  8
AM_VIS
100
AcDbLine
 10
4.291291032030281
 20
3.338893158422483
 30
0.0
 11
4.272085222134078
 21
3.327804678908906
 31
0.0
  0
LINE
  5
6B
330
2
100
AcDbEntity
  8
AM_VIS
100
AcDbLine
 10
4.399532569286991
 20
3.276399877749825
 30
0.0
 11
4.291291032030281
 21
3.338893158422485
 31
0.0
  0
LINE
  5
6C
330
2
100
AcDbEntity
  8
AM_VIS
100
AcDbLine
 10
4.291291032030281
 20
3.364466467684708
 30
0.0
 11
4.291291032030281
 21
3.338893158422483
 31
0.0
  0
LINE
  5
6D
330
2
100
AcDbEntity
  8
AM_VIS
100
AcDbLine
 10
4.421679704766911
 20
3.289186532380936
 30
0.0
 11
4.291291032030281
 21
3.364466467684708
 31
0.0
  0
LINE
  5
6E
330
2
100
AcDbEntity
  8
AM_VIS
100
AcDbLine
 10
4.286692711684779
 20
3.367825181188283
 30
0.0
 11
4.291291032030279
 21
3.364466467684705
 31
0.0
  0
LINE
  5
6F
330
2
100
AcDbEntity
  8
AM_VIS
100
AcDbLine
 10
4.422289275812294
 20
3.289538468388076
 30
0.0
 11
4.286692711684779
 21
3.367825181188285
 31
0.0
  0
LINE
  5
70
330
2
100
AcDbEntity
  8
AM_VIS
100
AcDbLine
 10
4.286692711684779
 20
3.376927076824207
 30
0.0
 11
4.286692711684779
 21
3.367825181188285
 31
0.0
  0
LINE
  5
71
330
2
100
AcDbEntity
  8
AM_VIS
100
AcDbLine
 10
4.430171748655594
 20
3.294089416206038
 30
0.0
 11
4.286692711684779
 21
3.376927076824205
 31
0.0
  0
LINE
  5
72
330
2
100
AcDbEntity
  8
AM_VIS
100
AcDbLine
 10
4.291642459153087
 20
3.385500290923948
 30
0.0
 11
4.286692711684779
 21
3.376927076824205
 31
0.0
  0
LINE
  5
73
330
2
100
AcDbEntity
  8
AM_VIS
100
AcDbLine
 10
4.504191269121077
 20
3.465235068349308
 30
0.0
 11
4.444856617380763
 21
3.470534625688441
 31
0.0
  0
LINE
  5
74
330
2
100
AcDbEntity
  8
AM_VIS
100
AcDbLine
 10
4.558005921499552
 20
3.49288107165445
 30
0.0
 11
4.515257490246675
 21
3.468200253363165
 31
0.0
  0
LINE
  5
75
330
2
100
AcDbEntity
  8
AM_VIS
100
AcDbLine
 10
3.851905706816091
 20
3.026017015342708
 30
0.0
 11
3.851905706816091
 21
2.942430549282401
 31
0.0
  0
LINE
  5
76
330
2
100
AcDbEntity
  8
AM_VIS
100
AcDbLine
 10
3.992747235492868
 20
3.132847427991315
 30
0.0
 11
3.874002793728169
 21
3.064290292573694
 31
0.0
  0
LINE
  5
77
330
2
100
AcDbEntity
  8
AM_VIS
100
AcDbLine
 10
3.997696982961173
 20
3.088035237891968
 30
0.0
 11
3.997696982961173
 21
3.129989689958068
 31
0.0
  0
LINE
  5
78
330
2
100
AcDbEntity
  8
AM_VIS
100
AcDbLine
 10
3.956798506432738
 20
3.058707015392338
 30
0.0
 11
3.992747235492866
 21
3.079462023792228
 31
0.0
  0
LINE
  5
79
330
2
100
AcDbEntity
  8
AM_VIS
100
AcDbLine
 10
4.342667157890918
 20
3.244529259199708
 30
0.0
 11
3.956798506432738
 21
3.021747889408491
 31
0.0
  0
LINE
  5
7A
330
2
100
AcDbEntity
  8
AM_VIS
100
AcDbLine
 10
4.237809429951852
 20
3.183028979720491
 30
0.0
 11
4.354801540814063
 21
3.250574406419851
 31
0.0
  0
LINE
  5
7B
330
2
100
AcDbEntity
  8
AM_VIS
100
AcDbLine
 10
4.281650050385416
 20
3.157717585711731
 30
0.0
 11
4.804961394365271
 21
3.459851531028484
 31
0.0
  0
LINE
  5
7C
330
2
100
AcDbEntity
  8
AM_VIS
100
AcDbLine
 10
4.849155568189431
 20
3.434336012874493
 30
0.0
 11
4.849155568189431
 21
3.382887684616696
 31
0.0
  0
LINE
  5
7D
330
2
100
AcDbEntity
  8
AM_VIS
100
AcDbLine
 10
4.761120773931707
 20
3.485162925037245
 30
0.0
 11
4.354801540814063
 21
3.250574406419851
 31
0.0
  0
LINE
  5
7E
330
2
100
AcDbEntity
  8
AM_VIS
100
AcDbLine
 10
4.311165367668866
 20
3.087225542008398
 30
0.0
 11
4.827058481277354
 21
3.385076570023332
 31
0.0
  0
LINE
  5
7F
330
2
100
AcDbEntity
  8
AM_VIS
100
AcDbLine
 10
4.584645306123856
 20
2.24736043619965
 30
0.0
 11
4.584645306123856
 21
2.197145896472611
 31
0.0
  0
LINE
  5
80
330
2
100
AcDbEntity
  8
AM_VIS
100
AcDbLine
 10
4.579695558655551
 20
2.18857268237287
 30
0.0
 11
4.48706457032011
 21
2.135092156322103
 31
0.0
  0
LINE
  5
81
330
2
100
AcDbEntity
  8
AM_VIS
100
AcDbLine
 10
4.479993502508245
 20
2.122844707608186
 30
0.0
 11
4.479993502508245
 21
1.987306275174184
 31
0.0
  0
LINE
  5
82
330
2
100
AcDbEntity
  8
AM_VIS
100
AcDbLine
 10
4.48706457032011
 20
1.983223792269544
 30
0.0
 11
4.579695558655551
 21
2.036704318320311
 31
0.0
  0
LINE
  5
83
330
2
100
AcDbEntity
  8
AM_VIS
100
AcDbLine
 10
4.584645306123856
 20
2.033846580287065
 30
0.0
 11
4.584645306123856
 21
1.983632040560021
 31
0.0
  0
LINE
  5
84
330
2
100
AcDbEntity
  8
AM_VIS
100
AcDbLine
 10
4.584645306123856
 20
1.983632040560021
 30
0.0
 11
4.98598073034903
 21
2.215343155771756
 31
0.0
  0
LINE
  5
85
330
2
100
AcDbEntity
  8
AM_VIS
100
AcDbLine
 10
5.030174904173188
 20
2.189827637617765
 30
0.0
 11
5.030174904173188
 21
2.183908037406029
 31
0.0
  0
LINE
  5
86
330
2
100
AcDbEntity
  8
AM_VIS
100
AcDbLine
 10
5.008077817261107
 20
2.14563476017504
 30
0.0
 11
4.462669386369173
 21
1.830743055781291
 31
0.0
  0
LINE
  5
87
330
2
100
AcDbEntity
  8
AM_VIS
100
AcDbLine
 10
4.462669386369173
 20
2.965673303270833
 30
0.0
 11
5.008077817261107
 21
3.280565007664582
 31
0.0
  0
LINE
  5
88
330
2
100
AcDbEntity
  8
AM_VIS
100
AcDbLine
 10
5.030174904173188
 20
3.267807248587586
 30
0.0
 11
5.030174904173188
 21
3.261887648375821
 31
0.0
  0
LINE
  5
89
330
2
100
AcDbEntity
  8
AM_VIS
100
AcDbLine
 10
4.985980730349028
 20
3.185341093913848
 30
0.0
 11
4.780576973266184
 21
3.066751179469506
 31
0.0
  0
LINE
  5
8A
330
2
100
AcDbEntity
  8
AM_VIS
100
AcDbLine
 10
4.692188625617865
 20
3.015720143161523
 30
0.0
 11
4.584645306123856
 21
2.953629978702111
 31
0.0
  0
LINE
  5
8B
330
2
100
AcDbEntity
  8
AM_VIS
100
AcDbLine
 10
4.584645306123856
 20
2.953629978702109
 30
0.0
 11
4.584645306123856
 21
2.903415438975093
 31
0.0
  0
LINE
  5
8C
330
2
100
AcDbEntity
  8
AM_VIS
100
AcDbLine
 10
4.579695558655549
 20
2.894842224875351
 30
0.0
 11
4.487064570320108
 21
2.841361698824584
 31
0.0
  0
LINE
  5
8D
330
2
100
AcDbEntity
  8
AM_VIS
100
AcDbLine
 10
4.479993502508245
 20
2.829114250110669
 30
0.0
 11
4.479993502508245
 21
2.693575817676665
 31
0.0
  0
LINE
  5
8E
330
2
100
AcDbEntity
  8
AM_VIS
100
AcDbLine
 10
4.487064570320108
 20
2.689493334772027
 30
0.0
 11
4.579695558655549
 21
2.742973860822794
 31
0.0
  0
LINE
  5
8F
330
2
100
AcDbEntity
  8
AM_VIS
100
AcDbLine
 10
4.584645306123856
 20
2.740116122789546
 30
0.0
 11
4.584645306123856
 21
2.68990158306248
 31
0.0
  0
LINE
  5
90
330
2
100
AcDbEntity
  8
AM_VIS
100
AcDbLine
 10
4.584645306123856
 20
2.689901583062481
 30
0.0
 11
4.996940885457419
 21
2.927940546776408
 31
0.0
  0
LINE
  5
91
330
2
100
AcDbEntity
  8
AM_VIS
100
AcDbLine
 10
5.030174904173188
 20
2.908752877124607
 30
0.0
 11
5.030174904173188
 21
2.542962408868981
 31
0.0
  0
LINE
  5
92
330
2
100
AcDbEntity
  8
AM_VIS
100
AcDbLine
 10
4.692188625617865
 20
2.309450600659064
 30
0.0
 11
4.584645306123856
 21
2.24736043619965
 31
0.0
  0
LINE
  5
93
330
2
100
AcDbEntity
  8
AM_VIS
100
AcDbLine
 10
4.99694088545742
 20
2.485399399913576
 30
0.0
 11
4.780576973266184
 21
2.360481636967046
 31
0.0
  0
LINE
  5
94
330
2
100
AcDbEntity
  8
AM_VIS
100
AcDbLine
 10
4.692188625617865
 20
3.017465969125946
 30
0.0
 11
4.780576973266184
 21
3.068497005433929
 31
0.0
  0
LINE
  5
95
330
2
100
AcDbEntity
  8
AM_VIS
100
AcDbLine
 10
4.692188625617865
 20
3.015720143161523
 30
0.0
 11
4.692188625617865
 21
3.017465969125946
 31
0.0
  0
LINE
  5
96
330
2
100
AcDbEntity
  8
AM_VIS
100
AcDbLine
 10
4.692188625617867
 20
2.311196426623463
 30
0.0
 11
4.780576973266184
 21
2.362227462931445
 31
0.0
  0
LINE
  5
97
330
2
100
AcDbEntity
  8
AM_VIS
100
AcDbLine
 10
4.692188625617865
 20
2.309450600659064
 30
0.0
 11
4.692188625617865
 21
2.311196426623463
 31
0.0
  0
LINE
  5
98
330
2
100
AcDbEntity
  8
AM_VIS
100
AcDbLine
 10
4.440071243592208
 20
3.299804892272533
 30
0.0
 11
4.291642459153086
 21
3.385500290923948
 31
0.0
  0
LINE
  5
99
330
2
100
AcDbEntity
  8
AM_VIS
100
AcDbLine
 10
4.433790396255164
 20
3.467569440674582
 30
0.0
 11
4.291642459153087
 21
3.385500290923948
 31
0.0
  0
LINE
  5
9A
330
2
100
AcDbEntity
  8
AM_VIS
100
AcDbLine
 10
4.780576973266184
 20
2.362227462931445
 30
0.0
 11
4.780576973266184
 21
2.360481636967048
 31
0.0
  0
LINE
  5
9B
330
2
100
AcDbEntity
  8
AM_VIS
100
AcDbLine
 10
4.780576973266184
 20
2.360481636967046
 30
0.0
 11
4.779065043630429
 21
2.361354549949246
 31
0.0
  0
LINE
  5
9C
330
2
100
AcDbEntity
  8
AM_VIS
100
AcDbLine
 10
4.804998320168015
 20
2.364550885601917
 30
0.0
 11
4.804998320168015
 21
2.374581308174791
 31
0.0
  0
LINE
  5
9D
330
2
100
AcDbEntity
  8
AM_VIS
100
AcDbLine
 10
4.732958756831888
 20
2.328906763985763
 30
0.0
 11
4.761120773931707
 21
2.345166112139265
 31
0.0
  0
LINE
  5
9E
330
2
100
AcDbEntity
  8
AM_VIS
100
AcDbLine
 10
4.804998320168015
 20
3.054654224515414
 30
0.0
 11
4.804998320168015
 21
3.080850850677251
 31
0.0
  0
LINE
  5
9F
330
2
100
AcDbEntity
  8
AM_VIS
100
AcDbLine
 10
4.734589264345245
 20
3.036117680439977
 30
0.0
 11
4.772080929040097
 21
3.057763503143916
 31
0.0
  0
LINE
  5
A0
330
2
100
AcDbEntity
  8
AM_VIS
100
AcDbLine
 10
4.780576973266184
 20
3.068497005433926
 30
0.0
 11
4.780576973266184
 21
3.066751179469506
 31
0.0
  0
LINE
  5
A1
330
2
100
AcDbEntity
  8
AM_VIS
100
AcDbLine
 10
4.780576973266184
 20
3.066751179469506
 30
0.0
 11
4.77906504363041
 21
3.067624092451716
 31
0.0
  0
LINE
  5
A2
330
2
100
AcDbEntity
  8
AM_VIS
100
AcDbLine
 10
3.815186139917358
 20
2.870101850286869
 30
0.0
 11
3.654727115991935
 21
2.962742910944116
 31
0.0
  0
LINE
  5
A3
330
2
100
AcDbEntity
  8
AM_VIS
100
AcDbLine
 10
3.996247235492868
 20
3.133194129751311
 30
0.0
 11
3.771387279075546
 21
3.263017086118821
 31
0.0
  0
LINE
  5
A4
330
2
100
AcDbEntity
  8
AM_VIS
100
AcDbLine
 10
4.380326759390786
 20
3.265311398236247
 30
0.0
 11
4.180675951473595
 21
3.380579845931162
 31
0.0
  0
LINE
  5
A5
330
2
100
AcDbEntity
  8
AM_VIS
100
AcDbLine
 10
4.675415016505122
 20
3.435680682915906
 30
0.0
 11
4.573655921499552
 21
3.494431323809865
 31
0.0
  0
LINE
  5
A6
330
2
100
AcDbEntity
  8
AM_VIS
100
AcDbLine
 10
3.815289080001149
 20
1.687303494122891
 30
0.0
 11
3.715847818553656
 21
1.744715933188159
 31
0.0
  0
LINE
  5
A7
330
2
100
AcDbEntity
  8
AM_VIS
100
AcDbLine
 10
4.792370773931708
 20
3.48825847646579
 30
0.0
 11
4.836211394365273
 21
3.462947082457029
 31
0.0
  0
LINE
  5
A8
330
2
100
AcDbEntity
  8
AM_VIS
100
AcDbLine
 10
4.479993502508244
 20
2.096634754977879
 30
0.0
 11
4.58319555865555
 21
2.037051020080309
 31
0.0
  0
LINE
  5
A9
330
2
100
AcDbEntity
  8
AM_VIS
100
AcDbLine
 10
4.795580929040098
 20
3.060091357818181
 30
0.0
 11
5.02044088545742
 21
2.930268401450673
 31
0.0
  0
LINE
  5
AA
330
2
100
AcDbEntity
  8
AM_VIS
100
AcDbLine
 10
4.479993502508245
 20
2.802904297480361
 30
0.0
 11
4.583195558655551
 21
2.743320562582792
 31
0.0
  0
LINE
  5
AB
330
2
100
AcDbEntity
  8
AM_VIS
100
AcDbLine
 10
4.842683481277354
 20
3.386624345737605
 30
0.0
 11
5.023702817261107
 21
3.282112783378856
 31
0.0
  0
LINE
  5
AC
330
2
100
AcDbEntity
  8
AM_VIS
100
AcDbLine
 10
4.792370773931707
 20
2.348261663567809
 30
0.0
 11
5.017230730349028
 21
2.218438707200301
 31
0.0
  0
ELLIPSE
  5
AD
330
2
100
AcDbEntity
  8
AM_VIS
100
AcDbEllipse
 10
3.649178192649908
 20
3.002088710180619
 30
0.0
 11
0.0156499999999984
 21
0.0271065951384539
 31
0.0
210
0.0
220
0.0
230
1.0
 40
0.5773502691896258
 41
2.356194490192172
 42
2.46640606781009
  0
ELLIPSE
  5
AE
330
2
100
AcDbEntity
  8
AM_VIS
100
AcDbEllipse
 10
3.649142837310848
 20
3.168597730787212
 30
0.0
 11
0.0156249999999984
 21
0.0270632938682647
 31
0.0
210
0.0
220
0.0
230
1.0
 40
0.5773502691896258
 41
0.7853981633972735
 42
2.356194490192168
  0
ELLIPSE
  5
AF
330
2
100
AcDbEntity
  8
AM_VIS
100
AcDbEllipse
 10
3.767887279075546
 20
3.256954908292329
 30
0.0
 11
0.0034999999999996
 21
0.0060621778264913
 31
0.0
210
0.0
220
0.0
230
0.9999999999999996
 40
0.5773502691896255
 41
-0.0000000000001892
 42
0.7853981633972908
  0
ELLIPSE
  5
B0
330
2
100
AcDbEntity
  8
AM_VIS
100
AcDbEllipse
 10
4.117807201473596
 20
3.271687976722818
 30
0.0
 11
0.0628687499999933
 21
0.1088918692083492
 31
0.0
210
0.0
220
0.0
230
0.9999999999999998
 40
0.5773502691896258
 41
-0.0000000000001705
 42
0.7853981633972778
  0
ELLIPSE
  5
B1
330
2
100
AcDbEntity
  8
AM_VIS
100
AcDbEllipse
 10
4.433790396255164
 20
3.442013097691544
 30
0.0
 11
0.0156499999999984
 21
0.0271065951384539
 31
0.0
210
0.0
220
0.0
230
1.0
 40
0.5773502691896258
 41
0.2617993877974856
 42
0.7853981633972751
  0
ELLIPSE
  5
B2
330
2
100
AcDbEntity
  8
AM_VIS
100
AcDbEllipse
 10
4.515257490246677
 20
3.493756596346203
 30
0.0
 11
0.01565
 21
0.0271065951384529
 31
0.0
210
0.0
220
0.0
230
1.0
 40
0.5773502691896258
 41
3.403392041387451
 42
3.926990816987241
  0
ELLIPSE
  5
B3
330
2
100
AcDbEntity
  8
AM_VIS
100
AcDbEllipse
 10
4.558005921499552
 20
3.467324728671411
 30
0.0
 11
0.0156499999999984
 21
0.0271065951384539
 31
0.0
210
0.0
220
0.0
230
1.0
 40
0.5773502691896258
 41
-0.000000000000175
 42
0.7853981633972733
  0
ELLIPSE
  5
B4
330
2
100
AcDbEntity
  8
AM_VIS
100
AcDbEllipse
 10
3.874002793728169
 20
3.038774774419703
 30
0.0
 11
0.0156249999999984
 21
0.0270632938682647
 31
0.0
210
0.0
220
0.0
230
1.0
 40
0.5773502691896258
 41
0.7853981633972824
 42
2.356194490192179
  0
ELLIPSE
  5
B5
330
2
100
AcDbEntity
  8
AM_VIS
100
AcDbEllipse
 10
3.992747235492868
 20
3.127131951924821
 30
0.0
 11
0.0034999999999996
 21
0.0060621778264913
 31
0.0
210
0.0
220
0.0
230
0.9999999999999996
 40
0.5773502691896255
 41
5.497787143782002
 42
7.0685834705769
  0
ELLIPSE
  5
B6
330
2
100
AcDbEntity
  8
AM_VIS
100
AcDbEllipse
 10
3.992747235492866
 20
3.08517749985872
 30
0.0
 11
0.0034999999999996
 21
0.0060621778264913
 31
0.0
210
0.0
220
0.0
230
0.9999999999999996
 40
0.5773502691896255
 41
3.926990816987051
 42
5.497787143781947
  0
ELLIPSE
  5
B7
330
2
100
AcDbEntity
  8
AM_VIS
100
AcDbEllipse
 10
3.956798506432738
 20
3.040227452400413
 30
0.0
 11
0.0113163749999582
 21
0.0196005364574298
 31
0.0
210
0.0
220
0.0
230
1.0
 40
0.5773502691896258
 41
0.7853981633974387
 42
3.926990816987241
  0
ELLIPSE
  5
B8
330
2
100
AcDbEntity
  8
AM_VIS
100
AcDbEllipse
 10
4.342667157890918
 20
3.141865020355308
 30
0.0
 11
0.0628687499999933
 21
0.1088918692083492
 31
0.0
210
0.0
220
0.0
230
0.9999999999999998
 40
0.5773502691896258
 41
0.6484912367315939
 42
0.7853981633972778
  0
ELLIPSE
  5
B9
330
2
100
AcDbEntity
  8
AM_VIS
100
AcDbEllipse
 10
4.804961394365273
 20
3.408820494720503
 30
0.0
 11
0.03125
 21
0.0541265877365274
 31
0.0
210
0.0
220
0.0
230
1.0
 40
0.5773502691896258
 41
5.497787143782141
 42
7.068583470577037
  0
ELLIPSE
  5
BA
330
2
100
AcDbEntity
  8
AM_VIS
100
AcDbEllipse
 10
4.237809429951852
 20
3.131997943412508
 30
0.0
 11
0.03125
 21
0.0541265877365274
 31
0.0
210
0.0
220
0.0
230
1.0
 40
0.5773502691896258
 41
0.7853981633974528
 42
1.65138650820668
  0
ELLIPSE
  5
BB
330
2
100
AcDbEntity
  8
AM_VIS
100
AcDbEllipse
 10
4.281650050385417
 20
3.106686549403748
 30
0.0
 11
0.03125
 21
0.0541265877365274
 31
0.0
210
0.0
220
0.0
230
1.0
 40
0.5773502691896258
 41
0.7853981633974524
 42
1.60433970704432
  0
ELLIPSE
  5
BC
330
2
100
AcDbEntity
  8
AM_VIS
100
AcDbEllipse
 10
4.761120773931708
 20
3.434131888729261
 30
0.0
 11
0.0312499999999967
 21
0.0541265877365293
 31
0.0
210
0.0
220
0.0
230
1.0
 40
0.5773502691896258
 41
-0.0000000000001759
 42
0.7853981633972725
  0
ELLIPSE
  5
BD
330
2
100
AcDbEntity
  8
AM_VIS
100
AcDbEllipse
 10
4.827058481277354
 20
3.359561051869339
 30
0.0
 11
0.015625
 21
0.0270632938682637
 31
0.0
210
0.0
220
0.0
230
1.0
 40
0.5773502691896258
 41
-0.0000000000000007
 42
0.7853981633974377
  0
ELLIPSE
  5
BE
330
2
100
AcDbEntity
  8
AM_VIS
100
AcDbEllipse
 10
4.579695558655549
 20
2.194288158439364
 30
0.0
 11
0.0035
 21
0.0060621778264911
 31
0.0
210
0.0
220
0.0
230
1.0
 40
0.5773502691896258
 41
3.926990816987208
 42
5.497787143782105
  0
ELLIPSE
  5
BF
330
2
100
AcDbEntity
  8
AM_VIS
100
AcDbEllipse
 10
4.48706457032011
 20
2.126927190512825
 30
0.0
 11
0.0049999999999995
 21
0.0086602540378447
 31
0.0
210
0.0
220
0.0
230
0.9999999999999998
 40
0.5773502691896255
 41
0.7853981633972975
 42
2.356194490192193
  0
ELLIPSE
  5
C0
330
2
100
AcDbEntity
  8
AM_VIS
100
AcDbEllipse
 10
4.48706457032011
 20
1.991388758078823
 30
0.0
 11
0.0049999999999995
 21
0.0086602540378447
 31
0.0
210
0.0
220
0.0
230
0.9999999999999998
 40
0.5773502691896255
 41
2.356194490192171
 42
3.926990816987068
  0
ELLIPSE
  5
C1
330
2
100
AcDbEntity
  8
AM_VIS
100
AcDbEllipse
 10
4.579695558655551
 20
2.030988842253818
 30
0.0
 11
0.0035
 21
0.0060621778264911
 31
0.0
210
0.0
220
0.0
230
1.0
 40
0.5773502691896258
 41
5.497787143782169
 42
7.068583470577065
  0
ELLIPSE
  5
C2
330
2
100
AcDbEntity
  8
AM_VIS
100
AcDbEllipse
 10
4.98598073034903
 20
2.164312119463774
 30
0.0
 11
0.03125
 21
0.0541265877365274
 31
0.0
210
0.0
220
0.0
230
1.0
 40
0.5773502691896258
 41
5.497787143782136
 42
7.068583470577033
  0
ELLIPSE
  5
C3
330
2
100
AcDbEntity
  8
AM_VIS
100
AcDbEllipse
 10
5.008077817261107
 20
2.171150278329032
 30
0.0
 11
0.015625
 21
0.0270632938682637
 31
0.0
210
0.0
220
0.0
230
1.0
 40
0.5773502691896258
 41
3.926990816987247
 42
5.497787143782145
  0
ELLIPSE
  5
C4
330
2
100
AcDbEntity
  8
AM_VIS
100
AcDbEllipse
 10
4.462669386369173
 20
1.881774092089274
 30
0.0
 11
0.03125
 21
0.0541265877365274
 31
0.0
210
0.0
220
0.0
230
1.0
 40
0.5773502691896258
 41
3.40339204138899
 42
3.926990816987243
  0
ELLIPSE
  5
C5
330
2
100
AcDbEntity
  8
AM_VIS
100
AcDbEllipse
 10
4.462669386369173
 20
2.91464226696285
 30
0.0
 11
0.03125
 21
0.0541265877365274
 31
0.0
210
0.0
220
0.0
230
1.0
 40
0.5773502691896258
 41
0.7853981633974457
 42
1.313776742552263
  0
ELLIPSE
  5
C6
330
2
100
AcDbEntity
  8
AM_VIS
100
AcDbEllipse
 10
5.008077817261107
 20
3.25504948951059
 30
0.0
 11
0.015625
 21
0.0270632938682637
 31
0.0
210
0.0
220
0.0
230
1.0
 40
0.5773502691896258
 41
5.497787143782127
 42
7.068583470577022
  0
ELLIPSE
  5
C7
330
2
100
AcDbEntity
  8
AM_VIS
100
AcDbEllipse
 10
4.985980730349028
 20
3.23637213022183
 30
0.0
 11
0.03125
 21
0.0541265877365274
 31
0.0
210
0.0
220
0.0
230
1.0
 40
0.5773502691896258
 41
3.92699081698724
 42
5.497787143782136
  0
ELLIPSE
  5
C8
330
2
100
AcDbEntity
  8
AM_VIS
100
AcDbEllipse
 10
4.579695558655551
 20
2.900557700941846
 30
0.0
 11
0.0035
 21
0.0060621778264911
 31
0.0
210
0.0
220
0.0
230
1.0
 40
0.5773502691896258
 41
3.926990816987224
 42
5.497787143782121
  0
ELLIPSE
  5
C9
330
2
100
AcDbEntity
  8
AM_VIS
100
AcDbEllipse
 10
4.487064570320108
 20
2.833196733015308
 30
0.0
 11
0.0049999999999995
 21
0.0086602540378447
 31
0.0
210
0.0
220
0.0
230
0.9999999999999998
 40
0.5773502691896255
 41
0.7853981633972593
 42
2.356194490192154
  0
ELLIPSE
  5
CA
330
2
100
AcDbEntity
  8
AM_VIS
100
AcDbEllipse
 10
4.487064570320108
 20
2.697658300581304
 30
0.0
 11
0.0049999999999995
 21
0.0086602540378447
 31
0.0
210
0.0
220
0.0
230
0.9999999999999998
 40
0.5773502691896255
 41
2.356194490192204
 42
3.9269908169871
  0
ELLIPSE
  5
CB
330
2
100
AcDbEntity
  8
AM_VIS
100
AcDbEllipse
 10
4.579695558655549
 20
2.737258384756301
 30
0.0
 11
0.0035
 21
0.0060621778264911
 31
0.0
210
0.0
220
0.0
230
1.0
 40
0.5773502691896258
 41
5.497787143782121
 42
7.068583470577016
  0
ELLIPSE
  5
CC
330
2
100
AcDbEntity
  8
AM_VIS
100
AcDbEllipse
 10
4.99694088545742
 20
2.889565207472805
 30
0.0
 11
0.0235
 21
0.0407031939778686
 31
0.0
210
0.0
220
0.0
230
1.0
 40
0.5773502691896258
 41
5.497787143782136
 42
7.068583470577033
  0
ELLIPSE
  5
CD
330
2
100
AcDbEntity
  8
AM_VIS
100
AcDbEllipse
 10
4.99694088545742
 20
2.523774739217181
 30
0.0
 11
0.0235
 21
0.0407031939778686
 31
0.0
210
0.0
220
0.0
230
1.0
 40
0.5773502691896258
 41
3.926990816987241
 42
5.497787143782136
  0
ELLIPSE
  5
CE
330
2
100
AcDbEntity
  8
AM_VIS
100
AcDbEllipse
 10
4.782865877916878
 20
2.351772714110401
 30
0.0
 11
0.0156499999999984
 21
0.0271065951384539
 31
0.0
210
0.0
220
0.0
230
1.0
 40
0.5773502691896258
 41
4.767106025493543
 42
5.497787143781968
  0
ELLIPSE
  5
CF
330
2
100
AcDbEntity
  8
AM_VIS
100
AcDbEllipse
 10
4.761120773931708
 20
2.294135075831283
 30
0.0
 11
0.03125
 21
0.0541265877365274
 31
0.0
210
0.0
220
0.0
230
1.0
 40
0.5773502691896258
 41
0.0000000000000014
 42
0.785398163397452
  0
ELLIPSE
  5
D0
330
2
100
AcDbEntity
  8
AM_VIS
100
AcDbEllipse
 10
4.772080929040097
 20
3.019388163840313
 30
0.0
 11
0.0235
 21
0.0407031939778686
 31
0.0
210
0.0
220
0.0
230
1.0
 40
0.5773502691896258
 41
0.0
 42
0.7853981633974482
  0
LINE
  5
D1
330
2
100
AcDbEntity
  8
AM_VIS
100
AcDbLine
 10
4.604648508215357
 20
2.965178832814294
 30
0.0
 11
4.604648508215357
 21
2.728624059914428
 31
0.0
  0
LINE
  5
D2
330
2
100
AcDbEntity
  8
AM_VIS
100
AcDbLine
 10
4.534905384869777
 20
2.868982605983086
 30
0.0
 11
4.534905384869777
 21
2.771200907417221
 31
0.0
  0
LINE
  5
D3
330
2
100
AcDbEntity
  8
AM_VIS
100
AcDbLine
 10
4.584645306123856
 20
2.72763193799782
 30
0.0
 11
4.604648508215357
 21
2.728624059914424
 31
0.0
  0
LINE
  5
D4
330
2
100
AcDbEntity
  8
AM_VIS
100
AcDbLine
 10
4.5176220903721
 20
2.84132042322324
 30
0.0
 11
4.527411732576687
 21
2.77552736958585
 31
0.0
  0
ELLIPSE
  5
D5
330
2
100
AcDbEntity
  8
AM_VIS
100
AcDbEllipse
 10
4.361945475761406
 20
2.833599150371453
 30
0.0
 11
0.1562500000000065
 21
0.0000000000000001
 31
0.0
210
0.0
220
0.0
230
1.0
 40
0.5773502691896252
 41
0.0856961270911374
 42
0.2555774070505945
  0
LINE
  5
D6
330
2
100
AcDbEntity
  8
AM_VIS
100
AcDbLine
 10
4.584645306123856
 20
2.017735420114581
 30
0.0
 11
4.604634605027369
 21
2.018753481370173
 31
0.0
  0
LINE
  5
D7
330
2
100
AcDbEntity
  8
AM_VIS
100
AcDbLine
 10
4.604634605027369
 20
2.258901263302505
 30
0.0
 11
4.604634605027369
 21
2.018753481370174
 31
0.0
  0
LINE
  5
D8
330
2
100
AcDbEntity
  8
AM_VIS
100
AcDbLine
 10
4.534905384869766
 20
2.162713063480598
 30
0.0
 11
4.534905384869766
 21
2.064931364914746
 31
0.0
  0
LINE
  5
D9
330
2
100
AcDbEntity
  8
AM_VIS
100
AcDbLine
 10
4.517161415779096
 20
2.131334488463528
 30
0.0
 11
4.526572099955332
 21
2.069742589203328
 31
0.0
  0
ELLIPSE
  5
DA
330
2
100
AcDbEntity
  8
AM_VIS
100
AcDbEllipse
 10
4.361515835070161
 20
2.123407410275906
 30
0.0
 11
0.15625
 21
0.0000000000000001
 31
0.0
210
0.0
220
0.0
230
1.0
 40
0.5773502691896251
 41
0.0879861349846451
 42
0.2886384731773162
  0
ELLIPSE
  5
DB
330
2
100
AcDbEntity
  8
AM_VIS
100
AcDbEllipse
 10
4.653057581100125
 20
2.817851869371263
 30
0.0
 11
-0.0155996347479274
 21
-0.0005204809521345
 31
0.0
210
0.0
220
0.0
230
0.9999999999999998
 40
0.2051002826933552
 41
1.649649401093267
 42
3.148435706382515
  0
ELLIPSE
  5
DC
330
2
100
AcDbEntity
  8
AM_VIS
100
AcDbEllipse
 10
4.653057581100125
 20
2.757214111689298
 30
0.0
 11
0.0016051586894711
 21
-0.0216942817531961
 31
0.0
210
0.0
220
0.0
230
1.0
 40
0.7152667786624891
 41
6.265804212330872
 42
7.750904412034533
  0
ELLIPSE
  5
DD
330
2
100
AcDbEntity
  8
AM_VIS
100
AcDbEllipse
 10
4.653057581100125
 20
2.98403686187102
 30
0.0
 11
-0.0155976436601487
 21
-0.0011540687791
 31
0.0
210
0.0
220
0.0
230
1.0
 40
0.234935241721372
 41
3.124211558741073
 42
4.609311758444766
  0
ELLIPSE
  5
DE
330
2
100
AcDbEntity
  8
AM_VIS
100
AcDbEllipse
 10
4.653057581100125
 20
2.923399104189055
 30
0.0
 11
-0.0150206195450863
 21
0.0044788578085381
 31
0.0
210
0.0
220
0.0
230
1.0
 40
0.9404195132806915
 41
1.929885836894174
 42
3.414986036597893
  0
LINE
  5
DF
330
2
100
AcDbEntity
  8
AM_VIS
100
AcDbLine
 10
4.64901262120512
 20
2.814436473441512
 30
0.0
 11
4.654392805006065
 21
2.814703320631269
 31
0.0
  0
LINE
  5
E0
330
2
100
AcDbEntity
  8
AM_VIS
100
AcDbLine
 10
4.609159407864783
 20
2.906356934398145
 30
0.0
 11
4.625100693200917
 21
2.907147592738168
 31
0.0
  0
LINE
  5
E1
330
2
100
AcDbEntity
  8
AM_VIS
100
AcDbLine
 10
4.64901262120512
 20
2.908333580248201
 30
0.0
 11
4.654392805006065
 21
2.90860042743796
 31
0.0
  0
ELLIPSE
  5
E2
330
2
100
AcDbEntity
  8
AM_VIS
100
AcDbEllipse
 10
4.62467273682081
 20
2.741008958417391
 30
0.0
 11
0.000514473938933
 21
-0.0069532954337167
 31
0.0
210
0.0
220
0.0
230
1.0
 40
0.7152667786624891
 41
4.695007885535973
 42
6.265804212330865
  0
LINE
  5
E3
330
2
100
AcDbEntity
  8
AM_VIS
100
AcDbLine
 10
4.64283791019003
 20
2.987227494324562
 30
0.0
 11
4.654392805006065
 21
2.987800595787948
 31
0.0
  0
LINE
  5
E4
330
2
100
AcDbEntity
  8
AM_VIS
100
AcDbLine
 10
4.625100693200917
 20
2.813250485931476
 30
0.0
 11
4.609159407864783
 21
2.812459827591453
 31
0.0
  0
ELLIPSE
  5
E5
330
2
100
AcDbEntity
  8
AM_VIS
100
AcDbEllipse
 10
4.608731451484675
 20
2.905703125908106
 30
0.0
 11
-0.004999851363475
 21
-0.0003069850565494
 31
0.0
210
0.0
220
0.0
230
0.9999999999999998
 40
0.1255863124628298
 41
4.618982152640509
 42
5.660154390846867
  0
ELLIPSE
  5
E6
330
2
100
AcDbEntity
  8
AM_VIS
100
AcDbEllipse
 10
4.608731451484676
 20
2.818865951944022
 30
0.0
 11
0.0005948019936058
 21
-0.0063942328580817
 31
0.0
210
0.0
220
0.0
230
1.0
 40
0.7764019716690781
 41
5.208466415826749
 42
6.249638654033059
  0
LINE
  5
E7
330
2
100
AcDbEntity
  8
AM_VIS
100
AcDbLine
 10
4.61052527316034
 20
2.812527571990008
 30
0.0
 11
4.611446650287744
 21
2.796170087095798
 31
0.0
  0
ELLIPSE
  5
E8
330
2
100
AcDbEntity
  8
AM_VIS
100
AcDbEllipse
 10
4.616428301955286
 20
2.796417167827054
 30
0.0
 11
0.0004295721137332
 21
-0.0065659627011704
 31
0.0
210
0.0
220
0.0
230
1.0
 40
0.7579804546383058
 41
4.700432602392965
 42
4.820890919181652
  0
LINE
  5
E9
330
2
100
AcDbEntity
  8
AM_VIS
100
AcDbLine
 10
4.604648508215357
 20
2.78924517223711
 30
0.0
 11
4.612383326307051
 21
2.789628804943244
 31
0.0
  0
LINE
  5
EA
330
2
100
AcDbEntity
  8
AM_VIS
100
AcDbLine
 10
4.625100693200917
 20
2.734050317581488
 30
0.0
 11
4.654392805006065
 21
2.735503152281279
 31
0.0
  0
ELLIPSE
  5
EB
330
2
100
AcDbEntity
  8
AM_VIS
100
AcDbEllipse
 10
4.648584664825011
 20
2.907679771758161
 30
0.0
 11
0.004999851363475
 21
0.0003069850565494
 31
0.0
210
0.0
220
0.0
230
0.9999999999999998
 40
0.1255863124628298
 41
6.275474606526588
 42
7.760574806230456
  0
ELLIPSE
  5
EC
330
2
100
AcDbEntity
  8
AM_VIS
100
AcDbEllipse
 10
4.648584664825009
 20
2.820842597794079
 30
0.0
 11
0.0005948019936058
 21
-0.0063942328580818
 31
0.0
210
0.0
220
0.0
230
1.0
 40
0.7764019716690754
 41
6.24963865403304
 42
7.734738853736756
  0
LINE
  5
ED
330
2
100
AcDbEntity
  8
AM_VIS
100
AcDbLine
 10
4.664576891225848
 20
2.879456641174654
 30
0.0
 11
4.66865612010894
 21
2.818394232241728
 31
0.0
  0
LINE
  5
EE
330
2
100
AcDbEntity
  8
AM_VIS
100
AcDbLine
 10
4.668657581100124
 20
2.818350444032406
 30
0.0
 11
4.668657581100124
 21
2.756123905935325
 31
0.0
  0
LINE
  5
EF
330
2
100
AcDbEntity
  8
AM_VIS
100
AcDbLine
 10
4.668648156452558
 20
2.985254445037008
 30
0.0
 11
4.666335943288062
 21
3.000794090059136
 31
0.0
  0
LINE
  5
F0
330
2
100
AcDbEntity
  8
AM_VIS
100
AcDbLine
 10
4.668657581100125
 20
2.985127067624993
 30
0.0
 11
4.668657581100125
 21
2.922900529527911
 31
0.0
  0
LINE
  5
F1
330
2
100
AcDbEntity
  8
AM_VIS
100
AcDbLine
 10
4.666383095397335
 20
2.915272650755508
 30
0.0
 11
4.661869655195629
 21
2.908377262205833
 31
0.0
  0
ARC
  5
F2
330
2
100
AcDbEntity
  8
AM_VIS
100
AcDbCircle
 10
4.64834732645904
 20
2.917149648171846
 30
0.0
 40
0.0161185647623184
100
AcDbArc
 50
288.9610827322719
 51
327.0271793655828
  0
ARC
  5
F3
330
2
100
AcDbEntity
  8
AM_VIS
100
AcDbCircle
 10
4.651093386481131
 20
2.877736738357318
 30
0.0
 40
0.0135927541691143
100
AcDbArc
 50
7.269169368721883
 51
79.43913788902929
  0
LINE
  5
F4
330
2
100
AcDbEntity
  8
AM_VIS
100
AcDbLine
 10
4.611527215374849
 20
2.795382452656288
 30
0.0
 11
4.619778610194346
 21
2.739927467622395
 31
0.0
  0
LINE
  5
F5
330
2
100
AcDbEntity
  8
AM_VIS
100
AcDbLine
 10
4.612538455477197
 20
2.969628183531926
 30
0.0
 11
4.615107351498996
 21
2.906650252464738
 31
0.0
  0
LINE
  5
F6
330
2
100
AcDbEntity
  8
AM_VIS
100
AcDbLine
 10
4.653584664825011
 20
2.820540463463767
 30
0.0
 11
4.653584664825011
 21
2.907981906088474
 31
0.0
  0
LINE
  5
F7
330
2
100
AcDbEntity
  8
AM_VIS
100
AcDbLine
 10
4.753480476177146
 20
2.932689313511596
 30
0.0
 11
4.748718210170052
 21
2.932453113904316
 31
0.0
  0
LINE
  5
F8
330
2
100
AcDbEntity
  8
AM_VIS
100
AcDbLine
 10
4.750610258327032
 20
2.979359525869828
 30
0.0
 11
4.750373544375983
 21
2.979347785294607
 31
0.0
  0
ARC
  5
F9
330
2
100
AcDbEntity
  8
AM_VIS
100
AcDbCircle
 10
4.705467516907706
 20
2.833211655987134
 30
0.0
 40
0.0156042634347205
100
AcDbArc
 50
273.2536682601006
 51
327.7893101657523
  0
LINE
  5
FA
330
2
100
AcDbEntity
  8
AM_VIS
100
AcDbLine
 10
4.668657581100124
 20
2.815762914681069
 30
0.0
 11
4.706353163526237
 21
2.817632546018743
 31
0.0
  0
ELLIPSE
  5
FB
330
2
100
AcDbEntity
  8
AM_VIS
100
AcDbEllipse
 10
4.656711706063433
 20
2.951296045992206
 30
0.0
 11
0.0067350118495431
 21
-0.1357915805108569
 31
0.0
210
0.0
220
0.0
230
1.0
 40
0.0698849842290041
 41
0.5587134349431845
 42
1.316218502126514
  0
ELLIPSE
  5
FC
330
2
100
AcDbEntity
  8
AM_VIS
100
AcDbEllipse
 10
4.656711706063433
 20
2.951296045992206
 30
0.0
 11
0.0034307030868986
 21
-0.0691699739867636
 31
0.0
210
0.0
220
0.0
230
1.0
 40
0.0698849842290041
 41
0.3497302997941621
 42
0.9193764269771783
  0
ELLIPSE
  5
FD
330
2
100
AcDbEntity
  8
AM_VIS
100
AcDbEllipse
 10
4.532510163018612
 20
2.931445680444234
 30
0.0
 11
0.2209808117620167
 21
0.0000000000000001
 31
0.0
210
0.0
220
0.0
230
1.0
 40
0.5773502691896262
 41
5.969843490219387
 42
6.292933075568289
  0
ELLIPSE
  5
FE
330
2
100
AcDbEntity
  8
AM_VIS
100
AcDbEllipse
 10
4.735382448037062
 20
2.955197969641754
 30
0.0
 11
0.0043335196887147
 21
-0.0873725987201233
 31
0.0
210
0.0
220
0.0
230
1.0
 40
0.0698849842290041
 41
0.7607224639127091
 42
1.146442496111858
  0
ELLIPSE
  5
FF
330
2
100
AcDbEntity
  8
AM_VIS
100
AcDbEllipse
 10
4.735382448037062
 20
2.955197969641754
 30
0.0
 11
0.0043335196887147
 21
-0.0873725987201233
 31
0.0
210
0.0
220
0.0
230
1.0
 40
0.0698849842290043
 41
2.331518790707598
 42
2.717238822906736
  0
ELLIPSE
  5
100
330
2
100
AcDbEntity
  8
AM_VIS
100
AcDbEllipse
 10
4.532510163018612
 20
2.958826076789063
 30
0.0
 11
0.2209808117620166
 21
0.0000000000000133
 31
0.0
210
0.0
220
0.0
230
0.9999999999999998
 40
0.5773502691896262
 41
5.969843490219212
 42
6.292933075568115
  0
ELLIPSE
  5
101
330
2
100
AcDbEntity
  8
AM_VIS
100
AcDbEllipse
 10
4.533945271943667
 20
2.935490970609946
 30
0.0
 11
0.2185744612351728
 21
0.0325226699819336
 31
0.0
210
0.0
220
0.0
230
1.0
 40
0.8135003107841928
 41
6.238675349093371
 42
6.561764934442272
  0
ELLIPSE
  5
102
330
2
100
AcDbEntity
  8
AM_VIS
100
AcDbEllipse
 10
4.531075054093554
 20
2.95478078662335
 30
0.0
 11
0.2185744612351728
 21
0.0325226699819336
 31
0.0
210
0.0
220
0.0
230
1.0
 40
0.8135003107841923
 41
6.238675349093371
 42
6.561764934442272
  0
ELLIPSE
  5
103
330
2
100
AcDbEntity
  8
AM_VIS
100
AcDbEllipse
 10
4.531075054093554
 20
2.95478078662335
 30
0.0
 11
0.2185744612351728
 21
0.0325226699819336
 31
0.0
210
0.0
220
0.0
230
1.0
 40
0.8135003107841923
 41
5.763689046339574
 42
5.845276605724897
  0
ARC
  5
104
330
2
100
AcDbEntity
  8
AM_VIS
100
AcDbCircle
 10
4.532510163018612
 20
2.945135878616648
 30
0.0
 40
0.2216159999999996
100
AcDbArc
 50
15.93821041282374
 51
25.54881974802736
  0
ARC
  5
105
330
2
100
AcDbEntity
  8
AM_VIS
100
AcDbCircle
 10
4.532510163018612
 20
2.945135878616648
 30
0.0
 40
0.2216159999999996
100
AcDbArc
 50
327.1413505838842
 51
354.6832533221297
  0
ELLIPSE
  5
106
330
2
100
AcDbEntity
  8
AM_VIS
100
AcDbEllipse
 10
4.652985530542921
 20
2.108045255826181
 30
0.0
 11
-0.0155996147617406
 21
-0.0005343689582262
 31
0.0
210
0.0
220
0.0
230
0.9999999999999996
 40
0.2051625554980002
 41
1.651754679503475
 42
3.148620435865858
  0
ELLIPSE
  5
107
330
2
100
AcDbEntity
  8
AM_VIS
100
AcDbEllipse
 10
4.652985530542921
 20
2.047407498144216
 30
0.0
 11
0.0016475808502846
 21
-0.0216916147062614
 31
0.0
210
0.0
220
0.0
230
0.9999999999999998
 40
0.7151497155930287
 41
6.265359950084548
 42
7.748170141894776
  0
ELLIPSE
  5
108
330
2
100
AcDbEntity
  8
AM_VIS
100
AcDbEllipse
 10
4.652985530542921
 20
2.274230248325938
 30
0.0
 11
-0.0155975216674504
 21
-0.0011847056274595
 31
0.0
210
0.0
220
0.0
230
1.0
 40
0.2347088072860736
 41
3.123767296494736
 42
4.606577488304986
  0
ELLIPSE
  5
109
330
2
100
AcDbEntity
  8
AM_VIS
100
AcDbEllipse
 10
4.652985530542921
 20
2.213592490643974
 30
0.0
 11
-0.0149975793765676
 21
0.0045677795135461
 31
0.0
210
0.0
220
0.0
230
1.0
 40
0.9399144324683263
 41
1.937593652169391
 42
3.420403843979616
  0
LINE
  5
10A
330
2
100
AcDbEntity
  8
AM_VIS
100
AcDbLine
 10
4.648977232674925
 20
2.104624536140388
 30
0.0
 11
4.654356343944226
 21
2.104898495962551
 31
0.0
  0
LINE
  5
10B
330
2
100
AcDbEntity
  8
AM_VIS
100
AcDbLine
 10
4.609131964013438
 20
2.196492310931049
 30
0.0
 11
4.625070071478034
 21
2.197304043737462
 31
0.0
  0
LINE
  5
10C
330
2
100
AcDbEntity
  8
AM_VIS
100
AcDbLine
 10
4.648977232674925
 20
2.198521642947078
 30
0.0
 11
4.654356343944226
 21
2.198795602769242
 31
0.0
  0
ELLIPSE
  5
10D
330
2
100
AcDbEntity
  8
AM_VIS
100
AcDbEllipse
 10
4.624630708208384
 20
2.031164836058874
 30
0.0
 11
0.0005280707853476
 21
-0.0069524406109812
 31
0.0
210
0.0
220
0.0
230
1.0
 40
0.7151497155930288
 41
4.694563623289641
 42
6.265359950084532
  0
LINE
  5
10E
330
2
100
AcDbEntity
  8
AM_VIS
100
AcDbLine
 10
4.63609648995548
 20
2.277065791034963
 30
0.0
 11
4.654356343944226
 21
2.27799577111923
 31
0.0
  0
LINE
  5
10F
330
2
100
AcDbEntity
  8
AM_VIS
100
AcDbLine
 10
4.625070071478033
 20
2.103406936930769
 30
0.0
 11
4.609131964013436
 21
2.102595204124358
 31
0.0
  0
ELLIPSE
  5
110
330
2
100
AcDbEntity
  8
AM_VIS
100
AcDbEllipse
 10
4.608692600743789
 20
2.1958379290832
 30
0.0
 11
-0.0049998437575166
 21
-0.0003151547763423
 31
0.0
210
0.0
220
0.0
230
1.0
 40
0.1254215836985698
 41
4.616497320822871
 42
5.651367642341768
  0
ELLIPSE
  5
111
330
2
100
AcDbEntity
  8
AM_VIS
100
AcDbEllipse
 10
4.608692600743789
 20
2.109000755119117
 30
0.0
 11
0.0006104098035768
 21
-0.006393036390145
 31
0.0
210
0.0
220
0.0
230
1.0
 40
0.7762508781676107
 41
5.213913856157549
 42
6.248784177676617
  0
LINE
  5
112
330
2
100
AcDbEntity
  8
AM_VIS
100
AcDbLine
 10
4.61024067586308
 20
2.102651671166206
 30
0.0
 11
4.611185864892657
 21
2.086308333422338
 31
0.0
  0
ELLIPSE
  5
113
330
2
100
AcDbEntity
  8
AM_VIS
100
AcDbEllipse
 10
4.616166523475343
 20
2.086561999924341
 30
0.0
 11
0.0004409150355454
 21
-0.0065652883052655
 31
0.0
210
0.0
220
0.0
230
0.9999999999999998
 40
0.7578689922833359
 41
4.700132664316834
 42
4.823769513491598
  0
LINE
  5
114
330
2
100
AcDbEntity
  8
AM_VIS
100
AcDbLine
 10
4.604634605027369
 20
2.079386436631304
 30
0.0
 11
4.612146404063396
 21
2.079769014909576
 31
0.0
  0
LINE
  5
115
330
2
100
AcDbEntity
  8
AM_VIS
100
AcDbLine
 10
4.625070071478033
 20
2.02420676858078
 30
0.0
 11
4.654356343944225
 21
2.025698327612563
 31
0.0
  0
ELLIPSE
  5
116
330
2
100
AcDbEntity
  8
AM_VIS
100
AcDbEllipse
 10
4.648537869405277
 20
2.197867261099228
 30
0.0
 11
0.0049998437575166
 21
0.0003151547763423
 31
0.0
210
0.0
220
0.0
230
1.0
 40
0.1254215836985698
 41
6.27527978260244
 42
7.758089974412659
  0
ELLIPSE
  5
117
330
2
100
AcDbEntity
  8
AM_VIS
100
AcDbEllipse
 10
4.648537869405277
 20
2.111030087135147
 30
0.0
 11
0.0006104098035768
 21
-0.006393036390145
 31
0.0
210
0.0
220
0.0
230
0.9999999999999996
 40
0.7762508781676079
 41
6.248784177676705
 42
7.731594369486937
  0
LINE
  5
118
330
2
100
AcDbEntity
  8
AM_VIS
100
AcDbLine
 10
4.664394443623831
 20
2.169682198978168
 30
0.0
 11
4.668583989608911
 21
2.108602103516928
 31
0.0
  0
LINE
  5
119
330
2
100
AcDbEntity
  8
AM_VIS
100
AcDbLine
 10
4.66858553054292
 20
2.10855711965966
 30
0.0
 11
4.66858553054292
 21
2.046288233688962
 31
0.0
  0
LINE
  5
11A
330
2
100
AcDbEntity
  8
AM_VIS
100
AcDbLine
 10
4.668575618000176
 20
2.275480018703229
 30
0.0
 11
4.665720111458721
 21
2.294168996884233
 31
0.0
  0
LINE
  5
11B
330
2
100
AcDbEntity
  8
AM_VIS
100
AcDbLine
 10
4.66858553054292
 20
2.275349512781193
 30
0.0
 11
4.66858553054292
 21
2.213080626810496
 31
0.0
  0
LINE
  5
11C
330
2
100
AcDbEntity
  8
AM_VIS
100
AcDbLine
 10
4.666222375050159
 20
2.205321580653213
 30
0.0
 11
4.661579255800478
 21
2.198406180199241
 31
0.0
  0
ARC
  5
11D
330
2
100
AcDbEntity
  8
AM_VIS
100
AcDbCircle
 10
4.648155817320631
 20
2.207343702063754
 30
0.0
 40
0.0161266238779484
100
AcDbArc
 50
289.4957576733224
 51
326.3437425023663
  0
ARC
  5
11E
330
2
100
AcDbEntity
  8
AM_VIS
100
AcDbCircle
 10
4.65095248932277
 20
2.167958333154158
 30
0.0
 40
0.0135520422376477
100
AcDbArc
 50
7.308017107726173
 51
79.00203065001097
  0
LINE
  5
11F
330
2
100
AcDbEntity
  8
AM_VIS
100
AcDbLine
 10
4.611270733912098
 20
2.085500180331108
 30
0.0
 11
4.619742251710118
 21
2.030055022356918
 31
0.0
  0
LINE
  5
120
330
2
100
AcDbEntity
  8
AM_VIS
100
AcDbLine
 10
4.612103635195571
 20
2.26309240141142
 30
0.0
 11
4.614972548469363
 21
2.196788045337986
 31
0.0
  0
LINE
  5
121
330
2
100
AcDbEntity
  8
AM_VIS
100
AcDbLine
 10
4.653537869405275
 20
2.110719899617425
 30
0.0
 11
4.653537869405275
 21
2.198177448616951
 31
0.0
  0
LINE
  5
122
330
2
100
AcDbEntity
  8
AM_VIS
100
AcDbLine
 10
4.753107691043481
 20
2.223015274010809
 30
0.0
 11
4.748456988191393
 21
2.222778412257537
 31
0.0
  0
LINE
  5
123
330
2
100
AcDbEntity
  8
AM_VIS
100
AcDbLine
 10
4.750160969466599
 20
2.26968164097289
 30
0.0
 11
4.750000495796948
 21
2.269673467998619
 31
0.0
  0
ARC
  5
124
330
2
100
AcDbEntity
  8
AM_VIS
100
AcDbCircle
 10
4.705214735254976
 20
2.123534353087409
 30
0.0
 40
0.0156649467309969
100
AcDbArc
 50
273.3605954998823
 51
327.8987141106899
  0
LINE
  5
125
330
2
100
AcDbEntity
  8
AM_VIS
100
AcDbLine
 10
4.668585530542921
 20
2.105984039142507
 30
0.0
 11
4.706133011798681
 21
2.107896344126091
 31
0.0
  0
ELLIPSE
  5
126
330
2
100
AcDbEntity
  8
AM_VIS
100
AcDbEllipse
 10
4.656319673690054
 20
2.241494052171921
 30
0.0
 11
0.00691544583153
 21
-0.1357825111389578
 31
0.0
210
0.0
220
0.0
230
1.0
 40
0.0717477214907099
 41
0.5587354922938543
 42
1.315399472929573
  0
ELLIPSE
  5
127
330
2
100
AcDbEntity
  8
AM_VIS
100
AcDbEllipse
 10
4.656319673690054
 20
2.241494052171921
 30
0.0
 11
0.003522613158152
 21
-0.0691653541994691
 31
0.0
210
0.0
220
0.0
230
1.0
 40
0.07174772149071
 41
0.3528906956212996
 42
0.9170443516475474
  0
ELLIPSE
  5
128
330
2
100
AcDbEntity
  8
AM_VIS
100
AcDbEllipse
 10
4.532142890038246
 20
2.221479491504847
 30
0.0
 11
0.2209808117620166
 21
0.0000000000000001
 31
0.0
210
0.0
220
0.0
230
0.9999999999999998
 40
0.5773502691896263
 41
5.972133498112871
 42
6.295223083461773
  0
ELLIPSE
  5
129
330
2
100
AcDbEntity
  8
AM_VIS
100
AcDbEllipse
 10
4.734974732768191
 20
2.245499978972568
 30
0.0
 11
0.0044496166208243
 21
-0.0873667631993303
 31
0.0
210
0.0
220
0.0
230
1.0
 40
0.0717477214907099
 41
0.7606283629799654
 42
1.146348395179112
  0
ELLIPSE
  5
12A
330
2
100
AcDbEntity
  8
AM_VIS
100
AcDbEllipse
 10
4.734974732768191
 20
2.245499978972568
 30
0.0
 11
0.0044496166208243
 21
-0.0873667631993303
 31
0.0
210
0.0
220
0.0
230
1.0
 40
0.07174772149071
 41
2.331424689774865
 42
2.717144721974005
  0
ELLIPSE
  5
12B
330
2
100
AcDbEntity
  8
AM_VIS
100
AcDbEllipse
 10
4.532142890038246
 20
2.248859887849678
 30
0.0
 11
0.2209808117620166
 21
0.0000000000000133
 31
0.0
210
0.0
220
0.0
230
0.9999999999999998
 40
0.5773502691896263
 41
5.9721334981127
 42
6.295223083461602
  0
ELLIPSE
  5
12C
330
2
100
AcDbEntity
  8
AM_VIS
100
AcDbEllipse
 10
4.533616250826686
 20
2.225526704368637
 30
0.0
 11
0.2184457066578401
 21
0.0333765248304362
 31
0.0
210
0.0
220
0.0
230
1.0
 40
0.8133381407062854
 41
6.235496816707271
 42
6.558586402056173
  0
ELLIPSE
  5
12D
330
2
100
AcDbEntity
  8
AM_VIS
100
AcDbEllipse
 10
4.530669529249806
 20
2.244812674985888
 30
0.0
 11
0.21844570665784
 21
0.0333765248304362
 31
0.0
210
0.0
220
0.0
230
1.0
 40
0.8133381407062856
 41
6.235496816707271
 42
6.558586402056173
  0
ELLIPSE
  5
12E
330
2
100
AcDbEntity
  8
AM_VIS
100
AcDbEllipse
 10
4.530669529249806
 20
2.244812674985888
 30
0.0
 11
0.21844570665784
 21
0.0333765248304362
 31
0.0
210
0.0
220
0.0
230
1.0
 40
0.8133381407062856
 41
5.760510513953472
 42
5.843873329627771
  0
ARC
  5
12F
330
2
100
AcDbEntity
  8
AM_VIS
100
AcDbCircle
 10
4.532142890038246
 20
2.235169689677261
 30
0.0
 40
0.2216159999999996
100
AcDbArc
 50
16.15917003608748
 51
26.33098752464229
  0
ARC
  5
130
330
2
100
AcDbEntity
  8
AM_VIS
100
AcDbCircle
 10
4.532142890038246
 20
2.235169689677261
 30
0.0
 40
0.2216159999999996
100
AcDbArc
 50
327.2280591883022
 51
354.6832533221297
  0
SPLINE
  5
131
330
2
100
AcDbEntity
  8
AM_VIS
100
AcDbSpline
210
-0.0000000000000004
220
-0.0000000000000003
230
-1.0
 70
     8
 71
     3
 72
    80
 73
    76
 74
     0
 42
0.0000000001
 43
0.0000000001
 40
5.497787143782136
 40
5.497787143782136
 40
5.497787143782136
 40
5.497787143782136
 40
5.592709595324503
 40
5.592709595324503
 40
5.687632046866868
 40
5.687632046866868
 40
5.782554498409233
 40
5.782554498409233
 40
5.883875226787517
 40
5.883875226787517
 40
5.985195955165798
 40
5.985195955165798
 40
6.086516683544081
 40
6.086516683544081
 40
6.168293654089498
 40
6.168293654089498
 40
6.250070624634914
 40
6.250070624634914
 40
6.331847595180328
 40
6.331847595180328
 40
6.413624565725744
 40
6.413624565725744
 40
6.496335246552883
 40
6.496335246552883
 40
6.579045927380023
 40
6.579045927380023
 40
6.661756608207158
 40
6.661756608207158
 40
6.744467289034297
 40
6.744467289034297
 40
6.826740399883218
 40
6.826740399883218
 40
6.909013510732138
 40
6.909013510732138
 40
6.991286621581057
 40
6.991286621581057
 40
7.073559732429977
 40
7.073559732429977
 40
7.155629811919339
 40
7.155629811919339
 40
7.237699891408697
 40
7.237699891408697
 40
7.319769970898057
 40
7.319769970898057
 40
7.401840050387419
 40
7.401840050387419
 40
7.484124251459158
 40
7.484124251459158
 40
7.566408452530898
 40
7.566408452530898
 40
7.648692653602639
 40
7.648692653602639
 40
7.73097685467438
 40
7.73097685467438
 40
7.813693371032922
 40
7.813693371032922
 40
7.896409887391464
 40
7.896409887391464
 40
7.979126403750008
 40
7.979126403750008
 40
8.061842920108547
 40
8.061842920108547
 40
8.143511016565012
 40
8.143511016565012
 40
8.225179113021475
 40
8.225179113021475
 40
8.306847209477936
 40
8.306847209477936
 40
8.388515305934397
 40
8.388515305934397
 40
8.472136803080241
 40
8.472136803080241
 40
8.555758300226086
 40
8.555758300226086
 40
8.63937979737193
 40
8.63937979737193
 40
8.63937979737193
 40
8.63937979737193
 10
3.065873766674676
 20
1.656920106561537
 30
0.0
 10
3.057528501143243
 20
1.652101965260506
 30
0.0
 10
3.048786454563995
 20
1.647972126638773
 30
0.0
 10
3.030670963969511
 20
1.641150020943926
 30
0.0
 10
3.021298471688656
 20
1.638457560053678
 30
0.0
 10
3.002085089887915
 20
1.634516745725117
 30
0.0
 10
2.992244658088393
 20
1.633267748469578
 30
0.0
 10
2.971560232603839
 20
1.632142275405676
 30
0.0000000000000004
 10
2.960693397263875
 20
1.632363362358852
 30
0.0
 10
2.938717648997517
 20
1.634343146385065
 30
0.0
 10
2.927608305863836
 20
1.636101395251249
 30
0.0000000000000004
 10
2.905251603798948
 20
1.641080273364051
 30
0.0
 10
2.894003842979926
 20
1.644300797027615
 30
0.0000000000000004
 10
2.873633803821364
 20
1.651374965421274
 30
0.0
 10
2.864519855985378
 20
1.65498669718546
 30
0.0000000000000004
 10
2.846304532480363
 20
1.663076085645899
 30
0.0
 10
2.837203112081999
 20
1.667553775638724
 30
0.0000000000000004
 10
2.81905726628155
 20
1.677336178326263
 30
0.0
 10
2.810012824309266
 20
1.682640922070895
 30
0.0000000000000004
 10
2.792026106522667
 20
1.694037037283305
 30
0.0
 10
2.783083831456584
 20
1.700128431966368
 30
0.0
 10
2.765246310166038
 20
1.713128928203436
 30
0.0000000000000004
 10
2.756352776630836
 20
1.720046589863021
 30
0.0
 10
2.738765893993695
 20
1.734595707971774
 30
-0.0000000000000004
 10
2.73007256054847
 20
1.742227171423516
 30
0.0000000000000004
 10
2.712934948159359
 20
1.75815333555644
 30
0.0000000000000004
 10
2.704490686563615
 20
1.766448036558057
 30
0.0
 10
2.687899954647106
 20
1.783646661905094
 30
0.0
 10
2.679753501649039
 20
1.792550581421341
 30
0.0000000000000004
 10
2.663848647410261
 20
1.810861682287077
 30
0.0
 10
2.656088436827206
 20
1.820265942047034
 30
0.0
 10
2.640956406491905
 20
1.839560854477636
 30
0.0
 10
2.633584601366176
 20
1.849451495773804
 30
-0.0000000000000004
 10
2.619273950624759
 20
1.86965675714587
 30
-0.0000000000000004
 10
2.612335118052535
 20
1.879971363655107
 30
0.0
 10
2.598932961343238
 20
1.900959711230308
 30
-0.0000000000000004
 10
2.592469648504311
 20
1.91163343704174
 30
0.0
 10
2.580074008404108
 20
1.933246482086668
 30
0.0
 10
2.574140418917991
 20
1.944185064177353
 30
0.0000000000000004
 10
2.562823562406073
 20
1.966285230124018
 30
0.0
 10
2.557440302591082
 20
1.977446796686195
 30
0.0
 10
2.547258380808834
 20
1.999924083949676
 30
0.0
 10
2.542459723716516
 20
2.011239786740234
 30
0.0
 10
2.53347818213585
 20
2.033956031665161
 30
0.0000000000000004
 10
2.529295299825061
 20
2.0453565556699
 30
0.0
 10
2.521563201205435
 20
2.068202967765496
 30
0.0
 10
2.518015666312876
 20
2.079648878525456
 30
0.0
 10
2.511592629822261
 20
2.102487220231895
 30
0.0
 10
2.508717123428854
 20
2.113879634391901
 30
0.0
 10
2.503659896085937
 20
2.136542970785182
 30
0.0
 10
2.501478165946268
 20
2.147813878886159
 30
0.0
 10
2.497827273855063
 20
2.170167809846564
 30
0.0
 10
2.496358097900276
 20
2.18125082350381
 30
0.0
 10
2.494142669574201
 20
2.203222117655017
 30
0.0
 10
2.493400237972136
 20
2.214109067430207
 30
0.0
 10
2.492666027634425
 20
2.235564754963143
 30
0.0
 10
2.492674227120191
 20
2.246133506053517
 30
0.0
 10
2.493453969658709
 20
2.266891566542767
 30
0.0
 10
2.494225493800064
 20
2.277080910326585
 30
0.0
 10
2.496543659363023
 20
2.297020261827634
 30
-0.0000000000000004
 10
2.498090296745653
 20
2.30677033194365
 30
0.0
 10
2.50194535807982
 20
2.32565073411622
 30
0.0
 10
2.504243907570907
 20
2.334787440545126
 30
0.0
 10
2.509617600203906
 20
2.35251407109199
 30
0.0
 10
2.512692834269713
 20
2.361104096912355
 30
0.0
 10
2.51962741870963
 20
2.377672139717433
 30
0.0
 10
2.523486944795779
 20
2.3856502334598
 30
0.0
 10
2.531991206955614
 20
2.400921127619652
 30
0.0
 10
2.536636195732973
 20
2.408213907097875
 30
0.0
 10
2.546819887676662
 20
2.422196935557527
 30
0.0000000000000004
 10
2.552377628022523
 20
2.428868397583658
 30
0.0
 10
2.564268521810094
 20
2.441311144648962
 30
0.0
 10
2.570601786729077
 20
2.447081998242209
 30
0.0
 10
2.58397865249747
 20
2.457631338284324
 30
0.0
 10
2.591022043383943
 20
2.46240933967906
 30
0.0
 10
2.598373766674681
 20
2.466653859099975
 30
0.0000000000000004
  0
LINE
  5
132
330
2
100
AcDbEntity
  8
AM_VIS
100
AcDbLine
 10
3.065873766674676
 20
1.656920106561535
 30
0.0
 11
3.243849596498048
 21
1.759674499819307
 31
0.0
  0
LINE
  5
133
330
2
100
AcDbEntity
  8
AM_VIS
100
AcDbLine
 10
2.598373766674681
 20
2.466653859099976
 30
0.0
 11
2.776349596498055
 21
2.569408252357746
 31
0.0
  0
ELLIPSE
  5
134
330
2
100
AcDbEntity
  8
AM_VIS
100
AcDbEllipse
 10
3.060070210326542
 20
2.193391923433976
 30
0.0
 11
0.2437499999999697
 21
-0.4221873843449198
 31
0.0
210
0.0
220
0.0
230
1.0
 40
0.5773502691896258
 41
3.367832358098405
 42
3.429027057251468
  0
ELLIPSE
  5
135
330
2
100
AcDbEntity
  8
AM_VIS
100
AcDbEllipse
 10
3.060070210326542
 20
2.193391923433976
 30
0.0
 11
0.2437499999999697
 21
-0.4221873843449198
 31
0.0
210
0.0
220
0.0
230
1.0
 40
0.5773502691896258
 41
5.995750903518253
 42
6.056945602671317
  0
LINE
  5
136
330
2
100
AcDbEntity
  8
AM_VIS
100
AcDbLine
 10
7.799856429440818
 20
5.351418167581955
 30
0.0
 11
7.825455405678243
 21
5.351418167581955
 31
0.0
  0
LINE
  5
137
330
2
100
AcDbEntity
  8
AM_VIS
100
AcDbLine
 10
7.799856429440815
 20
6.711418167581953
 30
0.0
 11
7.825455405678242
 21
6.711418167581953
 31
0.0
  0
LINE
  5
138
330
2
100
AcDbEntity
  8
AM_VIS
100
AcDbLine
 10
7.993858081834098
 20
6.711418167581953
 30
0.0
 11
7.825455405678242
 21
6.711418167581953
 31
0.0
  0
LINE
  5
139
330
2
100
AcDbEntity
  8
AM_VIS
100
AcDbLine
 10
7.993858081834098
 20
6.711418167581951
 30
0.0
 11
7.993858081834098
 21
6.313083389995659
 31
0.0
  0
ARC
  5
13A
330
2
100
AcDbEntity
  8
AM_VIS
100
AcDbCircle
 10
8.58744566678173
 20
6.51225077878881
 30
0.0
 40
0.7875892373409129
100
AcDbArc
 50
165.3518615342643
 51
194.648138465736
  0
LINE
  5
13B
330
2
100
AcDbEntity
  8
AM_VIS
100
AcDbLine
 10
7.825455405678243
 20
6.313083390031206
 30
0.0
 11
7.993858081834098
 21
6.313083390031206
 31
0.0
  0
LINE
  5
13C
330
2
100
AcDbEntity
  8
AM_VIS
100
AcDbLine
 10
7.993858081834098
 20
6.313083389995659
 30
0.0
 11
7.993858081834098
 21
5.749752945168251
 31
0.0
  0
ARC
  5
13D
330
2
100
AcDbEntity
  8
AM_VIS
100
AcDbCircle
 10
9.362235416003919
 20
6.03141816758196
 30
0.0
 40
1.562378986563101
100
AcDbArc
 50
169.6139477647463
 51
190.3860522352539
  0
LINE
  5
13E
330
2
100
AcDbEntity
  8
AM_VIS
100
AcDbLine
 10
7.825455405678244
 20
5.749752945193381
 30
0.0
 11
7.993858081834098
 21
5.749752945193381
 31
0.0
  0
LINE
  5
13F
330
2
100
AcDbEntity
  8
AM_VIS
100
AcDbLine
 10
7.993858081834098
 20
5.749752945168252
 30
0.0
 11
7.993858081834098
 21
5.351418167581956
 31
0.0
  0
LINE
  5
140
330
2
100
AcDbEntity
  8
AM_VIS
100
AcDbLine
 10
7.825455405678243
 20
5.351418167581955
 30
0.0
 11
7.993858081834098
 21
5.351418167581955
 31
0.0
  0
ARC
  5
141
330
2
100
AcDbEntity
  8
AM_VIS
100
AcDbCircle
 10
8.587445666781716
 20
5.550585556375101
 30
0.0
 40
0.7875892373408983
100
AcDbArc
 50
165.3518615342636
 51
194.648138465736
  0
LINE
  5
142
330
2
100
AcDbEntity
  8
AM_VIS
100
AcDbLine
 10
7.34585808162078
 20
5.36641816756834
 30
0.0
 11
7.794288719652954
 21
5.36641816756834
 31
0.0
  0
LINE
  5
143
330
2
100
AcDbEntity
  8
AM_VIS
100
AcDbLine
 10
7.34585808162078
 20
6.696418167595575
 30
0.0
 11
7.794288719652954
 21
6.696418167595575
 31
0.0
  0
LINE
  5
144
330
2
100
AcDbEntity
  8
AM_VIS
100
AcDbLine
 10
7.794288719652954
 20
5.36641816756834
 30
0.0
 11
7.794288719652954
 21
6.696418167595575
 31
0.0
  0
LINE
  5
145
330
2
100
AcDbEntity
  8
AM_VIS
100
AcDbLine
 10
7.31385808162078
 20
5.39841816756834
 30
0.0
 11
7.31385808162078
 21
6.664418167595575
 31
0.0
  0
ARC
  5
146
330
2
100
AcDbEntity
  8
AM_VIS
100
AcDbCircle
 10
8.29439461854786
 20
6.519321846614237
 30
0.0
 40
0.530536536927106
100
AcDbArc
 50
158.7720493447394
 51
160.5000474445072
  0
ARC
  5
147
330
2
100
AcDbEntity
  8
AM_VIS
100
AcDbCircle
 10
8.294394618547858
 20
5.543514488549677
 30
0.0
 40
0.530536536927106
100
AcDbArc
 50
199.4999525554927
 51
201.2279506552613
  0
ARC
  5
148
330
2
100
AcDbEntity
  8
AM_VIS
100
AcDbCircle
 10
7.34585808162078
 20
6.664418167595575
 30
0.0
 40
0.032
100
AcDbArc
 50
90.0
 51
180.0
  0
ARC
  5
149
330
2
100
AcDbEntity
  8
AM_VIS
100
AcDbCircle
 10
7.34585808162078
 20
5.39841816756834
 30
0.0
 40
0.032
100
AcDbArc
 50
180.0
 51
270.0
  0
LINE
  5
14A
330
2
100
AcDbEntity
  8
AM_VIS
100
AcDbLine
 10
8.846358081834098
 20
5.232177205581955
 30
0.0
 11
8.306358081834098
 21
5.232177205581955
 31
0.0
  0
LINE
  5
14B
330
2
100
AcDbEntity
  8
AM_VIS
100
AcDbLine
 10
8.846358081834098
 20
6.742127823021951
 30
0.0
 11
8.846358081834098
 21
5.320708512141956
 31
0.0
  0
LINE
  5
14C
330
2
100
AcDbEntity
  8
AM_VIS
100
AcDbLine
 10
8.306358081834101
 20
6.742127823021951
 30
0.0
 11
8.306358081834101
 21
5.320708512141956
 31
0.0
  0
LINE
  5
14D
330
2
100
AcDbEntity
  8
AM_VIS
100
AcDbLine
 10
8.846358081834098
 20
6.830659129581952
 30
0.0
 11
8.306358081834098
 21
6.830659129581952
 31
0.0
  0
LINE
  5
14E
330
2
100
AcDbEntity
  8
AM_VIS
100
AcDbLine
 10
8.243858081834101
 20
6.602732441865384
 30
0.0
 11
8.187858081834104
 21
6.602732441865384
 31
0.0
  0
LINE
  5
14F
330
2
100
AcDbEntity
  8
AM_VIS
100
AcDbLine
 10
8.167855325429266
 20
6.566658193968201
 30
0.0
 11
8.187855576510701
 21
6.602733830810986
 31
0.0
  0
LINE
  5
150
330
2
100
AcDbEntity
  8
AM_VIS
100
AcDbLine
 10
8.147860587157502
 20
6.602733830810985
 30
0.0
 11
8.167860838238937
 21
6.566658193968201
 31
0.0
  0
LINE
  5
151
330
2
100
AcDbEntity
  8
AM_VIS
100
AcDbLine
 10
8.127855325429266
 20
6.566658193968201
 30
0.0
 11
8.147855576510702
 21
6.602733830810985
 31
0.0
  0
LINE
  5
152
330
2
100
AcDbEntity
  8
AM_VIS
100
AcDbLine
 10
8.107860587157503
 20
6.602733830810985
 30
0.0
 11
8.127860838238937
 21
6.566658193968201
 31
0.0
  0
LINE
  5
153
330
2
100
AcDbEntity
  8
AM_VIS
100
AcDbLine
 10
8.087855325429266
 20
6.566658193968201
 30
0.0
 11
8.107855576510701
 21
6.602733830810985
 31
0.0
  0
LINE
  5
154
330
2
100
AcDbEntity
  8
AM_VIS
100
AcDbLine
 10
8.067860587157502
 20
6.602733830810985
 30
0.0
 11
8.087860838238936
 21
6.566658193968201
 31
0.0
  0
LINE
  5
155
330
2
100
AcDbEntity
  8
AM_VIS
100
AcDbLine
 10
8.047855325429262
 20
6.566658193968201
 30
0.0
 11
8.0678555765107
 21
6.602733830810985
 31
0.0
  0
LINE
  5
156
330
2
100
AcDbEntity
  8
AM_VIS
100
AcDbLine
 10
8.027860587157503
 20
6.602733830810985
 30
0.0
 11
8.047860838238937
 21
6.566658193968201
 31
0.0
  0
LINE
  5
157
330
2
100
AcDbEntity
  8
AM_VIS
100
AcDbLine
 10
8.007855325429265
 20
6.566658193968201
 30
0.0
 11
8.027855576510699
 21
6.602733830810985
 31
0.0
  0
LINE
  5
158
330
2
100
AcDbEntity
  8
AM_VIS
100
AcDbLine
 10
7.993859364186552
 20
6.591918140111568
 30
0.0
 11
8.00785945370592
 21
6.566657426147672
 31
0.0
  0
LINE
  5
159
330
2
100
AcDbEntity
  8
AM_VIS
100
AcDbLine
 10
8.167858081834101
 20
5.48691816758196
 30
0.0
 11
8.147858081834101
 21
5.451418167581958
 31
0.0
  0
LINE
  5
15A
330
2
100
AcDbEntity
  8
AM_VIS
100
AcDbLine
 10
8.167858081834102
 20
5.48691816758196
 30
0.0
 11
8.187858081834104
 21
5.451418167581961
 31
0.0
  0
LINE
  5
15B
330
2
100
AcDbEntity
  8
AM_VIS
100
AcDbLine
 10
8.243858081834101
 20
5.45141816758196
 30
0.0
 11
8.187858081834104
 21
5.45141816758196
 31
0.0
  0
LINE
  5
15C
330
2
100
AcDbEntity
  8
AM_VIS
100
AcDbLine
 10
8.007858081834099
 20
5.48691816758196
 30
0.0
 11
7.993858081834098
 21
5.462068167581954
 31
0.0
  0
LINE
  5
15D
330
2
100
AcDbEntity
  8
AM_VIS
100
AcDbLine
 10
8.007858081834102
 20
5.486918167581959
 30
0.0
 11
8.027858081834102
 21
5.451418167581957
 31
0.0
  0
LINE
  5
15E
330
2
100
AcDbEntity
  8
AM_VIS
100
AcDbLine
 10
8.047858081834101
 20
5.486918167581957
 30
0.0
 11
8.027858081834102
 21
5.451418167581957
 31
0.0
  0
LINE
  5
15F
330
2
100
AcDbEntity
  8
AM_VIS
100
AcDbLine
 10
8.047858081834103
 20
5.48691816758196
 30
0.0
 11
8.067858081834103
 21
5.451418167581958
 31
0.0
  0
LINE
  5
160
330
2
100
AcDbEntity
  8
AM_VIS
100
AcDbLine
 10
8.087858081834102
 20
5.486918167581959
 30
0.0
 11
8.067858081834101
 21
5.451418167581957
 31
0.0
  0
LINE
  5
161
330
2
100
AcDbEntity
  8
AM_VIS
100
AcDbLine
 10
8.087858081834102
 20
5.486918167581959
 30
0.0
 11
8.107858081834102
 21
5.451418167581957
 31
0.0
  0
LINE
  5
162
330
2
100
AcDbEntity
  8
AM_VIS
100
AcDbLine
 10
8.127858081834101
 20
5.48691816758196
 30
0.0
 11
8.107858081834098
 21
5.451418167581958
 31
0.0
  0
LINE
  5
163
330
2
100
AcDbEntity
  8
AM_VIS
100
AcDbLine
 10
8.127858081834101
 20
5.486918167581957
 30
0.0
 11
8.147858081834101
 21
5.451418167581957
 31
0.0
  0
LINE
  5
164
330
2
100
AcDbEntity
  8
AM_VIS
100
AcDbLine
 10
8.846358081834098
 20
5.232177205581955
 30
0.0
 11
8.846358081834098
 21
5.320708512141956
 31
0.0
  0
LINE
  5
165
330
2
100
AcDbEntity
  8
AM_VIS
100
AcDbLine
 10
8.306358081834101
 20
5.232177205581955
 30
0.0
 11
8.306358081834101
 21
5.320708512141956
 31
0.0
  0
LINE
  5
166
330
2
100
AcDbEntity
  8
AM_VIS
100
AcDbLine
 10
8.846358081834098
 20
6.742127823021951
 30
0.0
 11
8.846358081834098
 21
6.830659129581952
 31
0.0
  0
LINE
  5
167
330
2
100
AcDbEntity
  8
AM_VIS
100
AcDbLine
 10
8.306358081834101
 20
6.742127823021951
 30
0.0
 11
8.306358081834101
 21
6.830659129581952
 31
0.0
  0
LINE
  5
168
330
2
100
AcDbEntity
  8
AM_VIS
100
AcDbLine
 10
8.167858081834101
 20
6.566656665823629
 30
0.0
 11
8.167858081834101
 21
5.486918167581957
 31
0.0
  0
LINE
  5
169
330
2
100
AcDbEntity
  8
AM_VIS
100
AcDbLine
 10
8.187858081834104
 20
6.602732441865382
 30
0.0
 11
8.187858081834104
 21
5.45141816758196
 31
0.0
  0
LINE
  5
16A
330
2
100
AcDbEntity
  8
AM_VIS
100
AcDbLine
 10
8.007858081834099
 20
6.566656665823629
 30
0.0
 11
8.007858081834099
 21
5.486918167581957
 31
0.0
  0
LINE
  5
16B
330
2
100
AcDbEntity
  8
AM_VIS
100
AcDbLine
 10
8.027858081834098
 20
6.602732441865386
 30
0.0
 11
8.027858081834098
 21
5.451418167581957
 31
0.0
  0
LINE
  5
16C
330
2
100
AcDbEntity
  8
AM_VIS
100
AcDbLine
 10
8.0478580818341
 20
6.566656665823629
 30
0.0
 11
8.0478580818341
 21
5.486918167581957
 31
0.0
  0
LINE
  5
16D
330
2
100
AcDbEntity
  8
AM_VIS
100
AcDbLine
 10
8.067858081834097
 20
6.602732441865386
 30
0.0
 11
8.067858081834097
 21
5.451418167581957
 31
0.0
  0
LINE
  5
16E
330
2
100
AcDbEntity
  8
AM_VIS
100
AcDbLine
 10
8.087858081834102
 20
6.566656665823629
 30
0.0
 11
8.087858081834102
 21
5.486918167581957
 31
0.0
  0
LINE
  5
16F
330
2
100
AcDbEntity
  8
AM_VIS
100
AcDbLine
 10
8.107858081834102
 20
6.602732441865386
 30
0.0
 11
8.107858081834102
 21
5.451418167581957
 31
0.0
  0
LINE
  5
170
330
2
100
AcDbEntity
  8
AM_VIS
100
AcDbLine
 10
8.147858081834101
 20
6.602732441865386
 30
0.0
 11
8.147858081834101
 21
5.451418167581957
 31
0.0
  0
LINE
  5
171
330
2
100
AcDbEntity
  8
AM_VIS
100
AcDbLine
 10
8.127858081834101
 20
6.566656665823629
 30
0.0
 11
8.127858081834101
 21
5.486918167581957
 31
0.0
  0
LINE
  5
172
330
2
100
AcDbEntity
  8
AM_VIS
100
AcDbLine
 10
8.306358081834101
 20
6.781418167581957
 30
0.0
 11
8.243858081834101
 21
6.781418167581957
 31
0.0
  0
LINE
  5
173
330
2
100
AcDbEntity
  8
AM_VIS
100
AcDbLine
 10
8.306358081834101
 20
5.281418167581958
 30
0.0
 11
8.243858081834101
 21
5.281418167581958
 31
0.0
  0
LINE
  5
174
330
2
100
AcDbEntity
  8
AM_VIS
100
AcDbLine
 10
8.243858081834101
 20
6.781418167581957
 30
0.0
 11
8.243858081834101
 21
5.281418167581958
 31
0.0
  0
LINE
  5
175
330
2
100
AcDbEntity
  8
AM_VIS
100
AcDbLine
 10
9.707482252805188
 20
6.666052041284459
 30
0.0
 11
9.707482252805188
 21
6.651786310169866
 31
0.0
  0
LINE
  5
176
330
2
100
AcDbEntity
  8
AM_VIS
100
AcDbLine
 10
9.707482252805188
 20
5.415747216390125
 30
0.0
 11
9.707482252805188
 21
5.396784293879424
 31
0.0
  0
LINE
  5
177
330
2
100
AcDbEntity
  8
AM_VIS
100
AcDbLine
 10
8.363107802805231
 20
6.914198958977151
 30
0.0
 11
8.363107802805231
 21
6.830659129581952
 31
0.0
  0
LINE
  5
178
330
2
100
AcDbEntity
  8
AM_VIS
100
AcDbLine
 10
8.56228780280529
 20
6.94544895897715
 30
0.0
 11
8.394357802805231
 21
6.94544895897715
 31
0.0
  0
LINE
  5
179
330
2
100
AcDbEntity
  8
AM_VIS
100
AcDbLine
 10
8.569287802805286
 20
6.887065458977152
 30
0.0
 11
8.569287802805286
 21
6.938448958977152
 31
0.0
  0
LINE
  5
17A
330
2
100
AcDbEntity
  8
AM_VIS
100
AcDbLine
 10
8.511448622618377
 20
6.880065458977153
 30
0.0
 11
8.562287802805286
 21
6.880065458977153
 31
0.0
  0
LINE
  5
17B
330
2
100
AcDbEntity
  8
AM_VIS
100
AcDbLine
 10
9.057149302805154
 20
6.83479995897732
 30
0.0
 11
8.511448622618377
 21
6.83479995897732
 31
0.0
  0
LINE
  5
17C
330
2
100
AcDbEntity
  8
AM_VIS
100
AcDbLine
 10
8.394407802805227
 20
5.230389458977865
 30
0.0
 11
9.057149302805154
 21
5.230389458977865
 31
0.0
  0
LINE
  5
17D
330
2
100
AcDbEntity
  8
AM_VIS
100
AcDbLine
 10
9.711285610605234
 20
5.379194550374402
 30
0.0
 11
9.711432081834098
 21
5.379194550374402
 31
0.0
  0
LINE
  5
17E
330
2
100
AcDbEntity
  8
AM_VIS
100
AcDbLine
 10
8.908858081834097
 20
6.833623417581526
 30
0.0
 11
9.648932081834098
 21
6.833623417581526
 31
0.0
  0
LINE
  5
17F
330
2
100
AcDbEntity
  8
AM_VIS
100
AcDbLine
 10
8.851149763542883
 20
6.687918167581957
 30
0.0
 11
8.846358081834097
 21
6.687918167581957
 31
0.0
  0
LINE
  5
180
330
2
100
AcDbEntity
  8
AM_VIS
100
AcDbLine
 10
9.711432081834098
 20
6.771123417581526
 30
0.0
 11
9.711432081834098
 21
6.695168167581958
 31
0.0
  0
LINE
  5
181
330
2
100
AcDbEntity
  8
AM_VIS
100
AcDbLine
 10
9.648932081834098
 20
5.233489300374831
 30
0.0
 11
8.908858081834097
 21
5.233489300374831
 31
0.0
  0
LINE
  5
182
330
2
100
AcDbEntity
  8
AM_VIS
100
AcDbLine
 10
8.846358081834097
 20
5.379194550374402
 30
0.0
 11
8.849551851771396
 21
5.379194550374402
 31
0.0
  0
LINE
  5
183
330
2
100
AcDbEntity
  8
AM_VIS
100
AcDbLine
 10
9.711432081834098
 20
5.379194550374402
 30
0.0
 11
9.711432081834098
 21
5.374918167581969
 31
0.0
  0
LINE
  5
184
330
2
100
AcDbEntity
  8
AM_VIS
100
AcDbLine
 10
9.711432081834098
 20
5.367668167581955
 30
0.0
 11
9.711432081834098
 21
5.295989300374831
 31
0.0
  0
LINE
  5
185
330
2
100
AcDbEntity
  8
AM_VIS
100
AcDbLine
 10
9.081358081834098
 20
5.760418167581938
 30
0.0
 11
9.081358081834098
 21
5.698918167581958
 31
0.0
  0
LINE
  5
186
330
2
100
AcDbEntity
  8
AM_VIS
100
AcDbLine
 10
9.074358081834102
 20
5.691918167581957
 30
0.0
 11
8.943358081834098
 21
5.691918167581957
 31
0.0
  0
LINE
  5
187
330
2
100
AcDbEntity
  8
AM_VIS
100
AcDbLine
 10
8.933358081834095
 20
5.681918167581957
 30
0.0
 11
8.933358081834095
 21
5.515918167581957
 31
0.0
  0
LINE
  5
188
330
2
100
AcDbEntity
  8
AM_VIS
100
AcDbLine
 10
8.943358081834098
 20
5.505918167581957
 30
0.0
 11
9.074358081834102
 21
5.505918167581957
 31
0.0
  0
LINE
  5
189
330
2
100
AcDbEntity
  8
AM_VIS
100
AcDbLine
 10
9.081358081834098
 20
5.498918167581957
 30
0.0
 11
9.081358081834098
 21
5.437418167581967
 31
0.0
  0
LINE
  5
18A
330
2
100
AcDbEntity
  8
AM_VIS
100
AcDbLine
 10
9.081358081834098
 20
5.437418167581969
 30
0.0
 11
9.648932081834102
 21
5.437418167581969
 31
0.0
  0
LINE
  5
18B
330
2
100
AcDbEntity
  8
AM_VIS
100
AcDbLine
 10
9.711432081834098
 20
5.374918167581969
 30
0.0
 11
9.711432081834098
 21
5.367668167581955
 31
0.0
  0
LINE
  5
18C
330
2
100
AcDbEntity
  8
AM_VIS
100
AcDbLine
 10
9.680182081834098
 20
5.336418167581955
 30
0.0
 11
8.908858081834097
 21
5.336418167581955
 31
0.0
  0
LINE
  5
18D
330
2
100
AcDbEntity
  8
AM_VIS
100
AcDbLine
 10
8.908858081834097
 20
6.726418167581958
 30
0.0
 11
9.680182081834098
 21
6.726418167581958
 31
0.0
  0
LINE
  5
18E
330
2
100
AcDbEntity
  8
AM_VIS
100
AcDbLine
 10
9.711432081834098
 20
6.695168167581958
 30
0.0
 11
9.711432081834098
 21
6.687918167581909
 31
0.0
  0
LINE
  5
18F
330
2
100
AcDbEntity
  8
AM_VIS
100
AcDbLine
 10
9.648932081834098
 20
6.625418167581909
 30
0.0
 11
9.358447302805151
 21
6.625418167581909
 31
0.0
  0
LINE
  5
190
330
2
100
AcDbEntity
  8
AM_VIS
100
AcDbLine
 10
9.233447302805151
 20
6.625418167581909
 30
0.0
 11
9.081358081834098
 21
6.625418167581909
 31
0.0
  0
LINE
  5
191
330
2
100
AcDbEntity
  8
AM_VIS
100
AcDbLine
 10
9.081358081834098
 20
6.625418167581909
 30
0.0
 11
9.081358081834098
 21
6.563918167581956
 31
0.0
  0
LINE
  5
192
330
2
100
AcDbEntity
  8
AM_VIS
100
AcDbLine
 10
9.074358081834098
 20
6.556918167581957
 30
0.0
 11
8.943358081834094
 21
6.556918167581957
 31
0.0
  0
LINE
  5
193
330
2
100
AcDbEntity
  8
AM_VIS
100
AcDbLine
 10
8.933358081834095
 20
6.546918167581956
 30
0.0
 11
8.933358081834095
 21
6.380918167581954
 31
0.0
  0
LINE
  5
194
330
2
100
AcDbEntity
  8
AM_VIS
100
AcDbLine
 10
8.943358081834094
 20
6.370918167581955
 30
0.0
 11
9.074358081834098
 21
6.370918167581955
 31
0.0
  0
LINE
  5
195
330
2
100
AcDbEntity
  8
AM_VIS
100
AcDbLine
 10
9.081358081834098
 20
6.363918167581956
 30
0.0
 11
9.081358081834098
 21
6.302418167581942
 31
0.0
  0
LINE
  5
196
330
2
100
AcDbEntity
  8
AM_VIS
100
AcDbLine
 10
9.081358081834098
 20
6.302418167581942
 30
0.0
 11
9.6644320818341
 21
6.302418167581942
 31
0.0
  0
LINE
  5
197
330
2
100
AcDbEntity
  8
AM_VIS
100
AcDbLine
 10
9.711432081834098
 20
6.255418167581941
 30
0.0
 11
9.711432081834098
 21
5.807418167581938
 31
0.0
  0
LINE
  5
198
330
2
100
AcDbEntity
  8
AM_VIS
100
AcDbLine
 10
9.233447302805151
 20
5.760418167581938
 30
0.0
 11
9.081358081834098
 21
5.760418167581938
 31
0.0
  0
LINE
  5
199
330
2
100
AcDbEntity
  8
AM_VIS
100
AcDbLine
 10
9.6644320818341
 20
5.760418167581938
 30
0.0
 11
9.358447302805156
 21
5.760418167581938
 31
0.0
  0
LINE
  5
19A
330
2
100
AcDbEntity
  8
AM_VIS
100
AcDbLine
 10
9.23944730280515
 20
6.622779049973113
 30
0.0
 11
9.23944730280515
 21
6.627556358978177
 31
0.0
  0
LINE
  5
19B
330
2
100
AcDbEntity
  8
AM_VIS
100
AcDbLine
 10
9.233447302805151
 20
6.627556358978177
 30
0.0
 11
9.358447302805151
 21
6.627556358978177
 31
0.0
  0
LINE
  5
19C
330
2
100
AcDbEntity
  8
AM_VIS
100
AcDbLine
 10
9.233447302805151
 20
6.625418167581909
 30
0.0
 11
9.233447302805151
 21
6.627556358978177
 31
0.0
  0
LINE
  5
19D
330
2
100
AcDbEntity
  8
AM_VIS
100
AcDbLine
 10
9.23944730280515
 20
5.439556358978181
 30
0.0
 11
9.23944730280515
 21
5.441255777103997
 31
0.0
  0
LINE
  5
19E
330
2
100
AcDbEntity
  8
AM_VIS
100
AcDbLine
 10
9.233447302805151
 20
5.762556358978176
 30
0.0
 11
9.358447302805151
 21
5.762556358978176
 31
0.0
  0
LINE
  5
19F
330
2
100
AcDbEntity
  8
AM_VIS
100
AcDbLine
 10
9.233447302805151
 20
5.760418167581938
 30
0.0
 11
9.233447302805151
 21
5.762556358978176
 31
0.0
  0
LINE
  5
1A0
330
2
100
AcDbEntity
  8
AM_VIS
100
AcDbLine
 10
9.358447302805151
 20
5.762556358978176
 30
0.0
 11
9.358447302805151
 21
5.760418167581938
 31
0.0
  0
LINE
  5
1A1
330
2
100
AcDbEntity
  8
AM_VIS
100
AcDbLine
 10
9.323447302805147
 20
5.439556358978181
 30
0.0
 11
9.323447302805147
 21
5.442755777103999
 31
0.0
  0
LINE
  5
1A2
330
2
100
AcDbEntity
  8
AM_VIS
100
AcDbLine
 10
9.323447302805147
 20
5.751755777103999
 30
0.0
 11
9.323447302805147
 21
5.762556358978176
 31
0.0
  0
LINE
  5
1A3
330
2
100
AcDbEntity
  8
AM_VIS
100
AcDbLine
 10
9.71098430280514
 20
5.430133458977921
 30
0.0
 11
9.71098430280514
 21
5.800945863304214
 31
0.0
  0
LINE
  5
1A4
330
2
100
AcDbEntity
  8
AM_VIS
100
AcDbLine
 10
9.233447302805151
 20
5.439556358978181
 30
0.0
 11
9.233447302805151
 21
5.441255777103997
 31
0.0
  0
LINE
  5
1A5
330
2
100
AcDbEntity
  8
AM_VIS
100
AcDbLine
 10
9.233447302805151
 20
5.753255777103996
 30
0.0
 11
9.233447302805151
 21
5.760418167581938
 31
0.0
  0
LINE
  5
1A6
330
2
100
AcDbEntity
  8
AM_VIS
100
AcDbLine
 10
9.323447302805147
 20
5.439556358978181
 30
0.0
 11
9.233447302805151
 21
5.439556358978181
 31
0.0
  0
LINE
  5
1A7
330
2
100
AcDbEntity
  8
AM_VIS
100
AcDbLine
 10
9.71098430280514
 20
6.261890471859668
 30
0.0
 11
9.71098430280514
 21
6.637400067582076
 31
0.0
  0
LINE
  5
1A8
330
2
100
AcDbEntity
  8
AM_VIS
100
AcDbLine
 10
9.233447302805151
 20
6.304556358978179
 30
0.0
 11
9.233447302805151
 21
6.310779049973114
 31
0.0
  0
LINE
  5
1A9
330
2
100
AcDbEntity
  8
AM_VIS
100
AcDbLine
 10
9.233447302805151
 20
6.622779049973113
 30
0.0
 11
9.233447302805151
 21
6.625418167581909
 31
0.0
  0
LINE
  5
1AA
330
2
100
AcDbEntity
  8
AM_VIS
100
AcDbLine
 10
9.323447302805147
 20
6.304556358978179
 30
0.0
 11
9.233447302805151
 21
6.304556358978179
 31
0.0
  0
LINE
  5
1AB
330
2
100
AcDbEntity
  8
AM_VIS
100
AcDbLine
 10
9.358447302805151
 20
6.627556358978177
 30
0.0
 11
9.358447302805151
 21
6.625418167581909
 31
0.0
  0
LINE
  5
1AC
330
2
100
AcDbEntity
  8
AM_VIS
100
AcDbLine
 10
9.323447302805147
 20
6.627556358978177
 30
0.0
 11
9.323447302805147
 21
6.621279049973116
 31
0.0
  0
LINE
  5
1AD
330
2
100
AcDbEntity
  8
AM_VIS
100
AcDbLine
 10
9.323447302805147
 20
6.312279049973119
 30
0.0
 11
9.323447302805147
 21
6.304556358978179
 31
0.0
  0
ARC
  5
1AE
330
2
100
AcDbEntity
  8
AM_VIS
100
AcDbCircle
 10
8.394357802805231
 20
6.914198958977151
 30
0.0
 40
0.03125
100
AcDbArc
 50
90.0
 51
180.0
  0
ARC
  5
1AF
330
2
100
AcDbEntity
  8
AM_VIS
100
AcDbCircle
 10
8.56228780280529
 20
6.938448958977152
 30
0.0
 40
0.007
100
AcDbArc
 50
0.0
 51
90.0
  0
ARC
  5
1B0
330
2
100
AcDbEntity
  8
AM_VIS
100
AcDbCircle
 10
8.562287802805286
 20
6.887065458977152
 30
0.0
 40
0.007
100
AcDbArc
 50
270.0
 51
0.0
  0
ARC
  5
1B1
330
2
100
AcDbEntity
  8
AM_VIS
100
AcDbCircle
 10
8.511448622618377
 20
6.857432708977237
 30
0.0
 40
0.0226327499999164
100
AcDbArc
 50
89.99999999999944
 51
270.0
  0
ARC
  5
1B2
330
2
100
AcDbEntity
  8
AM_VIS
100
AcDbCircle
 10
9.057149302805154
 20
6.709062458977321
 30
0.0
 40
0.1257374999999996
100
AcDbArc
 50
82.15581091594945
 51
90.00000000000023
  0
ARC
  5
1B3
330
2
100
AcDbEntity
  8
AM_VIS
100
AcDbCircle
 10
9.057149302805154
 20
5.356126958977863
 30
0.0
 40
0.1257374999999997
100
AcDbArc
 50
269.9999999999998
 51
282.7488569675306
  0
ARC
  5
1B4
330
2
100
AcDbEntity
  8
AM_VIS
100
AcDbCircle
 10
8.394407802805227
 20
5.261689458977865
 30
0.0
 40
0.0313
100
AcDbArc
 50
250.5415810237578
 51
269.9999999999992
  0
ARC
  5
1B5
330
2
100
AcDbEntity
  8
AM_VIS
100
AcDbCircle
 10
9.648932081834098
 20
6.771123417581526
 30
0.0
 40
0.0625
100
AcDbArc
 50
0.0
 51
90.0
  0
ARC
  5
1B6
330
2
100
AcDbEntity
  8
AM_VIS
100
AcDbCircle
 10
8.908858081834097
 20
6.771123417581526
 30
0.0
 40
0.0625
100
AcDbArc
 50
90.0
 51
180.0000000000004
  0
ARC
  5
1B7
330
2
100
AcDbEntity
  8
AM_VIS
100
AcDbCircle
 10
9.648932081834098
 20
5.295989300374831
 30
0.0
 40
0.0625
100
AcDbArc
 50
270.0
 51
0.0
  0
ARC
  5
1B8
330
2
100
AcDbEntity
  8
AM_VIS
100
AcDbCircle
 10
8.908858081834097
 20
5.295989300374831
 30
0.0
 40
0.0625
100
AcDbArc
 50
179.9999999999996
 51
270.0
  0
ARC
  5
1B9
330
2
100
AcDbEntity
  8
AM_VIS
100
AcDbCircle
 10
8.852910302805046
 20
6.678297417581848
 30
0.0
 40
0.007
100
AcDbArc
 50
115.6320509249826
 51
159.3954459474169
  0
ARC
  5
1BA
330
2
100
AcDbEntity
  8
AM_VIS
100
AcDbCircle
 10
8.852910302805046
 20
5.389236108978151
 30
0.0
 40
0.007
100
AcDbArc
 50
200.604554052579
 51
226.9962403687993
  0
ARC
  5
1BB
330
2
100
AcDbEntity
  8
AM_VIS
100
AcDbCircle
 10
9.074358081834102
 20
5.698918167581958
 30
0.0
 40
0.007
100
AcDbArc
 50
270.0
 51
0.0
  0
ARC
  5
1BC
330
2
100
AcDbEntity
  8
AM_VIS
100
AcDbCircle
 10
8.943358081834098
 20
5.681918167581957
 30
0.0
 40
0.01
100
AcDbArc
 50
90.0
 51
180.0
  0
ARC
  5
1BD
330
2
100
AcDbEntity
  8
AM_VIS
100
AcDbCircle
 10
8.943358081834098
 20
5.515918167581957
 30
0.0
 40
0.01
100
AcDbArc
 50
180.0
 51
270.0
  0
ARC
  5
1BE
330
2
100
AcDbEntity
  8
AM_VIS
100
AcDbCircle
 10
9.074358081834102
 20
5.498918167581957
 30
0.0
 40
0.007
100
AcDbArc
 50
0.0
 51
90.0
  0
ARC
  5
1BF
330
2
100
AcDbEntity
  8
AM_VIS
100
AcDbCircle
 10
9.648932081834098
 20
5.374918167581969
 30
0.0
 40
0.0625
100
AcDbArc
 50
0.0
 51
90.0
  0
ARC
  5
1C0
330
2
100
AcDbEntity
  8
AM_VIS
100
AcDbCircle
 10
9.680182081834098
 20
5.367668167581955
 30
0.0
 40
0.03125
100
AcDbArc
 50
270.0
 51
0.0
  0
ARC
  5
1C1
330
2
100
AcDbEntity
  8
AM_VIS
100
AcDbCircle
 10
8.908858081834097
 20
5.398918167581955
 30
0.0
 40
0.0625
100
AcDbArc
 50
179.9999999999996
 51
270.0
  0
ARC
  5
1C2
330
2
100
AcDbEntity
  8
AM_VIS
100
AcDbCircle
 10
8.908858081834097
 20
6.663918167581958
 30
0.0
 40
0.0625
100
AcDbArc
 50
90.0
 51
180.0000000000049
  0
ARC
  5
1C3
330
2
100
AcDbEntity
  8
AM_VIS
100
AcDbCircle
 10
9.680182081834098
 20
6.695168167581958
 30
0.0
 40
0.03125
100
AcDbArc
 50
0.0
 51
90.0
  0
ARC
  5
1C4
330
2
100
AcDbEntity
  8
AM_VIS
100
AcDbCircle
 10
9.648932081834098
 20
6.687918167581909
 30
0.0
 40
0.0625
100
AcDbArc
 50
270.0
 51
0.0
  0
ARC
  5
1C5
330
2
100
AcDbEntity
  8
AM_VIS
100
AcDbCircle
 10
9.074358081834102
 20
6.563918167581957
 30
0.0
 40
0.007
100
AcDbArc
 50
270.0
 51
0.0
  0
ARC
  5
1C6
330
2
100
AcDbEntity
  8
AM_VIS
100
AcDbCircle
 10
8.943358081834094
 20
6.546918167581956
 30
0.0
 40
0.01
100
AcDbArc
 50
90.0
 51
180.0
  0
ARC
  5
1C7
330
2
100
AcDbEntity
  8
AM_VIS
100
AcDbCircle
 10
8.943358081834094
 20
6.380918167581956
 30
0.0
 40
0.01
100
AcDbArc
 50
180.0
 51
270.0
  0
ARC
  5
1C8
330
2
100
AcDbEntity
  8
AM_VIS
100
AcDbCircle
 10
9.074358081834102
 20
6.363918167581956
 30
0.0
 40
0.007
100
AcDbArc
 50
0.0
 51
90.0
  0
ARC
  5
1C9
330
2
100
AcDbEntity
  8
AM_VIS
100
AcDbCircle
 10
9.6644320818341
 20
6.255418167581941
 30
0.0
 40
0.047
100
AcDbArc
 50
0.0
 51
90.0
  0
ARC
  5
1CA
330
2
100
AcDbEntity
  8
AM_VIS
100
AcDbCircle
 10
9.6644320818341
 20
5.807418167581938
 30
0.0
 40
0.047
100
AcDbArc
 50
270.0
 51
0.0
  0
ARC
  5
1CB
330
2
100
AcDbEntity
  8
AM_VIS
100
AcDbCircle
 10
9.679684302805142
 20
5.430133458977921
 30
0.0
 40
0.0313
100
AcDbArc
 50
315.2255359362075
 51
0.0
  0
ARC
  5
1CC
330
2
100
AcDbEntity
  8
AM_VIS
100
AcDbCircle
 10
9.67968430280514
 20
6.637400067582076
 30
0.0
 40
0.0313
100
AcDbArc
 50
0.0
 51
40.20589170730527
  0
LINE
  5
1CD
330
2
100
AcDbEntity
  8
AM_VIS
100
AcDbLine
 10
9.264606464483652
 20
6.622779049973113
 30
0.0
 11
9.134566754219273
 21
6.622779049973113
 31
0.0
  0
LINE
  5
1CE
330
2
100
AcDbEntity
  8
AM_VIS
100
AcDbLine
 10
9.134566754219273
 20
6.622779049973113
 30
0.0
 11
9.081358081834098
 21
6.622779049973113
 31
0.0
  0
LINE
  5
1CF
330
2
100
AcDbEntity
  8
AM_VIS
100
AcDbLine
 10
9.134566754219273
 20
6.622779049973113
 30
0.0
 11
9.134566754219273
 21
6.310779049973114
 31
0.0
  0
LINE
  5
1D0
330
2
100
AcDbEntity
  8
AM_VIS
100
AcDbLine
 10
9.081014366742504
 20
6.561751633202312
 30
0.0
 11
9.081014366742504
 21
6.366084701961597
 31
0.0
  0
LINE
  5
1D1
330
2
100
AcDbEntity
  8
AM_VIS
100
AcDbLine
 10
9.081358081834098
 20
6.310779049973114
 30
0.0
 11
9.134566754219273
 21
6.310779049973114
 31
0.0
  0
LINE
  5
1D2
330
2
100
AcDbEntity
  8
AM_VIS
100
AcDbLine
 10
9.134566754219273
 20
6.310779049973114
 30
0.0
 11
9.264606464483652
 21
6.310779049973114
 31
0.0
  0
LINE
  5
1D3
330
2
100
AcDbEntity
  8
AM_VIS
100
AcDbLine
 10
9.241233028593605
 20
6.310779049973114
 30
0.0
 11
9.241233028593605
 21
6.304556358978179
 31
0.0
  0
LINE
  5
1D4
330
2
100
AcDbEntity
  8
AM_VIS
100
AcDbLine
 10
9.308305586381225
 20
6.310779049973114
 30
0.0
 11
9.308305586381225
 21
6.304556358978182
 31
0.0
  0
LINE
  5
1D5
330
2
100
AcDbEntity
  8
AM_VIS
100
AcDbLine
 10
9.31776749781766
 20
6.622779049973113
 30
0.0
 11
9.31776749781766
 21
6.621279049973116
 31
0.0
  0
LINE
  5
1D6
330
2
100
AcDbEntity
  8
AM_VIS
100
AcDbLine
 10
9.31776749781766
 20
6.312279049973119
 30
0.0
 11
9.31776749781766
 21
6.310779049973114
 31
0.0
  0
LINE
  5
1D7
330
2
100
AcDbEntity
  8
AM_VIS
100
AcDbLine
 10
9.264606464483655
 20
6.622779049973113
 30
0.0
 11
9.31776749781766
 21
6.622779049973113
 31
0.0
  0
LINE
  5
1D8
330
2
100
AcDbEntity
  8
AM_VIS
100
AcDbLine
 10
9.31776749781766
 20
6.310779049973114
 30
0.0
 11
9.264606464483652
 21
6.310779049973114
 31
0.0
  0
LINE
  5
1D9
330
2
100
AcDbEntity
  8
AM_VIS
100
AcDbLine
 10
9.081358081834098
 20
5.441255777103997
 30
0.0
 11
9.134669845626033
 21
5.441255777103997
 31
0.0
  0
LINE
  5
1DA
330
2
100
AcDbEntity
  8
AM_VIS
100
AcDbLine
 10
9.134669845626033
 20
5.441255777103997
 30
0.0
 11
9.264355450273763
 21
5.441255777103997
 31
0.0
  0
LINE
  5
1DB
330
2
100
AcDbEntity
  8
AM_VIS
100
AcDbLine
 10
9.134669845626033
 20
5.753255777103997
 30
0.0
 11
9.134669845626033
 21
5.441255777103997
 31
0.0
  0
LINE
  5
1DC
330
2
100
AcDbEntity
  8
AM_VIS
100
AcDbLine
 10
9.240546020840287
 20
5.753255777103996
 30
0.0
 11
9.240546020840287
 21
5.762556358978176
 31
0.0
  0
LINE
  5
1DD
330
2
100
AcDbEntity
  8
AM_VIS
100
AcDbLine
 10
9.307572529877411
 20
5.753255777103996
 30
0.0
 11
9.307572529877411
 21
5.762556358978176
 31
0.0
  0
LINE
  5
1DE
330
2
100
AcDbEntity
  8
AM_VIS
100
AcDbLine
 10
9.264355450273756
 20
5.753255777103996
 30
0.0
 11
9.134669845626033
 21
5.753255777103996
 31
0.0
  0
LINE
  5
1DF
330
2
100
AcDbEntity
  8
AM_VIS
100
AcDbLine
 10
9.134669845626033
 20
5.753255777103997
 30
0.0
 11
9.081358081834098
 21
5.753255777103997
 31
0.0
  0
LINE
  5
1E0
330
2
100
AcDbEntity
  8
AM_VIS
100
AcDbLine
 10
9.081014366742518
 20
5.696751633202363
 30
0.0
 11
9.081014366742518
 21
5.501084701961554
 31
0.0
  0
LINE
  5
1E1
330
2
100
AcDbEntity
  8
AM_VIS
100
AcDbLine
 10
9.317183277453839
 20
5.753255777103997
 30
0.0
 11
9.317183277453839
 21
5.751755777103999
 31
0.0
  0
LINE
  5
1E2
330
2
100
AcDbEntity
  8
AM_VIS
100
AcDbLine
 10
9.317183277453839
 20
5.442755777103999
 30
0.0
 11
9.317183277453839
 21
5.441255777103997
 31
0.0
  0
LINE
  5
1E3
330
2
100
AcDbEntity
  8
AM_VIS
100
AcDbLine
 10
9.264355450273756
 20
5.753255777103996
 30
0.0
 11
9.317183277453818
 21
5.753255777103996
 31
0.0
  0
LINE
  5
1E4
330
2
100
AcDbEntity
  8
AM_VIS
100
AcDbLine
 10
9.317183277453839
 20
5.441255777103997
 30
0.0
 11
9.264355450273763
 21
5.441255777103997
 31
0.0
  0
ELLIPSE
  5
1E5
330
2
100
AcDbEntity
  8
AM_VIS
100
AcDbEllipse
 10
9.186712657211137
 20
6.402144832706791
 30
0.0
 11
-0.0155136462729713
 21
0.0051424111480067
 31
0.0
210
0.0
220
0.0
230
0.9999999999999998
 40
0.3187492720719353
 41
3.946562062103683
 42
5.517358388898579
  0
ELLIPSE
  5
1E6
330
2
100
AcDbEntity
  8
AM_VIS
100
AcDbEllipse
 10
9.186712657211137
 20
6.327879049973117
 30
0.0
 11
0.0141435736083704
 21
0.0141435736083718
 31
0.0
210
0.0
220
0.0
230
1.0
 40
0.4653521109584707
 41
3.577139798833684
 42
5.14793612562858
  0
ELLIPSE
  5
1E7
330
2
100
AcDbEntity
  8
AM_VIS
100
AcDbEllipse
 10
9.36561301349484
 20
6.327879049973117
 30
0.0
 11
-0.0141435736083704
 21
0.0141435736083717
 31
0.0
210
0.0
220
0.0
230
0.9999999999999998
 40
0.4653521109584708
 41
2.7060455083459
 42
4.2768418351408
  0
ELLIPSE
  5
1E8
330
2
100
AcDbEntity
  8
AM_VIS
100
AcDbEllipse
 10
9.36561301349484
 20
6.605679049973119
 30
0.0
 11
-0.0141435736083704
 21
-0.0141435736083718
 31
0.0
210
0.0
220
0.0
230
1.0
 40
0.4653521109584707
 41
2.006343472038784
 42
3.577139798833681
  0
ELLIPSE
  5
1E9
330
2
100
AcDbEntity
  8
AM_VIS
100
AcDbEllipse
 10
9.234539061065499
 20
6.605679049973119
 30
0.0
 11
0.0085614770075675
 21
0.0145666100681822
 31
0.0
210
0.0
220
0.0
230
1.0
 40
0.6521487604142414
 41
5.078414935499687
 42
6.649211262294534
  0
ELLIPSE
  5
1EA
330
2
100
AcDbEntity
  8
AM_VIS
100
AcDbEllipse
 10
9.186712657211137
 20
6.605679049973119
 30
0.0
 11
-0.0141435736083711
 21
0.0141435736083711
 31
0.0
210
0.0
220
0.0
230
1.0
 40
0.4653521109584707
 41
4.276841835140398
 42
5.847638161935292
  0
LINE
  5
1EB
330
2
100
AcDbEntity
  8
AM_VIS
100
AcDbLine
 10
9.310102066837568
 20
6.317279049973119
 30
0.0
 11
9.302561709327141
 21
6.33082054997312
 31
0.0
  0
ELLIPSE
  5
1EC
330
2
100
AcDbEntity
  8
AM_VIS
100
AcDbEllipse
 10
9.317786609640476
 20
6.327879049973117
 30
0.0
 11
-0.0085614770075675
 21
-0.0145666100681822
 31
0.0
210
0.0
220
0.0
230
1.0
 40
0.652148760414241
 41
0.3660259551149523
 42
1.936822281909933
  0
ELLIPSE
  5
1ED
330
2
100
AcDbEntity
  8
AM_VIS
100
AcDbEllipse
 10
9.317786609640476
 20
6.605679049973117
 30
0.0
 11
-0.0085614770075674
 21
0.0145666100681822
 31
0.0
210
0.0
220
0.0
230
1.0
 40
0.6521487604142428
 41
4.346363025269798
 42
5.917159352064643
  0
ELLIPSE
  5
1EE
330
2
100
AcDbEntity
  8
AM_VIS
100
AcDbEllipse
 10
9.186712657211137
 20
6.531413267239446
 30
0.0
 11
-0.0155136462729712
 21
-0.0051424111480067
 31
0.0
210
0.0
220
0.0
230
1.0
 40
0.3187492720719342
 41
0.7658269182810077
 42
2.336623245075903
  0
ELLIPSE
  5
1EF
330
2
100
AcDbEntity
  8
AM_VIS
100
AcDbEllipse
 10
9.234539061065499
 20
6.327879049973117
 30
0.0
 11
0.0085614770075674
 21
-0.0145666100681822
 31
0.0
210
0.0
220
0.0
230
0.9999999999999998
 40
0.6521487604142428
 41
5.917159352064641
 42
7.487955678859536
  0
ELLIPSE
  5
1F0
330
2
100
AcDbEntity
  8
AM_VIS
100
AcDbEllipse
 10
9.157394362978426
 20
6.616279049973116
 30
0.0
 11
0.0045331966693495
 21
-0.0045331966693499
 31
0.0
210
0.0
220
0.0
230
1.0
 40
0.4653521109584707
 41
2.706045508345852
 42
3.57713979883443
  0
LINE
  5
1F1
330
2
100
AcDbEntity
  8
AM_VIS
100
AcDbLine
 10
9.172535232724689
 20
6.409279049973116
 30
0.0
 11
9.17666641690147
 21
6.409279049973116
 31
0.0
  0
LINE
  5
1F2
330
2
100
AcDbEntity
  8
AM_VIS
100
AcDbLine
 10
9.141933868452248
 20
6.524279049973121
 30
0.0
 11
9.154174414161223
 21
6.524279049973121
 31
0.0
  0
LINE
  5
1F3
330
2
100
AcDbEntity
  8
AM_VIS
100
AcDbLine
 10
9.172535232724689
 20
6.524279049973119
 30
0.0
 11
9.17666641690147
 21
6.524279049973119
 31
0.0
  0
ELLIPSE
  5
1F4
330
2
100
AcDbEntity
  8
AM_VIS
100
AcDbEllipse
 10
9.157394362978426
 20
6.317279049973117
 30
0.0
 11
0.0045331966693495
 21
0.0045331966693499
 31
0.0
210
0.0
220
0.0
230
1.0
 40
0.465352110958471
 41
2.706045508345185
 42
3.577139798833728
  0
LINE
  5
1F5
330
2
100
AcDbEntity
  8
AM_VIS
100
AcDbLine
 10
9.239133423955172
 20
6.621279049973116
 30
0.0
 11
9.17666641690147
 21
6.621279049973116
 31
0.0
  0
LINE
  5
1F6
330
2
100
AcDbEntity
  8
AM_VIS
100
AcDbLine
 10
9.154174414161223
 20
6.621279049973116
 30
0.0
 11
9.176666416901467
 21
6.621279049973116
 31
0.0
  0
LINE
  5
1F7
330
2
100
AcDbEntity
  8
AM_VIS
100
AcDbLine
 10
9.375659253804506
 20
6.621279049973116
 30
0.0
 11
9.313192246750803
 21
6.621279049973116
 31
0.0
  0
LINE
  5
1F8
330
2
100
AcDbEntity
  8
AM_VIS
100
AcDbLine
 10
9.313192246750803
 20
6.621279049973116
 30
0.0
 11
9.309061062574022
 21
6.621279049973116
 31
0.0
  0
LINE
  5
1F9
330
2
100
AcDbEntity
  8
AM_VIS
100
AcDbLine
 10
9.154174414161223
 20
6.409279049973116
 30
0.0
 11
9.141933868452248
 21
6.409279049973116
 31
0.0
  0
ELLIPSE
  5
1FA
330
2
100
AcDbEntity
  8
AM_VIS
100
AcDbEllipse
 10
9.145153817269447
 20
6.519955741702442
 30
0.0
 11
-0.0046958291354122
 21
0.0037507936827777
 31
0.0
210
0.0
220
0.0
230
1.0
 40
0.4578551536559295
 41
5.762693864178273
 42
6.633788154666928
  0
ELLIPSE
  5
1FB
330
2
100
AcDbEntity
  8
AM_VIS
100
AcDbEllipse
 10
9.145153817269447
 20
6.413602358243794
 30
0.0
 11
0.004695829135412
 21
0.0037507936827779
 31
0.0
210
0.0
220
0.0
230
1.0
 40
0.457855153655928
 41
2.790989806102135
 42
3.662084096590744
  0
LINE
  5
1FC
330
2
100
AcDbEntity
  8
AM_VIS
100
AcDbLine
 10
9.313192246750803
 20
6.312279049973119
 30
0.0
 11
9.375659253804506
 21
6.312279049973119
 31
0.0
  0
LINE
  5
1FD
330
2
100
AcDbEntity
  8
AM_VIS
100
AcDbLine
 10
9.154174414161223
 20
6.312279049973119
 30
0.0
 11
9.176666416901467
 21
6.312279049973119
 31
0.0
  0
LINE
  5
1FE
330
2
100
AcDbEntity
  8
AM_VIS
100
AcDbLine
 10
9.176666416901467
 20
6.312279049973119
 30
0.0
 11
9.239133423955172
 21
6.312279049973119
 31
0.0
  0
LINE
  5
1FF
330
2
100
AcDbEntity
  8
AM_VIS
100
AcDbLine
 10
9.309061062574022
 20
6.312279049973119
 30
0.0
 11
9.313192246750803
 21
6.312279049973119
 31
0.0
  0
ELLIPSE
  5
200
330
2
100
AcDbEntity
  8
AM_VIS
100
AcDbEllipse
 10
9.306276896303511
 20
6.317279049973119
 30
0.0
 11
-0.0041321275867805
 21
0.0045386612870325
 31
0.0
210
0.0
220
0.0
230
1.0
 40
0.5076681773102317
 41
2.708643201675787
 42
4.279439528470684
  0
LINE
  5
201
330
2
100
AcDbEntity
  8
AM_VIS
100
AcDbLine
 10
9.239133423955172
 20
6.312279049973119
 30
0.0
 11
9.309061062574027
 21
6.312279049973119
 31
0.0
  0
LINE
  5
202
330
2
100
AcDbEntity
  8
AM_VIS
100
AcDbLine
 10
9.302561709327141
 20
6.60273754997312
 30
0.0
 11
9.310102066837568
 21
6.616279049973119
 31
0.0
  0
LINE
  5
203
330
2
100
AcDbEntity
  8
AM_VIS
100
AcDbLine
 10
9.309061062574022
 20
6.621279049973116
 30
0.0
 11
9.239133423955172
 21
6.621279049973116
 31
0.0
  0
ELLIPSE
  5
204
330
2
100
AcDbEntity
  8
AM_VIS
100
AcDbEllipse
 10
9.306276896303511
 20
6.616279049973119
 30
0.0
 11
0.0041321275867808
 21
0.0045386612870323
 31
0.0
210
0.0
220
0.0
230
1.0
 40
0.5076681773102267
 41
5.145338432299042
 42
6.716134759093939
  0
LINE
  5
205
330
2
100
AcDbEntity
  8
AM_VIS
100
AcDbLine
 10
9.179580352075944
 20
6.519955741702442
 30
0.0
 11
9.201836202494385
 21
6.490073620076476
 31
0.0
  0
LINE
  5
206
330
2
100
AcDbEntity
  8
AM_VIS
100
AcDbLine
 10
9.201836202494385
 20
6.443484479869761
 30
0.0
 11
9.179580352075943
 21
6.413602358243794
 31
0.0
  0
ELLIPSE
  5
207
330
2
100
AcDbEntity
  8
AM_VIS
100
AcDbEllipse
 10
9.175755181541891
 20
6.519955741702442
 30
0.0
 11
0.004695829135412
 21
-0.003750793682778
 31
0.0
210
0.0
220
0.0
230
0.9999999999999998
 40
0.4578551536559298
 41
1.050304883794062
 42
2.621101210588959
  0
ELLIPSE
  5
208
330
2
100
AcDbEntity
  8
AM_VIS
100
AcDbEllipse
 10
9.175755181541891
 20
6.413602358243794
 30
0.0
 11
-0.0046958291354122
 21
-0.0037507936827777
 31
0.0
210
0.0
220
0.0
230
1.0
 40
0.4578551536559289
 41
0.5204914430012189
 42
2.091287769796114
  0
LINE
  5
209
330
2
100
AcDbEntity
  8
AM_VIS
100
AcDbLine
 10
9.381213013494839
 20
6.362833751891439
 30
0.0
 11
9.381213013494839
 21
6.317832809663451
 31
0.0
  0
LINE
  5
20A
330
2
100
AcDbEntity
  8
AM_VIS
100
AcDbLine
 10
9.381213013494839
 20
6.615725290282787
 30
0.0
 11
9.381213013494839
 21
6.570724348054801
 31
0.0
  0
LINE
  5
20B
330
2
100
AcDbEntity
  8
AM_VIS
100
AcDbLine
 10
9.258491697881368
 20
6.59472929171704
 30
0.0
 11
9.245933377301076
 21
6.617282399829331
 31
0.0
  0
LINE
  5
20C
330
2
100
AcDbEntity
  8
AM_VIS
100
AcDbLine
 10
9.245933377301076
 20
6.316275700116904
 30
0.0
 11
9.258491697881373
 21
6.338828808229197
 31
0.0
  0
LINE
  5
20D
330
2
100
AcDbEntity
  8
AM_VIS
100
AcDbLine
 10
9.152394362978427
 20
6.619498998790318
 30
0.0
 11
9.152394362978427
 21
6.524279049973121
 31
0.0
  0
LINE
  5
20E
330
2
100
AcDbEntity
  8
AM_VIS
100
AcDbLine
 10
9.152394362978427
 20
6.409279049973116
 30
0.0
 11
9.152394362978427
 21
6.314059101155917
 31
0.0
  0
LINE
  5
20F
330
2
100
AcDbEntity
  8
AM_VIS
100
AcDbLine
 10
9.14015381726945
 20
6.522739907972956
 30
0.0
 11
9.14015381726945
 21
6.410818191973282
 31
0.0
  0
LINE
  5
210
330
2
100
AcDbEntity
  8
AM_VIS
100
AcDbLine
 10
9.372097273521948
 20
6.48354604997312
 30
0.0
 11
9.359302619891716
 21
6.48354604997312
 31
0.0
  0
LINE
  5
211
330
2
100
AcDbEntity
  8
AM_VIS
100
AcDbLine
 10
9.359302619891716
 20
6.48354604997312
 30
0.0
 11
9.359302619891716
 21
6.552637177782897
 31
0.0
  0
LINE
  5
212
330
2
100
AcDbEntity
  8
AM_VIS
100
AcDbLine
 10
9.359302619891716
 20
6.380920922163341
 30
0.0
 11
9.359302619891716
 21
6.45001204997312
 31
0.0
  0
LINE
  5
213
330
2
100
AcDbEntity
  8
AM_VIS
100
AcDbLine
 10
9.359302619891716
 20
6.45001204997312
 30
0.0
 11
9.372097273521948
 21
6.45001204997312
 31
0.0
  0
LINE
  5
214
330
2
100
AcDbEntity
  8
AM_VIS
100
AcDbLine
 10
9.027172913552533
 20
6.437814897397132
 30
0.0
 11
9.030650729947039
 21
6.429393673276631
 31
0.0
  0
LINE
  5
215
330
2
100
AcDbEntity
  8
AM_VIS
100
AcDbLine
 10
9.027172913552533
 20
6.49574320254911
 30
0.0
 11
9.030650729947039
 21
6.504164426669611
 31
0.0
  0
SPLINE
  5
216
330
2
100
AcDbEntity
  8
AM_VIS
100
AcDbSpline
210
0.0
220
0.0
230
1.0
 70
     8
 71
     3
 72
    46
 73
    42
 74
     0
 42
0.0000000001
 43
0.0000000001
 40
0.0000000000000061
 40
0.0000000000000061
 40
0.0000000000000061
 40
0.0000000000000061
 40
0.1400916179127833
 40
0.1400916179127833
 40
0.2801832358255606
 40
0.2801832358255606
 40
0.4285149383425503
 40
0.4285149383425503
 40
0.5768466408595399
 40
0.5768466408595399
 40
0.7387954585404887
 40
0.7387954585404887
 40
0.9007442762214374
 40
0.9007442762214374
 40
1.068011298572498
 40
1.068011298572498
 40
1.23527832092356
 40
1.23527832092356
 40
1.402547298892664
 40
1.402547298892664
 40
1.569816276861768
 40
1.569816276861768
 40
1.736721316897142
 40
1.736721316897142
 40
1.903626356932515
 40
1.903626356932515
 40
2.070890624147887
 40
2.070890624147887
 40
2.23815489136326
 40
2.23815489136326
 40
2.405433270354054
 40
2.405433270354054
 40
2.572711649344848
 40
2.572711649344848
 40
2.734394770212198
 40
2.734394770212198
 40
2.896077891079549
 40
2.896077891079549
 40
3.018835272334671
 40
3.018835272334671
 40
3.141592653589794
 40
3.141592653589794
 40
3.141592653589794
 40
3.141592653589794
 10
9.321043161793069
 20
6.33082054997312
 30
0.0
 10
9.325750549427052
 20
6.33082054997312
 30
0.0
 10
9.330457059561595
 20
6.33133558758838
 30
0.0
 10
9.339696062824767
 20
6.333358664973842
 30
0.0
 10
9.344227616422363
 20
6.334865478078522
 30
0.0
 10
9.353243290091088
 20
6.338893934426969
 30
0.0
 10
9.357709066630064
 20
6.341468799478128
 30
0.0
 10
9.366208174542661
 20
6.347497782722866
 30
0.0
 10
9.37024246672272
 20
6.350951471690786
 30
0.0
 10
9.37817898391742
 20
6.358970325860275
 30
0.0
 10
9.382035738190198
 20
6.363608565350502
 30
0.0
 10
9.389135211599175
 20
6.373650325459212
 30
0.0
 10
9.392378206859508
 20
6.379054229206391
 30
0.0
 10
9.398310147155495
 20
6.390679600421272
 30
0.0
 10
9.400977352839293
 20
6.396922323954372
 30
0.0
 10
9.405582028181592
 20
6.409924534792074
 30
0.0
 10
9.407519370236332
 20
6.416684053156638
 30
0.0
 10
9.410634302018868
 20
6.430555288347392
 30
0.0
 10
9.411811775891379
 20
6.437666921673207
 30
0.0
 10
9.413387168586627
 20
6.452069228214512
 30
0.0
 10
9.413785031108893
 20
6.459359757977606
 30
0.0
 10
9.413794224581836
 20
6.473926160128955
 30
0.0
 10
9.413407267032136
 20
6.481201871559354
 30
0.0
 10
9.41185689211534
 20
6.495577757916797
 30
0.0
 10
9.410693529683467
 20
6.502677790483406
 30
0.0
 10
9.407606387267632
 20
6.516545057585575
 30
0.0
 10
9.405681080150046
 20
6.523311452906197
 30
0.0
 10
9.401099953047328
 20
6.536330010449978
 30
0.0
 10
9.398444260867393
 20
6.542582201168754
 30
0.0
 10
9.392438668807391
 20
6.554417265336981
 30
0.0
 10
9.389088750809239
 20
6.560000313490089
 30
0.0
 10
9.381735032844703
 20
6.570346741724645
 30
0.0
 10
9.377730897386671
 20
6.575110573487969
 30
0.0
 10
9.369259705242725
 20
6.583521271866079
 30
0.0
 10
9.364811672372166
 20
6.587200376585105
 30
0.0
 10
9.355414973136127
 20
6.593493694144678
 30
0.0
 10
9.350464839563747
 20
6.596107024515272
 30
0.0
 10
9.341429298603166
 20
6.599622659007822
 30
0.0
 10
9.337423437273043
 20
6.600784850357646
 30
0.0
 10
9.329292540877787
 20
6.602342595110641
 30
0.0
 10
9.32516808080757
 20
6.60273754997312
 30
0.0
 10
9.321043161793069
 20
6.60273754997312
 30
0.0
  0
LINE
  5
217
330
2
100
AcDbEntity
  8
AM_VIS
100
AcDbLine
 10
9.288097367419242
 20
6.33082054997312
 30
0.0
 11
9.321043161793069
 21
6.33082054997312
 31
0.0
  0
LINE
  5
218
330
2
100
AcDbEntity
  8
AM_VIS
100
AcDbLine
 10
9.288097367419242
 20
6.60273754997312
 30
0.0
 11
9.321043161793069
 21
6.60273754997312
 31
0.0
  0
LINE
  5
219
330
2
100
AcDbEntity
  8
AM_VIS
100
AcDbLine
 10
9.068193668655155
 20
6.39752404997312
 30
0.0
 11
9.081014366742502
 21
6.39752404997312
 31
0.0
  0
LINE
  5
21A
330
2
100
AcDbEntity
  8
AM_VIS
100
AcDbLine
 10
9.068193668655155
 20
6.53603404997312
 30
0.0
 11
9.081014366742502
 21
6.53603404997312
 31
0.0
  0
ELLIPSE
  5
21B
330
2
100
AcDbEntity
  8
AM_VIS
100
AcDbEllipse
 10
9.056259136588902
 20
6.46677904997312
 30
0.0
 11
0.0
 21
0.053655
 31
0.0
210
0.0
220
0.0
230
1.0
 40
0.6439897634402544
 41
1.000570618516559
 42
2.141022035073218
  0
ELLIPSE
  5
21C
330
2
100
AcDbEntity
  8
AM_VIS
100
AcDbEllipse
 10
9.288097367419242
 20
6.46677904997312
 30
0.0
 11
-0.0000000000000001
 21
0.1359585000000001
 31
0.0
210
0.0
220
0.0
230
1.0
 40
0.6439897634402544
 41
-0.0000000000000013
 42
3.14159265358979
  0
ELLIPSE
  5
21D
330
2
100
AcDbEntity
  8
AM_VIS
100
AcDbEllipse
 10
9.068193668655155
 20
6.46677904997312
 30
0.0
 11
0.0
 21
0.0692550000000001
 31
0.0
210
0.0
220
0.0
230
0.9999999999999998
 40
0.6439897634402544
 41
-0.0000000000000013
 42
3.14159265358979
  0
LINE
  5
21E
330
2
100
AcDbEntity
  8
AM_VIS
100
AcDbLine
 10
9.372097273521948
 20
6.45001204997312
 30
0.0
 11
9.403796598945756
 21
6.45001204997312
 31
0.0
  0
LINE
  5
21F
330
2
100
AcDbEntity
  8
AM_VIS
100
AcDbLine
 10
9.293213088110473
 20
6.45001204997312
 30
0.0
 11
9.350501720794746
 21
6.45001204997312
 31
0.0
  0
ELLIPSE
  5
220
330
2
100
AcDbEntity
  8
AM_VIS
100
AcDbEllipse
 10
9.348504843528116
 20
6.46677904997312
 30
0.0
 11
0.0000000000000001
 21
-0.087480000000001
 31
0.0
210
0.0
220
0.0
230
1.0
 40
0.6439897634402544
 41
6.090325291080016
 42
6.476045323279151
  0
ELLIPSE
  5
221
330
2
100
AcDbEntity
  8
AM_VIS
100
AcDbEllipse
 10
9.348504843528116
 20
6.46677904997312
 30
0.0
 11
0.0000000000000001
 21
-0.087480000000001
 31
0.0
210
0.0
220
0.0
230
1.0
 40
0.6439897634402544
 41
4.519528964285103
 42
4.90524899648425
  0
ELLIPSE
  5
222
330
2
100
AcDbEntity
  8
AM_VIS
100
AcDbEllipse
 10
9.348504843528116
 20
6.46677904997312
 30
0.0
 11
0.0000000000000001
 21
-0.087480000000001
 31
0.0
210
0.0
220
0.0
230
1.0
 40
0.6439897634402544
 41
2.948732637490222
 42
3.334452669689359
  0
ELLIPSE
  5
223
330
2
100
AcDbEntity
  8
AM_VIS
100
AcDbEllipse
 10
9.348504843528116
 20
6.46677904997312
 30
0.0
 11
0.0000000000000001
 21
-0.087480000000001
 31
0.0
210
0.0
220
0.0
230
1.0
 40
0.6439897634402544
 41
1.377936310695331
 42
1.763656342894464
  0
LINE
  5
224
330
2
100
AcDbEntity
  8
AM_VIS
100
AcDbLine
 10
9.403796598945756
 20
6.48354604997312
 30
0.0
 11
9.372097273521948
 21
6.48354604997312
 31
0.0
  0
LINE
  5
225
330
2
100
AcDbEntity
  8
AM_VIS
100
AcDbLine
 10
9.350501720794746
 20
6.48354604997312
 30
0.0
 11
9.293213088110473
 21
6.48354604997312
 31
0.0
  0
ELLIPSE
  5
226
330
2
100
AcDbEntity
  8
AM_VIS
100
AcDbEllipse
 10
9.181931204334683
 20
6.46677904997312
 30
0.0
 11
0.0000000000000001
 21
-0.2209808117620166
 31
0.0
210
0.0
220
0.0
230
0.9999999999999998
 40
0.7650341068110397
 41
1.646744685497344
 42
1.969834270846244
  0
ELLIPSE
  5
227
330
2
100
AcDbEntity
  8
AM_VIS
100
AcDbEllipse
 10
9.181931204334683
 20
6.46677904997312
 30
0.0
 11
0.0000000000000001
 21
-0.2209808117620166
 31
0.0
210
0.0
220
0.0
230
0.9999999999999998
 40
0.7650341068110397
 41
1.171758382743544
 42
1.494847968092448
  0
ELLIPSE
  5
228
330
2
100
AcDbEntity
  8
AM_VIS
100
AcDbEllipse
 10
9.203526757061887
 20
6.46677904997312
 30
0.0
 11
-0.0000000000000001
 21
0.2209808117620166
 31
0.0
210
0.0
220
0.0
230
0.9999999999999998
 40
0.7650341068110397
 41
4.788337339087137
 42
5.111426924436036
  0
ELLIPSE
  5
229
330
2
100
AcDbEntity
  8
AM_VIS
100
AcDbEllipse
 10
9.203526757061887
 20
6.46677904997312
 30
0.0
 11
-0.0000000000000001
 21
0.2209808117620166
 31
0.0
210
0.0
220
0.0
230
0.9999999999999998
 40
0.7650341068110397
 41
4.313351036333338
 42
4.636440621682242
  0
ELLIPSE
  5
22A
330
2
100
AcDbEntity
  8
AM_VIS
100
AcDbEllipse
 10
9.186852973023498
 20
5.532621559837671
 30
0.0
 11
-0.0155136169099625
 21
0.0051311624536228
 31
0.0
210
0.0
220
0.0
230
1.0
 40
0.3195022000284417
 41
3.944289966361336
 42
5.515086293156231
  0
ELLIPSE
  5
22B
330
2
100
AcDbEntity
  8
AM_VIS
100
AcDbEllipse
 10
9.186852973023498
 20
5.458355777103998
 30
0.0
 11
0.0141360282182872
 21
0.0141360282182886
 31
0.0
210
0.0
220
0.0
230
0.9999999999999998
 40
0.4667458116868309
 41
3.578284802780451
 42
5.149081129575347
  0
ELLIPSE
  5
22C
330
2
100
AcDbEntity
  8
AM_VIS
100
AcDbEllipse
 10
9.365266173338838
 20
5.458355777103998
 30
0.0
 11
-0.0141360282182872
 21
0.0141360282182885
 31
0.0
210
0.0
220
0.0
230
1.0
 40
0.466745811686831
 41
2.704900504399134
 42
4.275696831194033
  0
ELLIPSE
  5
22D
330
2
100
AcDbEntity
  8
AM_VIS
100
AcDbEllipse
 10
9.365266173338838
 20
5.736155777103999
 30
0.0
 11
-0.0141360282182872
 21
-0.0141360282182886
 31
0.0
210
0.0
220
0.0
230
0.9999999999999998
 40
0.4667458116868313
 41
2.00748847598555
 42
3.578284802780447
  0
ELLIPSE
  5
22E
330
2
100
AcDbEntity
  8
AM_VIS
100
AcDbEllipse
 10
9.234549142827091
 20
5.736155777103999
 30
0.0
 11
0.008569025213715
 21
0.014560145044071
 31
0.0
210
0.0
220
0.0
230
0.9999999999999998
 40
0.6535392496890104
 41
5.079571101986259
 42
6.650367428781107
  0
ELLIPSE
  5
22F
330
2
100
AcDbEntity
  8
AM_VIS
100
AcDbEllipse
 10
9.186852973023498
 20
5.736155777103999
 30
0.0
 11
-0.0141360282182879
 21
0.0141360282182879
 31
0.0
210
0.0
220
0.0
230
1.0
 40
0.4667458116868307
 41
4.275696831193633
 42
5.846493157988526
  0
LINE
  5
230
330
2
100
AcDbEntity
  8
AM_VIS
100
AcDbLine
 10
9.309904963798224
 20
5.447755777103998
 30
0.0
 11
9.302385139115347
 21
5.461297277104001
 31
0.0
  0
ELLIPSE
  5
231
330
2
100
AcDbEntity
  8
AM_VIS
100
AcDbEllipse
 10
9.317570003535244
 20
5.458355777103998
 30
0.0
 11
-0.008569025213715
 21
-0.014560145044071
 31
0.0
210
0.0
220
0.0
230
0.9999999999999998
 40
0.6535392496890103
 41
0.367182121601527
 42
1.937978448396508
  0
ELLIPSE
  5
232
330
2
100
AcDbEntity
  8
AM_VIS
100
AcDbEllipse
 10
9.317570003535244
 20
5.736155777103999
 30
0.0
 11
-0.0085690252137149
 21
0.014560145044071
 31
0.0
210
0.0
220
0.0
230
1.0
 40
0.6535392496890121
 41
4.345206858783221
 42
5.916003185578065
  0
ELLIPSE
  5
233
330
2
100
AcDbEntity
  8
AM_VIS
100
AcDbEllipse
 10
9.186852973023498
 20
5.661889994370326
 30
0.0
 11
-0.0155136169099625
 21
-0.0051311624536228
 31
0.0
210
0.0
220
0.0
230
1.0
 40
0.3195022000284408
 41
0.7680990140233556
 42
2.33889534081825
  0
ELLIPSE
  5
234
330
2
100
AcDbEntity
  8
AM_VIS
100
AcDbEllipse
 10
9.234549142827091
 20
5.458355777103998
 30
0.0
 11
0.0085690252137149
 21
-0.014560145044071
 31
0.0
210
0.0
220
0.0
230
1.0
 40
0.6535392496890117
 41
5.916003185578065
 42
7.486799512372961
  0
ELLIPSE
  5
235
330
2
100
AcDbEntity
  8
AM_VIS
100
AcDbEllipse
 10
9.157509968784635
 20
5.746755777104
 30
0.0
 11
0.004530778275092
 21
-0.0045307782750925
 31
0.0
210
0.0
220
0.0
230
1.0
 40
0.4667458116868309
 41
2.704900504399175
 42
3.578284802781268
  0
LINE
  5
236
330
2
100
AcDbEntity
  8
AM_VIS
100
AcDbLine
 10
9.172694952262052
 20
5.539755777104
 30
0.0
 11
9.176834089204492
 21
5.539755777104
 31
0.0
  0
LINE
  5
237
330
2
100
AcDbEntity
  8
AM_VIS
100
AcDbLine
 10
9.142034678614328
 20
5.654755777104003
 30
0.0
 11
9.154298788073418
 21
5.654755777104003
 31
0.0
  0
LINE
  5
238
330
2
100
AcDbEntity
  8
AM_VIS
100
AcDbLine
 10
9.172694952262052
 20
5.654755777104001
 30
0.0
 11
9.176834089204492
 21
5.654755777104001
 31
0.0
  0
ELLIPSE
  5
239
330
2
100
AcDbEntity
  8
AM_VIS
100
AcDbEllipse
 10
9.157509968784641
 20
5.447755777103998
 30
0.0
 11
0.004530778275092
 21
0.0045307782750925
 31
0.0
210
0.0
220
0.0
230
1.0
 40
0.4667458116868314
 41
2.704900504398337
 42
3.578284802780495
  0
LINE
  5
23A
330
2
100
AcDbEntity
  8
AM_VIS
100
AcDbLine
 10
9.239130995002144
 20
5.751755777103999
 30
0.0
 11
9.176834089204492
 21
5.751755777103999
 31
0.0
  0
LINE
  5
23B
330
2
100
AcDbEntity
  8
AM_VIS
100
AcDbLine
 10
9.154298788073418
 20
5.751755777103999
 30
0.0
 11
9.176834089204492
 21
5.751755777103999
 31
0.0
  0
LINE
  5
23C
330
2
100
AcDbEntity
  8
AM_VIS
100
AcDbLine
 10
9.375285057157839
 20
5.751755777103999
 30
0.0
 11
9.312988151360187
 21
5.751755777103999
 31
0.0
  0
LINE
  5
23D
330
2
100
AcDbEntity
  8
AM_VIS
100
AcDbLine
 10
9.312988151360189
 20
5.751755777103999
 30
0.0
 11
9.308849014417749
 21
5.751755777103999
 31
0.0
  0
LINE
  5
23E
330
2
100
AcDbEntity
  8
AM_VIS
100
AcDbLine
 10
9.154298788073418
 20
5.539755777103998
 30
0.0
 11
9.142034678614328
 21
5.539755777103998
 31
0.0
  0
ELLIPSE
  5
23F
330
2
100
AcDbEntity
  8
AM_VIS
100
AcDbEllipse
 10
9.145245859325546
 20
5.650432468833326
 30
0.0
 11
-0.0046945282590757
 21
0.003747492693212
 31
0.0
210
0.0
220
0.0
230
0.9999999999999998
 40
0.4592065411555823
 41
5.761160577116112
 42
6.634544875498185
  0
ELLIPSE
  5
240
330
2
100
AcDbEntity
  8
AM_VIS
100
AcDbEllipse
 10
9.14524585932555
 20
5.544079085374676
 30
0.0
 11
0.0046945282590755
 21
0.0037474926932122
 31
0.0
210
0.0
220
0.0
230
1.0
 40
0.459206541155581
 41
2.79023308527089
 42
3.663617383653001
  0
LINE
  5
241
330
2
100
AcDbEntity
  8
AM_VIS
100
AcDbLine
 10
9.312988151360187
 20
5.442755777103999
 30
0.0
 11
9.375285057157842
 21
5.442755777103999
 31
0.0
  0
LINE
  5
242
330
2
100
AcDbEntity
  8
AM_VIS
100
AcDbLine
 10
9.154298788073418
 20
5.442755777103999
 30
0.0
 11
9.176834089204492
 21
5.442755777103999
 31
0.0
  0
LINE
  5
243
330
2
100
AcDbEntity
  8
AM_VIS
100
AcDbLine
 10
9.176834089204492
 20
5.442755777103999
 30
0.0
 11
9.239130995002144
 21
5.442755777103999
 31
0.0
  0
LINE
  5
244
330
2
100
AcDbEntity
  8
AM_VIS
100
AcDbLine
 10
9.308849014417743
 20
5.442755777103999
 30
0.0
 11
9.312988151360187
 21
5.442755777103999
 31
0.0
  0
ELLIPSE
  5
245
330
2
100
AcDbEntity
  8
AM_VIS
100
AcDbEllipse
 10
9.306072429592257
 20
5.447755777103998
 30
0.0
 11
-0.004130986599608
 21
0.004536252122669
 31
0.0
210
0.0
220
0.0
230
1.0
 40
0.509068287572919
 41
2.707496172927458
 42
4.278292499722356
  0
LINE
  5
246
330
2
100
AcDbEntity
  8
AM_VIS
100
AcDbLine
 10
9.239130995002144
 20
5.442755777103999
 30
0.0
 11
9.308849014417749
 21
5.442755777103999
 31
0.0
  0
LINE
  5
247
330
2
100
AcDbEntity
  8
AM_VIS
100
AcDbLine
 10
9.302385139115347
 20
5.733214277104003
 30
0.0
 11
9.309904963798222
 21
5.746755777104
 31
0.0
  0
LINE
  5
248
330
2
100
AcDbEntity
  8
AM_VIS
100
AcDbLine
 10
9.308849014417749
 20
5.751755777103999
 30
0.0
 11
9.239130995002147
 21
5.751755777103999
 31
0.0
  0
ELLIPSE
  5
249
330
2
100
AcDbEntity
  8
AM_VIS
100
AcDbEllipse
 10
9.306072429592255
 20
5.746755777104
 30
0.0
 11
0.0041309865996083
 21
0.0045362521226688
 31
0.0
210
0.0
220
0.0
230
1.0
 40
0.5090682875729142
 41
5.146485461047368
 42
6.717281787842264
  0
LINE
  5
24A
330
2
100
AcDbEntity
  8
AM_VIS
100
AcDbLine
 10
9.179738667179236
 20
5.650432468833323
 30
0.0
 11
9.201983381509313
 21
5.620483747135394
 31
0.0
  0
LINE
  5
24B
330
2
100
AcDbEntity
  8
AM_VIS
100
AcDbLine
 10
9.201983381509316
 20
5.574027807072606
 30
0.0
 11
9.179738667179238
 21
5.544079085374676
 31
0.0
  0
ELLIPSE
  5
24C
330
2
100
AcDbEntity
  8
AM_VIS
100
AcDbEllipse
 10
9.175906132973269
 20
5.650432468833323
 30
0.0
 11
0.0046945282590755
 21
-0.0037474926932122
 31
0.0
210
0.0
220
0.0
230
1.0
 40
0.4592065411555822
 41
1.048771596731723
 42
2.61956792352662
  0
ELLIPSE
  5
24D
330
2
100
AcDbEntity
  8
AM_VIS
100
AcDbEllipse
 10
9.175906132973269
 20
5.544079085374676
 30
0.0
 11
-0.0046945282590757
 21
-0.003747492693212
 31
0.0
210
0.0
220
0.0
230
0.9999999999999998
 40
0.4592065411555818
 41
0.5220247300635567
 42
2.092821056858451
  0
LINE
  5
24E
330
2
100
AcDbEntity
  8
AM_VIS
100
AcDbLine
 10
9.380866173338835
 20
5.493065926941692
 30
0.0
 11
9.380866173338835
 21
5.448336893284995
 31
0.0
  0
LINE
  5
24F
330
2
100
AcDbEntity
  8
AM_VIS
100
AcDbLine
 10
9.380866173338835
 20
5.746174660923003
 30
0.0
 11
9.380866173338835
 21
5.701445627266307
 31
0.0
  0
LINE
  5
250
330
2
100
AcDbEntity
  8
AM_VIS
100
AcDbLine
 10
9.258478030782082
 20
5.725198185857638
 30
0.0
 11
9.245962963728702
 21
5.747734985271231
 31
0.0
  0
LINE
  5
251
330
2
100
AcDbEntity
  8
AM_VIS
100
AcDbLine
 10
9.245962963728702
 20
5.446776568936771
 30
0.0
 11
9.258478030782084
 21
5.469313368350366
 31
0.0
  0
LINE
  5
252
330
2
100
AcDbEntity
  8
AM_VIS
100
AcDbLine
 10
9.152509968784636
 20
5.749966957815218
 30
0.0
 11
9.152509968784636
 21
5.654755777104003
 31
0.0
  0
LINE
  5
253
330
2
100
AcDbEntity
  8
AM_VIS
100
AcDbLine
 10
9.152509968784636
 20
5.539755777104
 30
0.0
 11
9.152509968784636
 21
5.44454459639278
 31
0.0
  0
LINE
  5
254
330
2
100
AcDbEntity
  8
AM_VIS
100
AcDbLine
 10
9.140245859325547
 20
5.653209053658816
 30
0.0
 11
9.140245859325547
 21
5.541302500549186
 31
0.0
  0
LINE
  5
255
330
2
100
AcDbEntity
  8
AM_VIS
100
AcDbLine
 10
9.372128501323587
 20
5.614022777104
 30
0.0
 11
9.359309217253825
 21
5.614022777104
 31
0.0
  0
LINE
  5
256
330
2
100
AcDbEntity
  8
AM_VIS
100
AcDbLine
 10
9.359309217253825
 20
5.614022777104
 30
0.0
 11
9.359309217253825
 21
5.683113904913778
 31
0.0
  0
LINE
  5
257
330
2
100
AcDbEntity
  8
AM_VIS
100
AcDbLine
 10
9.359309217253825
 20
5.511397649294223
 30
0.0
 11
9.359309217253825
 21
5.580488777104003
 31
0.0
  0
LINE
  5
258
330
2
100
AcDbEntity
  8
AM_VIS
100
AcDbLine
 10
9.359309217253825
 20
5.580488777104003
 30
0.0
 11
9.372128501323587
 21
5.580488777104003
 31
0.0
  0
LINE
  5
259
330
2
100
AcDbEntity
  8
AM_VIS
100
AcDbLine
 10
9.026860096553239
 20
5.56796746004519
 30
0.0
 11
9.030423041156232
 21
5.559451986256775
 31
0.0
  0
LINE
  5
25A
330
2
100
AcDbEntity
  8
AM_VIS
100
AcDbLine
 10
9.026860096553239
 20
5.62654409416281
 30
0.0
 11
9.030423041156232
 21
5.635059567951227
 31
0.0
  0
SPLINE
  5
25B
330
2
100
AcDbEntity
  8
AM_VIS
100
AcDbSpline
210
0.0
220
0.0
230
1.0
 70
     8
 71
     3
 72
    46
 73
    42
 74
     0
 42
0.0000000001
 43
0.0000000001
 40
0.000000000000004
 40
0.000000000000004
 40
0.000000000000004
 40
0.000000000000004
 40
0.1399302135570397
 40
0.1399302135570397
 40
0.2798604271140754
 40
0.2798604271140754
 40
0.4281154480590841
 40
0.4281154480590841
 40
0.576370469004093
 40
0.576370469004093
 40
0.7383652863300085
 40
0.7383652863300085
 40
0.9003601036559237
 40
0.9003601036559237
 40
1.067676512191148
 40
1.067676512191148
 40
1.234992920726375
 40
1.234992920726375
 40
1.402282321938735
 40
1.402282321938735
 40
1.569571723151097
 40
1.569571723151097
 40
1.736487144020818
 40
1.736487144020818
 40
1.903402564890539
 40
1.903402564890539
 40
2.070686172939786
 40
2.070686172939786
 40
2.237969780989034
 40
2.237969780989034
 40
2.40529958666915
 40
2.40529958666915
 40
2.572629392349266
 40
2.572629392349266
 40
2.734375799998323
 40
2.734375799998323
 40
2.896122207647378
 40
2.896122207647378
 40
3.018857430618586
 40
3.018857430618586
 40
3.141592653589792
 40
3.141592653589792
 40
3.141592653589792
 40
3.141592653589792
 10
9.321026296814832
 20
5.461297277104002
 30
0.0
 10
9.325721216201259
 20
5.461297277104002
 30
0.0
 10
9.330415247826802
 20
5.461811781470923
 30
0.0
 10
9.339629068146038
 20
5.4638324918788
 30
0.0
 10
9.344147910440034
 20
5.465337455092928
 30
0.0
 10
9.353140363326168
 20
5.469361613384695
 30
0.0
 10
9.357595420740141
 20
5.47193455019194
 30
0.0
 10
9.366073281422051
 20
5.477958509461667
 30
0.0
 10
9.370097060670591
 20
5.481409105000462
 30
0.0
 10
9.378015915623608
 20
5.489423605986115
 30
0.0
 10
9.381865163888353
 20
5.494061204176873
 30
0.0
 10
9.388950563328995
 20
5.504101742060138
 30
0.0
 10
9.392186989932236
 20
5.509505072677271
 30
0.0
 10
9.39810698924299
 20
5.521129543683526
 30
0.0
 10
9.400768857346736
 20
5.527371957065065
 30
0.0
 10
9.40536452916262
 20
5.540373866663664
 30
0.0
 10
9.407298202782486
 20
5.547133393982624
 30
0.0
 10
9.410407314018973
 20
5.561003779925989
 30
0.0
 10
9.411582765916612
 20
5.56811449317955
 30
0.0
 10
9.413156217059931
 20
5.582515212301649
 30
0.0
 10
9.413554159500108
 20
5.589805073890194
 30
0.0
 10
9.413565614571751
 20
5.604369967046807
 30
0.0
 10
9.413180880878403
 20
5.611644836193665
 30
0.0
 10
9.411637099636612
 20
5.626019332223171
 30
0.0
 10
9.410478107335439
 20
5.633118815872768
 30
0.0
 10
9.407401687324579
 20
5.646985700622034
 30
0.0
 10
9.405482697393024
 20
5.653752243597668
 30
0.0
 10
9.400916027529467
 20
5.666771476802321
 30
0.0
 10
9.398268477788985
 20
5.673024195002522
 30
0.0
 10
9.392280146677226
 20
5.684861973111129
 30
0.0
 10
9.388939218553332
 20
5.690447081308279
 30
0.0
 10
9.381604301290547
 20
5.700798016789647
 30
0.0
 10
9.377609979322739
 20
5.705564304609037
 30
0.0
 10
9.369157763460282
 20
5.713980601326401
 30
0.0
 10
9.364718833985572
 20
5.717662771313052
 30
0.0
 10
9.355339334933448
 20
5.723962050266318
 30
0.0
 10
9.350397266261213
 20
5.726578277210182
 30
0.0
 10
9.341376774126084
 20
5.730096978270102
 30
0.0
 10
9.337378353098909
 20
5.731260008892884
 30
0.0
 10
9.329261821072552
 20
5.7328189632713
 30
0.0
 10
9.325144292228957
 20
5.733214277104003
 30
0.0
 10
9.321026296814832
 20
5.733214277104003
 30
0.0
  0
LINE
  5
25C
330
2
100
AcDbEntity
  8
AM_VIS
100
AcDbLine
 10
9.288017079903779
 20
5.461297277104002
 30
0.0
 11
9.321026296814832
 21
5.461297277104002
 31
0.0
  0
LINE
  5
25D
330
2
100
AcDbEntity
  8
AM_VIS
100
AcDbLine
 10
9.288017079903779
 20
5.733214277104003
 30
0.0
 11
9.321026296814835
 21
5.733214277104003
 31
0.0
  0
LINE
  5
25E
330
2
100
AcDbEntity
  8
AM_VIS
100
AcDbLine
 10
9.067690053950727
 20
5.528000777104002
 30
0.0
 11
9.081014366742518
 21
5.528000777104002
 31
0.0
  0
LINE
  5
25F
330
2
100
AcDbEntity
  8
AM_VIS
100
AcDbLine
 10
9.067690053950727
 20
5.666510777104003
 30
0.0
 11
9.081014366742518
 21
5.666510777104003
 31
0.0
  0
ELLIPSE
  5
260
330
2
100
AcDbEntity
  8
AM_VIS
100
AcDbEllipse
 10
9.055732547228114
 20
5.597255777104002
 30
0.0
 11
0.0
 21
0.053655
 31
0.0
210
0.0
220
0.0
230
1.0
 40
0.6422361422438402
 41
0.9933767292795652
 42
2.148215924310223
  0
ELLIPSE
  5
261
330
2
100
AcDbEntity
  8
AM_VIS
100
AcDbEllipse
 10
9.288017079903779
 20
5.597255777104002
 30
0.0
 11
-0.0000000000000001
 21
0.1359585000000001
 31
0.0
210
0.0
220
0.0
230
1.0
 40
0.6422361422438402
 41
-0.0000000000000012
 42
3.141592653589792
  0
ELLIPSE
  5
262
330
2
100
AcDbEntity
  8
AM_VIS
100
AcDbEllipse
 10
9.067690053950725
 20
5.597255777104002
 30
0.0
 11
0.0
 21
0.0692550000000001
 31
0.0
210
0.0
220
0.0
230
0.9999999999999998
 40
0.6422361422438402
 41
-0.0000000000000012
 42
3.141592653589792
  0
LINE
  5
263
330
2
100
AcDbEntity
  8
AM_VIS
100
AcDbLine
 10
9.372128501323587
 20
5.580488777104003
 30
0.0
 11
9.403682036641653
 21
5.580488777104003
 31
0.0
  0
LINE
  5
264
330
2
100
AcDbEntity
  8
AM_VIS
100
AcDbLine
 10
9.293399651071991
 20
5.580488777104003
 30
0.0
 11
9.350591754529583
 21
5.580488777104003
 31
0.0
  0
ELLIPSE
  5
265
330
2
100
AcDbEntity
  8
AM_VIS
100
AcDbEllipse
 10
9.348540843856822
 20
5.597255777104002
 30
0.0
 11
0.0
 21
-0.087480000000001
 31
0.0
210
0.0
220
0.0
230
1.0
 40
0.6422361422438402
 41
6.090325291080014
 42
6.476045323279155
  0
ELLIPSE
  5
266
330
2
100
AcDbEntity
  8
AM_VIS
100
AcDbEllipse
 10
9.348540843856822
 20
5.597255777104002
 30
0.0
 11
0.0
 21
-0.087480000000001
 31
0.0
210
0.0
220
0.0
230
1.0
 40
0.6422361422438402
 41
4.519528964285103
 42
4.90524899648425
  0
ELLIPSE
  5
267
330
2
100
AcDbEntity
  8
AM_VIS
100
AcDbEllipse
 10
9.348540843856822
 20
5.597255777104002
 30
0.0
 11
0.0
 21
-0.087480000000001
 31
0.0
210
0.0
220
0.0
230
1.0
 40
0.6422361422438402
 41
2.948732637490222
 42
3.334452669689361
  0
ELLIPSE
  5
268
330
2
100
AcDbEntity
  8
AM_VIS
100
AcDbEllipse
 10
9.348540843856822
 20
5.597255777104002
 30
0.0
 11
0.0
 21
-0.087480000000001
 31
0.0
210
0.0
220
0.0
230
1.0
 40
0.6422361422438402
 41
1.377936310695331
 42
1.763656342894464
  0
LINE
  5
269
330
2
100
AcDbEntity
  8
AM_VIS
100
AcDbLine
 10
9.403682036641653
 20
5.614022777104
 30
0.0
 11
9.372128501323587
 21
5.614022777104
 31
0.0
  0
LINE
  5
26A
330
2
100
AcDbEntity
  8
AM_VIS
100
AcDbLine
 10
9.350591754529583
 20
5.614022777104
 30
0.0
 11
9.293399651071991
 21
5.614022777104
 31
0.0
  0
ELLIPSE
  5
26B
330
2
100
AcDbEntity
  8
AM_VIS
100
AcDbEllipse
 10
9.181696730190497
 20
5.597255777104002
 30
0.0
 11
0.0000000000000002
 21
-0.2209808117620166
 31
0.0
210
0.0
220
0.0
230
0.9999999999999998
 40
0.7665068411930518
 41
1.646744685497342
 42
1.969834270846244
  0
ELLIPSE
  5
26C
330
2
100
AcDbEntity
  8
AM_VIS
100
AcDbEllipse
 10
9.181696730190497
 20
5.597255777104002
 30
0.0
 11
0.0000000000000002
 21
-0.2209808117620166
 31
0.0
210
0.0
220
0.0
230
0.9999999999999998
 40
0.7665068411930518
 41
1.171758382743544
 42
1.494847968092448
  0
ELLIPSE
  5
26D
330
2
100
AcDbEntity
  8
AM_VIS
100
AcDbEllipse
 10
9.203233476984499
 20
5.597255777104002
 30
0.0
 11
-0.0000000000000002
 21
0.2209808117620166
 31
0.0
210
0.0
220
0.0
230
0.9999999999999998
 40
0.7665068411930518
 41
4.788337339087137
 42
5.111426924436037
  0
ELLIPSE
  5
26E
330
2
100
AcDbEntity
  8
AM_VIS
100
AcDbEllipse
 10
9.203233476984499
 20
5.597255777104002
 30
0.0
 11
-0.0000000000000002
 21
0.2209808117620166
 31
0.0
210
0.0
220
0.0
230
0.9999999999999998
 40
0.7665068411930518
 41
4.313351036333338
 42
4.636440621682241
  0
LINE
  5
26F
102
{ACAD_REACTORS
330
2E0
102
}
330
2
100
AcDbEntity
  8
DIMENSION
100
AcDbLine
 10
7.993858081834101
 20
4.288309253266731
 30
0.0
 11
7.993858081834101
 21
7.684513814699535
 31
0.0
  0
LINE
  5
271
102
{ACAD_REACTORS
330
2E0
102
}
330
2
100
AcDbEntity
  8
DIMENSION
100
AcDbLine
 10
8.243858081834101
 20
4.269415212116967
 30
0.0
 11
8.243858081834101
 21
7.675066794124652
 31
0.0
  0
DIMENSION
  5
272
330
2
100
AcDbEntity
  8
DIMENSION
100
AcDbDimension
  2
*D8
 10
7.31385808162078
 20
8.500896711041349
 30
0.0
 11
6.956691042318662
 21
8.500896711041349
 31
0.0
 70
   128
 71
     5
 42
0.6800000002133208
  3
Standard
100
AcDbAlignedDimension
 13
7.993858081834101
 23
7.684513814699535
 33
0.0
 14
7.31385808162078
 24
6.664418167595576
 34
0.0
100
AcDbRotatedDimension
  0
SPLINE
  5
281
102
{ACAD_REACTORS
330
2E0
102
}
330
2
100
AcDbEntity
  8
DIMENSION
100
AcDbSpline
210
0.0
220
0.0
230
1.0
 70
     8
 71
     3
 72
    10
 73
     6
 74
     4
 42
0.0000000001
 43
0.0000000001
 44
0.0000000001
 40
0.0
 40
0.0
 40
0.0
 40
0.0
 40
0.1230965293188978
 40
0.250944495271128
 40
0.3789699743509197
 40
0.3789699743509197
 40
0.3789699743509197
 40
0.3789699743509197
 10
7.993858081834101
 20
7.684513814699535
 30
0.0
 10
8.02199593301375
 20
7.630107482997054
 30
0.0
 10
8.079357735993577
 20
7.519194774700762
 30
0.0
 10
8.097630522137604
 20
7.756450718939481
 30
0.0
 10
8.195093023614349
 20
7.70220731291594
 30
0.0
 10
8.243858081834101
 20
7.675066794124652
 30
0.0
 11
7.993858081834101
 21
7.684513814699535
 31
0.0
 11
8.067380574500917
 21
7.585785912856053
 31
0.0
 11
8.118873709757675
 21
7.702805395932812
 31
0.0
 11
8.243858081834101
 21
7.675066794124652
 31
0.0
  0
SPLINE
  5
282
102
{ACAD_REACTORS
330
2E0
102
}
330
2
100
AcDbEntity
  8
DIMENSION
100
AcDbSpline
210
0.0
220
0.0
230
1.0
 70
     8
 71
     3
 72
    10
 73
     6
 74
     4
 42
0.0000000001
 43
0.0000000001
 44
0.0000000001
 40
0.0
 40
0.0
 40
0.0
 40
0.0
 40
0.1303776219852463
 40
0.2109111732814498
 40
0.3118817469120618
 40
0.3118817469120618
 40
0.3118817469120618
 40
0.3118817469120618
 10
7.993858081834101
 20
4.288309253266731
 30
0.0
 10
8.0337883993935
 20
4.334598249554598
 30
0.0
 10
8.098383457945086
 20
4.409479708262284
 30
0.0
 10
8.142043630057534
 20
4.27446296273808
 30
0.0
 10
8.207464508702537
 20
4.271219530444806
 30
0.0
 10
8.243858081834101
 20
4.269415212116967
 30
0.0
 11
7.993858081834101
 21
4.288309253266731
 31
0.0
 11
8.100247976818758
 21
4.363671807361463
 31
0.0
 11
8.147059885347783
 21
4.298140913088238
 31
0.0
 11
8.243858081834101
 21
4.269415212116967
 31
0.0
  0
LINE
  5
283
102
{ACAD_REACTORS
330
2E0
102
}
330
2
100
AcDbEntity
  8
DIMENSION
100
AcDbLine
 10
7.993858081834102
 20
5.435366839120463
 30
0.0
 11
8.243858081834101
 21
5.435366839120462
 31
0.0
  0
LINE
  5
284
102
{ACAD_REACTORS
330
2E0
102
}
330
2
100
AcDbEntity
  8
DIMENSION
100
AcDbLine
 10
7.993858081834102
 20
6.622866839120463
 30
0.0
 11
8.243858081834101
 21
6.622866839120463
 31
0.0
  0
DIMENSION
  5
285
330
2
100
AcDbEntity
  8
DIMENSION
100
AcDbDimension
  2
*D9
 10
2.699061797423778
 20
8.011310396329429
 30
0.0
 11
3.414915455597783
 21
8.011310396329429
 31
0.0
 70
   128
 71
     5
 42
1.544379458880001
  3
Standard
100
AcDbAlignedDimension
 13
4.243441256303778
 23
6.742127823021954
 33
0.0
 14
2.699061797423778
 24
6.742127823021954
 34
0.0
100
AcDbRotatedDimension
  0
DIMENSION
  5
293
330
2
100
AcDbEntity
  8
DIMENSION
100
AcDbDimension
  2
*D10
 10
4.92339637350833
 20
5.232559216711311
 30
0.0
 11
4.923396373508329
 21
6.120978383026575
 31
0.0
 70
   128
 71
     5
 42
1.71288974226584
  3
Standard
100
AcDbAlignedDimension
 13
3.894191256303778
 23
6.94544895897715
 33
0.0
 14
4.154909949743778
 24
5.232559216711311
 34
0.0
 50
90.0
100
AcDbRotatedDimension
  0
TEXT
  5
2A1
330
2
100
AcDbEntity
  8
DIMENSION
100
AcDbText
 10
12.52732239565655
 20
8.164211674216527
 30
0.0
 40
0.125
  1
REMOVE ONE ADDITIONAL GASKET
100
AcDbText
  0
TEXT
  5
2A2
330
2
100
AcDbEntity
  8
DIMENSION
100
AcDbText
 10
12.52732239565655
 20
7.997545007549858
 30
0.0
 40
0.125
  1
WHEN USING A LEGEND PLATE
100
AcDbText
  0
TEXT
  5
2A3
330
2
100
AcDbEntity
  8
DIMENSION
100
AcDbText
 10
12.52732239565655
 20
9.094059474288425
 30
0.0
 40
0.125
  1
1/16"                      4
100
AcDbText
  0
TEXT
  5
2A4
330
2
100
AcDbEntity
  8
DIMENSION
100
AcDbText
 10
12.52732239565655
 20
8.859832690872252
 30
0.0
 40
0.125
  1
1/8"                       3
100
AcDbText
  0
TEXT
  5
2A5
330
2
100
AcDbEntity
  8
DIMENSION
100
AcDbText
 10
12.52732239565655
 20
8.664211674216527
 30
0.0
 40
0.125
  1
3/16"                      2
100
AcDbText
  0
TEXT
  5
2A6
330
2
100
AcDbEntity
  8
DIMENSION
100
AcDbText
 10
12.52732239565655
 20
8.429984890800355
 30
0.0
 40
0.125
  1
1/4"                       1
100
AcDbText
  0
TEXT
  5
2A7
330
2
100
AcDbEntity
  8
DIMENSION
100
AcDbText
 10
12.52732239565655
 20
9.716094493275637
 30
0.0
 40
0.125
  1
TABLE 1- MOUNTING GASKETS
100
AcDbText
  0
LINE
  5
2A8
330
2
100
AcDbEntity
  8
DIMENSION
100
AcDbLine
 10
12.43049172890082
 20
9.327235094261755
 30
0.0
 11
15.94033578807726
 21
9.327235094261755
 31
0.0
  0
TEXT
  5
2A9
330
2
100
AcDbEntity
  8
DIMENSION
100
AcDbText
 10
12.52732239565655
 20
9.382761159942305
 30
0.0
 40
0.125
  1
PANEL THICKNESS           GASKETS*
100
AcDbText
  0
TEXT
  5
2AA
330
2
100
AcDbEntity
  8
DIMENSION
100
AcDbText
 10
12.35499354262907
 20
8.156712787321803
 30
0.0
 40
0.125
  1
*
100
AcDbText
  0
MTEXT
  5
2AB
330
2
100
AcDbEntity
  8
DIMENSION
100
AcDbMText
 10
10.8317007764964
 20
3.777119925688413
 30
0.0
 40
0.125
 41
5.367399999999999
 71
     1
 72
     5
  1
{\LNOTES:\P\P}1) MOUNTING HOLE IN PANEL - %%C1-3/16 (30MM)\P\P3) MOUNTING HOLE SPACING (FOR STANDARD LEGEND PLATES) - HORIZONTIAL & VERTICAL DISTANCE - 2.250 CENTER TO CENTER\P\P2) CHOICE OF ALUMINUM OR PLASTIC CLAMP RING (NEMA 4 OR NEMA 4X).
 73
     1
 44
1.0
1001
ACAD
1000
MTEXTBEGIN
1070
    73
1070
     1
1070
    44
1040
1.0
1070
    74
1070
     0
1000
MTEXTEND
  0
MTEXT
  5
2AC
330
2
100
AcDbEntity
  8
DIMENSION
100
AcDbMText
 10
2.134476128893229
 20
4.451185531104066
 30
0.0
 40
0.125
 41
0.0
 71
     2
 72
     1
  1
CLAMP RING\P(PLASTIC OR ALUMINUM)
 73
     1
 44
1.0
1001
ACAD
1000
MTEXTBEGIN
1070
    73
1070
     1
1070
    44
1040
1.0
1070
    74
1070
     0
1000
MTEXTEND
  0
LEADER
  5
2AD
330
2
100
AcDbEntity
  8
DIMENSION
100
AcDbLeader
  3
Standard
 72
     1
 76
     4
 10
3.241736050322224
 20
2.773942538651844
 30
0.0
 10
2.703789415826641
 20
3.874190861733302
 30
0.0
 10
2.630433085363576
 20
3.507441432930193
 30
0.0
 10
2.30032943995495
 20
3.984215664703745
 30
0.0
  0
LEADER
  5
2AE
330
2
100
AcDbEntity
  8
DIMENSION
100
AcDbLeader
  3
Standard
 72
     1
 73
     0
 40
0.3333333333333333
 41
0.6845238095238094
 76
     4
 10
3.04803168618757
 20
2.042488442136742
 30
0.0
 10
2.686108112777503
 20
0.9467610583533383
 30
0.0
 10
2.605680678407181
 20
1.268442465209297
 30
0.0
 10
2.454879199381621
 20
1.268442465209297
 30
0.0
340
2AF
  0
MTEXT
  5
2AF
102
{ACAD_REACTORS
330
2AE
102
}
330
2
100
AcDbEntity
  8
DIMENSION
100
AcDbMText
 10
2.364879199381622
 20
1.268442465209297
 30
0.0
 40
0.125
 41
0.0
 71
     6
 72
     1
  1
PUSH\PBUTTON
 73
     1
 44
1.0
1001
ACAD
1000
MTEXTBEGIN
1070
    73
1070
     1
1070
    44
1040
1.0
1070
    74
1070
     0
1000
MTEXTEND
  0
LEADER
  5
2B0
330
2
100
AcDbEntity
  8
DIMENSION
100
AcDbLeader
  3
Standard
 72
     1
 73
     0
 74
     0
 40
0.125
 41
0.8035714285714281
 76
     4
 10
3.944400987446936
 20
2.06964516151575
 30
0.0
 10
4.437942936360606
 20
1.040040383040327
 30
0.0
 10
4.559270703156556
 20
1.29370332668516
 30
0.0
 10
4.768836820616058
 20
1.29370332668516
 30
0.0
  0
MTEXT
  5
2B1
330
2
100
AcDbEntity
  8
DIMENSION
100
AcDbMText
 10
4.919738527210487
 20
1.347658062875615
 30
0.0
 40
0.125
 41
0.0
 71
     4
 72
     1
  1
GASKETS
 73
     1
 44
1.0
1001
ACAD
1000
MTEXTBEGIN
1070
    73
1070
     1
1070
    44
1040
1.0
1070
    74
1070
     0
1000
MTEXTEND
  0
LEADER
  5
2B2
330
2
100
AcDbEntity
  8
DIMENSION
100
AcDbLeader
  3
Standard
 72
     1
 73
     0
 74
     0
 40
0.3333333333333333
 41
0.8333333333333332
 76
     4
 10
4.669752031124708
 20
3.173151710192158
 30
0.0
 10
5.044765150083754
 20
4.287062892718751
 30
0.0
 10
5.177122695869698
 20
4.011342290639376
 30
0.0
 10
5.364629255349221
 20
4.011342290639376
 30
0.0
340
2B3
  0
MTEXT
  5
2B3
102
{ACAD_REACTORS
330
2B2
102
}
330
2
100
AcDbEntity
  8
DIMENSION
100
AcDbMText
 10
5.454629255349221
 20
4.011342290639376
 30
0.0
 40
0.125
 41
0.0
 71
     4
 72
     1
  1
CONTACT\PBLOCK
 73
     1
 44
1.0
1001
ACAD
1000
MTEXTBEGIN
1070
    73
1070
     1
1070
    44
1040
1.0
1070
    74
1070
     0
1000
MTEXTEND
  0
LWPOLYLINE
  5
2B4
330
2
100
AcDbEntity
  8
DIMENSION
  6
HIDDEN
 48
1.5
100
AcDbPolyline
 90
        4
 70
     1
 43
0.0
 10
10.57650608183411
 20
6.832804233119817
 10
9.711432081834106
 20
6.832804233119817
 10
9.711432081834106
 20
5.231358021120246
 10
10.57650608183411
 20
5.231358021120246
  0
DIMENSION
  5
2B6
330
2
100
AcDbEntity
  8
DIMENSION
100
AcDbDimension
  2
*D11
 10
9.711432081834106
 20
8.499864814721393
 30
0.0
 11
11.13436425088763
 21
8.499864814721393
 31
0.0
 70
   128
  1
<>\PADD'L\PBLOCK
 71
     5
 42
0.8650740000000034
  3
Standard
100
AcDbAlignedDimension
 13
10.57650608183411
 23
6.832804233119817
 33
0.0
 14
9.711432081834106
 24
6.83132208912003
 34
0.0
100
AcDbRotatedDimension
  0
DIMENSION
  5
2C4
330
2
100
AcDbEntity
  8
DIMENSION
100
AcDbDimension
  2
*D12
 10
9.711432081834106
 20
8.496849171987339
 30
0.0
 11
8.92147250797366
 21
8.496849171987339
 31
0.0
 70
   128
 71
     5
 42
1.467574000000004
  3
Standard
100
AcDbAlignedDimension
 13
8.243858081834101
 23
7.675066794124652
 33
0.0
 14
9.711432081834106
 24
6.83132208912003
 34
0.0
100
AcDbRotatedDimension
  0
DIMENSION
  5
2D2
330
2
100
AcDbEntity
  8
DIMENSION
100
AcDbDimension
  2
*D13
 10
8.243858081834101
 20
4.181912369927725
 30
0.0
 11
9.188024748500767
 21
4.181912369927725
 31
0.0
 70
   128
  1
PANEL THICK\P(<> SHOWN)
 71
     5
 42
0.25
  3
Standard
100
AcDbAlignedDimension
 13
7.993858081834101
 23
4.288309253266731
 33
0.0
 14
8.243858081834101
 24
4.269415212116967
 34
0.0
100
AcDbRotatedDimension
  0
HATCH
  5
2E0
330
2
100
AcDbEntity
  8
DIMENSION
100
AcDbHatch
 10
0.0
 20
0.0
 30
0.0
210
0.0
220
0.0
230
1.0
  2
ANSI31
 70
     0
 71
     1
 91
        2
 92
        5
 93
        4
 72
     4
 94
        3
 73
     0
 74
     0
 95
       10
 96
        6
 40
0.0
 40
0.0
 40
0.0
 40
0.0
 40
0.1280254790797917
 40
0.255873445032022
 40
0.3789699743509209
 40
0.3789699743509209
 40
0.3789699743509209
 40
0.3789699743509209
 10
8.243858081834101
 20
7.675066794124652
 10
8.195093023614347
 20
7.702207312915941
 10
8.097630522137601
 20
7.75645071893948
 10
8.079357735993578
 20
7.519194774700761
 10
8.021995933013752
 20
7.630107482997053
 10
7.993858081834101
 20
7.684513814699535
 72
     1
 10
7.993858081834101
 20
7.684513814699534
 11
7.993858081834098
 21
6.622866839120463
 72
     1
 10
7.993858081834098
 20
6.622866839120463
 11
8.243858081834101
 21
6.62286683912046
 72
     1
 10
8.243858081834101
 20
6.62286683912046
 11
8.243858081834098
 21
7.675066794124652
 97
        4
330
281
330
26F
330
284
330
271
 92
        5
 93
        4
 72
     1
 10
8.243858081834103
 20
5.435366839120463
 11
7.993858081834098
 21
5.435366839120463
 72
     1
 10
7.993858081834098
 20
5.435366839120463
 11
7.993858081834102
 21
4.288309253266731
 72
     4
 94
        3
 73
     0
 74
     0
 95
       10
 96
        6
 40
0.0
 40
0.0
 40
0.0
 40
0.0
 40
0.1303776219852472
 40
0.2109111732814489
 40
0.3118817469120611
 40
0.3118817469120611
 40
0.3118817469120611
 40
0.3118817469120611
 10
7.993858081834101
 20
4.288309253266731
 10
8.033788399393502
 20
4.334598249554598
 10
8.098383457945089
 20
4.409479708262281
 10
8.142043630057536
 20
4.274462962738082
 10
8.207464508702535
 20
4.271219530444806
 10
8.243858081834101
 20
4.269415212116967
 72
     1
 10
8.243858081834103
 20
4.269415212116967
 11
8.243858081834103
 21
5.435366839120463
 97
        4
330
283
330
26F
330
282
330
271
 75
     0
 76
     1
 52
0.0
 41
0.25
 77
     0
 78
     1
 53
45.0
 43
0.0103375925045413
 44
0.0002809484087329
 45
-0.0220970869120796
 46
0.0220970869120796
 79
     0
 47
0.0067628670287239
 98
        2
 10
8.14399052662776
 20
7.17786249138761
 10
8.191334759115568
 20
5.115188043928807
  0
LINE
  5
2E1
330
2
100
AcDbEntity
  8
AM_7
100
AcDbLine
 10
3.416251526863776
 20
6.031418167581958
 30
0.0
 11
3.526251526863776
 21
6.031418167581958
 31
0.0
  0
LINE
  5
2E4
330
2
100
AcDbEntity
  8
AM_7
100
AcDbLine
 10
3.471251526863777
 20
5.976418167581958
 30
0.0
 11
3.471251526863777
 21
6.086418167581959
 31
0.0
  0
LINE
  5
2E5
330
2
100
AcDbEntity
  8
AM_7
100
AcDbLine
 10
2.69625152685016
 20
6.031418167581958
 30
0.0
 11
3.260251526863776
 21
6.031418167581958
 31
0.0
  0
LINE
  5
2E6
330
2
100
AcDbEntity
  8
AM_7
100
AcDbLine
 10
3.682251526863776
 20
6.031418167581958
 30
0.0
 11
4.246251526877394
 21
6.031418167581958
 31
0.0
  0
LINE
  5
2E7
330
2
100
AcDbEntity
  8
AM_7
100
AcDbLine
 10
3.471251526863777
 20
5.256418167568342
 30
0.0
 11
3.471251526863777
 21
5.820418167581959
 31
0.0
  0
LINE
  5
2E8
330
2
100
AcDbEntity
  8
AM_7
100
AcDbLine
 10
3.471251526863777
 20
6.242418167581958
 30
0.0
 11
3.471251526863777
 21
6.806418167595576
 31
0.0
  0
LINE
  5
2E9
330
2
100
AcDbEntity
  8
AM_7
100
AcDbLine
 10
3.398191256303778
 20
6.759737358978215
 30
0.0
 11
3.686191256303778
 21
6.759737358978215
 31
0.0
  0
LINE
  5
2EA
330
2
100
AcDbEntity
  8
AM_7
100
AcDbLine
 10
3.398191256303778
 20
5.303737358978215
 30
0.0
 11
3.686191256303779
 21
5.303737358978215
 31
0.0
  0
LINE
  5
2EB
330
2
100
AcDbEntity
  8
AM_7
100
AcDbLine
 10
4.004191256303778
 20
6.700100067582079
 30
0.0
 11
3.466191256303778
 21
6.700100067582079
 31
0.0
  0
LINE
  5
2EC
330
2
100
AcDbEntity
  8
AM_7
100
AcDbLine
 10
4.004191256303778
 20
6.914198958977153
 30
0.0
 11
3.466191256303778
 21
6.914198958977153
 31
0.0
  0
LINE
  5
2ED
330
2
100
AcDbEntity
  8
AM_7
100
AcDbLine
 10
4.004191256303778
 20
5.261689458977865
 30
0.0
 11
3.466191256303778
 21
5.261689458977865
 31
0.0
  0
LINE
  5
2EE
330
2
100
AcDbEntity
  8
AM_7
100
AcDbLine
 10
4.004191256303778
 20
5.367433458977922
 30
0.0
 11
3.466191256303778
 21
5.367433458977922
 31
0.0
  0
LINE
  5
2EF
330
2
100
AcDbEntity
  8
AM_7
100
AcDbLine
 10
4.004191256303778
 20
6.710242889948792
 30
0.0
 11
3.466191256303778
 21
6.710242889948792
 31
0.0
  0
LINE
  5
2F0
330
2
100
AcDbEntity
  8
AM_7
100
AcDbLine
 10
4.004191256303778
 20
5.357549161954093
 30
0.0
 11
3.466191256303778
 21
5.357549161954093
 31
0.0
  0
LINE
  5
2F1
330
2
100
AcDbEntity
  8
AM_7
100
AcDbLine
 10
3.784191256303778
 20
5.295989300374833
 30
0.0
 11
4.066191256303778
 21
5.295989300374833
 31
0.0
  0
LINE
  5
2F2
330
2
100
AcDbEntity
  8
AM_7
100
AcDbLine
 10
3.784191256303778
 20
6.771123417581528
 30
0.0
 11
4.066191256303778
 21
6.771123417581528
 31
0.0
  0
LINE
  5
2F3
330
2
100
AcDbEntity
  8
AM_7
100
AcDbLine
 10
7.20385808162078
 20
6.031418167581958
 30
0.0
 11
7.935455405678245
 21
6.031418167581958
 31
0.0
  0
LINE
  5
2F4
330
2
100
AcDbEntity
  8
AM_7
100
AcDbLine
 10
8.339357802805235
 20
6.914198958977153
 30
0.0
 11
8.449357802805232
 21
6.914198958977153
 31
0.0
  0
LINE
  5
2F5
330
2
100
AcDbEntity
  8
AM_7
100
AcDbLine
 10
8.394357802805235
 20
6.859198958977152
 30
0.0
 11
8.394357802805235
 21
6.969198958977153
 31
0.0
  0
LINE
  5
2F6
330
2
100
AcDbEntity
  8
AM_7
100
AcDbLine
 10
8.253107802805235
 20
6.914198958977153
 30
0.0
 11
8.183357802805232
 21
6.914198958977153
 31
0.0
  0
LINE
  5
2F7
330
2
100
AcDbEntity
  8
AM_7
100
AcDbLine
 10
8.605357802805235
 20
6.914198958977153
 30
0.0
 11
8.535607802805232
 21
6.914198958977153
 31
0.0
  0
LINE
  5
2F8
330
2
100
AcDbEntity
  8
AM_7
100
AcDbLine
 10
8.394357802805235
 20
6.772948958977153
 30
0.0
 11
8.394357802805235
 21
6.703198958977153
 31
0.0
  0
LINE
  5
2F9
330
2
100
AcDbEntity
  8
AM_7
100
AcDbLine
 10
8.394357802805235
 20
7.125198958977152
 30
0.0
 11
8.394357802805235
 21
7.055448958977152
 31
0.0
  0
LINE
  5
2FA
330
2
100
AcDbEntity
  8
AM_7
100
AcDbLine
 10
8.507287802805294
 20
6.938448958977152
 30
0.0
 11
8.617287802805291
 21
6.938448958977152
 31
0.0
  0
LINE
  5
2FB
330
2
100
AcDbEntity
  8
AM_7
100
AcDbLine
 10
8.562287802805292
 20
6.883448958977153
 30
0.0
 11
8.562287802805292
 21
6.993448958977151
 31
0.0
  0
LINE
  5
2FC
330
2
100
AcDbEntity
  8
AM_7
100
AcDbLine
 10
8.445287802805292
 20
6.938448958977152
 30
0.0
 11
8.351287802805293
 21
6.938448958977152
 31
0.0
  0
LINE
  5
2FD
330
2
100
AcDbEntity
  8
AM_7
100
AcDbLine
 10
8.773287802805294
 20
6.938448958977152
 30
0.0
 11
8.679287802805294
 21
6.938448958977152
 31
0.0
  0
LINE
  5
2FE
330
2
100
AcDbEntity
  8
AM_7
100
AcDbLine
 10
8.562287802805292
 20
6.821448958977152
 30
0.0
 11
8.562287802805292
 21
6.727448958977151
 31
0.0
  0
LINE
  5
2FF
330
2
100
AcDbEntity
  8
AM_7
100
AcDbLine
 10
8.562287802805292
 20
7.149448958977153
 30
0.0
 11
8.562287802805292
 21
7.055448958977152
 31
0.0
  0
LINE
  5
300
330
2
100
AcDbEntity
  8
AM_7
100
AcDbLine
 10
8.50728780280529
 20
6.887065458977155
 30
0.0
 11
8.617287802805288
 21
6.887065458977155
 31
0.0
  0
LINE
  5
301
330
2
100
AcDbEntity
  8
AM_7
100
AcDbLine
 10
8.56228780280529
 20
6.832065458977155
 30
0.0
 11
8.56228780280529
 21
6.942065458977155
 31
0.0
  0
LINE
  5
302
330
2
100
AcDbEntity
  8
AM_7
100
AcDbLine
 10
8.445287802805289
 20
6.887065458977155
 30
0.0
 11
8.351287802805288
 21
6.887065458977155
 31
0.0
  0
LINE
  5
303
330
2
100
AcDbEntity
  8
AM_7
100
AcDbLine
 10
8.77328780280529
 20
6.887065458977155
 30
0.0
 11
8.679287802805291
 21
6.887065458977155
 31
0.0
  0
LINE
  5
304
330
2
100
AcDbEntity
  8
AM_7
100
AcDbLine
 10
8.56228780280529
 20
6.770065458977155
 30
0.0
 11
8.56228780280529
 21
6.676065458977155
 31
0.0
  0
LINE
  5
305
330
2
100
AcDbEntity
  8
AM_7
100
AcDbLine
 10
8.56228780280529
 20
7.098065458977155
 30
0.0
 11
8.56228780280529
 21
7.004065458977155
 31
0.0
  0
LINE
  5
306
330
2
100
AcDbEntity
  8
AM_7
100
AcDbLine
 10
8.456448622618379
 20
6.857432708977237
 30
0.0
 11
8.566448622618381
 21
6.857432708977237
 31
0.0
  0
LINE
  5
307
330
2
100
AcDbEntity
  8
AM_7
100
AcDbLine
 10
8.511448622618381
 20
6.802432708977238
 30
0.0
 11
8.511448622618381
 21
6.912432708977236
 31
0.0
  0
LINE
  5
308
330
2
100
AcDbEntity
  8
AM_7
100
AcDbLine
 10
8.378815872618465
 20
6.857432708977237
 30
0.0
 11
8.300448622618381
 21
6.857432708977237
 31
0.0
  0
LINE
  5
309
330
2
100
AcDbEntity
  8
AM_7
100
AcDbLine
 10
8.722448622618379
 20
6.857432708977237
 30
0.0
 11
8.644081372618297
 21
6.857432708977237
 31
0.0
  0
LINE
  5
30A
330
2
100
AcDbEntity
  8
AM_7
100
AcDbLine
 10
8.511448622618381
 20
6.724799958977322
 30
0.0
 11
8.511448622618381
 21
6.646432708977236
 31
0.0
  0
LINE
  5
30B
330
2
100
AcDbEntity
  8
AM_7
100
AcDbLine
 10
8.511448622618381
 20
7.068432708977238
 30
0.0
 11
8.511448622618381
 21
6.990065458977155
 31
0.0
  0
LINE
  5
30C
330
2
100
AcDbEntity
  8
AM_7
100
AcDbLine
 10
9.002149302805158
 20
6.709062458977322
 30
0.0
 11
9.11214930280516
 21
6.709062458977322
 31
0.0
  0
LINE
  5
30D
330
2
100
AcDbEntity
  8
AM_7
100
AcDbLine
 10
9.057149302805159
 20
6.654062458977322
 30
0.0
 11
9.057149302805159
 21
6.764062458977322
 31
0.0
  0
LINE
  5
30E
330
2
100
AcDbEntity
  8
AM_7
100
AcDbLine
 10
8.82141180280516
 20
6.709062458977322
 30
0.0
 11
8.846149302805157
 21
6.709062458977322
 31
0.0
  0
LINE
  5
30F
330
2
100
AcDbEntity
  8
AM_7
100
AcDbLine
 10
9.268149302805159
 20
6.709062458977322
 30
0.0
 11
9.292886802805158
 21
6.709062458977322
 31
0.0
  0
LINE
  5
310
330
2
100
AcDbEntity
  8
AM_7
100
AcDbLine
 10
9.057149302805159
 20
6.473324958977322
 30
0.0
 11
9.057149302805159
 21
6.498062458977322
 31
0.0
  0
LINE
  5
311
330
2
100
AcDbEntity
  8
AM_7
100
AcDbLine
 10
9.057149302805159
 20
6.920062458977322
 30
0.0
 11
9.057149302805159
 21
6.944799958977322
 31
0.0
  0
LINE
  5
312
330
2
100
AcDbEntity
  8
AM_7
100
AcDbLine
 10
9.002149302805158
 20
5.356126958977866
 30
0.0
 11
9.11214930280516
 21
5.356126958977866
 31
0.0
  0
LINE
  5
313
330
2
100
AcDbEntity
  8
AM_7
100
AcDbLine
 10
9.057149302805159
 20
5.301126958977866
 30
0.0
 11
9.057149302805159
 21
5.411126958977866
 31
0.0
  0
LINE
  5
314
330
2
100
AcDbEntity
  8
AM_7
100
AcDbLine
 10
8.82141180280516
 20
5.356126958977866
 30
0.0
 11
8.846149302805157
 21
5.356126958977866
 31
0.0
  0
LINE
  5
315
330
2
100
AcDbEntity
  8
AM_7
100
AcDbLine
 10
9.268149302805159
 20
5.356126958977866
 30
0.0
 11
9.292886802805158
 21
5.356126958977866
 31
0.0
  0
LINE
  5
316
330
2
100
AcDbEntity
  8
AM_7
100
AcDbLine
 10
9.057149302805159
 20
5.120389458977865
 30
0.0
 11
9.057149302805159
 21
5.145126958977866
 31
0.0
  0
LINE
  5
317
330
2
100
AcDbEntity
  8
AM_7
100
AcDbLine
 10
9.057149302805159
 20
5.567126958977866
 30
0.0
 11
9.057149302805159
 21
5.591864458977866
 31
0.0
  0
LINE
  5
318
330
2
100
AcDbEntity
  8
AM_7
100
AcDbLine
 10
8.339407802805235
 20
5.261689458977865
 30
0.0
 11
8.449407802805232
 21
5.261689458977865
 31
0.0
  0
LINE
  5
319
330
2
100
AcDbEntity
  8
AM_7
100
AcDbLine
 10
8.394407802805233
 20
5.206689458977867
 30
0.0
 11
8.394407802805233
 21
5.316689458977866
 31
0.0
  0
LINE
  5
31A
330
2
100
AcDbEntity
  8
AM_7
100
AcDbLine
 10
8.253107802805235
 20
5.261689458977865
 30
0.0
 11
8.183407802805232
 21
5.261689458977865
 31
0.0
  0
LINE
  5
31B
330
2
100
AcDbEntity
  8
AM_7
100
AcDbLine
 10
8.605407802805235
 20
5.261689458977865
 30
0.0
 11
8.535707802805232
 21
5.261689458977865
 31
0.0
  0
LINE
  5
31C
330
2
100
AcDbEntity
  8
AM_7
100
AcDbLine
 10
8.394407802805233
 20
5.120389458977865
 30
0.0
 11
8.394407802805233
 21
5.050689458977866
 31
0.0
  0
LINE
  5
31D
330
2
100
AcDbEntity
  8
AM_7
100
AcDbLine
 10
8.394407802805233
 20
5.472689458977867
 30
0.0
 11
8.394407802805233
 21
5.402989458977867
 31
0.0
  0
LINE
  5
31E
330
2
100
AcDbEntity
  8
AM_7
100
AcDbLine
 10
8.797910302805053
 20
6.678297417581852
 30
0.0
 11
8.907910302805051
 21
6.678297417581852
 31
0.0
  0
LINE
  5
31F
330
2
100
AcDbEntity
  8
AM_7
100
AcDbLine
 10
8.852910302805049
 20
6.623297417581852
 30
0.0
 11
8.852910302805049
 21
6.733297417581852
 31
0.0
  0
LINE
  5
320
330
2
100
AcDbEntity
  8
AM_7
100
AcDbLine
 10
8.735910302805052
 20
6.678297417581852
 30
0.0
 11
8.641910302805051
 21
6.678297417581852
 31
0.0
  0
LINE
  5
321
330
2
100
AcDbEntity
  8
AM_7
100
AcDbLine
 10
9.063910302805053
 20
6.678297417581852
 30
0.0
 11
8.96991030280505
 21
6.678297417581852
 31
0.0
  0
LINE
  5
322
330
2
100
AcDbEntity
  8
AM_7
100
AcDbLine
 10
8.852910302805049
 20
6.561297417581852
 30
0.0
 11
8.852910302805049
 21
6.467297417581852
 31
0.0
  0
LINE
  5
323
330
2
100
AcDbEntity
  8
AM_7
100
AcDbLine
 10
8.852910302805049
 20
6.889297417581852
 30
0.0
 11
8.852910302805049
 21
6.795297417581852
 31
0.0
  0
LINE
  5
324
330
2
100
AcDbEntity
  8
AM_7
100
AcDbLine
 10
8.797910302805053
 20
5.389236108978153
 30
0.0
 11
8.907910302805051
 21
5.389236108978153
 31
0.0
  0
LINE
  5
325
330
2
100
AcDbEntity
  8
AM_7
100
AcDbLine
 10
8.852910302805049
 20
5.334236108978153
 30
0.0
 11
8.852910302805049
 21
5.444236108978151
 31
0.0
  0
LINE
  5
326
330
2
100
AcDbEntity
  8
AM_7
100
AcDbLine
 10
8.735910302805049
 20
5.389236108978153
 30
0.0
 11
8.641910302805051
 21
5.389236108978153
 31
0.0
  0
LINE
  5
327
330
2
100
AcDbEntity
  8
AM_7
100
AcDbLine
 10
9.063910302805053
 20
5.389236108978153
 30
0.0
 11
8.969910302805052
 21
5.389236108978153
 31
0.0
  0
LINE
  5
328
330
2
100
AcDbEntity
  8
AM_7
100
AcDbLine
 10
8.852910302805049
 20
5.272236108978153
 30
0.0
 11
8.852910302805049
 21
5.178236108978151
 31
0.0
  0
LINE
  5
329
330
2
100
AcDbEntity
  8
AM_7
100
AcDbLine
 10
8.852910302805049
 20
5.600236108978153
 30
0.0
 11
8.852910302805049
 21
5.506236108978153
 31
0.0
  0
LINE
  5
32A
330
2
100
AcDbEntity
  8
AM_7
100
AcDbLine
 10
9.624684302805148
 20
5.430133458977923
 30
0.0
 11
9.734684302805147
 21
5.430133458977923
 31
0.0
  0
LINE
  5
32B
330
2
100
AcDbEntity
  8
AM_7
100
AcDbLine
 10
9.679684302805148
 20
5.375133458977923
 30
0.0
 11
9.679684302805148
 21
5.485133458977923
 31
0.0
  0
LINE
  5
32C
330
2
100
AcDbEntity
  8
AM_7
100
AcDbLine
 10
9.538384302805148
 20
5.430133458977923
 30
0.0
 11
9.468684302805147
 21
5.430133458977923
 31
0.0
  0
LINE
  5
32D
330
2
100
AcDbEntity
  8
AM_7
100
AcDbLine
 10
9.890684302805148
 20
5.430133458977923
 30
0.0
 11
9.820984302805149
 21
5.430133458977923
 31
0.0
  0
LINE
  5
32E
330
2
100
AcDbEntity
  8
AM_7
100
AcDbLine
 10
9.679684302805148
 20
5.288833458977922
 30
0.0
 11
9.679684302805148
 21
5.219133458977922
 31
0.0
  0
LINE
  5
32F
330
2
100
AcDbEntity
  8
AM_7
100
AcDbLine
 10
9.679684302805148
 20
5.641133458977923
 30
0.0
 11
9.679684302805148
 21
5.571433458977923
 31
0.0
  0
LINE
  5
330
330
2
100
AcDbEntity
  8
AM_7
100
AcDbLine
 10
9.624684302805144
 20
6.637400067582079
 30
0.0
 11
9.734684302805144
 21
6.637400067582079
 31
0.0
  0
LINE
  5
331
330
2
100
AcDbEntity
  8
AM_7
100
AcDbLine
 10
9.679684302805144
 20
6.58240006758208
 30
0.0
 11
9.679684302805144
 21
6.692400067582079
 31
0.0
  0
LINE
  5
332
330
2
100
AcDbEntity
  8
AM_7
100
AcDbLine
 10
9.538384302805145
 20
6.637400067582079
 30
0.0
 11
9.468684302805144
 21
6.637400067582079
 31
0.0
  0
LINE
  5
333
330
2
100
AcDbEntity
  8
AM_7
100
AcDbLine
 10
9.890684302805144
 20
6.637400067582079
 30
0.0
 11
9.820984302805145
 21
6.637400067582079
 31
0.0
  0
LINE
  5
334
330
2
100
AcDbEntity
  8
AM_7
100
AcDbLine
 10
9.679684302805144
 20
6.496100067582078
 30
0.0
 11
9.679684302805144
 21
6.426400067582079
 31
0.0
  0
LINE
  5
335
330
2
100
AcDbEntity
  8
AM_7
100
AcDbLine
 10
9.679684302805144
 20
6.84840006758208
 30
0.0
 11
9.679684302805144
 21
6.77870006758208
 31
0.0
  0
LINE
  5
336
330
2
100
AcDbEntity
  8
AM_7
100
AcDbLine
 10
9.593932081834104
 20
6.771123417581528
 30
0.0
 11
9.703932081834103
 21
6.771123417581528
 31
0.0
  0
LINE
  5
337
330
2
100
AcDbEntity
  8
AM_7
100
AcDbLine
 10
9.648932081834106
 20
6.716123417581528
 30
0.0
 11
9.648932081834106
 21
6.826123417581528
 31
0.0
  0
LINE
  5
338
330
2
100
AcDbEntity
  8
AM_7
100
AcDbLine
 10
9.476432081834104
 20
6.771123417581528
 30
0.0
 11
9.437932081834103
 21
6.771123417581528
 31
0.0
  0
LINE
  5
339
330
2
100
AcDbEntity
  8
AM_7
100
AcDbLine
 10
9.859932081834104
 20
6.771123417581528
 30
0.0
 11
9.821432081834103
 21
6.771123417581528
 31
0.0
  0
LINE
  5
33A
330
2
100
AcDbEntity
  8
AM_7
100
AcDbLine
 10
9.648932081834106
 20
6.598623417581528
 30
0.0
 11
9.648932081834106
 21
6.560123417581528
 31
0.0
  0
LINE
  5
33B
330
2
100
AcDbEntity
  8
AM_7
100
AcDbLine
 10
9.648932081834106
 20
6.982123417581528
 30
0.0
 11
9.648932081834106
 21
6.943623417581528
 31
0.0
  0
LINE
  5
33C
330
2
100
AcDbEntity
  8
AM_7
100
AcDbLine
 10
8.853858081834101
 20
6.771123417581528
 30
0.0
 11
8.963858081834102
 21
6.771123417581528
 31
0.0
  0
LINE
  5
33D
330
2
100
AcDbEntity
  8
AM_7
100
AcDbLine
 10
8.908858081834102
 20
6.716123417581528
 30
0.0
 11
8.908858081834102
 21
6.826123417581528
 31
0.0
  0
LINE
  5
33E
330
2
100
AcDbEntity
  8
AM_7
100
AcDbLine
 10
8.736358081834103
 20
6.771123417581528
 30
0.0
 11
8.697858081834102
 21
6.771123417581528
 31
0.0
  0
LINE
  5
33F
330
2
100
AcDbEntity
  8
AM_7
100
AcDbLine
 10
9.119858081834101
 20
6.771123417581528
 30
0.0
 11
9.081358081834098
 21
6.771123417581528
 31
0.0
  0
LINE
  5
340
330
2
100
AcDbEntity
  8
AM_7
100
AcDbLine
 10
8.908858081834102
 20
6.598623417581528
 30
0.0
 11
8.908858081834102
 21
6.560123417581528
 31
0.0
  0
LINE
  5
341
330
2
100
AcDbEntity
  8
AM_7
100
AcDbLine
 10
8.908858081834102
 20
6.982123417581528
 30
0.0
 11
8.908858081834102
 21
6.943623417581528
 31
0.0
  0
LINE
  5
342
330
2
100
AcDbEntity
  8
AM_7
100
AcDbLine
 10
9.593932081834104
 20
5.295989300374833
 30
0.0
 11
9.703932081834103
 21
5.295989300374833
 31
0.0
  0
LINE
  5
343
330
2
100
AcDbEntity
  8
AM_7
100
AcDbLine
 10
9.648932081834106
 20
5.240989300374832
 30
0.0
 11
9.648932081834106
 21
5.350989300374831
 31
0.0
  0
LINE
  5
344
330
2
100
AcDbEntity
  8
AM_7
100
AcDbLine
 10
9.476432081834104
 20
5.295989300374833
 30
0.0
 11
9.437932081834103
 21
5.295989300374833
 31
0.0
  0
LINE
  5
345
330
2
100
AcDbEntity
  8
AM_7
100
AcDbLine
 10
9.859932081834104
 20
5.295989300374833
 30
0.0
 11
9.821432081834103
 21
5.295989300374833
 31
0.0
  0
LINE
  5
346
330
2
100
AcDbEntity
  8
AM_7
100
AcDbLine
 10
9.648932081834106
 20
5.123489300374831
 30
0.0
 11
9.648932081834106
 21
5.084989300374831
 31
0.0
  0
LINE
  5
347
330
2
100
AcDbEntity
  8
AM_7
100
AcDbLine
 10
9.648932081834106
 20
5.506989300374833
 30
0.0
 11
9.648932081834106
 21
5.468489300374833
 31
0.0
  0
LINE
  5
348
330
2
100
AcDbEntity
  8
AM_7
100
AcDbLine
 10
8.853858081834101
 20
5.295989300374833
 30
0.0
 11
8.963858081834102
 21
5.295989300374833
 31
0.0
  0
LINE
  5
349
330
2
100
AcDbEntity
  8
AM_7
100
AcDbLine
 10
8.908858081834102
 20
5.240989300374832
 30
0.0
 11
8.908858081834102
 21
5.350989300374831
 31
0.0
  0
LINE
  5
34A
330
2
100
AcDbEntity
  8
AM_7
100
AcDbLine
 10
8.736358081834103
 20
5.295989300374833
 30
0.0
 11
8.697858081834102
 21
5.295989300374833
 31
0.0
  0
LINE
  5
34B
330
2
100
AcDbEntity
  8
AM_7
100
AcDbLine
 10
9.119858081834101
 20
5.295989300374833
 30
0.0
 11
9.081358081834098
 21
5.295989300374833
 31
0.0
  0
LINE
  5
34C
330
2
100
AcDbEntity
  8
AM_7
100
AcDbLine
 10
8.908858081834102
 20
5.123489300374831
 30
0.0
 11
8.908858081834102
 21
5.084989300374831
 31
0.0
  0
LINE
  5
34D
330
2
100
AcDbEntity
  8
AM_7
100
AcDbLine
 10
8.908858081834102
 20
5.506989300374833
 30
0.0
 11
8.908858081834102
 21
5.468489300374833
 31
0.0
  0
LINE
  5
34E
330
2
100
AcDbEntity
  8
AM_7
100
AcDbLine
 10
9.019358081834104
 20
5.698918167581959
 30
0.0
 11
9.129358081834103
 21
5.698918167581959
 31
0.0
  0
LINE
  5
34F
330
2
100
AcDbEntity
  8
AM_7
100
AcDbLine
 10
9.074358081834104
 20
5.64391816758196
 30
0.0
 11
9.074358081834104
 21
5.75391816758196
 31
0.0
  0
LINE
  5
350
330
2
100
AcDbEntity
  8
AM_7
100
AcDbLine
 10
8.957358081834103
 20
5.698918167581959
 30
0.0
 11
8.863358081834105
 21
5.698918167581959
 31
0.0
  0
LINE
  5
351
330
2
100
AcDbEntity
  8
AM_7
100
AcDbLine
 10
9.285358081834104
 20
5.698918167581959
 30
0.0
 11
9.191358081834104
 21
5.698918167581959
 31
0.0
  0
LINE
  5
352
330
2
100
AcDbEntity
  8
AM_7
100
AcDbLine
 10
9.074358081834104
 20
5.581918167581959
 30
0.0
 11
9.074358081834104
 21
5.48791816758196
 31
0.0
  0
LINE
  5
353
330
2
100
AcDbEntity
  8
AM_7
100
AcDbLine
 10
9.074358081834104
 20
5.90991816758196
 30
0.0
 11
9.074358081834104
 21
5.815918167581959
 31
0.0
  0
LINE
  5
354
330
2
100
AcDbEntity
  8
AM_7
100
AcDbLine
 10
8.888358081834102
 20
5.68191816758196
 30
0.0
 11
8.998358081834101
 21
5.68191816758196
 31
0.0
  0
LINE
  5
355
330
2
100
AcDbEntity
  8
AM_7
100
AcDbLine
 10
8.943358081834102
 20
5.626918167581959
 30
0.0
 11
8.943358081834102
 21
5.73691816758196
 31
0.0
  0
LINE
  5
356
330
2
100
AcDbEntity
  8
AM_7
100
AcDbLine
 10
8.823358081834101
 20
5.68191816758196
 30
0.0
 11
8.732358081834101
 21
5.68191816758196
 31
0.0
  0
LINE
  5
357
330
2
100
AcDbEntity
  8
AM_7
100
AcDbLine
 10
9.154358081834102
 20
5.68191816758196
 30
0.0
 11
9.063358081834099
 21
5.68191816758196
 31
0.0
  0
LINE
  5
358
330
2
100
AcDbEntity
  8
AM_7
100
AcDbLine
 10
8.943358081834102
 20
5.56191816758196
 30
0.0
 11
8.943358081834102
 21
5.47091816758196
 31
0.0
  0
LINE
  5
359
330
2
100
AcDbEntity
  8
AM_7
100
AcDbLine
 10
8.943358081834102
 20
5.892918167581959
 30
0.0
 11
8.943358081834102
 21
5.801918167581959
 31
0.0
  0
LINE
  5
35A
330
2
100
AcDbEntity
  8
AM_7
100
AcDbLine
 10
8.888358081834102
 20
5.515918167581959
 30
0.0
 11
8.998358081834101
 21
5.515918167581959
 31
0.0
  0
LINE
  5
35B
330
2
100
AcDbEntity
  8
AM_7
100
AcDbLine
 10
8.943358081834102
 20
5.46091816758196
 30
0.0
 11
8.943358081834102
 21
5.570918167581958
 31
0.0
  0
LINE
  5
35C
330
2
100
AcDbEntity
  8
AM_7
100
AcDbLine
 10
8.823358081834101
 20
5.515918167581959
 30
0.0
 11
8.732358081834101
 21
5.515918167581959
 31
0.0
  0
LINE
  5
35D
330
2
100
AcDbEntity
  8
AM_7
100
AcDbLine
 10
9.154358081834102
 20
5.515918167581959
 30
0.0
 11
9.063358081834099
 21
5.515918167581959
 31
0.0
  0
LINE
  5
35E
330
2
100
AcDbEntity
  8
AM_7
100
AcDbLine
 10
8.943358081834102
 20
5.395918167581958
 30
0.0
 11
8.943358081834102
 21
5.304918167581958
 31
0.0
  0
LINE
  5
35F
330
2
100
AcDbEntity
  8
AM_7
100
AcDbLine
 10
8.943358081834102
 20
5.72691816758196
 30
0.0
 11
8.943358081834102
 21
5.63591816758196
 31
0.0
  0
LINE
  5
360
330
2
100
AcDbEntity
  8
AM_7
100
AcDbLine
 10
9.019358081834104
 20
5.498918167581958
 30
0.0
 11
9.129358081834103
 21
5.498918167581958
 31
0.0
  0
LINE
  5
361
330
2
100
AcDbEntity
  8
AM_7
100
AcDbLine
 10
9.074358081834104
 20
5.443918167581959
 30
0.0
 11
9.074358081834104
 21
5.553918167581958
 31
0.0
  0
LINE
  5
362
330
2
100
AcDbEntity
  8
AM_7
100
AcDbLine
 10
8.957358081834103
 20
5.498918167581958
 30
0.0
 11
8.863358081834105
 21
5.498918167581958
 31
0.0
  0
LINE
  5
363
330
2
100
AcDbEntity
  8
AM_7
100
AcDbLine
 10
9.285358081834104
 20
5.498918167581958
 30
0.0
 11
9.191358081834104
 21
5.498918167581958
 31
0.0
  0
LINE
  5
364
330
2
100
AcDbEntity
  8
AM_7
100
AcDbLine
 10
9.074358081834104
 20
5.381918167581958
 30
0.0
 11
9.074358081834104
 21
5.287918167581958
 31
0.0
  0
LINE
  5
365
330
2
100
AcDbEntity
  8
AM_7
100
AcDbLine
 10
9.074358081834104
 20
5.709918167581959
 30
0.0
 11
9.074358081834104
 21
5.615918167581958
 31
0.0
  0
LINE
  5
366
330
2
100
AcDbEntity
  8
AM_7
100
AcDbLine
 10
9.593932081834104
 20
5.374918167581971
 30
0.0
 11
9.703932081834103
 21
5.374918167581971
 31
0.0
  0
LINE
  5
367
330
2
100
AcDbEntity
  8
AM_7
100
AcDbLine
 10
9.648932081834106
 20
5.319918167581971
 30
0.0
 11
9.648932081834106
 21
5.429918167581972
 31
0.0
  0
LINE
  5
368
330
2
100
AcDbEntity
  8
AM_7
100
AcDbLine
 10
9.476432081834104
 20
5.374918167581971
 30
0.0
 11
9.437932081834103
 21
5.374918167581971
 31
0.0
  0
LINE
  5
369
330
2
100
AcDbEntity
  8
AM_7
100
AcDbLine
 10
9.859932081834104
 20
5.374918167581971
 30
0.0
 11
9.821432081834103
 21
5.374918167581971
 31
0.0
  0
LINE
  5
36A
330
2
100
AcDbEntity
  8
AM_7
100
AcDbLine
 10
9.648932081834106
 20
5.202418167581972
 30
0.0
 11
9.648932081834106
 21
5.163918167581972
 31
0.0
  0
LINE
  5
36B
330
2
100
AcDbEntity
  8
AM_7
100
AcDbLine
 10
9.648932081834106
 20
5.585918167581971
 30
0.0
 11
9.648932081834106
 21
5.547418167581971
 31
0.0
  0
LINE
  5
36C
330
2
100
AcDbEntity
  8
AM_7
100
AcDbLine
 10
9.625182081834104
 20
5.367668167581957
 30
0.0
 11
9.735182081834103
 21
5.367668167581957
 31
0.0
  0
LINE
  5
36D
330
2
100
AcDbEntity
  8
AM_7
100
AcDbLine
 10
9.680182081834106
 20
5.312668167581956
 30
0.0
 11
9.680182081834106
 21
5.422668167581957
 31
0.0
  0
LINE
  5
36E
330
2
100
AcDbEntity
  8
AM_7
100
AcDbLine
 10
9.538932081834104
 20
5.367668167581957
 30
0.0
 11
9.469182081834103
 21
5.367668167581957
 31
0.0
  0
LINE
  5
36F
330
2
100
AcDbEntity
  8
AM_7
100
AcDbLine
 10
9.891182081834104
 20
5.367668167581957
 30
0.0
 11
9.821432081834103
 21
5.367668167581957
 31
0.0
  0
LINE
  5
370
330
2
100
AcDbEntity
  8
AM_7
100
AcDbLine
 10
9.680182081834106
 20
5.226418167581956
 30
0.0
 11
9.680182081834106
 21
5.156668167581957
 31
0.0
  0
LINE
  5
371
330
2
100
AcDbEntity
  8
AM_7
100
AcDbLine
 10
9.680182081834106
 20
5.578668167581957
 30
0.0
 11
9.680182081834106
 21
5.508918167581957
 31
0.0
  0
LINE
  5
372
330
2
100
AcDbEntity
  8
AM_7
100
AcDbLine
 10
8.853858081834101
 20
5.398918167581957
 30
0.0
 11
8.963858081834102
 21
5.398918167581957
 31
0.0
  0
LINE
  5
373
330
2
100
AcDbEntity
  8
AM_7
100
AcDbLine
 10
8.908858081834102
 20
5.343918167581956
 30
0.0
 11
8.908858081834102
 21
5.453918167581957
 31
0.0
  0
LINE
  5
374
330
2
100
AcDbEntity
  8
AM_7
100
AcDbLine
 10
8.736358081834103
 20
5.398918167581957
 30
0.0
 11
8.697858081834102
 21
5.398918167581957
 31
0.0
  0
LINE
  5
375
330
2
100
AcDbEntity
  8
AM_7
100
AcDbLine
 10
9.119858081834101
 20
5.398918167581957
 30
0.0
 11
9.081358081834098
 21
5.398918167581957
 31
0.0
  0
LINE
  5
376
330
2
100
AcDbEntity
  8
AM_7
100
AcDbLine
 10
8.908858081834102
 20
5.226418167581956
 30
0.0
 11
8.908858081834102
 21
5.187918167581957
 31
0.0
  0
LINE
  5
377
330
2
100
AcDbEntity
  8
AM_7
100
AcDbLine
 10
8.908858081834102
 20
5.609918167581957
 30
0.0
 11
8.908858081834102
 21
5.571418167581957
 31
0.0
  0
LINE
  5
378
330
2
100
AcDbEntity
  8
AM_7
100
AcDbLine
 10
8.853858081834101
 20
6.663918167581961
 30
0.0
 11
8.963858081834102
 21
6.663918167581961
 31
0.0
  0
LINE
  5
379
330
2
100
AcDbEntity
  8
AM_7
100
AcDbLine
 10
8.908858081834102
 20
6.60891816758196
 30
0.0
 11
8.908858081834102
 21
6.718918167581961
 31
0.0
  0
LINE
  5
37A
330
2
100
AcDbEntity
  8
AM_7
100
AcDbLine
 10
8.736358081834103
 20
6.663918167581961
 30
0.0
 11
8.697858081834102
 21
6.663918167581961
 31
0.0
  0
LINE
  5
37B
330
2
100
AcDbEntity
  8
AM_7
100
AcDbLine
 10
9.119858081834101
 20
6.663918167581961
 30
0.0
 11
9.081358081834098
 21
6.663918167581961
 31
0.0
  0
LINE
  5
37C
330
2
100
AcDbEntity
  8
AM_7
100
AcDbLine
 10
8.908858081834102
 20
6.491418167581961
 30
0.0
 11
8.908858081834102
 21
6.452918167581961
 31
0.0
  0
LINE
  5
37D
330
2
100
AcDbEntity
  8
AM_7
100
AcDbLine
 10
8.908858081834102
 20
6.87491816758196
 30
0.0
 11
8.908858081834102
 21
6.83641816758196
 31
0.0
  0
LINE
  5
37E
330
2
100
AcDbEntity
  8
AM_7
100
AcDbLine
 10
9.625182081834104
 20
6.695168167581961
 30
0.0
 11
9.735182081834103
 21
6.695168167581961
 31
0.0
  0
LINE
  5
37F
330
2
100
AcDbEntity
  8
AM_7
100
AcDbLine
 10
9.680182081834104
 20
6.64016816758196
 30
0.0
 11
9.680182081834104
 21
6.750168167581961
 31
0.0
  0
LINE
  5
380
330
2
100
AcDbEntity
  8
AM_7
100
AcDbLine
 10
9.538932081834104
 20
6.695168167581961
 30
0.0
 11
9.469182081834103
 21
6.695168167581961
 31
0.0
  0
LINE
  5
381
330
2
100
AcDbEntity
  8
AM_7
100
AcDbLine
 10
9.891182081834104
 20
6.695168167581961
 30
0.0
 11
9.821432081834103
 21
6.695168167581961
 31
0.0
  0
LINE
  5
382
330
2
100
AcDbEntity
  8
AM_7
100
AcDbLine
 10
9.680182081834104
 20
6.553918167581961
 30
0.0
 11
9.680182081834104
 21
6.484168167581961
 31
0.0
  0
LINE
  5
383
330
2
100
AcDbEntity
  8
AM_7
100
AcDbLine
 10
9.680182081834104
 20
6.90616816758196
 30
0.0
 11
9.680182081834104
 21
6.83641816758196
 31
0.0
  0
LINE
  5
384
330
2
100
AcDbEntity
  8
AM_7
100
AcDbLine
 10
9.593932081834104
 20
6.687918167581912
 30
0.0
 11
9.703932081834103
 21
6.687918167581912
 31
0.0
  0
LINE
  5
385
330
2
100
AcDbEntity
  8
AM_7
100
AcDbLine
 10
9.648932081834104
 20
6.632918167581911
 30
0.0
 11
9.648932081834104
 21
6.742918167581912
 31
0.0
  0
LINE
  5
386
330
2
100
AcDbEntity
  8
AM_7
100
AcDbLine
 10
9.476432081834104
 20
6.687918167581912
 30
0.0
 11
9.437932081834103
 21
6.687918167581912
 31
0.0
  0
LINE
  5
387
330
2
100
AcDbEntity
  8
AM_7
100
AcDbLine
 10
9.859932081834104
 20
6.687918167581912
 30
0.0
 11
9.821432081834103
 21
6.687918167581912
 31
0.0
  0
LINE
  5
388
330
2
100
AcDbEntity
  8
AM_7
100
AcDbLine
 10
9.648932081834104
 20
6.515418167581912
 30
0.0
 11
9.648932081834104
 21
6.476918167581912
 31
0.0
  0
LINE
  5
389
330
2
100
AcDbEntity
  8
AM_7
100
AcDbLine
 10
9.648932081834104
 20
6.898918167581912
 30
0.0
 11
9.648932081834104
 21
6.860418167581912
 31
0.0
  0
LINE
  5
38A
330
2
100
AcDbEntity
  8
AM_7
100
AcDbLine
 10
9.019358081834104
 20
6.563918167581959
 30
0.0
 11
9.129358081834103
 21
6.563918167581959
 31
0.0
  0
LINE
  5
38B
330
2
100
AcDbEntity
  8
AM_7
100
AcDbLine
 10
9.074358081834104
 20
6.508918167581958
 30
0.0
 11
9.074358081834104
 21
6.618918167581957
 31
0.0
  0
LINE
  5
38C
330
2
100
AcDbEntity
  8
AM_7
100
AcDbLine
 10
8.957358081834103
 20
6.563918167581959
 30
0.0
 11
8.863358081834105
 21
6.563918167581959
 31
0.0
  0
LINE
  5
38D
330
2
100
AcDbEntity
  8
AM_7
100
AcDbLine
 10
9.285358081834104
 20
6.563918167581959
 30
0.0
 11
9.191358081834104
 21
6.563918167581959
 31
0.0
  0
LINE
  5
38E
330
2
100
AcDbEntity
  8
AM_7
100
AcDbLine
 10
9.074358081834104
 20
6.446918167581959
 30
0.0
 11
9.074358081834104
 21
6.352918167581957
 31
0.0
  0
LINE
  5
38F
330
2
100
AcDbEntity
  8
AM_7
100
AcDbLine
 10
9.074358081834104
 20
6.774918167581958
 30
0.0
 11
9.074358081834104
 21
6.680918167581959
 31
0.0
  0
LINE
  5
390
330
2
100
AcDbEntity
  8
AM_7
100
AcDbLine
 10
8.888358081834102
 20
6.546918167581957
 30
0.0
 11
8.998358081834101
 21
6.546918167581957
 31
0.0
  0
LINE
  5
391
330
2
100
AcDbEntity
  8
AM_7
100
AcDbLine
 10
8.943358081834102
 20
6.491918167581959
 30
0.0
 11
8.943358081834102
 21
6.601918167581957
 31
0.0
  0
LINE
  5
392
330
2
100
AcDbEntity
  8
AM_7
100
AcDbLine
 10
8.823358081834101
 20
6.546918167581957
 30
0.0
 11
8.732358081834101
 21
6.546918167581957
 31
0.0
  0
LINE
  5
393
330
2
100
AcDbEntity
  8
AM_7
100
AcDbLine
 10
9.154358081834102
 20
6.546918167581957
 30
0.0
 11
9.063358081834099
 21
6.546918167581957
 31
0.0
  0
LINE
  5
394
330
2
100
AcDbEntity
  8
AM_7
100
AcDbLine
 10
8.943358081834102
 20
6.426918167581957
 30
0.0
 11
8.943358081834102
 21
6.335918167581957
 31
0.0
  0
LINE
  5
395
330
2
100
AcDbEntity
  8
AM_7
100
AcDbLine
 10
8.943358081834102
 20
6.757918167581959
 30
0.0
 11
8.943358081834102
 21
6.666918167581957
 31
0.0
  0
LINE
  5
396
330
2
100
AcDbEntity
  8
AM_7
100
AcDbLine
 10
8.888358081834102
 20
6.380918167581957
 30
0.0
 11
8.998358081834101
 21
6.380918167581957
 31
0.0
  0
LINE
  5
397
330
2
100
AcDbEntity
  8
AM_7
100
AcDbLine
 10
8.943358081834102
 20
6.325918167581957
 30
0.0
 11
8.943358081834102
 21
6.435918167581957
 31
0.0
  0
LINE
  5
398
330
2
100
AcDbEntity
  8
AM_7
100
AcDbLine
 10
8.823358081834101
 20
6.380918167581957
 30
0.0
 11
8.732358081834101
 21
6.380918167581957
 31
0.0
  0
LINE
  5
399
330
2
100
AcDbEntity
  8
AM_7
100
AcDbLine
 10
9.154358081834102
 20
6.380918167581957
 30
0.0
 11
9.063358081834099
 21
6.380918167581957
 31
0.0
  0
LINE
  5
39A
330
2
100
AcDbEntity
  8
AM_7
100
AcDbLine
 10
8.943358081834102
 20
6.260918167581957
 30
0.0
 11
8.943358081834102
 21
6.169918167581957
 31
0.0
  0
LINE
  5
39B
330
2
100
AcDbEntity
  8
AM_7
100
AcDbLine
 10
8.943358081834102
 20
6.591918167581957
 30
0.0
 11
8.943358081834102
 21
6.500918167581957
 31
0.0
  0
LINE
  5
39C
330
2
100
AcDbEntity
  8
AM_7
100
AcDbLine
 10
9.019358081834104
 20
6.363918167581957
 30
0.0
 11
9.129358081834103
 21
6.363918167581957
 31
0.0
  0
LINE
  5
39D
330
2
100
AcDbEntity
  8
AM_7
100
AcDbLine
 10
9.074358081834104
 20
6.308918167581957
 30
0.0
 11
9.074358081834104
 21
6.418918167581957
 31
0.0
  0
LINE
  5
39E
330
2
100
AcDbEntity
  8
AM_7
100
AcDbLine
 10
8.957358081834103
 20
6.363918167581957
 30
0.0
 11
8.863358081834105
 21
6.363918167581957
 31
0.0
  0
LINE
  5
39F
330
2
100
AcDbEntity
  8
AM_7
100
AcDbLine
 10
9.285358081834104
 20
6.363918167581957
 30
0.0
 11
9.191358081834104
 21
6.363918167581957
 31
0.0
  0
LINE
  5
3A0
330
2
100
AcDbEntity
  8
AM_7
100
AcDbLine
 10
9.074358081834104
 20
6.246918167581957
 30
0.0
 11
9.074358081834104
 21
6.152918167581957
 31
0.0
  0
LINE
  5
3A1
330
2
100
AcDbEntity
  8
AM_7
100
AcDbLine
 10
9.074358081834104
 20
6.574918167581957
 30
0.0
 11
9.074358081834104
 21
6.480918167581957
 31
0.0
  0
LINE
  5
3A2
330
2
100
AcDbEntity
  8
AM_7
100
AcDbLine
 10
9.609432081834103
 20
6.255418167581945
 30
0.0
 11
9.719432081834103
 21
6.255418167581945
 31
0.0
  0
LINE
  5
3A3
330
2
100
AcDbEntity
  8
AM_7
100
AcDbLine
 10
9.664432081834103
 20
6.200418167581945
 30
0.0
 11
9.664432081834103
 21
6.310418167581945
 31
0.0
  0
LINE
  5
3A4
330
2
100
AcDbEntity
  8
AM_7
100
AcDbLine
 10
9.507432081834103
 20
6.255418167581945
 30
0.0
 11
9.453432081834103
 21
6.255418167581945
 31
0.0
  0
LINE
  5
3A5
330
2
100
AcDbEntity
  8
AM_7
100
AcDbLine
 10
9.875432081834103
 20
6.255418167581945
 30
0.0
 11
9.821432081834103
 21
6.255418167581945
 31
0.0
  0
LINE
  5
3A6
330
2
100
AcDbEntity
  8
AM_7
100
AcDbLine
 10
9.664432081834103
 20
6.098418167581945
 30
0.0
 11
9.664432081834103
 21
6.044418167581945
 31
0.0
  0
LINE
  5
3A7
330
2
100
AcDbEntity
  8
AM_7
100
AcDbLine
 10
9.664432081834103
 20
6.466418167581945
 30
0.0
 11
9.664432081834103
 21
6.412418167581945
 31
0.0
  0
LINE
  5
3A8
330
2
100
AcDbEntity
  8
AM_7
100
AcDbLine
 10
9.609432081834103
 20
5.80741816758194
 30
0.0
 11
9.719432081834103
 21
5.80741816758194
 31
0.0
  0
LINE
  5
3A9
330
2
100
AcDbEntity
  8
AM_7
100
AcDbLine
 10
9.664432081834103
 20
5.75241816758194
 30
0.0
 11
9.664432081834103
 21
5.862418167581941
 31
0.0
  0
LINE
  5
3AA
330
2
100
AcDbEntity
  8
AM_7
100
AcDbLine
 10
9.507432081834103
 20
5.80741816758194
 30
0.0
 11
9.453432081834103
 21
5.80741816758194
 31
0.0
  0
LINE
  5
3AB
330
2
100
AcDbEntity
  8
AM_7
100
AcDbLine
 10
9.875432081834103
 20
5.80741816758194
 30
0.0
 11
9.821432081834103
 21
5.80741816758194
 31
0.0
  0
LINE
  5
3AC
330
2
100
AcDbEntity
  8
AM_7
100
AcDbLine
 10
9.664432081834103
 20
5.65041816758194
 30
0.0
 11
9.664432081834103
 21
5.596418167581941
 31
0.0
  0
LINE
  5
3AD
330
2
100
AcDbEntity
  8
AM_7
100
AcDbLine
 10
9.664432081834103
 20
6.01841816758194
 30
0.0
 11
9.664432081834103
 21
5.96441816758194
 31
0.0
  0
LINE
  5
3AE
330
2
100
AcDbEntity
  8
AM_7
100
AcDbLine
 10
9.09151749781766
 20
6.732779049973116
 30
0.0
 11
9.09151749781766
 21
6.200779049973116
 31
0.0
  0
LINE
  5
3AF
330
2
100
AcDbEntity
  8
AM_7
100
AcDbLine
 10
9.090933277453835
 20
5.863255777103997
 30
0.0
 11
9.090933277453835
 21
5.331255777103996
 31
0.0
  0
MTEXT
  5
3B0
330
2
100
AcDbEntity
  8
10
 62
     7
100
AcDbMText
 10
12.92274048305114
 20
1.052833355040775
 30
0.0
 40
0.055
 41
0.0
 71
     2
 72
     5
  1
{\fArial|b0|i0|c0|p34;\LTOLERANCE:\P\P\l  .XX +/- 0.02\P .XXX +/- 0.005\P.XXXX +/- 0.001\PANGLES +/- 0.5 DEG\P\PUNLESS OTHERWISE \PSPECIFIED}
 73
     1
 44
1.0
1001
ACAD
1000
MTEXTBEGIN
1070
    73
1070
     1
1070
    44
1040
1.0
1070
    74
1070
     0
1000
MTEXTEND
  0
MTEXT
  5
3B2
102
{ACAD_XDICTIONARY
360
7D4
102
}
330
2
100
AcDbEntity
  8
10
 62
     7
100
AcDbMText
 10
13.7700428297959
 20
0.4891827146369918
 30
0.0
 40
0.06
 41
2.47377405023723
 71
     1
 72
     5
  1
{\fArial|b0|i0|c0|p34;P.O. BOX 496        BEAVER, PA 15009         \C256;www.c3controls.com}
 73
     1
 44
1.0
1001
ACAD
1000
MTEXTBEGIN
1070
    73
1070
     1
1070
    44
1040
1.0
1070
    74
1070
     0
1000
MTEXTEND
  0
LINE
  5
3B3
330
2
100
AcDbEntity
  8
0
100
AcDbLine
 10
13.4937092192736
 20
0.3963460455148633
 30
0.0
 11
16.4937092192736
 21
0.3963460455148633
 31
0.0
  0
MTEXT
  5
3B4
330
2
100
AcDbEntity
  8
0
100
AcDbMText
 10
12.90161869400873
 20
-0.1448496375954535
 30
0.0
 40
0.06
 41
1.192090525264875
 71
     5
 72
     5
  1
{\fArial|b0|i0|c0|p34;\C7;This drawing is the property of \C5;c3\C7;controls.  The drawing may not be copied, used or disclosed, for any purpose except as authorized in writing by \C5;c3\C7;controls.}
  7
ADESK1
 73
     1
 44
1.0
1001
ACAD
1000
MTEXTBEGIN
1070
    73
1070
     1
1070
    44
1040
1.0
1070
    74
1070
     0
1000
MTEXTEND
  0
LINE
  5
3B6
330
2
100
AcDbEntity
  8
0
100
AcDbLine
 10
16.4937092192736
 20
-0.2036539544851363
 30
0.0
 11
13.4937092192736
 21
-0.2036539544851363
 31
0.0
  0
LINE
  5
3B7
330
2
100
AcDbEntity
  8
0
100
AcDbLine
 10
12.2937092192736
 20
-0.5036539544851371
 30
0.0
 11
16.4937092192736
 21
-0.5036539544851371
 31
0.0
  0
MTEXT
  5
3B8
330
2
100
AcDbEntity
  8
0
100
AcDbMText
 10
13.52352091785453
 20
0.3692540786585701
 30
0.0
 40
0.054
 41
0.5195326864819805
 71
     1
 72
     5
  1
{\fArial|b0|i0|c0|p34;\LDescription\l:}
  7
ADESK1
 73
     1
 44
1.0
1001
ACAD
1000
MTEXTBEGIN
1070
    73
1070
     1
1070
    44
1040
1.0
1070
    74
1070
     0
1000
MTEXTEND
  0
LINE
  5
3B9
330
2
100
AcDbEntity
  8
0
100
AcDbLine
 10
14.9937092192736
 20
-0.5036539544851371
 30
0.0
 11
13.4937092192736
 21
-0.5036539544851371
 31
0.0
  0
MTEXT
  5
3BA
330
2
100
AcDbEntity
  8
0
100
AcDbMText
 10
13.52274580499108
 20
-0.3948167267878544
 30
0.0
 40
0.055
 41
0.2305161642942522
 71
     1
 72
     5
  1
{\fArial|b0|i0|c0|p34;\LDate\l:}
  7
ADESK1
 73
     1
 44
1.0
1001
ACAD
1000
MTEXTBEGIN
1070
    73
1070
     1
1070
    44
1040
1.0
1070
    74
1070
     0
1000
MTEXTEND
  0
LINE
  5
3BB
330
2
100
AcDbEntity
  8
0
100
AcDbLine
 10
13.4937092192736
 20
-0.2036539544851363
 30
0.0
 11
13.4937092192736
 21
-0.053653954485136
 31
0.0
  0
MTEXT
  5
3BC
330
2
100
AcDbEntity
  8
0
100
AcDbMText
 10
13.51832281237077
 20
-0.2448563854833123
 30
0.0
 40
0.054
 41
0.4498542249200398
 71
     1
 72
     5
  1
{\fArial|b0|i0|c0|p34;\LDrawn By\l:}
  7
ADESK1
 73
     1
 44
1.0
1001
ACAD
1000
MTEXTBEGIN
1070
    73
1070
     1
1070
    44
1040
1.0
1070
    74
1070
     0
1000
MTEXTEND
  0
LINE
  5
3BD
330
2
100
AcDbEntity
  8
0
100
AcDbLine
 10
12.2937092192736
 20
0.2463460455148629
 30
0.0
 11
13.4937092192736
 21
0.2463460455148629
 31
0.0
  0
MTEXT
  5
3BE
330
2
100
AcDbEntity
  8
0
100
AcDbMText
 10
14.41188978580476
 20
-0.3945121687172479
 30
0.0
 40
0.055
 41
0.1982186059385043
 71
     1
 72
     5
  1
{\fArial|b0|i0|c0|p34;\LScale\l:}
  7
ADESK1
 73
     1
 44
1.0
1001
ACAD
1000
MTEXTBEGIN
1070
    73
1070
     1
1070
    44
1040
1.0
1070
    74
1070
     0
1000
MTEXTEND
  0
MTEXT
  5
3BF
330
2
100
AcDbEntity
  8
0
100
AcDbMText
 10
15.02085391388869
 20
-0.2339930524827318
 30
0.0
 40
0.055
 41
0.7823141308883294
 71
     1
 72
     5
  1
{\fArial|b0|i0|c0|p34;\LDrawing Number\l:}
  7
ADESK1
 73
     1
 44
1.0
1001
ACAD
1000
MTEXTBEGIN
1070
    73
1070
     1
1070
    44
1040
1.0
1070
    74
1070
     0
1000
MTEXTEND
  0
LINE
  5
3C0
330
2
100
AcDbEntity
  8
0
100
AcDbLine
 10
12.2937092192736
 20
1.071346045514862
 30
0.0
 11
12.2937092192736
 21
-0.5036539544851371
 31
0.0
  0
LINE
  5
3C1
330
2
100
AcDbEntity
  8
0
100
AcDbLine
 10
12.2937092192736
 20
1.071346045514862
 30
0.0
 11
16.4937092192736
 21
1.071346045514867
 31
0.0
  0
LINE
  5
3C2
330
2
100
AcDbEntity
  8
0
100
AcDbLine
 10
16.4937092192736
 20
1.071346045514867
 30
0.0
 11
16.4937092192736
 21
-0.5036539544851371
 31
0.0
  0
LINE
  5
3C3
330
2
100
AcDbEntity
  8
0
100
AcDbLine
 10
13.4937092192736
 20
1.071346045514862
 30
0.0
 11
13.4937092192736
 21
-0.5036539544851371
 31
0.0
  0
LINE
  5
3C4
330
2
100
AcDbEntity
  8
0
100
AcDbLine
 10
14.9937092192736
 20
-0.2036539544851363
 30
0.0
 11
14.9937092192736
 21
-0.5036539544851371
 31
0.0
  0
LINE
  5
3C5
330
2
100
AcDbEntity
  8
0
100
AcDbLine
 10
13.4937092192736
 20
-0.3536539544851367
 30
0.0
 11
14.9937092192736
 21
-0.3536539544851367
 31
0.0
  0
MTEXT
  5
3C6
330
2
100
AcDbEntity
  8
0
100
AcDbMText
 10
13.89805120770465
 20
-0.2455656738560927
 30
0.0
 40
0.07
 41
1.095658011568954
 71
     1
 72
     5
  1
{\fArial|b0|i0|c0|p34;RCG}
  7
ADESK1
 73
     1
 44
1.0
1001
ACAD
1000
MTEXTBEGIN
1070
    73
1070
     1
1070
    44
1040
1.0
1070
    74
1070
     0
1000
MTEXTEND
  0
MTEXT
  5
3C7
330
2
100
AcDbEntity
  8
0
100
AcDbMText
 10
13.73230768204664
 20
-0.3958325026366358
 30
0.0
 40
0.07
 41
0.446961885484393
 71
     1
 72
     5
  1
{\fArial|b0|i0|c0|p34;08-08-2001}
  7
ADESK1
 73
     1
 44
1.0
1001
ACAD
1000
MTEXTBEGIN
1070
    73
1070
     1
1070
    44
1040
1.0
1070
    74
1070
     0
1000
MTEXTEND
  0
MTEXT
  5
3C8
330
2
100
AcDbEntity
  8
0
100
AcDbMText
 10
13.5398403106058
 20
0.2372198731503348
 30
0.0
 40
0.075
 41
2.953868908667801
 71
     1
 72
     5
  1
{\fArial|b0|i0|c0|p34;30MM PRODUCT LINE GUARDED EXTENDED CAP NON-ILLUMINATED PUSHBUTTON OPERATOR WITH CONTACT BLOCK DATA SHEET}
  7
ADESK1
 73
     1
 44
1.0
1001
ACAD
1000
MTEXTBEGIN
1070
    73
1070
     1
1070
    44
1040
1.0
1070
    74
1070
     0
1000
MTEXTEND
  0
MTEXT
  5
3C9
330
2
100
AcDbEntity
  8
0
100
AcDbMText
 10
15.74118056339222
 20
-0.4064534781862106
 30
0.0
 40
0.15
 41
0.8962278364401129
 71
     5
 72
     5
  1
{\fArial|b0|i0|c0|p34;30P10087}
  7
ADESK1
 73
     1
 44
1.0
1001
ACAD
1000
MTEXTBEGIN
1070
    73
1070
     1
1070
    44
1040
1.0
1070
    74
1070
     0
1000
MTEXTEND
  0
MTEXT
  5
3CA
330
2
100
AcDbEntity
  8
0
100
AcDbMText
 10
14.81421628007456
 20
-0.4303440381900369
 30
0.0
 40
0.07
 41
0.2236162507127097
 71
     5
 72
     5
  1
{\fArial|b0|i0|c0|p34;1:1}
  7
ADESK1
 73
     1
 44
1.0
1001
ACAD
1000
MTEXTBEGIN
1070
    73
1070
     1
1070
    44
1040
1.0
1070
    74
1070
     0
1000
MTEXTEND
  0
LINE
  5
3CB
330
2
100
AcDbEntity
  8
0
100
AcDbLine
 10
14.3937092192736
 20
-0.3536539544851367
 30
0.0
 11
14.3937092192736
 21
-0.5036539544851371
 31
0.0
  0
LINE
  5
3CC
330
2
100
AcDbEntity
  8
0
100
AcDbLine
 10
13.4937092192736
 20
1.071346045514862
 30
0.0
 11
16.4937092192736
 21
1.071346045514867
 31
0.0
  0
IMAGE
  5
3CD
330
2
100
AcDbEntity
  8
0
 92
      140
310
8C00000001000000840000000600000005000000BF89DFCF2FAA2B4059C23D6B3B48E13F0000000000000000BF89DFCF2FAA2B40E45E7C49E023F03F000000000000000036427D8CAF273040E45E7C49E023F03F000000000000000036427D8CAF27304059C23D6B3B48E13F0000000000000000BF89DFCF2FAA2B4059C23D
310
6B3B48E13F0000000000000000
100
AcDbRasterImage
 90
        0
 10
13.83239602664696
 20
0.5400673956447221
 30
0.0
 11
0.0104153649562928
 21
0.0
 31
0.0
 12
0.0
 22
0.0104153649562928
 32
0.0
 13
223.0
 23
45.0
340
3CE
 70
     7
280
     0
281
    50
282
    50
283
     0
360
3D0
 71
     1
 91
        2
 14
-0.5
 24
-0.5
 14
222.5
 24
44.5
  0
LINE
  5
3D1
330
2
100
AcDbEntity
  8
0
100
AcDbLine
 10
7.547615480263853
 20
0.9729085455148563
 30
0.0
 11
12.2937092553354
 21
0.9729084296019131
 31
0.0000000000000001
  0
LINE
  5
3D2
330
2
100
AcDbEntity
  8
AM_VIS
100
AcDbLine
 10
3.189586304450076
 20
5.351418167581955
 30
0.0
 11
3.752916749277483
 21
5.351418167581955
 31
0.0
  0
LINE
  5
3D3
330
2
100
AcDbEntity
  8
AM_VIS
100
AcDbLine
 10
2.791251526863779
 20
5.749752945168251
 30
0.0
 11
3.189586304450076
 21
5.351418167581955
 31
0.0
  0
LINE
  5
3D4
330
2
100
AcDbEntity
  8
AM_VIS
100
AcDbLine
 10
2.791251526863778
 20
6.313083389995655
 30
0.0
 11
2.791251526863778
 21
5.749752945168251
 31
0.0
  0
LINE
  5
3D5
330
2
100
AcDbEntity
  8
AM_VIS
100
AcDbLine
 10
2.791251526863778
 20
6.313083389995655
 30
0.0
 11
3.189586304450076
 21
6.711418167581953
 31
0.0
  0
LINE
  5
3D6
330
2
100
AcDbEntity
  8
AM_VIS
100
AcDbLine
 10
3.189586304450076
 20
6.711418167581953
 30
0.0
 11
3.752916749277486
 21
6.711418167581953
 31
0.0
  0
LINE
  5
3D7
330
2
100
AcDbEntity
  8
AM_VIS
100
AcDbLine
 10
3.752916749277486
 20
6.711418167581953
 30
0.0
 11
4.15125152686378
 21
6.313083389995659
 31
0.0
  0
LINE
  5
3D8
330
2
100
AcDbEntity
  8
AM_VIS
100
AcDbLine
 10
4.151251526863781
 20
6.313083389995659
 30
0.0
 11
4.151251526863781
 21
5.749752945168252
 31
0.0
  0
LINE
  5
3D9
330
2
100
AcDbEntity
  8
AM_VIS
100
AcDbLine
 10
3.752916749277483
 20
5.351418167581955
 30
0.0
 11
4.151251526863782
 21
5.749752945168252
 31
0.0
  0
ARC
  5
3DA
330
2
100
AcDbEntity
  8
AM_VIS
100
AcDbCircle
 10
3.471251526863777
 20
6.031418167581957
 30
0.0
 40
0.5538735908516408
100
AcDbArc
 50
79.59840001322084
 51
100.4015999867792
  0
CIRCLE
  5
3DB
330
2
100
AcDbEntity
  8
AM_VIS
100
AcDbCircle
 10
3.471251526863777
 20
6.031418167581957
 30
0.0
 40
0.6650000000136167
  0
CIRCLE
  5
3DC
330
2
100
AcDbEntity
  8
AM_VIS
100
AcDbCircle
 10
3.471251526863777
 20
6.031418167581957
 30
0.0
 40
0.5940000000137485
  0
LINE
  5
3DD
330
2
100
AcDbEntity
  8
AM_VIS
100
AcDbLine
 10
2.787593103983778
 20
6.830659129581952
 30
0.0
 11
3.021344376828856
 21
6.830659129581952
 31
0.0
  0
LINE
  5
3DE
330
2
100
AcDbEntity
  8
AM_VIS
100
AcDbLine
 10
2.699061797423778
 20
5.320708512141956
 30
0.0
 11
2.699061797423778
 21
6.742127823021951
 31
0.0
  0
LINE
  5
3DF
330
2
100
AcDbEntity
  8
AM_VIS
100
AcDbLine
 10
3.021344376828853
 20
5.232177205581955
 30
0.0
 11
2.787593103983778
 21
5.232177205581955
 31
0.0
  0
LINE
  5
3E0
330
2
100
AcDbEntity
  8
AM_VIS
100
AcDbLine
 10
3.047781820703773
 20
5.407075720097161
 30
0.0
 11
3.040965683900723
 21
5.250960520814102
 31
0.0
  0
LINE
  5
3E1
330
2
100
AcDbEntity
  8
AM_VIS
100
AcDbLine
 10
3.055683832897207
 20
5.40707572009716
 30
0.0
 11
3.047781820703773
 21
5.40707572009716
 31
0.0
  0
LINE
  5
3E2
330
2
100
AcDbEntity
  8
AM_VIS
100
AcDbLine
 10
3.388744368607623
 20
5.250960520814102
 30
0.0
 11
3.387208317118882
 21
5.28614188398253
 31
0.0
  0
LINE
  5
3E3
330
2
100
AcDbEntity
  8
AM_VIS
100
AcDbLine
 10
3.534137378048059
 20
5.232177205581955
 30
0.0
 11
3.408365675679491
 21
5.232177205581956
 31
0.0
  0
LINE
  5
3E4
330
2
100
AcDbEntity
  8
AM_VIS
100
AcDbLine
 10
3.555294736608669
 20
5.28614188398253
 30
0.0
 11
3.553758685119928
 21
5.250960520814102
 31
0.0
  0
LINE
  5
3E5
330
2
100
AcDbEntity
  8
AM_VIS
100
AcDbLine
 10
3.894721233023781
 20
5.407075720097161
 30
0.0
 11
3.886819220830348
 21
5.407075720097161
 31
0.0
  0
LINE
  5
3E6
330
2
100
AcDbEntity
  8
AM_VIS
100
AcDbLine
 10
3.901537369826828
 20
5.250960520814102
 30
0.0
 11
3.894721233023781
 21
5.407075720097161
 31
0.0
  0
LINE
  5
3E7
330
2
100
AcDbEntity
  8
AM_VIS
100
AcDbLine
 10
4.154909949743778
 20
5.232177205581955
 30
0.0
 11
3.921158676898696
 21
5.232177205581955
 31
0.0
  0
LINE
  5
3E8
330
2
100
AcDbEntity
  8
AM_VIS
100
AcDbLine
 10
4.243441256303778
 20
6.742127823021951
 30
0.0
 11
4.243441256303777
 21
5.320708512141956
 31
0.0
  0
LINE
  5
3E9
330
2
100
AcDbEntity
  8
AM_VIS
100
AcDbLine
 10
3.921158676898696
 20
6.830659129581952
 30
0.0
 11
4.154909949743778
 21
6.830659129581952
 31
0.0
  0
LINE
  5
3EA
330
2
100
AcDbEntity
  8
AM_VIS
100
AcDbLine
 10
3.894721233023781
 20
6.655760615066753
 30
0.0
 11
3.901537369826828
 21
6.811875814349807
 31
0.0
  0
LINE
  5
3EB
330
2
100
AcDbEntity
  8
AM_VIS
100
AcDbLine
 10
3.88681922083035
 20
6.655760615066752
 30
0.0
 11
3.894721233023781
 21
6.655760615066752
 31
0.0
  0
LINE
  5
3EC
330
2
100
AcDbEntity
  8
AM_VIS
100
AcDbLine
 10
3.553758685119928
 20
6.811875814349807
 30
0.0
 11
3.555294736608669
 21
6.776694451181388
 31
0.0
  0
LINE
  5
3ED
330
2
100
AcDbEntity
  8
AM_VIS
100
AcDbLine
 10
3.408365675679493
 20
6.830659129581952
 30
0.0
 11
3.534137378048059
 21
6.830659129581955
 31
0.0
  0
LINE
  5
3EE
330
2
100
AcDbEntity
  8
AM_VIS
100
AcDbLine
 10
3.387208317118884
 20
6.776694451181388
 30
0.0
 11
3.388744368607626
 21
6.811875814349807
 31
0.0
  0
LINE
  5
3EF
330
2
100
AcDbEntity
  8
AM_VIS
100
AcDbLine
 10
3.047781820703773
 20
6.655760615066753
 30
0.0
 11
3.055683832897205
 21
6.655760615066753
 31
0.0
  0
LINE
  5
3F0
330
2
100
AcDbEntity
  8
AM_VIS
100
AcDbLine
 10
3.040965683900723
 20
6.811875814349807
 30
0.0
 11
3.047781820703773
 21
6.655760615066753
 31
0.0
  0
LINE
  5
3F1
330
2
100
AcDbEntity
  8
AM_VIS
100
AcDbLine
 10
3.571251526863776
 20
6.54591816758196
 30
0.0
 11
3.371251526863777
 21
6.54591816758196
 31
0.0
  0
LINE
  5
3F2
330
2
100
AcDbEntity
  8
AM_VIS
100
AcDbLine
 10
3.571251526863776
 20
6.56665666582363
 30
0.0
 11
3.571251526863776
 21
6.54591816758196
 31
0.0
  0
LINE
  5
3F3
330
2
100
AcDbEntity
  8
AM_VIS
100
AcDbLine
 10
3.571251526863776
 20
6.602732441865384
 30
0.0
 11
3.571251526863776
 21
6.566656665823626
 31
0.0
  0
LINE
  5
3F4
330
2
100
AcDbEntity
  8
AM_VIS
100
AcDbLine
 10
3.371251526863777
 20
6.602732441865384
 30
0.0
 11
3.371251526863777
 21
6.566656665823626
 31
0.0
  0
LINE
  5
3F5
330
2
100
AcDbEntity
  8
AM_VIS
100
AcDbLine
 10
3.371251526863777
 20
6.54591816758196
 30
0.0
 11
3.371251526863777
 21
6.56665666582363
 31
0.0
  0
ARC
  5
3F6
330
2
100
AcDbEntity
  8
AM_VIS
100
AcDbCircle
 10
2.787593103983778
 20
6.742127823021951
 30
0.0
 40
0.0885313065600002
100
AcDbArc
 50
90.0
 51
180.0
  0
ARC
  5
3F7
330
2
100
AcDbEntity
  8
AM_VIS
100
AcDbCircle
 10
2.787593103983778
 20
5.320708512141956
 30
0.0
 40
0.0885313065600002
100
AcDbArc
 50
180.0
 51
270.0
  0
ARC
  5
3F8
330
2
100
AcDbEntity
  8
AM_VIS
100
AcDbCircle
 10
3.021344376828853
 20
5.251817205581954
 30
0.0
 40
0.0196400000000011
100
AcDbArc
 50
270.0
 51
357.5000000000045
  0
ARC
  5
3F9
330
2
100
AcDbEntity
  8
AM_VIS
100
AcDbCircle
 10
3.408365675679493
 20
5.251817205581958
 30
0.0
 40
0.0196400000000004
100
AcDbArc
 50
182.5000000000047
 51
269.9999999999948
  0
ARC
  5
3FA
330
2
100
AcDbEntity
  8
AM_VIS
100
AcDbCircle
 10
3.534137378048059
 20
5.251817205581954
 30
0.0
 40
0.0196400000000003
100
AcDbArc
 50
270.0
 51
357.5000000000044
  0
ARC
  5
3FB
330
2
100
AcDbEntity
  8
AM_VIS
100
AcDbCircle
 10
3.921158676898698
 20
5.251817205581954
 30
0.0
 40
0.0196400000000001
100
AcDbArc
 50
182.4999999999957
 51
269.9999999999948
  0
ARC
  5
3FC
330
2
100
AcDbEntity
  8
AM_VIS
100
AcDbCircle
 10
4.154909949743778
 20
5.320708512141956
 30
0.0
 40
0.0885313065599993
100
AcDbArc
 50
270.0
 51
0.0
  0
ARC
  5
3FD
330
2
100
AcDbEntity
  8
AM_VIS
100
AcDbCircle
 10
4.154909949743778
 20
6.742127823021951
 30
0.0
 40
0.0885313065600002
100
AcDbArc
 50
0.0
 51
90.0
  0
ARC
  5
3FE
330
2
100
AcDbEntity
  8
AM_VIS
100
AcDbCircle
 10
3.921158676898698
 20
6.811019129581954
 30
0.0
 40
0.0196400000000001
100
AcDbArc
 50
90.00000000000516
 51
177.5000000000043
  0
ARC
  5
3FF
330
2
100
AcDbEntity
  8
AM_VIS
100
AcDbCircle
 10
3.534137378048059
 20
6.811019129581954
 30
0.0
 40
0.0196400000000002
100
AcDbArc
 50
2.499999999995659
 51
90.0
  0
ARC
  5
400
330
2
100
AcDbEntity
  8
AM_VIS
100
AcDbCircle
 10
3.408365675679493
 20
6.811019129581951
 30
0.0
 40
0.0196400000000004
100
AcDbArc
 50
90.0
 51
177.499999999994
  0
ARC
  5
401
330
2
100
AcDbEntity
  8
AM_VIS
100
AcDbCircle
 10
3.021344376828856
 20
6.811019129581954
 30
0.0
 40
0.0196400000000001
100
AcDbArc
 50
2.499999999995659
 51
90.0
  0
ARC
  5
402
330
2
100
AcDbEntity
  8
AM_VIS
100
AcDbCircle
 10
3.471251526863777
 20
6.031418167581957
 30
0.0
 40
0.5800000000000001
100
AcDbArc
 50
99.92819184228643
 51
80.07180815771354
  0
CIRCLE
  5
403
330
2
100
AcDbEntity
  8
AM_VIS
100
AcDbCircle
 10
3.471251526863777
 20
6.031418167581957
 30
0.0
 40
0.4965
  0
ARC
  5
404
330
2
100
AcDbEntity
  8
AM_VIS
100
AcDbCircle
 10
3.471251526863777
 20
6.031418167581957
 30
0.0
 40
0.5444999999999994
100
AcDbArc
 50
100.5827102762559
 51
79.41728972374406
  0
CIRCLE
  5
405
330
2
100
AcDbEntity
  8
AM_VIS
100
AcDbCircle
 10
3.471251526863777
 20
6.031418167581957
 30
0.0
 40
0.75
  0
CIRCLE
  5
406
330
2
100
AcDbEntity
  8
AM_VIS
100
AcDbCircle
 10
3.471251526863777
 20
6.031418167581957
 30
0.0
 40
0.4924999999999999
  0
LINE
  5
407
330
2
100
AcDbEntity
  8
AM_VIS
100
AcDbLine
 10
3.550594873562541
 20
6.821737358978213
 30
0.0
 11
3.576191256303778
 21
6.821737358978213
 31
0.0
  0
LINE
  5
408
330
2
100
AcDbEntity
  8
AM_VIS
100
AcDbLine
 10
3.55099342421687
 20
5.241737358978213
 30
0.0
 11
3.576191256303778
 21
5.241737358978213
 31
0.0
  0
LINE
  5
409
330
2
100
AcDbEntity
  8
AM_VIS
100
AcDbLine
 10
3.894191256303778
 20
6.668700067582077
 30
0.0
 11
3.866690245165662
 21
6.668700067582077
 31
0.0
  0
LINE
  5
40A
330
2
100
AcDbEntity
  8
AM_VIS
100
AcDbLine
 10
3.576191256303778
 20
6.914198958977151
 30
0.0
 11
3.576191256303778
 21
6.774040314561872
 31
0.0
  0
LINE
  5
40B
330
2
100
AcDbEntity
  8
AM_VIS
100
AcDbLine
 10
3.894191256303778
 20
6.94544895897715
 30
0.0
 11
3.576191256303778
 21
6.94544895897715
 31
0.0
  0
LINE
  5
40C
330
2
100
AcDbEntity
  8
AM_VIS
100
AcDbLine
 10
3.894191256303778
 20
5.230389458977866
 30
0.0
 11
3.576191256303778
 21
5.230389458977866
 31
0.0
  0
LINE
  5
40D
330
2
100
AcDbEntity
  8
AM_VIS
100
AcDbLine
 10
3.894191256303778
 20
5.398833458977922
 30
0.0
 11
3.874161673720798
 21
5.398833458977922
 31
0.0
  0
LINE
  5
40E
330
2
100
AcDbEntity
  8
AM_VIS
100
AcDbLine
 10
3.894191256303778
 20
6.683136294810362
 30
0.0
 11
3.894191256303778
 21
6.672906869903266
 31
0.0
  0
LINE
  5
40F
330
2
100
AcDbEntity
  8
AM_VIS
100
AcDbLine
 10
3.894191256303778
 20
6.914198958977151
 30
0.0
 11
3.894191256303778
 21
6.710242889948791
 31
0.0
  0
LINE
  5
410
330
2
100
AcDbEntity
  8
AM_VIS
100
AcDbLine
 10
3.894191256303778
 20
5.357549161954091
 30
0.0
 11
3.894191256303778
 21
5.261689458977865
 31
0.0
  0
LINE
  5
411
330
2
100
AcDbEntity
  8
AM_VIS
100
AcDbLine
 10
3.894191256303778
 20
5.394626656656726
 30
0.0
 11
3.894191256303778
 21
5.384655757092521
 31
0.0
  0
LINE
  5
412
330
2
100
AcDbEntity
  8
AM_VIS
100
AcDbLine
 10
3.894191256303778
 20
5.233489300374831
 30
0.0
 11
3.914100526240154
 21
5.233489300374831
 31
0.0
  0
LINE
  5
413
330
2
100
AcDbEntity
  8
AM_VIS
100
AcDbLine
 10
3.894191256303778
 20
6.833623417581526
 30
0.0
 11
3.956191256303779
 21
6.833623417581526
 31
0.0
  0
LINE
  5
414
330
2
100
AcDbEntity
  8
AM_VIS
100
AcDbLine
 10
3.894191256303778
 20
6.687918167581957
 30
0.0
 11
3.896125262088223
 21
6.687918167581957
 31
0.0
  0
LINE
  5
415
330
2
100
AcDbEntity
  8
AM_VIS
100
AcDbLine
 10
3.894191256303778
 20
5.379194550374402
 30
0.0
 11
3.895938551183268
 21
5.379194550374402
 31
0.0
  0
LINE
  5
416
330
2
100
AcDbEntity
  8
AM_VIS
100
AcDbLine
 10
3.576191256303778
 20
5.288796020602042
 30
0.0
 11
3.576191256303778
 21
5.261689458977865
 31
0.0
  0
LINE
  5
417
330
2
100
AcDbEntity
  8
AM_VIS
100
AcDbLine
 10
3.894191256303778
 20
6.668700067582077
 30
0.0
 11
3.894191256303778
 21
6.655760615066753
 31
0.0
  0
LINE
  5
418
330
2
100
AcDbEntity
  8
AM_VIS
100
AcDbLine
 10
3.894191256303778
 20
5.407075720097161
 30
0.0
 11
3.894191256303778
 21
5.398833458977922
 31
0.0
  0
LINE
  5
419
330
2
100
AcDbEntity
  8
AM_VIS
100
AcDbLine
 10
3.576191256303778
 20
6.914198958977151
 30
0.0
 11
3.576191256303778
 21
6.945448958977151
 31
0.0
  0
LINE
  5
41A
330
2
100
AcDbEntity
  8
AM_VIS
100
AcDbLine
 10
3.894191256303778
 20
6.668700067582077
 30
0.0
 11
3.894191256303778
 21
6.672906869903267
 31
0.0
  0
LINE
  5
41B
330
2
100
AcDbEntity
  8
AM_VIS
100
AcDbLine
 10
3.894191256303778
 20
6.683136294810362
 30
0.0
 11
3.894191256303778
 21
6.710242889948791
 31
0.0
  0
LINE
  5
41C
330
2
100
AcDbEntity
  8
AM_VIS
100
AcDbLine
 10
3.894191256303778
 20
6.914198958977151
 30
0.0
 11
3.894191256303778
 21
6.945448958977151
 31
0.0
  0
LINE
  5
41D
330
2
100
AcDbEntity
  8
AM_VIS
100
AcDbLine
 10
3.894191256303778
 20
5.230389458977865
 30
0.0
 11
3.894191256303778
 21
5.261689458977865
 31
0.0
  0
LINE
  5
41E
330
2
100
AcDbEntity
  8
AM_VIS
100
AcDbLine
 10
3.894191256303778
 20
5.357549161954091
 30
0.0
 11
3.894191256303778
 21
5.384655757092521
 31
0.0
  0
LINE
  5
41F
330
2
100
AcDbEntity
  8
AM_VIS
100
AcDbLine
 10
3.894191256303778
 20
5.394626656656728
 30
0.0
 11
3.894191256303778
 21
5.398833458977921
 31
0.0
  0
LINE
  5
420
330
2
100
AcDbEntity
  8
AM_VIS
100
AcDbLine
 10
3.956191256303779
 20
6.833623417581526
 30
0.0
 11
3.956191256303779
 21
6.830659129581952
 31
0.0
  0
LINE
  5
421
330
2
100
AcDbEntity
  8
AM_VIS
100
AcDbLine
 10
3.576191256303778
 20
5.230389458977865
 30
0.0
 11
3.576191256303778
 21
5.261689458977865
 31
0.0
  0
CIRCLE
  5
422
330
2
100
AcDbEntity
  8
AM_VIS
100
AcDbCircle
 10
3.471251526863777
 20
6.031418167581957
 30
0.0
 40
0.4874999999999902
  0
CIRCLE
  5
423
330
2
100
AcDbEntity
  8
AM_VIS
100
AcDbCircle
 10
3.471251526863777
 20
6.031418167581957
 30
0.0
 40
0.4674999999999942
  0
LINE
  5
424
330
2
100
AcDbEntity
  8
AM_VIS
100
AcDbLine
 10
3.35394380426843
 20
1.595167184217928
 30
0.0
 11
3.371823331494439
 21
1.588169381920877
 31
0.0
  0
LINE
  5
425
330
2
100
AcDbEntity
  8
AM_VIS
100
AcDbLine
 10
2.688929185964069
 20
2.74700629089711
 30
0.0
 11
2.691808675017163
 21
2.765989316831003
 31
0.0
  0
LINE
  5
426
330
2
100
AcDbEntity
  8
AM_VIS
100
AcDbLine
 10
2.691831888959312
 20
2.765985795564554
 30
0.0
 11
2.973497111373019
 21
2.928605287546464
 31
0.0
  0
LINE
  5
427
330
2
100
AcDbEntity
  8
AM_VIS
100
AcDbLine
 10
2.973497111347868
 20
2.928605287560986
 30
0.0
 11
3.092575785627638
 21
2.997355392211154
 31
0.0
  0
LINE
  5
428
330
2
100
AcDbEntity
  8
AM_VIS
100
AcDbLine
 10
3.09257578565279
 20
2.997355392196633
 30
0.0
 11
3.490910563239085
 21
2.767376701129594
 31
0.0
  0
ARC
  5
429
330
2
100
AcDbEntity
  8
AM_VIS
100
AcDbCircle
 10
3.897109544494984
 20
4.068391566081957
 30
0.0
 40
1.467028523020348
100
AcDbArc
 50
230.9808265631833
 51
249.0191734368172
  0
LINE
  5
42A
330
2
100
AcDbEntity
  8
AM_VIS
100
AcDbLine
 10
3.490910563264228
 20
2.76737670111508
 30
0.0
 11
3.37183188898446
 21
2.698626596464912
 31
0.0
  0
LINE
  5
42B
330
2
100
AcDbEntity
  8
AM_VIS
100
AcDbLine
 10
3.490910563239085
 20
2.767376701129594
 30
0.0
 11
3.772575785652787
 21
2.279518225183873
 31
0.0
  0
ARC
  5
42C
330
2
100
AcDbEntity
  8
AM_VIS
100
AcDbCircle
 10
5.147191152328232
 20
3.398391761129953
 30
0.0
 40
1.90829028181988
100
AcDbArc
 50
201.5120835698342
 51
218.4879164301658
  0
LINE
  5
42D
330
2
100
AcDbEntity
  8
AM_VIS
100
AcDbLine
 10
3.653497111373022
 20
2.210768120562728
 30
0.0
 11
3.772575785652788
 21
2.279518225212894
 31
0.0
  0
LINE
  5
42E
330
2
100
AcDbEntity
  8
AM_VIS
100
AcDbLine
 10
3.772575785652788
 20
2.279518225183871
 30
0.0
 11
3.772575785652788
 21
1.819560843049798
 31
0.0
  0
ARC
  5
42F
330
2
100
AcDbEntity
  8
AM_VIS
100
AcDbCircle
 10
5.102387200030706
 20
1.980789429466676
 30
0.0
 40
1.467028523020386
100
AcDbArc
 50
170.9808265631835
 51
189.019173436817
  0
LINE
  5
430
330
2
100
AcDbEntity
  8
AM_VIS
100
AcDbLine
 10
3.653497111390792
 20
1.750810738409889
 30
0.0
 11
3.772575785670558
 21
1.819560843060056
 31
0.0
  0
LINE
  5
431
330
2
100
AcDbEntity
  8
AM_VIS
100
AcDbLine
 10
3.371831888959316
 20
1.588191246417724
 30
0.0
 11
3.653497111373022
 21
1.750810738399632
 31
0.0
  0
LINE
  5
432
330
2
100
AcDbEntity
  8
AM_VIS
100
AcDbLine
 10
3.166037980093018
 20
1.486696585796151
 30
0.0
 11
3.483126325137379
 21
1.669767627164407
 31
0.0
  0
LINE
  5
433
330
2
100
AcDbEntity
  8
AM_VIS
100
AcDbLine
 10
2.501037980079403
 20
2.638510372853041
 30
0.0
 11
2.818126325123763
 21
2.821581414221295
 31
0.0
  0
SPLINE
  5
434
330
2
100
AcDbEntity
  8
AM_VIS
100
AcDbSpline
210
-0.0000000000000005
220
-0.0000000000000003
230
1.0
 70
     8
 71
     3
 72
    84
 73
    80
 74
     0
 42
0.0000000001
 43
0.0000000001
 40
5.497787143782136
 40
5.497787143782136
 40
5.497787143782136
 40
5.497787143782136
 40
5.570932611099759
 40
5.570932611099759
 40
5.644078078417378
 40
5.644078078417378
 40
5.717223545735
 40
5.717223545735
 40
5.790369013052622
 40
5.790369013052622
 40
5.867542470051562
 40
5.867542470051562
 40
5.944715927050503
 40
5.944715927050503
 40
6.021889384049441
 40
6.021889384049441
 40
6.099062841048382
 40
6.099062841048382
 40
6.180528729384644
 40
6.180528729384644
 40
6.261994617720903
 40
6.261994617720903
 40
6.343460506057164
 40
6.343460506057164
 40
6.424926394393424
 40
6.424926394393424
 40
6.506941575282117
 40
6.506941575282117
 40
6.588956756170808
 40
6.588956756170808
 40
6.670971937059501
 40
6.670971937059501
 40
6.752987117948192
 40
6.752987117948192
 40
6.834665906036542
 40
6.834665906036542
 40
6.916344694124893
 40
6.916344694124893
 40
6.998023482213241
 40
6.998023482213241
 40
7.079702270301591
 40
7.079702270301591
 40
7.161236514161907
 40
7.161236514161907
 40
7.242770758022222
 40
7.242770758022222
 40
7.324305001882537
 40
7.324305001882537
 40
7.405839245742853
 40
7.405839245742853
 40
7.487537705852911
 40
7.487537705852911
 40
7.569236165962972
 40
7.569236165962972
 40
7.650934626073033
 40
7.650934626073033
 40
7.732633086183093
 40
7.732633086183093
 40
7.814662419341408
 40
7.814662419341408
 40
7.896691752499723
 40
7.896691752499723
 40
7.978721085658039
 40
7.978721085658039
 40
8.060750418816352
 40
8.060750418816352
 40
8.142064710603206
 40
8.142064710603206
 40
8.223379002390057
 40
8.223379002390057
 40
8.304693294176907
 40
8.304693294176907
 40
8.386007585963758
 40
8.386007585963758
 40
8.470464989766481
 40
8.470464989766481
 40
8.554922393569205
 40
8.554922393569205
 40
8.63937979737193
 40
8.63937979737193
 40
8.63937979737193
 40
8.63937979737193
 10
3.166037980093018
 20
1.486696585796151
 30
-0.0000000000000004
 10
3.157150805813762
 20
1.481565573333688
 30
-0.0000000000000004
 10
3.147938261288651
 20
1.476998431639626
 30
0.0
 10
3.128952099608676
 20
1.469030326020444
 30
0.0
 10
3.119178779218721
 20
1.465629352544736
 30
0.0
 10
3.099164118426771
 20
1.460009764219144
 30
-0.0000000000000004
 10
3.088922990562656
 20
1.457791002417939
 30
0.0000000000000004
 10
3.068060584115886
 20
1.4545319873774
 30
0.0
 10
3.057439386690603
 20
1.453491535000108
 30
-0.0000000000000004
 10
3.035301807943138
 20
1.452545446181484
 30
0.0000000000000004
 10
3.023768357381993
 20
1.452705294398604
 30
0.0000000000000004
 10
3.000444740373227
 20
1.45428466729762
 30
0.0000000000000004
 10
2.988654463721168
 20
1.455704050846341
 30
-0.0000000000000004
 10
2.964886168508691
 20
1.459765519946586
 30
0.0
 10
2.952908031580855
 20
1.462407545310502
 30
0.0
 10
2.928826292604506
 20
1.468875230890629
 30
-0.0000000000000004
 10
2.916722598054285
 20
1.472700883901321
 30
0.0000000000000004
 10
2.891773523370321
 20
1.481740143176516
 30
-0.0000000000000004
 10
2.878924271007022
 20
1.487019143351109
 30
0.0
 10
2.853219402232066
 20
1.498802113896015
 30
0.0
 10
2.840363748894997
 20
1.505306117310652
 30
0.0
 10
2.814714166227969
 20
1.51948719972152
 30
0.0000000000000004
 10
2.801920227529557
 20
1.52716430763241
 30
0.0
 10
2.776463050990871
 20
1.543635978721504
 30
0.0000000000000004
 10
2.763799820448498
 20
1.552430561855767
 30
0.0
 10
2.738589210074629
 20
1.571139953860328
 30
0.0
 10
2.726043203475329
 20
1.581061929664474
 30
0.0
 10
2.701226250974229
 20
1.601911193544012
 30
0.0
 10
2.688955326174765
 20
1.612838483836504
 30
0.0000000000000004
 10
2.66476025413267
 20
1.635626760964758
 30
0.0000000000000004
 10
2.652836129322319
 20
1.647487743064123
 30
0.0
 10
2.629405637773925
 20
1.672066579216311
 30
-0.0000000000000004
 10
2.617899293167376
 20
1.684784423120088
 30
0.0
 10
2.595420127148484
 20
1.71094142558887
 30
0.0
 10
2.584445330982148
 20
1.72437739600161
 30
0.0000000000000004
 10
2.563045764196609
 20
1.751932711445885
 30
-0.0000000000000004
 10
2.552621012520836
 20
1.766052039323053
 30
0.0
 10
2.532385602804688
 20
1.794884662975613
 30
0.0000000000000004
 10
2.522574961857142
 20
1.809597939165703
 30
0.0000000000000004
 10
2.50362868046426
 20
1.839525544362834
 30
0.0000000000000004
 10
2.494493055074164
 20
1.854739851888712
 30
0.0000000000000004
 10
2.476969586587743
 20
1.88554643146242
 30
0.0
 10
2.468580460934963
 20
1.901137963860132
 30
0.0
 10
2.452584803514389
 20
1.932627335664477
 30
0.0
 10
2.444978282041899
 20
1.948525151245362
 30
0.0000000000000004
 10
2.430596373499171
 20
1.980528076273735
 30
0.0
 10
2.423820994002845
 20
1.996633161193486
 30
0.0
 10
2.411145259931856
 20
2.028950831978133
 30
0.0
 10
2.405244909816883
 20
2.045163393065756
 30
0.0000000000000004
 10
2.394347329637948
 20
2.077628846033571
 30
0.0000000000000004
 10
2.389351944138174
 20
2.093881728685175
 30
0.0000000000000004
 10
2.380313290200247
 20
2.1262954661896
 30
0.0
 10
2.376270018355046
 20
2.142456297733848
 30
0.0000000000000004
 10
2.36916502045597
 20
2.174587635961209
 30
0.0000000000000004
 10
2.366103286114101
 20
2.190558122185838
 30
0.0
 10
2.360986047399946
 20
2.222212567157926
 30
0.0000000000000004
 10
2.3589305294375
 20
2.237896510682539
 30
0.0
 10
2.355839743964375
 20
2.268947056963234
 30
0.0000000000000004
 10
2.354808624561021
 20
2.2843121098619
 30
0.0
 10
2.353797742431279
 20
2.314567356592606
 30
0.0
 10
2.353817957601421
 20
2.329457558559445
 30
0.0000000000000004
 10
2.35492290133516
 20
2.358674446700818
 30
-0.0000000000000004
 10
2.356007610360405
 20
2.373001162656785
 30
0.0
 10
2.359251981272473
 20
2.401004907612501
 30
0.0000000000000004
 10
2.36141163828723
 20
2.41468199508604
 30
0.0
 10
2.366790503089055
 20
2.441185479373444
 30
0.0
 10
2.370000338937575
 20
2.454018337960631
 30
0.0000000000000004
 10
2.37748972196257
 20
2.478878362122148
 30
0.0
 10
2.381769361327108
 20
2.49090562946696
 30
0.0000000000000004
 10
2.391399548172134
 20
2.514066822927909
 30
0.0
 10
2.396750275319477
 20
2.525200826442544
 30
0.0000000000000004
 10
2.408515617211707
 20
2.546481088737831
 30
0.0
 10
2.414930492255548
 20
2.556627325880743
 30
0.0
 10
2.429070307993056
 20
2.576200865519727
 30
0.0
 10
2.436836685233055
 20
2.585585000457954
 30
0.0000000000000004
 10
2.453442598243017
 20
2.603057261944999
 30
0.0000000000000004
 10
2.462282261484153
 20
2.611144905219272
 30
0.0
 10
2.480949282684373
 20
2.625909472829749
 30
0.0
 10
2.49077640551718
 20
2.63258585001723
 30
0.0
 10
2.501037980079401
 20
2.63851037285304
 30
-0.0000000000000004
  0
SPLINE
  5
435
330
2
100
AcDbEntity
  8
AM_VIS
100
AcDbSpline
210
-0.0000000000000007
220
-0.0000000000000005
230
-1.0
 70
     8
 71
     3
 72
    84
 73
    80
 74
     0
 42
0.0000000001
 43
0.0000000001
 40
2.36237968516503
 40
2.36237968516503
 40
2.36237968516503
 40
2.36237968516503
 40
2.451528982525478
 40
2.451528982525478
 40
2.540678279885925
 40
2.540678279885925
 40
2.629827577246373
 40
2.629827577246373
 40
2.718976874606821
 40
2.718976874606821
 40
2.799931609693354
 40
2.799931609693354
 40
2.880886344779888
 40
2.880886344779888
 40
2.961841079866421
 40
2.961841079866421
 40
3.042795814952953
 40
3.042795814952953
 40
3.120744535581952
 40
3.120744535581952
 40
3.198693256210952
 40
3.198693256210952
 40
3.276641976839951
 40
3.276641976839951
 40
3.35459069746895
 40
3.35459069746895
 40
3.43264811683835
 40
3.43264811683835
 40
3.510705536207749
 40
3.510705536207749
 40
3.588762955577149
 40
3.588762955577149
 40
3.666820374946549
 40
3.666820374946549
 40
3.745225593928769
 40
3.745225593928769
 40
3.823630812910988
 40
3.823630812910988
 40
3.902036031893207
 40
3.902036031893207
 40
3.980441250875426
 40
3.980441250875426
 40
4.058944324583876
 40
4.058944324583876
 40
4.137447398292325
 40
4.137447398292325
 40
4.215950472000772
 40
4.215950472000772
 40
4.294453545709223
 40
4.294453545709223
 40
4.372760185195718
 40
4.372760185195718
 40
4.451066824682214
 40
4.451066824682214
 40
4.52937346416871
 40
4.52937346416871
 40
4.607680103655205
 40
4.607680103655205
 40
4.685612104617205
 40
4.685612104617205
 40
4.763544105579205
 40
4.763544105579205
 40
4.841476106541205
 40
4.841476106541205
 40
4.919408107503205
 40
4.919408107503205
 40
4.997734287836693
 40
4.997734287836693
 40
5.076060468170183
 40
5.076060468170183
 40
5.154386648503671
 40
5.154386648503671
 40
5.23271282883716
 40
5.23271282883716
 40
5.319009202161258
 40
5.319009202161258
 40
5.405305575485355
 40
5.405305575485355
 40
5.491601948809451
 40
5.491601948809451
 40
5.491601948809451
 40
5.491601948809451
 10
2.535041178483063
 20
2.580187970167612
 30
0.0
 10
2.54307686779911
 20
2.584713299142783
 30
0.0
 10
2.55146850664699
 20
2.58862298765517
 30
0.0
 10
2.568966524850183
 20
2.595198557144605
 30
0.0
 10
2.578073564750849
 20
2.597864279384516
 30
-0.0000000000000004
 10
2.596995478636141
 20
2.601916858401756
 30
0.0
 10
2.606810672851725
 20
2.603303242797863
 30
-0.0000000000000004
 10
2.627115137041565
 20
2.604749327118615
 30
0.0
 10
2.637604352517505
 20
2.604808559354759
 30
0.0
 10
2.658200233250135
 20
2.603612645836875
 30
0.0
 10
2.668253105989195
 20
2.602477690793372
 30
0.0
 10
2.688794756983138
 20
2.599052764340942
 30
0.0
 10
2.699283362399184
 20
2.596762722931885
 30
-0.0000000000000004
 10
2.720618098813127
 20
2.591017244362603
 30
0.0
 10
2.731464087781625
 20
2.587561807482076
 30
0.0000000000000004
 10
2.753428152162293
 20
2.579489436182559
 30
0.0
 10
2.764546127188203
 20
2.574872536350634
 30
0.0
 10
2.786549086025598
 20
2.564687435403731
 30
-0.0000000000000004
 10
2.797427331493023
 20
2.559160998285625
 30
-0.0000000000000004
 10
2.819273547835403
 20
2.547074066850272
 30
-0.0000000000000004
 10
2.830241484177548
 20
2.540513609527323
 30
-0.0000000000000004
 10
2.852187408827596
 20
2.526394564632689
 30
0.0
 10
2.863165374730281
 20
2.518836010074781
 30
0.0000000000000004
 10
2.885052988749271
 20
2.50276509951578
 30
0.0
 10
2.89596262137322
 20
2.494252772030524
 30
-0.0000000000000004
 10
2.917652165163393
 20
2.476313623588607
 30
-0.0000000000000004
 10
2.928431862020116
 20
2.466885567940749
 30
-0.0000000000000004
 10
2.949771444504746
 20
2.447183683892212
 30
-0.0000000000000004
 10
2.960331319875221
 20
2.436909877421477
 30
-0.0000000000000004
 10
2.981159278868913
 20
2.415581255550548
 30
0.0
 10
2.991427352901061
 20
2.40452646007044
 30
0.0
 10
3.011602615131301
 20
2.381706022940341
 30
0.0
 10
3.021509793899251
 20
2.36994039991318
 30
-0.0000000000000004
 10
3.040940534075748
 20
2.345719453281412
 30
0.0
 10
3.050462178591709
 20
2.333261306679746
 30
0.0
 10
3.069011541786462
 20
2.307783808986403
 30
-0.0000000000000004
 10
3.078039250662818
 20
2.294764475676446
 30
0.0
 10
3.095541248264017
 20
2.268248758579693
 30
0.0000000000000004
 10
3.104015527076883
 20
2.254752392334061
 30
0.0
 10
3.120355273297681
 20
2.227370050292925
 30
-0.0000000000000004
 10
3.128220730693608
 20
2.213484091919384
 30
0.0000000000000004
 10
3.143301249626411
 20
2.185395252022372
 30
0.0
 10
3.150515476511561
 20
2.171192013797353
 30
0.0000000000000004
 10
3.164236024780521
 20
2.142578176168186
 30
0.0
 10
3.170742335785296
 20
2.128167594228759
 30
0.0
 10
3.183005632149257
 20
2.09923359063734
 30
0.0
 10
3.188762606804928
 20
2.084710186505553
 30
-0.0000000000000004
 10
3.199491161669069
 20
2.055646264078181
 30
0.0
 10
3.204462730628793
 20
2.041105763501836
 30
-0.0000000000000004
 10
3.213578665518484
 20
2.012140334656724
 30
-0.0000000000000004
 10
3.217725059443536
 20
1.997715226326055
 30
-0.0000000000000004
 10
3.225181957882828
 20
1.969039718503466
 30
0.0
 10
3.228492449242888
 20
1.954789338058346
 30
-0.0000000000000004
 10
3.234259700436886
 20
1.926558687512165
 30
-0.0000000000000004
 10
3.236716445557493
 20
1.912578438513451
 30
0.0
 10
3.240765122479762
 20
1.884982438721614
 30
-0.0000000000000004
 10
3.242357037847583
 20
1.871366712752083
 30
0.0
 10
3.244666662580821
 20
1.844656499071673
 30
0.0000000000000004
 10
3.245388503544826
 20
1.831559858893746
 30
0.0000000000000004
 10
3.245975629035867
 20
1.805908291691762
 30
0.0
 10
3.245840896693623
 20
1.793353404840014
 30
-0.0000000000000004
 10
3.244726805658801
 20
1.768870713446846
 30
0.0
 10
3.243747434746165
 20
1.756942963395499
 30
0.0
 10
3.240964569421946
 20
1.733794994325269
 30
-0.0000000000000004
 10
3.239161075881415
 20
1.722574848448022
 30
0.0
 10
3.234748117345356
 20
1.700860941064814
 30
0.0
 10
3.232134647171728
 20
1.690371239006569
 30
0.0000000000000004
 10
3.226143085151111
 20
1.670246197499563
 30
0.0000000000000004
 10
3.222765070850011
 20
1.660610963941603
 30
-0.0000000000000004
 10
3.215289768600378
 20
1.64224756738959
 30
-0.0000000000000004
 10
3.211192625308696
 20
1.63351949243055
 30
0.0
 10
3.202328204246042
 20
1.617007510057383
 30
0.0
 10
3.197561136099448
 20
1.609223620142024
 30
0.0000000000000004
 10
3.186887681829805
 20
1.593876662458547
 30
0.0
 10
3.18091513044385
 20
1.586416664985819
 30
0.0000000000000004
 10
3.168266150922243
 20
1.5726707244549
 30
-0.0000000000000004
 10
3.161589916496488
 20
1.566384329392758
 30
0.0
 10
3.147563828700818
 20
1.554975030483157
 30
0.0000000000000004
 10
3.140213797801536
 20
1.549851573353465
 30
-0.0000000000000004
 10
3.132530896959521
 20
1.545305420766358
 30
0.0000000000000004
  0
ELLIPSE
  5
436
330
2
100
AcDbEntity
  8
AM_VIS
100
AcDbEllipse
 10
3.150626325130571
 20
2.245674520692849
 30
0.0
 11
0.3325000000067737
 21
-0.5759068935284642
 31
0.0
210
0.0
220
0.0
230
0.9999999999999998
 40
0.5773502691896262
 41
0.0000000000001728
 42
3.141592653589964
  0
LINE
  5
437
330
2
100
AcDbEntity
  8
AM_VIS
100
AcDbLine
 10
3.411132198573718
 20
3.606859934465073
 30
0.0
 11
3.576419308713461
 21
3.511431376932318
 31
0.0
  0
LINE
  5
438
330
2
100
AcDbEntity
  8
AM_VIS
100
AcDbLine
 10
3.029294536732983
 20
3.386405857614588
 30
0.0
 11
3.194581646872725
 21
3.290977300081831
 31
0.0
  0
LINE
  5
439
330
2
100
AcDbEntity
  8
AM_VIS
100
AcDbLine
 10
2.966693449517102
 20
2.924677191542475
 30
0.0
 11
2.966693449517102
 21
3.350263103058934
 31
0.0
  0
LINE
  5
43A
330
2
100
AcDbEntity
  8
AM_VIS
100
AcDbLine
 10
3.816972080974473
 20
1.641821502456902
 30
0.0
 11
3.812432554256571
 21
1.7644992190024
 31
0.0
  0
LINE
  5
43B
330
2
100
AcDbEntity
  8
AM_VIS
100
AcDbLine
 10
3.99613355040048
 20
1.523046067189854
 30
0.0
 11
3.830846440260735
 21
1.61847462472261
 31
0.0
  0
LINE
  5
43C
330
2
100
AcDbEntity
  8
AM_VIS
100
AcDbLine
 10
4.440572299457096
 20
2.940226905994154
 30
0.0
 11
4.440572299457096
 21
1.779642898595994
 31
0.0
  0
LINE
  5
43D
330
2
100
AcDbEntity
  8
AM_VIS
100
AcDbLine
 10
4.058734637616361
 20
2.719772829143669
 30
0.0
 11
4.058734637616359
 21
1.559188821745506
 31
0.0
  0
LINE
  5
43E
330
2
100
AcDbEntity
  8
AM_VIS
100
AcDbLine
 10
4.212684102101471
 20
3.144083727193868
 30
0.0
 11
4.377971212241217
 21
3.048655169661111
 31
0.0
  0
LINE
  5
43F
330
2
100
AcDbEntity
  8
AM_VIS
100
AcDbLine
 10
3.830846440260735
 20
2.923629650343381
 30
0.0
 11
3.99613355040048
 21
2.828201092810624
 31
0.0
  0
LINE
  5
440
330
2
100
AcDbEntity
  8
AM_VIS
100
AcDbLine
 10
3.812152344419543
 20
2.791618652498553
 30
0.0
 11
3.816972080974473
 21
2.916303502746605
 31
0.0
  0
LINE
  5
441
330
2
100
AcDbEntity
  8
AM_VIS
100
AcDbLine
 10
3.806564778012551
 20
2.794844635467744
 30
0.0
 11
3.812152344419545
 21
2.791618652498551
 31
0.0
  0
LINE
  5
442
330
2
100
AcDbEntity
  8
AM_VIS
100
AcDbLine
 10
3.571055414666087
 20
3.058283556237967
 30
0.0
 11
3.572141567090028
 21
3.028931003104232
 31
0.0
  0
LINE
  5
443
330
2
100
AcDbEntity
  8
AM_VIS
100
AcDbLine
 10
3.850084693594371
 20
3.353430593303441
 30
0.0
 11
3.939018717220561
 21
3.302084510822746
 31
0.0
  0
LINE
  5
444
330
2
100
AcDbEntity
  8
AM_VIS
100
AcDbLine
 10
3.468247031753636
 20
3.132976516452956
 30
0.0
 11
3.557181055379826
 21
3.081630433972259
 31
0.0
  0
LINE
  5
445
330
2
100
AcDbEntity
  8
AM_VIS
100
AcDbLine
 10
3.453286520043435
 20
3.097551996511128
 30
0.0
 11
3.454372672467376
 21
3.125650368856177
 31
0.0
  0
LINE
  5
446
330
2
100
AcDbEntity
  8
AM_VIS
100
AcDbLine
 10
3.595113404554653
 20
3.357834296555151
 30
0.0
 11
3.720660345143725
 21
3.285349736610116
 31
0.0
  0
LINE
  5
447
330
2
100
AcDbEntity
  8
AM_VIS
100
AcDbLine
 10
3.213275742713918
 20
3.137380219704666
 30
0.0
 11
3.218863309120913
 21
3.134154236735471
 31
0.0
  0
LINE
  5
448
330
2
100
AcDbEntity
  8
AM_VIS
100
AcDbLine
 10
3.590293667999721
 20
3.488084499198026
 30
0.0
 11
3.595113404554653
 21
3.357834296555151
 31
0.0
  0
LINE
  5
449
330
2
100
AcDbEntity
  8
AM_VIS
100
AcDbLine
 10
3.595113404554653
 20
3.357834296555151
 30
0.0
 11
3.213275742713918
 21
3.137380219704666
 31
0.0
  0
LINE
  5
44A
330
2
100
AcDbEntity
  8
AM_VIS
100
AcDbLine
 10
3.208456006158986
 20
3.267630422347541
 30
0.0
 11
3.213275742713918
 21
3.137380219704664
 31
0.0
  0
LINE
  5
44B
330
2
100
AcDbEntity
  8
AM_VIS
100
AcDbLine
 10
3.409122900122901
 20
2.896654736829357
 30
0.0
 11
3.510370497746206
 21
2.838199409086738
 31
0.0
  0
LINE
  5
44C
330
2
100
AcDbEntity
  8
AM_VIS
100
AcDbLine
 10
3.545768786163433
 20
2.858636620433276
 30
0.0
 11
3.499632568114781
 21
2.831999862523495
 31
0.0
  0
LINE
  5
44D
330
2
100
AcDbEntity
  8
AM_VIS
100
AcDbLine
 10
3.488348194799077
 20
2.801989611667567
 30
0.0
 11
3.499631566340921
 21
2.832000239169623
 31
0.0
  0
LINE
  5
44E
330
2
100
AcDbEntity
  8
AM_VIS
100
AcDbLine
 10
3.460063923551615
 20
2.785659680049011
 30
0.0
 11
3.471347295093458
 21
2.815670307551068
 31
0.0
  0
LINE
  5
44F
330
2
100
AcDbEntity
  8
AM_VIS
100
AcDbLine
 10
3.441722982982286
 20
2.795775161053581
 30
0.0
 11
3.443064011931412
 21
2.799340004435728
 31
0.0
  0
LINE
  5
450
330
2
100
AcDbEntity
  8
AM_VIS
100
AcDbLine
 10
3.300301626744977
 20
2.877424819146354
 30
0.0
 11
3.301642655694103
 21
2.8809896625285
 31
0.0
  0
LINE
  5
451
330
2
100
AcDbEntity
  8
AM_VIS
100
AcDbLine
 10
3.301642905546001
 20
2.880989814396512
 30
0.0
 11
3.306325148013653
 21
2.873947442825796
 31
0.0
  0
LINE
  5
452
330
2
100
AcDbEntity
  8
AM_VIS
100
AcDbLine
 10
3.318496225673509
 20
2.866919941685728
 30
0.0
 11
3.329925912209868
 21
2.897319975659116
 31
0.0
  0
LINE
  5
453
330
2
100
AcDbEntity
  8
AM_VIS
100
AcDbLine
 10
3.329929164602936
 20
2.897321066277243
 30
0.0
 11
3.344071521630424
 21
2.876030431362105
 31
0.0
  0
LINE
  5
454
330
2
100
AcDbEntity
  8
AM_VIS
100
AcDbLine
 10
3.344067327984526
 20
2.876029464221113
 30
0.0
 11
3.358209623247476
 21
2.913650117811485
 31
0.0
  0
INSERT
  5
455
330
2
100
AcDbEntity
  8
0
 62
     2
100
AcDbBlockReference
  2
*U0
 10
-0.1687907807263933
 20
-0.5036539544851273
 30
0.0
  0
INSERT
  5
45A
330
2
100
AcDbEntity
  8
0
 62
     2
100
AcDbBlockReference
  2
*U1
 10
-0.1687907807263933
 20
-0.5036539544851273
 30
0.0
  0
INSERT
  5
45F
330
2
100
AcDbEntity
  8
0
 62
     2
100
AcDbBlockReference
  2
*U2
 10
-0.1687907807263933
 20
-0.5036539544851273
 30
0.0
  0
INSERT
  5
464
330
2
100
AcDbEntity
  8
0
 62
     2
100
AcDbBlockReference
  2
*U3
 10
-0.1687907807263933
 20
-0.5036539544851273
 30
0.0
  0
INSERT
  5
469
330
2
100
AcDbEntity
  8
0
 62
     2
100
AcDbBlockReference
  2
*U4
 10
-0.549253270676477
 20
13.61130849680723
 30
0.0
  0
INSERT
  5
46E
330
2
100
AcDbEntity
  8
0
 62
     2
100
AcDbBlockReference
  2
*U5
 10
-0.549253270676477
 20
13.61130849680723
 30
0.0
  0
INSERT
  5
473
330
2
100
AcDbEntity
  8
0
 62
     2
100
AcDbBlockReference
  2
*U6
 10
-0.549253270676477
 20
13.61130849680723
 30
0.0
  0
INSERT
  5
478
330
2
100
AcDbEntity
  8
0
 62
     2
100
AcDbBlockReference
  2
*U7
 10
-0.549253270676477
 20
13.61130849680723
 30
0.0
  0
MTEXT
  5
47D
330
2
100
AcDbEntity
  8
PHANTOM
 62
     7
100
AcDbMText
 10
23.15489302961159
 20
15.39944037828246
 30
0.0
 40
0.18
 41
0.0
 71
     4
 72
     5
  1

 73
     1
 44
1.0
1001
ACAD
1000
MTEXTBEGIN
1070
    73
1070
     1
1070
    44
1040
1.0
1070
    74
1070
     0
1000
MTEXTEND
  0
MTEXT
  5
480
330
2
100
AcDbEntity
  8
CENTER
 62
     7
100
AcDbMText
 10
14.49179063596356
 20
4.7166871175225
 30
0.0
 40
0.18
 41
0.0
 71
     4
 72
     5
  1

 73
     1
 44
1.0
1001
ACAD
1000
MTEXTBEGIN
1070
    73
1070
     1
1070
    44
1040
1.0
1070
    74
1070
     0
1000
MTEXTEND
  0
MTEXT
  5
482
330
2
100
AcDbEntity
  8
PHANTOM
 62
     7
100
AcDbMText
 10
31.31584157776372
 20
12.02612683483933
 30
0.0
 40
0.18
 41
0.0
 71
     6
 72
     5
  1

 73
     1
 44
1.0
1001
ACAD
1000
MTEXTBEGIN
1070
    73
1070
     1
1070
    44
1040
1.0
1070
    74
1070
     0
1000
MTEXTEND
  0
MTEXT
  5
483
330
2
100
AcDbEntity
  8
PHANTOM
 62
     7
100
AcDbMText
 10
33.5346832845555
 20
17.33383110080457
 30
0.0
 40
0.18
 41
0.0
 71
     4
 72
     5
  1

 73
     1
 44
1.0
1001
ACAD
1000
MTEXTBEGIN
1070
    73
1070
     1
1070
    44
1040
1.0
1070
    74
1070
     0
1000
MTEXTEND
  0
MTEXT
  5
484
330
2
100
AcDbEntity
  8
PHANTOM
 62
     7
100
AcDbMText
 10
33.95038932580944
 20
16.94365657975819
 30
0.0
 40
0.18
 41
0.0
 71
     4
 72
     5
  1

 73
     1
 44
1.0
1001
ACAD
1000
MTEXTBEGIN
1070
    73
1070
     1
1070
    44
1040
1.0
1070
    74
1070
     0
1000
MTEXTEND
  0
LINE
  5
485
330
2
100
AcDbEntity
  8
10
100
AcDbLine
 10
16.74370921927361
 20
10.24634604551487
 30
0.0
 11
16.7437092192736
 21
9.996346045514872
 31
0.0
  0
LINE
  5
486
330
2
100
AcDbEntity
  8
10
100
AcDbLine
 10
-0.2562907807263897
 20
-0.7536539544851273
 30
0.0
 11
-0.0062907807263898
 21
-0.7536539544851279
 31
0.0
  0
LINE
  5
487
330
2
100
AcDbEntity
  8
10
100
AcDbLine
 10
-0.2562907807263897
 20
10.24634604551487
 30
0.0
 11
-0.0062907807263898
 21
10.24634604551487
 31
0.0
  0
LINE
  5
488
330
2
100
AcDbEntity
  8
10
100
AcDbLine
 10
-0.2562907807263897
 20
10.24634604551487
 30
0.0
 11
-0.2562907807263862
 21
9.996346045514872
 31
0.0
  0
LINE
  5
489
330
2
100
AcDbEntity
  8
10
100
AcDbLine
 10
16.7437092192736
 20
-0.5036539544851255
 30
0.0
 11
16.74370921927361
 21
-0.7536539544851251
 31
0.0
  0
LINE
  5
48A
330
2
100
AcDbEntity
  8
10
100
AcDbLine
 10
16.4937092192736
 20
-0.7536539544851251
 30
0.0
 11
16.74370921927361
 21
-0.7536539544851251
 31
0.0
  0
LINE
  5
48B
330
2
100
AcDbEntity
  8
10
100
AcDbLine
 10
16.4937092192736
 20
10.24634604551487
 30
0.0
 11
16.74370921927362
 21
10.24634604551487
 31
0.0
  0
LINE
  5
48C
330
2
100
AcDbEntity
  8
10
100
AcDbLine
 10
-0.2562907807263862
 20
-0.5036539544851273
 30
0.0
 11
-0.2562907807263897
 21
-0.7536539544851273
 31
0.0
  0
LINE
  5
48D
330
2
100
AcDbEntity
  8
10
100
AcDbLine
 10
7.547615493295811
 20
-0.0471105508104945
 30
0.0
 11
12.2937092432958
 21
-0.0471105508104945
 31
0.0
  0
TEXT
  5
48E
330
2
100
AcDbEntity
  8
10
 62
     7
100
AcDbText
 10
7.670552826477467
 20
-0.4360543447269305
 30
0.0
 40
0.094921875
  1
REV
100
AcDbText
  0
TEXT
  5
48F
330
2
100
AcDbEntity
  8
10
 62
     7
100
AcDbText
 10
9.159042134532182
 20
-0.4312169414331907
 30
0.0
 40
0.094921875
  1
DESCRIPTION
100
AcDbText
  0
TEXT
  5
490
330
2
100
AcDbEntity
  8
10
 62
     7
100
AcDbText
 10
11.2815768691045
 20
-0.4341434852507918
 30
0.0
 40
0.094921875
  1
DATE
100
AcDbText
  0
TEXT
  5
491
330
2
100
AcDbEntity
  8
10
 62
     7
100
AcDbText
 10
11.99564306684645
 20
-0.4293059430720773
 30
0.0
 40
0.094921875
  1
BY
100
AcDbText
  0
LINE
  5
492
330
2
100
AcDbEntity
  8
10
100
AcDbLine
 10
7.547615493295811
 20
-0.2448644570604945
 30
0.0
 11
12.2937092432958
 21
-0.2448644570604945
 31
0.0
  0
LINE
  5
493
330
2
100
AcDbEntity
  8
10
100
AcDbLine
 10
8.022224868295808
 20
-0.0471105508104945
 30
0.0
 11
8.022224868295776
 21
-0.5036539544851442
 31
0.0
  0
LINE
  5
494
330
2
100
AcDbEntity
  8
10
100
AcDbLine
 10
11.8190998682958
 20
-0.0471105508104945
 30
0.0
 11
11.8190998682958
 21
-0.5036539544851438
 31
0.0
  0
LINE
  5
495
330
2
100
AcDbEntity
  8
10
100
AcDbLine
 10
11.10718580579582
 20
-0.0471105508104945
 30
0.0
 11
11.10718580579585
 21
-0.5036539544851438
 31
0.0
  0
TEXT
  5
496
330
2
100
AcDbEntity
  8
10
 62
     7
100
AcDbText
 10
7.664100017557285
 20
-0.2060452455079091
 30
0.0
 40
0.094921875
  1
XXX
100
AcDbText
  0
TEXT
  5
497
330
2
100
AcDbEntity
  8
10
 62
     7
100
AcDbText
 10
9.152589325612002
 20
-0.2012078422141674
 30
0.0
 40
0.094921875
  1
XXXXXXXXXXX
100
AcDbText
  0
TEXT
  5
498
330
2
100
AcDbEntity
  8
10
 62
     7
100
AcDbText
 10
11.27512406018432
 20
-0.2041343860317686
 30
0.0
 40
0.094921875
  1
XXXX
100
AcDbText
  0
TEXT
  5
499
330
2
100
AcDbEntity
  8
10
 62
     7
100
AcDbText
 10
11.93911017696887
 20
-0.1992968438530558
 30
0.0
 40
0.094921875
  1
XXX
100
AcDbText
  0
LINE
  5
49A
330
2
100
AcDbEntity
  8
10
100
AcDbLine
 10
-0.0062907807263898
 20
-0.503653954485127
 30
0.0
 11
16.4937092192736
 21
-0.5036539544851371
 31
0.0
  0
LINE
  5
49B
330
2
100
AcDbEntity
  8
10
100
AcDbLine
 10
7.547615493295798
 20
-0.0471105508104945
 30
0.0
 11
7.547615493295777
 21
-0.5036539544851442
 31
0.0
  0
LINE
  5
49C
330
2
100
AcDbEntity
  8
10
100
AcDbLine
 10
12.29370925533541
 20
0.9729085455148563
 30
0.0
 11
12.2937092192736
 21
-0.5036539544851344
 31
0.0
  0
LINE
  5
49D
330
2
100
AcDbEntity
  8
10
100
AcDbLine
 10
16.4937092192736
 20
9.996346045514872
 30
0.0
 11
16.4937092192736
 21
-0.5036539544851371
 31
0.0
  0
CIRCLE
  5
49E
330
2
100
AcDbEntity
  8
10
 62
     1
100
AcDbCircle
 10
-0.0062907807263933
 20
-0.5036539544851273
 30
0.00000001
 40
0.1415883773737505
  0
LINE
  5
49F
330
2
100
AcDbEntity
  8
10
100
AcDbLine
 10
-0.0062907807263827
 20
9.996346045514876
 30
0.0
 11
16.4937092192736
 21
9.996346045514872
 31
0.0
  0
LINE
  5
4A0
330
2
100
AcDbEntity
  8
10
100
AcDbLine
 10
-0.0062907807263827
 20
9.996346045514876
 30
0.0
 11
-0.0062907807263898
 21
-0.5036539544851264
 31
0.0
  0
LINE
  5
4A1
330
2
100
AcDbEntity
  8
10
100
AcDbLine
 10
7.547615480263862
 20
0.7439048077076942
 30
0.0
 11
12.29370923026385
 21
0.7439048077076942
 31
0.0
  0
TEXT
  5
4A2
330
2
100
AcDbEntity
  8
10
 62
     7
100
AcDbText
 10
7.664100004525338
 20
0.7827240192602805
 30
0.0
 40
0.094921875
  1
XXX
100
AcDbText
  0
LINE
  5
4A3
330
2
100
AcDbEntity
  8
10
100
AcDbLine
 10
7.547615480263853
 20
0.9729085455148563
 30
0.0
 11
7.547615480263838
 21
0.7439048077076942
 31
0.0
  0
LINE
  5
4A4
330
2
100
AcDbEntity
  8
10
100
AcDbLine
 10
8.022224855263861
 20
0.9729085455148563
 30
0.0
 11
8.022224855263846
 21
0.7439048077076942
 31
0.0
  0
TEXT
  5
4A5
330
2
100
AcDbEntity
  8
10
 62
     7
100
AcDbText
 10
9.152589312580056
 20
0.7875614225540227
 30
0.0
 40
0.094921875
  1
XXXXXXXXXXX
100
AcDbText
  0
LINE
  5
4A6
330
2
100
AcDbEntity
  8
10
100
AcDbLine
 10
11.10718579276387
 20
0.9729085455148569
 30
0.0
 11
11.10718579276388
 21
0.7439048077076942
 31
0.0
  0
LINE
  5
4A7
330
2
100
AcDbEntity
  8
10
100
AcDbLine
 10
11.81909985526385
 20
0.9729085455148569
 30
0.0
 11
11.81909985526385
 21
0.7439048077076942
 31
0.0
  0
TEXT
  5
4A8
330
2
100
AcDbEntity
  8
10
 62
     7
100
AcDbText
 10
11.27512404715238
 20
0.7846348787364206
 30
0.0
 40
0.094921875
  1
XXXX
100
AcDbText
  0
TEXT
  5
4A9
330
2
100
AcDbEntity
  8
10
 62
     7
100
AcDbText
 10
11.93911016393692
 20
0.7894724209151338
 30
0.0
 40
0.094921875
  1
XXX
100
AcDbText
  0
LINE
  5
4AA
330
2
100
AcDbEntity
  8
10
100
AcDbLine
 10
7.547615480263862
 20
0.5461509547540553
 30
0.0
 11
12.29370923026385
 21
0.5461509547540553
 31
0.0
  0
LINE
  5
4AB
330
2
100
AcDbEntity
  8
10
100
AcDbLine
 10
7.547615480263862
 20
0.7439048610040553
 30
0.0
 11
12.29370923026385
 21
0.7439048610040553
 31
0.0
  0
TEXT
  5
4AC
330
2
100
AcDbEntity
  8
10
 62
     7
100
AcDbText
 10
7.664100004525338
 20
0.5849701663066416
 30
0.0
 40
0.094921875
  1
XXX
100
AcDbText
  0
LINE
  5
4AD
330
2
100
AcDbEntity
  8
10
100
AcDbLine
 10
7.547615480263853
 20
0.743904861004055
 30
0.0
 11
7.547615480263838
 21
0.5461509547540553
 31
0.0
  0
LINE
  5
4AE
330
2
100
AcDbEntity
  8
10
100
AcDbLine
 10
8.022224855263857
 20
0.743904861004055
 30
0.0
 11
8.022224855263846
 21
0.5461509547540553
 31
0.0
  0
TEXT
  5
4AF
330
2
100
AcDbEntity
  8
10
 62
     7
100
AcDbText
 10
9.152589312580056
 20
0.5898075696003838
 30
0.0
 40
0.094921875
  1
XXXXXXXXXXX
100
AcDbText
  0
LINE
  5
4B0
330
2
100
AcDbEntity
  8
10
100
AcDbLine
 10
11.10718579276387
 20
0.7439048610040553
 30
0.0
 11
11.10718579276388
 21
0.5461509547540553
 31
0.0
  0
LINE
  5
4B1
330
2
100
AcDbEntity
  8
10
100
AcDbLine
 10
11.81909985526385
 20
0.7439048610040553
 30
0.0
 11
11.81909985526385
 21
0.5461509547540553
 31
0.0
  0
TEXT
  5
4B2
330
2
100
AcDbEntity
  8
10
 62
     7
100
AcDbText
 10
11.27512404715238
 20
0.5868810257827817
 30
0.0
 40
0.094921875
  1
XXXX
100
AcDbText
  0
TEXT
  5
4B3
330
2
100
AcDbEntity
  8
10
 62
     7
100
AcDbText
 10
11.93911016393692
 20
0.591718567961495
 30
0.0
 40
0.094921875
  1
XXX
100
AcDbText
  0
LINE
  5
4B4
330
2
100
AcDbEntity
  8
10
100
AcDbLine
 10
7.547615486779833
 20
0.1506432488467828
 30
0.0
 11
12.29370923677982
 21
0.1506432488467828
 31
0.0
  0
LINE
  5
4B5
330
2
100
AcDbEntity
  8
10
100
AcDbLine
 10
7.547615486779833
 20
0.3483971550967828
 30
0.0
 11
12.29370923677982
 21
0.3483971550967828
 31
0.0
  0
TEXT
  5
4B6
330
2
100
AcDbEntity
  8
10
 62
     7
100
AcDbText
 10
7.664100011041311
 20
0.1894624603993691
 30
0.0
 40
0.094921875
  1
XXX
100
AcDbText
  0
LINE
  5
4B7
330
2
100
AcDbEntity
  8
10
100
AcDbLine
 10
7.547615486779822
 20
0.3483971550967824
 30
0.0
 11
7.547615486779811
 21
0.1506432488467828
 31
0.0
  0
LINE
  5
4B8
330
2
100
AcDbEntity
  8
10
100
AcDbLine
 10
8.022224861779831
 20
0.3483971550967824
 30
0.0
 11
8.022224861779816
 21
0.1506432488467828
 31
0.0
  0
TEXT
  5
4B9
330
2
100
AcDbEntity
  8
10
 62
     7
100
AcDbText
 10
9.152589319096025
 20
0.1942998636931113
 30
0.0
 40
0.094921875
  1
XXXXXXXXXXX
100
AcDbText
  0
LINE
  5
4BA
330
2
100
AcDbEntity
  8
10
100
AcDbLine
 10
11.10718579927984
 20
0.3483971550967828
 30
0.0
 11
11.10718579927985
 21
0.1506432488467828
 31
0.0
  0
LINE
  5
4BB
330
2
100
AcDbEntity
  8
10
100
AcDbLine
 10
11.81909986177982
 20
0.3483971550967828
 30
0.0
 11
11.81909986177982
 21
0.1506432488467828
 31
0.0
  0
TEXT
  5
4BC
330
2
100
AcDbEntity
  8
10
 62
     7
100
AcDbText
 10
11.27512405366835
 20
0.1913733198755092
 30
0.0
 40
0.094921875
  1
XXXX
100
AcDbText
  0
TEXT
  5
4BD
330
2
100
AcDbEntity
  8
10
 62
     7
100
AcDbText
 10
11.93911017045289
 20
0.1962108620542224
 30
0.0
 40
0.094921875
  1
XXX
100
AcDbText
  0
LINE
  5
4BE
330
2
100
AcDbEntity
  8
10
100
AcDbLine
 10
7.547615486779833
 20
0.3483971018004199
 30
0.0
 11
12.29370923677982
 21
0.3483971018004199
 31
0.0
  0
LINE
  5
4BF
330
2
100
AcDbEntity
  8
10
100
AcDbLine
 10
7.547615486779833
 20
0.54615100805042
 30
0.0
 11
12.29370923677982
 21
0.54615100805042
 31
0.0
  0
TEXT
  5
4C0
330
2
100
AcDbEntity
  8
10
 62
     7
100
AcDbText
 10
7.664100011041311
 20
0.3872163133530062
 30
0.0
 40
0.094921875
  1
XXX
100
AcDbText
  0
LINE
  5
4C1
330
2
100
AcDbEntity
  8
10
100
AcDbLine
 10
7.547615486779822
 20
0.5461510080504195
 30
0.0
 11
7.547615486779811
 21
0.3483971018004199
 31
0.0
  0
LINE
  5
4C2
330
2
100
AcDbEntity
  8
10
100
AcDbLine
 10
8.022224861779831
 20
0.5461510080504195
 30
0.0
 11
8.022224861779816
 21
0.3483971018004199
 31
0.0
  0
TEXT
  5
4C3
330
2
100
AcDbEntity
  8
10
 62
     7
100
AcDbText
 10
9.152589319096025
 20
0.3920537166467484
 30
0.0
 40
0.094921875
  1
XXXXXXXXXXX
100
AcDbText
  0
LINE
  5
4C4
330
2
100
AcDbEntity
  8
10
100
AcDbLine
 10
11.10718579927984
 20
0.54615100805042
 30
0.0
 11
11.10718579927985
 21
0.3483971018004199
 31
0.0
  0
LINE
  5
4C5
330
2
100
AcDbEntity
  8
10
100
AcDbLine
 10
11.81909986177982
 20
0.54615100805042
 30
0.0
 11
11.81909986177982
 21
0.3483971018004199
 31
0.0
  0
TEXT
  5
4C6
330
2
100
AcDbEntity
  8
10
 62
     7
100
AcDbText
 10
11.27512405366835
 20
0.3891271728291463
 30
0.0
 40
0.094921875
  1
XXXX
100
AcDbText
  0
TEXT
  5
4C7
330
2
100
AcDbEntity
  8
10
 62
     7
100
AcDbText
 10
11.93911017045289
 20
0.3939647150078596
 30
0.0
 40
0.094921875
  1
XXX
100
AcDbText
  0
LINE
  5
4C8
330
2
100
AcDbEntity
  8
10
100
AcDbLine
 10
7.547615486779833
 20
-0.0471106041068561
 30
0.0
 11
12.29370923677982
 21
-0.0471106041068561
 31
0.0
  0
LINE
  5
4C9
330
2
100
AcDbEntity
  8
10
100
AcDbLine
 10
7.547615486779833
 20
0.1506433021431439
 30
0.0
 11
12.29370923677982
 21
0.1506433021431439
 31
0.0
  0
TEXT
  5
4CA
330
2
100
AcDbEntity
  8
10
 62
     7
100
AcDbText
 10
7.664100011041311
 20
-0.0082913925542698
 30
0.0
 40
0.094921875
  1
XXX
100
AcDbText
  0
LINE
  5
4CB
330
2
100
AcDbEntity
  8
10
100
AcDbLine
 10
7.547615486779822
 20
0.1506433021431435
 30
0.0
 11
7.547615486779811
 21
-0.0471106041068561
 31
0.0
  0
LINE
  5
4CC
330
2
100
AcDbEntity
  8
10
100
AcDbLine
 10
8.022224861779831
 20
0.1506433021431435
 30
0.0
 11
8.022224861779816
 21
-0.0471106041068561
 31
0.0
  0
TEXT
  5
4CD
330
2
100
AcDbEntity
  8
10
 62
     7
100
AcDbText
 10
9.152589319096025
 20
-0.0034539892605281
 30
0.0
 40
0.094921875
  1
XXXXXXXXXXX
100
AcDbText
  0
LINE
  5
4CE
330
2
100
AcDbEntity
  8
10
100
AcDbLine
 10
11.10718579927984
 20
0.1506433021431439
 30
0.0
 11
11.10718579927985
 21
-0.0471106041068561
 31
0.0
  0
LINE
  5
4CF
330
2
100
AcDbEntity
  8
10
100
AcDbLine
 10
11.81909986177982
 20
0.1506433021431439
 30
0.0
 11
11.81909986177982
 21
-0.0471106041068561
 31
0.0
  0
TEXT
  5
4D0
330
2
100
AcDbEntity
  8
10
 62
     7
100
AcDbText
 10
11.27512405366835
 20
-0.0063805330781297
 30
0.0
 40
0.094921875
  1
XXXX
100
AcDbText
  0
TEXT
  5
4D1
330
2
100
AcDbEntity
  8
10
 62
     7
100
AcDbText
 10
11.93911017045289
 20
-0.0015429908994165
 30
0.0
 40
0.094921875
  1
XXX
100
AcDbText
  0
ENDSEC
  0
SECTION
  2
OBJECTS
  0
DICTIONARY
  5
8
330
0
100
AcDbDictionary
281
     1
  3
ACAD_COLOR
350
2B
  3
ACAD_GROUP
350
27
  3
ACAD_IMAGE_DICT
350
3CF
  3
ACAD_IMAGE_VARS
350
4D6
  3
ACAD_LAYOUT
350
C
  3
ACAD_MATERIAL
350
2A
  3
ACAD_MLINESTYLE
350
28
  3
ACAD_PLOTSETTINGS
350
29
  3
ACAD_PLOTSTYLENAME
350
7
  3
ACAD_TABLESTYLE
350
2C
  3
ACDBHEADERROUNDTRIPXREC
350
7D0
  3
AcDbVariableDictionary
350
4D7
  3
AcmDictionary
350
779
  3
AMG
350
698
  3
AMGSNAPSETTINGS
350
7BC
  3
DWGPROPS
350
7CF
  3
MAPISURF_MODULE
350
747
  0
DICTIONARY
  5
16
330
15
100
AcDbDictionary
280
     1
281
     1
  3
ACAD_LAYERSTATES
360
17
  0
DICTIONARY
  5
3
330
2
100
AcDbDictionary
280
     1
281
     1
  3
ACAD_INDEX
360
7C3
  0
DICTIONARY
  5
E
330
D
100
AcDbDictionary
280
     1
281
     1
  3
ACAD_SORTENTS
360
4D2
  0
DICTIONARY
  5
7D4
330
3B2
100
AcDbDictionary
280
     1
281
     1
  3
ACAD_MTEXT_RT
360
7D5
  0
IMAGEDEF_REACTOR
  5
3D0
330
3CD
100
AcDbRasterImageDefReactor
 90
        2
330
3CD
  0
DICTIONARY
  5
2B
102
{ACAD_REACTORS
330
8
102
}
330
8
100
AcDbDictionary
281
     1
  0
DICTIONARY
  5
27
102
{ACAD_REACTORS
330
8
102
}
330
8
100
AcDbDictionary
281
     1
  0
DICTIONARY
  5
3CF
102
{ACAD_REACTORS
330
8
102
}
330
8
100
AcDbDictionary
281
     1
  3
c3 logo 05
350
3CE
  0
RASTERVARIABLES
  5
4D6
102
{ACAD_REACTORS
330
8
102
}
330
8
100
AcDbRasterVariables
 90
        0
 70
     1
 71
     1
 72
     5
  0
DICTIONARY
  5
C
102
{ACAD_REACTORS
330
8
102
}
330
8
100
AcDbDictionary
281
     1
  3
Layout1
350
12
  3
Model
350
B
  0
DICTIONARY
  5
2A
102
{ACAD_REACTORS
330
8
102
}
330
8
100
AcDbDictionary
281
     1
  0
DICTIONARY
  5
28
102
{ACAD_REACTORS
330
8
102
}
330
8
100
AcDbDictionary
281
     1
  3
Standard
350
2D
  0
DICTIONARY
  5
29
102
{ACAD_REACTORS
330
8
102
}
330
8
100
AcDbDictionary
281
     1
  0
ACDBDICTIONARYWDFLT
  5
7
102
{ACAD_REACTORS
330
8
102
}
330
8
100
AcDbDictionary
281
     1
  3
Normal
350
6
100
AcDbDictionaryWithDefault
340
6
  0
DICTIONARY
  5
2C
102
{ACAD_REACTORS
330
8
102
}
330
8
100
AcDbDictionary
281
     1
  3
Standard
350
2E
  0
DICTIONARY
  5
7D0
102
{ACAD_REACTORS
330
8
102
}
330
8
100
AcDbDictionary
281
     1
  0
DICTIONARY
  5
4D7
102
{ACAD_REACTORS
330
8
102
}
330
8
100
AcDbDictionary
281
     1
  3
CTABLESTYLE
350
4D8
  3
DIMASSOC
350
4DA
  3
HIDETEXT
350
4D9
  3
INDEXCTL
350
7CD
  3
PROJECTNAME
350
4DB
  0
DICTIONARY
  5
779
102
{ACAD_REACTORS
330
8
102
}
330
8
100
AcDbDictionary
281
     1
  3
AcmStdDictionary
350
789
  3
AMDTSECTSYM_ARROWCOLOR
350
7A7
  0
DICTIONARY
  5
698
102
{ACAD_REACTORS
330
8
102
}
330
8
100
AcDbDictionary
281
     1
  3
AcMgSettings
350
699
  0
DICTIONARY
  5
7BC
102
{ACAD_REACTORS
330
8
102
}
330
8
100
AcDbDictionary
281
     1
  3
DIMENSION
350
7C1
  3
FEA
350
7C0
  3
HATCH (1)
350
7BD
  3
HATCH (2)
350
7BE
  3
SIMPLE WELD
350
7C2
  3
SYMBOLS
350
7BF
  0
XRECORD
  5
7CF
102
{ACAD_REACTORS
330
8
102
}
330
8
100
AcDbXrecord
280
     1
  1
DWGPROPS COOKIE
  2

  3

  4

  6

  7

  8

  9

300
AmdtFileType=84
301
=
302
=
303
=
304
=
305
=
306
=
307
=
308
=
309
=
 40
0.7382844560185186
 41
2451761.584831991
 42
2454018.467069375
  1

 90
        1
  0
DICTIONARY
  5
17
102
{ACAD_REACTORS
330
16
102
}
330
16
100
AcDbDictionary
281
     1
  0
DICTIONARY
  5
7C3
102
{ACAD_REACTORS
330
3
102
}
330
3
100
AcDbDictionary
281
     1
  3
*A1
350
7C4
  0
SORTENTSTABLE
  5
4D2
102
{ACAD_REACTORS
330
E
102
}
330
E
100
AcDbSortentsTable
330
D
  0
XRECORD
  5
7D5
102
{ACAD_REACTORS
330
7D4
102
}
330
7D4
100
AcDbXrecord
280
     1
 40
303599.0
  1
{\fArial|b0|i0|c0|p34;P.O. BOX 496^IBEAVER, PA 15009^I\C256;www.c3controls.com}
  0
IMAGEDEF
  5
3CE
102
{ACAD_REACTORS
330
3CF
330
3D0
102
}
330
3CF
100
AcDbRasterImageDef
 90
        0
  1
K:\Archive- EngrDwgs\Borders\Title Blocks\c3 logo Size A.bmp
 10
223.0
 20
45.0
 11
0.264550269889837
 21
0.264550269889837
280
     1
281
     2
  0
LAYOUT
  5
12
102
{ACAD_XDICTIONARY
360
13
102
}
102
{ACAD_REACTORS
330
C
102
}
330
C
100
AcDbPlotSettings
  1

  2
none_device
  4
ANSI_B_(17.00_x_11.00_Inches)
  6

 40
6.349999904632567
 41
19.04999923706055
 42
6.350006103515625
 43
19.04998779296875
 44
431.7999877929686
 45
279.3999938964844
 46
0.0
 47
0.0
 48
0.0
 49
0.0
140
0.0
141
0.0
142
1.0
143
1.0
 70
   688
 72
     0
 73
     0
 74
     5
  7

 75
    16
147
1.0
148
0.0
149
0.0
100
AcDbLayout
  1
Layout1
 70
     1
 71
     1
 10
-0.2499999962453767
 20
-0.7499999699630137
 11
16.74999952316284
 21
10.24999978974109
 12
0.0
 22
0.0
 32
0.0
 14
-0.2568097319241076
 24
-0.7539897337284387
 34
-0.4600140370149328
 15
16.74403116863264
 25
10.24697757159225
 35
0.000014039156975
146
0.0
 13
0.0
 23
0.0
 33
0.0
 16
1.0
 26
0.0
 36
0.0
 17
0.0
 27
1.0
 37
0.0
 76
     0
330
D
  0
LAYOUT
  5
B
102
{ACAD_XDICTIONARY
360
7D1
102
}
102
{ACAD_REACTORS
330
C
102
}
330
C
100
AcDbPlotSettings
  1

  2
\\COMPUTER24\KATHY'S NEC
  4

  6

 40
0.0
 41
0.0
 42
0.0
 43
0.0
 44
0.0
 45
0.0
 46
0.0
 47
0.0
 48
0.0
 49
0.0
140
0.0
141
0.0
142
1.0
143
1.0
 70
  1712
 72
     0
 73
     0
 74
     0
  7

 75
     0
147
1.0
148
0.0
149
0.0
100
AcDbLayout
  1
Model
 70
     1
 71
     0
 10
0.0
 20
0.0
 11
12.0
 21
9.0
 12
0.0
 22
0.0
 32
0.0
 14
0.0
 24
0.0
 34
0.0
 15
0.0
 25
0.0
 35
0.0
146
0.0
 13
0.0
 23
0.0
 33
0.0
 16
1.0
 26
0.0
 36
0.0
 17
0.0
 27
1.0
 37
0.0
 76
     0
330
2
  0
MLINESTYLE
  5
2D
102
{ACAD_REACTORS
330
28
102
}
330
28
100
AcDbMlineStyle
  2
STANDARD
 70
     0
  3

 62
   256
 51
90.0
 52
90.0
 71
     2
 49
0.5
 62
   256
  6
BYLAYER
 49
-0.5
 62
   256
  6
BYLAYER
  0
ACDBPLACEHOLDER
  5
6
102
{ACAD_REACTORS
330
7
102
}
330
7
  0
TABLESTYLE
  5
2E
102
{ACAD_REACTORS
330
2C
102
}
330
2C
100
AcDbTableStyle
  3
Standard
 70
     0
 71
     0
 40
0.06
 41
0.06
280
     0
281
     0
  7
Standard
140
0.18
170
     2
 62
     0
 63
     7
283
     0
274
    -2
284
     1
 64
     0
275
    -2
285
     1
 65
     0
276
    -2
286
     1
 66
     0
277
    -2
287
     1
 67
     0
278
    -2
288
     1
 68
     0
279
    -2
289
     1
 69
     0
  7
Standard
140
0.25
170
     5
 62
     0
 63
     7
283
     0
274
    -2
284
     1
 64
     0
275
    -2
285
     1
 65
     0
276
    -2
286
     1
 66
     0
277
    -2
287
     1
 67
     0
278
    -2
288
     1
 68
     0
279
    -2
289
     1
 69
     0
  7
Standard
140
0.18
170
     5
 62
     0
 63
     7
283
     0
274
    -2
284
     1
 64
     0
275
    -2
285
     1
 65
     0
276
    -2
286
     1
 66
     0
277
    -2
287
     1
 67
     0
278
    -2
288
     1
 68
     0
279
    -2
289
     1
 69
     0
  0
DICTIONARYVAR
  5
4D8
102
{ACAD_REACTORS
330
4D7
102
}
330
4D7
100
DictionaryVariables
280
     0
  1
STANDARD
  0
DICTIONARYVAR
  5
4DA
102
{ACAD_REACTORS
330
4D7
102
}
330
4D7
100
DictionaryVariables
280
     0
  1
1
  0
DICTIONARYVAR
  5
4D9
102
{ACAD_REACTORS
330
4D7
102
}
330
4D7
100
DictionaryVariables
280
     0
  1
1
  0
DICTIONARYVAR
  5
7CD
102
{ACAD_REACTORS
330
4D7
102
}
330
4D7
100
DictionaryVariables
280
     0
  1
1
  0
DICTIONARYVAR
  5
4DB
102
{ACAD_REACTORS
330
4D7
102
}
330
4D7
100
DictionaryVariables
280
     0
  1

  0
DICTIONARY
  5
789
102
{ACAD_REACTORS
330
779
102
}
330
779
100
AcDbDictionary
281
     1
  0
XRECORD
  5
7A7
102
{ACAD_REACTORS
330
779
102
}
330
779
100
AcDbXrecord
280
     1
 90
-1023410169
  0
DICTIONARY
  5
699
102
{ACAD_REACTORS
330
698
102
}
330
698
100
AcDbDictionary
281
     1
  3
DWGSETTINGS
350
69A
  3
TRANSSETTINGS
350
69E
  0
ACAMGFILTERDAT
  5
7C1
102
{ACAD_REACTORS
330
7BC
102
}
330
7BC
100
AcAmgFilterDat
 70
    15
  1
DIMENSION,AMDT_*_DIM
  2
*
  3
*
  4
*
  5
*
290
     1
  0
ACAMGFILTERDAT
  5
7C0
102
{ACAD_REACTORS
330
7BC
102
}
330
7BC
100
AcAmgFilterDat
 70
    15
  1
*
  2
AM_FEA-AM_*
  3
*
  4
*
  5
*
290
     1
  0
ACAMGFILTERDAT
  5
7BD
102
{ACAD_REACTORS
330
7BC
102
}
330
7BC
100
AcAmgFilterDat
 70
    15
  1
HATCH
  2
*
  3
*
  4
*
  5
*
290
     1
  0
ACAMGFILTERDAT
  5
7BE
102
{ACAD_REACTORS
330
7BC
102
}
330
7BC
100
AcAmgFilterDat
 70
    15
  1
LINE
  2
8,8N,*-8,*-8N,AM_8,AM_8N,*-AM_8,*-AM_8N
  3
*
  4
*
  5
INSERT,STDPART2D
290
     1
  0
ACAMGFILTERDAT
  5
7C2
102
{ACAD_REACTORS
330
7BC
102
}
330
7BC
100
AcAmgFilterDat
 70
    15
  1
ARC
  2
AM_5
  3
*
  4
2
  5
INSERT
290
     0
  0
ACAMGFILTERDAT
  5
7BF
102
{ACAD_REACTORS
330
7BC
102
}
330
7BC
100
AcAmgFilterDat
 70
    15
  1
ACMFCFRAME,ACMDATUMTARGET,ACMDATUMID,ACMWELDSYM,ACMSURFSYM,ACMFEATID,ACMPARTREF,ACMBALLOON,AMDTEDGESYM,AMGSCREWCALCTABLE
  2
*
  3
*
  4
*
  5
*
290
     1
  0
LAYER_INDEX
  5
7C4
102
{ACAD_REACTORS
330
7C3
102
}
330
7C3
100
AcDbIndex
 40
2454018.467069375
100
AcDbLayerIndex
  8
0
360
7C5
 90
       35
  8
AM_VIS
360
7C6
 90
      706
  8
CENTER
360
7C7
 90
        1
  8
PHANTOM
360
7C8
 90
        4
  8
10
360
7C9
 90
       79
  8
DIMENSION
360
7CA
 90
       33
  8
Defpoints
360
7CB
 90
        0
  8
AM_7
360
7CC
 90
      205
  0
DICTIONARY
  5
13
330
12
100
AcDbDictionary
280
     1
281
     1
  3
ACAD_XREC_ROUNDTRIP
360
7D3
  3
ADSK_XREC_LAYOUTTHUMBNAIL
360
14
  0
DICTIONARY
  5
7D1
330
B
100
AcDbDictionary
280
     1
281
     1
  3
ACAD_XREC_ROUNDTRIP
360
7D2
  0
IDBUFFER
  5
7C5
330
0
100
AcDbIdBuffer
330
3C4
330
3C5
330
3C6
330
3C7
330
3C8
330
3C9
330
3CA
330
3CB
330
3CC
330
3CD
330
3D1
330
455
330
45A
330
45F
330
464
330
469
330
46E
330
473
330
478
330
3B3
330
3B4
330
3B6
330
3B7
330
3B8
330
3B9
330
3BA
330
3BB
330
3BC
330
3BD
330
3BE
330
3BF
330
3C0
330
3C1
330
3C2
330
3C3
  0
IDBUFFER
  5
7C6
330
0
100
AcDbIdBuffer
330
220
330
221
330
222
330
223
330
224
330
225
330
226
330
227
330
228
330
229
330
22A
330
22B
330
22C
330
22D
330
22E
330
22F
330
230
330
231
330
232
330
233
330
234
330
235
330
236
330
237
330
238
330
239
330
23A
330
23B
330
23C
330
23D
330
23E
330
23F
330
240
330
241
330
242
330
243
330
244
330
245
330
246
330
247
330
248
330
249
330
24A
330
24B
330
24C
330
24D
330
24E
330
24F
330
250
330
251
330
252
330
253
330
254
330
255
330
256
330
257
330
258
330
259
330
25A
330
25B
330
25C
330
25D
330
25E
330
25F
330
260
330
261
330
262
330
263
330
264
330
265
330
266
330
267
330
268
330
269
330
26A
330
26B
330
26C
330
26D
330
26E
330
3D2
330
3D3
330
3D4
330
3D5
330
3D6
330
3D7
330
3D8
330
3D9
330
3DA
330
3DB
330
3DC
330
3DD
330
3DE
330
3DF
330
3E0
330
3E1
330
3E2
330
3E3
330
3E4
330
3E5
330
3E6
330
3E7
330
3E8
330
3E9
330
3EA
330
3EB
330
3EC
330
3ED
330
3EE
330
3EF
330
3F0
330
3F1
330
3F2
330
3F3
330
3F4
330
3F5
330
3F6
330
3F7
330
3F8
330
3F9
330
3FA
330
3FB
330
3FC
330
3FD
330
3FE
330
3FF
330
400
330
401
330
402
330
403
330
404
330
405
330
406
330
407
330
408
330
409
330
40A
330
40B
330
40C
330
40D
330
40E
330
40F
330
410
330
411
330
412
330
413
330
414
330
415
330
416
330
417
330
418
330
419
330
41A
330
41B
330
41C
330
41D
330
41E
330
41F
330
420
330
421
330
422
330
423
330
424
330
425
330
426
330
427
330
428
330
429
330
42A
330
42B
330
42C
330
42D
330
42E
330
42F
330
430
330
431
330
432
330
433
330
434
330
435
330
436
330
437
330
438
330
439
330
43A
330
43B
330
43C
330
43D
330
43E
330
43F
330
440
330
441
330
442
330
443
330
444
330
445
330
446
330
447
330
448
330
449
330
44A
330
44B
330
44C
330
44D
330
44E
330
44F
330
450
330
451
330
452
330
453
330
454
330
2F
330
31
330
32
330
33
330
34
330
35
330
36
330
37
330
38
330
39
330
3A
330
3B
330
3C
330
3D
330
3E
330
3F
330
40
330
41
330
42
330
43
330
44
330
45
330
46
330
47
330
48
330
49
330
4A
330
4B
330
4C
330
4D
330
4E
330
4F
330
50
330
51
330
52
330
53
330
54
330
55
330
56
330
57
330
58
330
59
330
5A
330
5B
330
5C
330
5D
330
5E
330
5F
330
60
330
61
330
62
330
63
330
64
330
65
330
66
330
67
330
68
330
69
330
6A
330
6B
330
6C
330
6D
330
6E
330
6F
330
70
330
71
330
72
330
73
330
74
330
75
330
76
330
77
330
78
330
79
330
7A
330
7B
330
7C
330
7D
330
7E
330
7F
330
80
330
81
330
82
330
83
330
84
330
85
330
86
330
87
330
88
330
89
330
8A
330
8B
330
8C
330
8D
330
8E
330
8F
330
90
330
91
330
92
330
93
330
94
330
95
330
96
330
97
330
98
330
99
330
9A
330
9B
330
9C
330
9D
330
9E
330
9F
330
A0
330
A1
330
A2
330
A3
330
A4
330
A5
330
A6
330
A7
330
A8
330
A9
330
AA
330
AB
330
AC
330
AD
330
AE
330
AF
330
B0
330
B1
330
B2
330
B3
330
B4
330
B5
330
B6
330
B7
330
B8
330
B9
330
BA
330
BB
330
BC
330
BD
330
BE
330
BF
330
C0
330
C1
330
C2
330
C3
330
C4
330
C5
330
C6
330
C7
330
C8
330
C9
330
CA
330
CB
330
CC
330
CD
330
CE
330
CF
330
D0
330
D1
330
D2
330
D3
330
D4
330
D5
330
D6
330
D7
330
D8
330
D9
330
DA
330
DB
330
DC
330
DD
330
DE
330
DF
330
E0
330
E1
330
E2
330
E3
330
E4
330
E5
330
E6
330
E7
330
E8
330
E9
330
EA
330
EB
330
EC
330
ED
330
EE
330
EF
330
F0
330
F1
330
F2
330
F3
330
F4
330
F5
330
F6
330
F7
330
F8
330
F9
330
FA
330
FB
330
FC
330
FD
330
FE
330
FF
330
100
330
101
330
102
330
103
330
104
330
105
330
106
330
107
330
108
330
109
330
10A
330
10B
330
10C
330
10D
330
10E
330
10F
330
110
330
111
330
112
330
113
330
114
330
115
330
116
330
117
330
118
330
119
330
11A
330
11B
330
11C
330
11D
330
11E
330
11F
330
120
330
121
330
122
330
123
330
124
330
125
330
126
330
127
330
128
330
129
330
12A
330
12B
330
12C
330
12D
330
12E
330
12F
330
130
330
131
330
132
330
133
330
134
330
135
330
136
330
137
330
138
330
139
330
13A
330
13B
330
13C
330
13D
330
13E
330
13F
330
140
330
141
330
142
330
143
330
144
330
145
330
146
330
147
330
148
330
149
330
14A
330
14B
330
14C
330
14D
330
14E
330
14F
330
150
330
151
330
152
330
153
330
154
330
155
330
156
330
157
330
158
330
159
330
15A
330
15B
330
15C
330
15D
330
15E
330
15F
330
160
330
161
330
162
330
163
330
164
330
165
330
166
330
167
330
168
330
169
330
16A
330
16B
330
16C
330
16D
330
16E
330
16F
330
170
330
171
330
172
330
173
330
174
330
175
330
176
330
177
330
178
330
179
330
17A
330
17B
330
17C
330
17D
330
17E
330
17F
330
180
330
181
330
182
330
183
330
184
330
185
330
186
330
187
330
188
330
189
330
18A
330
18B
330
18C
330
18D
330
18E
330
18F
330
190
330
191
330
192
330
193
330
194
330
195
330
196
330
197
330
198
330
199
330
19A
330
19B
330
19C
330
19D
330
19E
330
19F
330
1A0
330
1A1
330
1A2
330
1A3
330
1A4
330
1A5
330
1A6
330
1A7
330
1A8
330
1A9
330
1AA
330
1AB
330
1AC
330
1AD
330
1AE
330
1AF
330
1B0
330
1B1
330
1B2
330
1B3
330
1B4
330
1B5
330
1B6
330
1B7
330
1B8
330
1B9
330
1BA
330
1BB
330
1BC
330
1BD
330
1BE
330
1BF
330
1C0
330
1C1
330
1C2
330
1C3
330
1C4
330
1C5
330
1C6
330
1C7
330
1C8
330
1C9
330
1CA
330
1CB
330
1CC
330
1CD
330
1CE
330
1CF
330
1D0
330
1D1
330
1D2
330
1D3
330
1D4
330
1D5
330
1D6
330
1D7
330
1D8
330
1D9
330
1DA
330
1DB
330
1DC
330
1DD
330
1DE
330
1DF
330
1E0
330
1E1
330
1E2
330
1E3
330
1E4
330
1E5
330
1E6
330
1E7
330
1E8
330
1E9
330
1EA
330
1EB
330
1EC
330
1ED
330
1EE
330
1EF
330
1F0
330
1F1
330
1F2
330
1F3
330
1F4
330
1F5
330
1F6
330
1F7
330
1F8
330
1F9
330
1FA
330
1FB
330
1FC
330
1FD
330
1FE
330
1FF
330
200
330
201
330
202
330
203
330
204
330
205
330
206
330
207
330
208
330
209
330
20A
330
20B
330
20C
330
20D
330
20E
330
20F
330
210
330
211
330
212
330
213
330
214
330
215
330
216
330
217
330
218
330
219
330
21A
330
21B
330
21C
330
21D
330
21E
330
21F
  0
IDBUFFER
  5
7C7
330
0
100
AcDbIdBuffer
330
480
  0
IDBUFFER
  5
7C8
330
0
100
AcDbIdBuffer
330
47D
330
482
330
483
330
484
  0
IDBUFFER
  5
7C9
330
0
100
AcDbIdBuffer
330
4B3
330
4B4
330
4B5
330
4B6
330
4B7
330
4B8
330
4B9
330
4BA
330
4BB
330
4BC
330
4BD
330
4BE
330
4BF
330
4C0
330
4C1
330
4C2
330
4C3
330
4C4
330
4C5
330
4C6
330
4C7
330
4C8
330
4C9
330
4CA
330
4CB
330
4CC
330
4CD
330
4CE
330
4CF
330
4D0
330
4D1
330
3B0
330
3B2
330
485
330
486
330
487
330
488
330
489
330
48A
330
48B
330
48C
330
48D
330
48E
330
48F
330
490
330
491
330
492
330
493
330
494
330
495
330
496
330
497
330
498
330
499
330
49A
330
49B
330
49C
330
49D
330
49E
330
49F
330
4A0
330
4A1
330
4A2
330
4A3
330
4A4
330
4A5
330
4A6
330
4A7
330
4A8
330
4A9
330
4AA
330
4AB
330
4AC
330
4AD
330
4AE
330
4AF
330
4B0
330
4B1
330
4B2
  0
IDBUFFER
  5
7CA
330
0
100
AcDbIdBuffer
330
2A8
330
2A9
330
2AA
330
2AB
330
2AC
330
2AD
330
2AE
330
2AF
330
2B0
330
2B1
330
2B2
330
2B3
330
2B4
330
2B6
330
2C4
330
2D2
330
2E0
330
26F
330
271
330
272
330
281
330
282
330
283
330
284
330
285
330
293
330
2A1
330
2A2
330
2A3
330
2A4
330
2A5
330
2A6
330
2A7
  0
IDBUFFER
  5
7CB
330
0
100
AcDbIdBuffer
  0
IDBUFFER
  5
7CC
330
0
100
AcDbIdBuffer
330
353
330
354
330
355
330
356
330
357
330
358
330
359
330
35A
330
35B
330
35C
330
35D
330
35E
330
35F
330
360
330
361
330
362
330
363
330
364
330
365
330
366
330
367
330
368
330
369
330
36A
330
36B
330
36C
330
36D
330
36E
330
36F
330
370
330
371
330
372
330
373
330
374
330
375
330
376
330
377
330
378
330
379
330
37A
330
37B
330
37C
330
37D
330
37E
330
37F
330
380
330
381
330
382
330
383
330
384
330
385
330
386
330
387
330
388
330
389
330
38A
330
38B
330
38C
330
38D
330
38E
330
38F
330
390
330
391
330
392
330
393
330
394
330
395
330
396
330
397
330
398
330
399
330
39A
330
39B
330
39C
330
39D
330
39E
330
39F
330
3A0
330
3A1
330
3A2
330
3A3
330
3A4
330
3A5
330
3A6
330
3A7
330
3A8
330
3A9
330
3AA
330
3AB
330
3AC
330
3AD
330
3AE
330
3AF
330
2E1
330
2E4
330
2E5
330
2E6
330
2E7
330
2E8
330
2E9
330
2EA
330
2EB
330
2EC
330
2ED
330
2EE
330
2EF
330
2F0
330
2F1
330
2F2
330
2F3
330
2F4
330
2F5
330
2F6
330
2F7
330
2F8
330
2F9
330
2FA
330
2FB
330
2FC
330
2FD
330
2FE
330
2FF
330
300
330
301
330
302
330
303
330
304
330
305
330
306
330
307
330
308
330
309
330
30A
330
30B
330
30C
330
30D
330
30E
330
30F
330
310
330
311
330
312
330
313
330
314
330
315
330
316
330
317
330
318
330
319
330
31A
330
31B
330
31C
330
31D
330
31E
330
31F
330
320
330
321
330
322
330
323
330
324
330
325
330
326
330
327
330
328
330
329
330
32A
330
32B
330
32C
330
32D
330
32E
330
32F
330
330
330
331
330
332
330
333
330
334
330
335
330
336
330
337
330
338
330
339
330
33A
330
33B
330
33C
330
33D
330
33E
330
33F
330
340
330
341
330
342
330
343
330
344
330
345
330
346
330
347
330
348
330
349
330
34A
330
34B
330
34C
330
34D
330
34E
330
34F
330
350
330
351
330
352
  0
XRECORD
  5
7D3
102
{ACAD_REACTORS
330
13
102
}
330
13
100
AcDbXrecord
280
     1
102
SHADEPLOT
 70
     0
102
SHADEPLOTRESLEVEL
 70
     2
102
SHADEPLOTCUSTOMDPI
 70
   300
  0
XRECORD
  5
14
102
{ACAD_REACTORS
330
13
102
}
330
13
100
AcDbXrecord
280
     1
310
28000000B40000007400000001000800000000009051000000000000000000000001000000000000FFFFFF0000000000FFFFFF000000000000000000000000000000000000000000000000000000000000000000330000006600000099000000CC000000FF00000000330000333300006633000099330000CC330000FF3300
310
0000660000336600006666000099660000CC660000FF66000000990000339900006699000099990000CC990000FF99000000CC000033CC000066CC000099CC0000CCCC0000FFCC000000FF000033FF000066FF000099FF0000CCFF0000FFFF000000003300330033006600330099003300CC003300FF003300003333003333
310
33006633330099333300CC333300FF33330000663300336633006666330099663300CC663300FF66330000993300339933006699330099993300CC993300FF99330000CC330033CC330066CC330099CC3300CCCC3300FFCC330000FF330033FF330066FF330099FF3300CCFF3300FFFF330000006600330066006600660099
310
006600CC006600FF00660000336600333366006633660099336600CC336600FF33660000666600336666006666660099666600CC666600FF66660000996600339966006699660099996600CC996600FF99660000CC660033CC660066CC660099CC6600CCCC6600FFCC660000FF660033FF660066FF660099FF6600CCFF6600
310
FFFF660000009900330099006600990099009900CC009900FF00990000339900333399006633990099339900CC339900FF33990000669900336699006666990099669900CC669900FF66990000999900339999006699990099999900CC999900FF99990000CC990033CC990066CC990099CC9900CCCC9900FFCC990000FF99
310
0033FF990066FF990099FF9900CCFF9900FFFF99000000CC003300CC006600CC009900CC00CC00CC00FF00CC000033CC003333CC006633CC009933CC00CC33CC00FF33CC000066CC003366CC006666CC009966CC00CC66CC00FF66CC000099CC003399CC006699CC009999CC00CC99CC00FF99CC0000CCCC0033CCCC0066CC
310
CC0099CCCC00CCCCCC00FFCCCC0000FFCC0033FFCC0066FFCC0099FFCC00CCFFCC00FFFFCC000000FF003300FF006600FF009900FF00CC00FF00FF00FF000033FF003333FF006633FF009933FF00CC33FF00FF33FF000066FF003366FF006666FF009966FF00CC66FF00FF66FF000099FF003399FF006699FF009999FF00CC
310
99FF00FF99FF0000CCFF0033CCFF0066CCFF0099CCFF00CCCCFF00FFCCFF0000FFFF0033FFFF0066FFFF0099FFFF00CCFFFF00FFFFFF00000000000D0D0D001A1A1A00282828003535350043434300505050005D5D5D006B6B6B00787878008686860093939300A1A1A100AEAEAE00BBBBBB00C9C9C900D6D6D600E4E4E400
310
F1F1F100FFFFFF0000000000000000000000000000000000000000000000000000000000000000000000000000000000EFEFE2E2E2E2E2E2E2E2E2E2E2E2E2E2E2E2E2E2E2E2E2E2E2E2E2E2E2E2E2E2E2E2E2E2E2E2E2E2E2E2E2E2E2E2E2E2E2E2E2E2E2E2E2E2E2E2E2E2E2E2E2E2E2E2E2E2E2E2E2E2E2E2E2E2E2E2E2
310
E2E2E2E2E2E2E2E2E2E2E2E2E2E2E2E2E2E2E2E2E2E2E2E2E2E2E2E2E2E2E2E2E2E2E2E2E2E2E2E2E2E2E2E2E2E2E2E2E2E2E2E2E2E2E2E2E2E2E2E2E2E2E2E2E2E2E2E2E2E2E2E2E2E2E2E2E2E2E2E2E2E2E2E2E2E2E2E2E2E2E2E2E2E2E2E2E2E2E2E2EFE2E2E2E2E2E2E2E2E2E2E2E2E2E2E2E2E2E2E2E2E2E2E2E2E2E2
310
E2E2E2E2E2E2E2E2E2E2E2E2E2E2E2E2E2E2E2E2E2E2E2E2E2E2E2E2E2E2E2E2E2E2E2E2E2E2E2E2E2E2E2E2E2E2E2E2E2E2E2E2E2E2E2E2E2E2E2E2E2E2E2E2E2E2E2E2E2E2E2E2E2E2E2E2E2E2E2E2E2E2E2E2E2E2E2E2E2E2E2E2E2E2E2E2E2E2E2E2E2E2E2E2E2E2E2E2E2E2E2E2E2E2E2E2E2E2E2E2E2E2E2E2E2E2E2
310
E2E2E2E2E2E2E2E2E2E2E2E2E2E2E2E2E2E2E2E2E2E2E2E2E2E2EFE2F5BEBEBEF5F5F5F5F5F5F5F5F5F5F5F5F5F5F5F5F5F5F5F5F5F5F5F5F5F5F5F5F5F5F5F5F5F5F5F5F5F5F5F5F5F5F5F5F5F5F5F5F5F5F5F5F5F5F5F5F5F5F5F5F5F5F5F5F5F5F5F5F5F5F5F5F5F5F5F5F5F5F5F5F5F5F5F5F5F5F5F5F5F5F5F5F5F5F5
310
F5F5F5F5F5F5F5F5F5F5F5F5F5F5F5F5F5F5F5F5F5F5F5F5F5F5F5F5F5F5F5F5F5F5F5F5F5F5F5F5F5F5F5F5F5F5F5F5F5F5F5F5F5F5F5F5F5F5F5F5F5F5F5F5F5F5F5F5F5F5F5F5F5F5F5F5F5E2E2EFE2F5BEE2BEE2E2E2E2E2E2E2E2E2E2E2E2E2E2E2E2E2E2E2E2E2E2E2E2E2E2E2E2E2E2E2E2E2E2E2E2E2E2E2E2E2E2
310
E2E2E2E2E2E2E2E2E2E2E2E2E2E2E2E2E2E2E2E2E2E2E2E2E2E2E2E2E2E2E2E2E2E2E2E2E2E2E2E2E2E2E2E2E2E2E2E2E2E2E2E2E2E2E2E2E2E2E2E2E2E2E2E2E2E2E2E2E2E2E2E2E2E2E2E2E2E2E2E2E2E2E2E2E2E2E2E2E2E2E2E2E2E2E2E2E2E2E2E2E2E2E2E2E2E2E2E2E2E2E2E2E2E2E2E2E2E2E2E2E2E2E2E2E2E2E2
310
E2E2F5E2E2EFE2F5BEE2BEF5F5F5F5F5F5F5F5F5F5F5F5F5F5F5F5F5F5F5F5F5F5F5F5F5F5F5F5F5F5F5F5F5F5F5F5F5F5F5F5F5F5F5F5F5F5F5F5F5F5F5F5F5F5F5F5F5F5F5F5F5F5F5F5F5F5F5F5F5F5F5F5F5F5F5F5F5E2E2E2E2F5E2F5F5F5F5F5F5F5F5F5F5E2E2E2E2E2E2E2E2E2E2E2F5F5F5F5F5F5F5F5F5F5E2F5
310
E2E2E2E2F5E2F5E2E2F5E2F5F5F5E20FE2E2E2F5F5F5F5E2E2E2E2F5F5F5F5F5E2F5F5F5F5F5E2F5F5E2E2E2E2E2E2E2E2E2E2F5F5F5E2F5F5E2EFE2F5F5BEF5F5F5F5F5F5F5F5F5F5F5F5F5F5F5F5F5F5F5F5F5F5F5F5F5F5F5F5F5F5F5F5F5F5F5F5F5F5F5F5F5F5F5F5F5F5F5F5F5F5F5F5F5F5F5F5F5F5F5F5F5F5F5F5
310
F5F5F5F5F5F5F5F5F5F5F5F5F5F5E2E2E2E2E2E2F5F5F5F5F5F5F5F5F5F5E2E2E2E2E2E2E2E2E2E2E2F5F5F5F5F5F5F5F5F5F5E2F5E2E2E2E2F5E2F5E2E2E2E2E2E2E2E2E2E2E2E2E2E2E2E2E2E2E2E2E2E2E2E2E2E2E2E2E2E2E2E2E2E2E2E2E2E2E2F5F5F5F5F5F5F5F5E2F5F5E2EFE2F5F5E2F5F5F5F5F5F5F5F5F5F5F5
310
F5F5F5F5F5F5F5F5F5F5F5F5F5F5F5F5F5F5F5F5F5F5F5F5F5F5F5F5F5F5F5F5F5F5F5F5F5F5F5F5F5F5F5F5F5F5F5F5F5F5F5F5F5F5F5F5F5F5F5F5F5F5F5F5F5F5F5E2E2E2E2E2E2E2E2E2E2E2E2E2E2E2E2E2E2E2E2E2E2E2E2E2E2E2E2E2E2E2E2E2E2E2E2E2E2E2E2E2E2E2E2E2E2E2E2E2E2E2E2E2E2E2E2E2E2E2E2
310
E2F5E2E2E2E2E2E2E2E2E2E2E2E2E2E2E2E2E2E2E2E2E2E2E2E2E2E2E2E2E2E2E2E2F5F5E2EFE2F5F5E2F5F5F5F5F5F5F5F5F5F5F5F5F5F5F5F5F5F5F5F5F5F5F5F5F5F5F5F5F5F5F5F5F5F5F5F5F5F5F5F5F5F5F5F5F5F5F5F5F5F5F5F5F5F5F5F5F5F5F5F5F5F5F5F5F5F5F5F5F5F5F5F5F5F5F5F5F5F5E2E2E2E2F5E2F5
310
F5F5F5F5F5F5F5F5F5E2E2E2E2E2E2E2E2E2E2E2F5F5F5F5F5F5F5F5F5F5E2F5E2E2E2E2F5E2E2E2E2E2E2F5E2E2E2E2E2E2E2E2E2F5F5E2E2E2E2E2E2E2E2E2E2E2E2E2E2E2E2F5F5F5F5F5F5F5F5F5F5F5F5F5F5F5E2F5F5E2EFE2F5F5E2E2E2E2E2E2E2E2F5F5F5F5F5F5F5F5F5E2E2E2E2E2E2E2E2E2E2E2E2E2E2E2E2
310
F5F5F5F5F5F5F5F5F5E2E2E2E2E2E2E2E2E2E2E2E2E2E2E2E2F5F5F5F5F5F5F5F5E2E2E2E2E2E2E2E2E2E2E2E2E2E2E2E2E2E2E2E2E2E2E2E2E2E2E2E2E2E2E2E2E2E2E2E2E2E2E2E2E2E2E2E2E2E2E2E2E2E2E2E2E2E2E2E2E2E2E2E2E2E2E20FE2E2E2E2E2E2E2E2E2E2E2E2E2E2E2E2E2E2E2E2E2E2E2E2E2E2F5F5F5F5
310
F5F5F5F5F5E2E2E2E2E2E2E2E2F5F5E2EFE2F5F5E2F5F5F5F5F5F5F5F5F5F5F5F5F5F5F5F5F5F5F5F5F5F5F5F5F5F5F5F5F5F5F5F5F5F5F5F5F5F5F5F5F5F5F5F5F5F5F5F5F5F5F5F5F5F5F5F5F5F5F5F5F5F5F5F5F5F5F5F5F5F5F5F5F5F5F5F5F5F5E2E2E2E2F5E2F5F5F5F5F5F5F5F5F5F5E2E2E2E2E2E2E2E2E2E2E2F5
310
F5F5F5F5F5F5F5F5F5E2F5E2E2E2E2F5E2E2E2E2E2E2E2E2E2E2E2E2E2E2E2E2E2E2E2E2E2E2E2E2E2E2E2E2E2E2E2E2E2E2E2E2E2E2E2E2E2E2E2E2E2E2F5F5F5E2F5F5E2EFE2F5F5E2F5F5F5F5F5F5F5F5F5F5F5F5F5F5F5F5F5F5F5F5F5F5F5F5F5F5F5F5F5F5F5F5F5F5F5F5F5F5F5F5F5F5F5F5F5F5F5F5F5F5F5F5F5
310
F5F5F5F5F5F5F5F5F5F5F5F5F5F5F5F5F5F5F5F5F5F5F5F5F5E2E2E2E2E2E2E2E2E2E2E2E2E2E2E2E2E2E2E2E2E2E2E2E2E2E2E2E2E2E2E2E2E2E2E2E2E2E2E2E2E2E2E2E2E2E2E2E2E2E2F5F5F5F5F5F5F5F5F5F5F5F5E2E2E2E2E2E2E2E2E2E2E2E2E2E2E2E2E2E2E2E2E2E2E2E2E2E2F5F5F5F5F5E2F5F5E2EFE2F5F5E2
310
F5F5F5F5F5F5F5F5F5F5F5F5F5F5F5F5F5F5F5F5F5F5F5F5F5F5F5F5F5F5F5F5F5F5F5F5F5F5F5F5F5F5F5F5F5F5F5F5F5F5F5F5F5F5F5F5F5F5F5F5F5F5F5F5F5F5F5F5F5F5F5F5F5F5F5F5F5F5E2E2E2E2F5E2F5F5F5F5F5F5F5F5F5F5E2E2E2E2E2E2E2E2E2E2E2F5F5F5F5F5F5F5F5F5F5E2F5E2E2E2E2F5E2E2E2E2E2
310
E2E2E2E2E2E2E2E2E2E2E2E2E2E2F5F5F5F5F5F5F5F5F5F5F5F5F5F5F5F5F5F5F5F5F5F5F5F5F5F5F5F5F5F5E2F5F5E2EFE2F5F5E2F5F5F5F5F5F5F5F5F5F5F5F5F5F5F5F5F5F5F5F5F5F5F5F5F5F5F5F5F5F5F5F5F5F5F5F5F5F5F5F5F5F5F5F5F5F5F5F5F5F5F5F5F5F5F5F5F5F5F5F5F5F5F5F5F5F5F5F5F5F5F5F5F5F5
310
F5F5F5F5E2E2E2E2E2E2E2E2E2E2E2E2E2E2E2E2E2E2E2E2E2E2E2E2E2E2E2E2E2E2E2E2E2E2E2E2E2E2E2E2E2E2E2E2E2E2E2E2E2E2F5F5E2E2E2E2E2E2E2E2F5F5E2E2E2E2E2F5F5F5F5F5F5F5F5F5F5F5F5F5F5F5F5F5F5F5F5F5F5F5F5F5F5E2F5F5E2EFE2F5F5E2F5F5F5F5F5F5F5F5F5F5F5F5F5F5F5F5F5F5F5F5F5
310
F5F5F5F5F5F5F5F5F5F5F5F5F5F5F5F5F5F5F5F5F5F5F5F5F5F5F5F5F5F5F5F5F5F5F5F5F5F5F5F5F5F5F5F5F5F5F5F5F5F5F5F5F5F5F5F5F5E2E2E2E2F5E2F5F5F5F5F5F5F5F5F5F5E2E2E2E2E2E2E2E2E2E2E2F5F5F5F5F5F5F5F5F5F5E2F5E2E2E2E2F5E2E2E2E2E2E2F5F5F5F5F5F5F5F5F5F5F5F5E2E2E2E2E2E2E2E2
310
E2E2E2E2E2E2E2E2E2E2E2E2E2E2E2E2E2E2E2E2E2E2E2E2F5F5E2EFE2F5F5E2F5F5F5F5F5F5F5F5F5F5F5F5F5F5F5F5F5F5F5F5F5F5F5F5F5F5F5F5F5F5F5F5F5F5F5F5F5F5F5F5F5F5F5F5F5F5F5F5F5F5F5F5F5F5F5F5F5F5F5F5F5F5F5F5F5F5F5F5F5F5F5F5F5F5F5F5F5F5E2E2E2E2E2E2E2E2E2E2E2E2E2E2E2E2E2
310
E2E2E2E2E2E2E2E2E2E2E2E2E2E2E2E2E2E2E2E2E2E2E2E2E2E2E2E2E2E2E2E2E2F5F5E2E2E2E2E2E2E2E2F5F5E2F5F5E2E2E2E2E2E2E2E2E2E2E2E2E2E2E2E2E2E2E2E2E2E2E2E2E2F5F5F5E2F5F5E2EFE2F5F5E2F5F5F5F5F5F5F5F5F5F5F5F5F5F5F5F5F5F5F5F5F5F5F5F5F5F5F5F5F5F5F5F5F5F5F5F5F5F5F5F5F5F5
310
F5F5F5F5F5F5F5F5F5F5F5F5F5F5F5F5F5F5F5F5F5F5F5F5F5F5F5F5F5F5F5F5F5F5F5F5E2E2E2E2F5E2F5F5F5F5F5F5F5F5F5F5E2E2E2E2E2E2E2E2E2E2E2F5F5F5F5F5F5F5F5F5F5E2F5E2E2E2E2F5E2E2E2E2E2E2F5F5F5E2E2E2E2E2E2F5F5F5E2F5F5E23D3EF33E4300010101010000E701F000003401E4E60100E2F5
310
F5F5E2F5F5E2EFE2F5F5E2F5F5F5F5F5F5F5F5F5F5F5F5F5F5F5F5F5F5F5F5F5F5F5F5F5F5F5F5F5F5F5F5F5F5F5F5F5F5F5F5F5F5F5F5F5F5F5F5F5F5F5F5F5F5F5F5F5F5F5F5F5F5F5F5F5F5F5F5F5F5F5F5F5F5F5F5F5F5E2E2E2E2E2E2E2E2E2E2E2E2E2E2E2E2E2E2E2E2E2E2E2E2E2E2E2E2E2E2E2E2E2E2E2E2E2E2
310
E2E2E2E2E2E2E2E2E2E2E2E2F5F5F5E2E2E2E2E2F5F5F5F5E2F5F5E23EBC00B6B70000EE00000000E700010000B700E601F300E2F5F5F5E2F5F5E2EFE2F5F5E2F5F5F5F5F5F5F5F5F5F5F5F5F5F5F5F5F5F5F5F5F5F5F5F5F5F5F5F5F5F5F5F5F5F5F5F5F5F5F5F5F5F5F5F5F5F5F5F5F5F5F5F5F5F5F5F5F5F5F5F5F5F5F5
310
F5F5F5F5F5F5F5F5F5F5F5F5F5F5F5E2E2E2E2F5E2F5F5F5F5F5F5F5F5F5F5E2E2E2E2E2E2E2E2E2E2E2F5F5F5F5F5F5F5F5F5F5E2F5E2E2E2E2F5E2E2E2E2E2E2F5F5F5E2E2E2E2E2F5F5F5F5E2F5F5E23D68DB433E00E901E9E400E701E7E901010101E701E900E2F5F5F5E2F5F5E2EFE2F5F5E2F5F5F5F5F5F5F5F5F5F5
310
F5F5F5F5F5F5F5F5F5F5F5F5F5F5F5F5F5BEBEF5F5F5F5F5F5F5F5F5F5F5F5F5F5F5F5F5F5F5F5F5F5F5F5F5F5F5F5F5F5F5F5F5F5F5F5F5F5F5F5F5F5F5F5F5F5F5F5F5E2E2E2E2F5E2F5F5F5F5F5F5F5F5F5F5E2E2E2E2E2E2E2E2E2E2E2F5F5F5F5F5F5F5F5F5F5E2F5E2E2E2E2F5E2E2E2E2E2E2F5F5F5F5F5F5F5F5F5
310
F5F5F5E2F5F5E20000003E3D0000000000000000000000000000EC000000E2F5F5F5E2F5F5E2EFE2F5F5E2F5F5F5F5F5F5F5F5F5F5F5F5F5F5F5F5F5F5F5F5F5F5F5F5F5F5F5BEBEF5F5F5F5F5F5F5F5F5F5F5F5F5F5F5BEBEF5F5F5F5F5F5F5F5F5F5F5F5F5F5F5F5F5F5F5F5F5F5F5F5F5F5F5F5F5F5F5F5E2E2E2E2E2E2
310
E2E2E2E2E2E2E2E2E2E2E2E2E2E2E2E2E2E2E2E2E2E2E2E2E2E2E2E2E2E2E2E2E2E2E2E2E2E2E2E2E2E2E2E2F5F5F5E2E2E2E2E2E2F5F5F5E2F5F5E2E2E2E2E2E2E2E2E2E2E2E2E2E2E2E2E2E2E2E2E2E2E2E2E2F5F5F5E2F5F5E2EFE2F5F5E2F5F5F5F5F5F5F5F5F5F5F5F5F5F5F5F5F5BEBEBEBEBEBEBEBEF5F5BEBEF5F5
310
F5F5F5F5F5F5F5F5F5F5F5F5F5BEF5BEF5F5F5F5F5F5F5F5F5F5F5F5F5F5F5F5F5F5F5F5F5F5F5F5F5F5F5F5F5F5F5F5F5F5F5F5F5F5F5F5F5F5F5F5F5F5F5F5F5F5F5F5F5F5F5F5F5F5F5F5F5F5F5F5F5F5F5F5F5F5F5F5F5F5F5F5F5F5F5F5E2E2E2E2E2E2E2E2E2E2E2E2E2E2E2E2E2E2E2E2E2E2E2E2E2E2E2E2E2E2E2
310
E2E2E2E2E2E2E2E2E2E2E2E2E2E2F5F5E2EFE2F5F5E2F5F5F5F5F5F5F5F5F5F5F5F5F5F5F5F5F5BEBEBEBEBEBEBEBEF5BEBEBEF5F5F5F5F5F5F5F5F5F5F5F5F5F5BEF5F5BEF5F5F5F5F5F5F5F5F5F5F5F5F5F5F5F5F5F5F5F5F5F5F5F5F5F5F5F5F5F5F5F5F5F5F5F5F5F5F5F5F5F5F5F5F5F5F5F5F5F5F5F5F5F5F5F5F5F5
310
F5F5F5F5F5F5F5F5F5F5F5F5F5F5F5F5F5F5F5F5F5F5F5F5F5F5F5F5F5F5F5F5F5F5F5F5F5F5F5F5F5F5F5F5F5F5F5F5F5F5F5F5F5F5F5F5F5F5F5F5F5F5F5F5F5F5E2F5F5E2EFE2F5F5E2F5F5F5F5F5F5F5F5F5F5F5F5F5F5F5F5F5F5F5BEBEBEBEBEBEBEBEF5F5BEF5F5F5F5F5F5F5F5F5F5F5F5F5BEF5F5BEBEBEBEBEBE
310
BEBEBEBEBEBEBEBEF5F5F5F5F5F5F5F5F5F5F5F5F5F5F5F5F5F5F5F5F5F5F5F5F5F5F5F5F5F5F5F5F5F5F5F5F5F5F5F5F5F5F5F5F5F5F5F5F5F5F5F5F5F5F5F5F5F5F5F5F5F5F5F5F5F5F5F5F5F5F5F5F5F5F5F5F5F5F5F5F5F5F5F5F5F5F5F5F5F5F5F5F5F5F5F5F5F5F5F5F5F5F5F5F5F5F5F5F5F5F5E2F5F5E2EFE2F5F5
310
E2F5F5F5F5F5F5F5F5F5F5F5F5F5F5F5F5F5F5F5BEBEBEBEBEBEF5F5F5F5BEF5F5F5F5F5F5F5F5F5F5F5F5F5BEF5F5F5F5F5F5BEBEBEBEBEBEBEBEBEBEF5F5F5F5F5F5F5F5F5F5F5F5F5F5F5F5F5F5F5F5F5F5F5F5F5F5F5F5F5F5F5F5F5F5F5F5F5F5F5F5F5F5F5F5F5F5F5F5F5F5F5F5F5F5F5F5F5F5F5F5F5F5F5F5F5F5
310
F5F5F5F5F5F5F5F5F5F5F5F5F5F5F5F5F5F5F5F5F5F5F5F5F5F5F5F5F5F5F5F5F5F5F5F5F5F5F5F5F5F5F5F5F5E2F5F5E2EFE2F5F5E2F5F5F5F5F5F5F5F5F5F5F5F5F5F5F5F5F5F5F5F5F5F5F5F5F5F5F5F5E2BEE2E2E2F5F5F5F5F5F5F5E2E2F5BEF5F5F5F5F5F5F5F5F5F5F5F5F5F5F5F5F5F5F5F5F5F5F5F5F5F5F5F5F5
310
F5F5F5F5F5F5F5F5F5F5F5F5F5F5F5F5F5F5F5F5F5F5F5F5F5F5F5F5F5F5F5F5F5F5F5F5F5F5F5F5F5F5F5F5F5F5F5F5F5F5F5F5F5F5F5F5F5F5F5F5F5F5F5F5F5F5F5F5F5F5F5F5F5F5F5F5F5F5F5F5F5F5F5F5F5F5F5F5F5F5F5F5F5F5F5F5F5F5E2F5F5E2EFE2F5F5E2F5F5F5F5F5F5F5F5F5F5F5F5F5F5F5F5F5F5F5F5
310
F5F5F5F5F5F5F5E2F5F5BEE2E2E2E2E2F5F5F5E2F5E2E2BEF5F5F5F5F5F5F5F5F5F5F5F5F5F5F5F5F5F5F5F5F5F5F5F5F5F5F5F5F5F5F5F5F5F5F5F5F5F5F5F5F5F5F5F5F5F5F5F5F5F5F5F5F5F5F5F5F5F5F5F5F5F5F5F5F5F5F5F5BEF5F5F5F5F5F5F5F5F5F5F5F5F5F5F5F5F5F5F5F5F5F5BEF5F5F5F5F5F5F5F5F5F5F5
310
F5F5F5F5F5F5F5F5F5F5F5F5F5F5F5F5F5F5F5F5F5F5F5F5E2F5F5E2EFE2F5F5E2F5F5F5F5F5F5F5F5F5F5F5F5F5F5F5F5F5F5F5F5F5F5F5F5F5F5E2E2E2E2BEE2E2E2F5E2E2F5F5E2F5E2BEF5E2F5F5F5F5F5F5F5F5F5F5F5F5F5F5F5F5F5F5F5F5F5F5F5F5F5F5F5F5F5F5F5F5F5F5F5F5F5F5F5F5F5F5F5F5F5F5F5F5F5
310
F5F5F5F5F5F5F5F5F5F5F5F5F5F5F5F5F5F5BEBEBEBEBEBEBEBEBEF5BEBEBEF5BEBEBEBEBEBEBEBEBEBEBEF5F5F5F5F5F5F5F5F5F5F5F5F5F5F5F5F5F5F5F5F5F5F5F5F5F5F5F5F5F5F5F5F5F5E2F5F5E2EFE2F5F5E2F5F5F5F5F5F5F5F5F5F5F5F5F5F5F5F5F5F5F5F5F5F5F5F5F5E2F5E2F5F5BEF5E2E2F5F5E2E2E2E2F5
310
E2BEF5F5E2F5F5F5F5F5F5F5F5F5F5F5F5F5F5F5F5F5F5F5F5F5F5F5F5F5F5F5F5F5F5F5F5F5F5F5F5F5F5F5F5F5F5F5F5F5F5F5F5F5F5F5F5F5F5F5F5F5F5F5F5F5F5F5F5F5F5BEBEBEBEBEBEF5F5BEF5BEBEBEF5BEBEBEBEBEF5F5BEBEBEF5F5F5F5F5F5F5F5F5F5F5F5F5F5F5F5F5F5F5F5F5F5F5F5F5F5F5F5F5F5F5F5
310
F5F5F5E2F5F5E2EFE2F5F5E2F5F5F5F5F5F5F5F5F5F5F5F5F5F5F5F5F5F5F5F5F5F5F5F5F5E2E2F5F5F5BEBEF5E2F5F5E2E2E2E2E2BEF5F5F5E2F5F5F5F5F5F5F5F5F5F5F5F5F5F5F5F5F5F5F5F5F5F5F5F5F5F5F5F5F5F5F5F5F5F5F5F5F5F5F5F5F5F5F5F5F5F5F5F5F5F5F5F5F5F5F5F5F5F5F5F5F5F5F5F5F5F5BEBEBE
310
BEBEBEBEBEBEBEBEBEBEBEF5BEBEBEBEBEBEBEBEBEBEBEBEBEBEF5BEBEBEBEBEBEBEBEBEBEBEBEBEBEBEF5F5BEBEBEBEBEF5F5F5F5F5F5F5E2F5F5E2EFE2F5F5E2F5F5F5F5F5F5F5F5F5F5F5F5F5F5F5F5F5F5F5F5F5F5F5F5E2E2E2F5F5F5BEBEF5E2F5F5E2E2E2E2E2BEF5F5F5E2E2E2F5F5F5F5F5F5F5F5F5F5F5F5F5F5
310
F5F5F5F5F5F5F5F5F5F5F5F5F5F5F5F5F5F5F5F5F5F5F5F5F5F5F5F5F5F5F5F5F5F5F5F5F5F5F5F5F5F5F5F5F5F5F5F5F5F5BEBEBEBEBEBEBEBEBEBEBEBEBEBEBEBEBEBEBEBEBEBEBEBEBEBEBEBEBEF5BEBEF5BEBEBEBEBEBEBEBEF5BEBEBEBEF5BEBEBEBEBEF5F5F5F5F5F5F5E2F5F5E2EFE2F5F5E2F5F5F5F5F5F5F5F5F5
310
F5F5F5F5F5F5F5F5F5F5F5F5F5F5F5E2E2F5F5F5F5F5BEE2F5F5F5E2E2E2E2BEE2F5F5F5E2E2E2E2E2F5F5F5F5F5F5F5F5F5F5F5F5F5F5F5F5F5F5F5F5F5F5F5F5F5F5F5F5F5F5F5F5F5F5F5F5F5F5F5F5F5F5F5F5F5F5F5F5F5F5F5F5F5F5F5F5F5F5F5F5F5F5F5BEF5F5F5F5F5F5F5F5F5F5F5F5F5F5F5F5F5F5F5F5F5F5
310
F5F5F5F5F5F5F5F5F5F5F5F5F5F5F5F5F5F5F5F5F5F5F5F5F5F5F5F5F5F5F5F5F5F5F5E2F5F5E2EFE2F5F5E2F5F5F5F5F5F5F5F5F5F5F5F5F5F5F5F5F5F5F5F5F5F5F5F5E2E2F5F5F5F5F5F5E2F5F5F5E2E2E2E2E2E2F5F5F5E2E2E2E2E2E2E2F5F5F5F5F5F5F5F5F5F5F5F5F5F5F5F5F5F5F5F5F5F5F5F5F5F5F5F5F5F5F5
310
F5F5F5F5F5F5F5F5F5F5F5F5F5F5F5F5F5F5F5F5F5F5F5F5F5F5F5F5F5F5F5F5F5F5F5F5F5F5F5F5F5F5F5F5F5F5F5F5F5F5F5F5F5F5F5F5F5F5F5F5F5F5F5F5F5F5F5F5F5F5F5F5F5F5F5F5F5F5F5F5F5F5F5F5F5F5F5F5E2F5F5E2EFE2F5F5E2F5F5F5F5F5F5F5F5F5F5F5F5F5F5F5F5F5F5F5F5F5F5F5E2F5E2F5F5F5F5
310
F5E2F5F5F5F5E2E2E2E2E2E2F5F5F5E2F5E2E2F5F5E2F5F5F5F5F5F5F5F5F5F5F5F5F5F5F5F5F5F5F5F5F5F5F5F5F5F5F5F5F5F5F5F5F5F5F5F5F5F5F5F5F5F5F5F5F5F5F5F5F5F5F5F5F5F5F5F5F5F5F5F5F5F5F5F5F5F5F5F5F5F5F5F5F5F5F5F5F5F5F5F5F5F5F5F5F5F5F5F5F5F5F5F5F5F5F5F5F5F5F5F5F5F5F5F5F5
310
F5F5F5F5F5F5F5F5F5F5F5F5F5F5E2F5F5E2EFE2F5F5E2F5F5F5F5F5F5F5F5F5F5F5F5F5F5F5F5F5F5F5F5F5F5F5E2F5E2F5F5F5F5F5E2F5F5F5F5E2E2E2E2E2E2F5F5F5E2F5F5E2E2E2F5F5F5F5F5F5F5F5F5F5F5F5F5F5F5F5F5F5F5F5F5F5F5F5F5F5F5F5F5F5F5F5F5F5F5F5F5F5F5F5F5F5F5F5F5F5F5F5F5F5F5F5F5
310
F5F5F5F5F5F5F5F5BEBEBEBEBEBEF5BEBEBEBEBEBEBEBEF5BEBEF5BEBEBEBEBEBEBEBEF5F5F5F5F5F5F5F5F5F5F5F5F5F5F5F5F5F5F5F5F5F5F5F5F5F5F5F5F5F5F5F5E2F5F5E2EFE2F5F5E2F5F5F5F5F5F5F5F5F5F5F5F5F5F5F5F5F5F5F5F5F5F5F5E2F5E2E2F5F5F5E2F5F5F5F5E2F5E2E2E2E2E2F5F5F5E2F5F5F5F5E2
310
F5F5F5F5F5F5F5F5F5F5F5F5F5F5F5F5F5F5F5F5F5F5F5F5F5F5F5F5F5F5F5F5F5F5F5F5F5F5F5F5F5F5F5F5F5F5F5F5F5F5F5F5F5F5F5F5F5F5F5F5F5BEBEBEBEBEBEF5BEBEBEBEBEBEBEBEBEBEBEF5BEBEBEBEBEBEBEBEF5F5F5F5F5F5F5F5F5F5F5F5F5F5F5F5F5F5F5F5F5F5F5F5F5F5F5F5F5F5F5F5E2F5F5E2EFE2F5
310
F5E2F5F5F5F5F5F5F5F5F5F5F5F5F5F5F5F5F5F5F5F5F5F5F5F5E2F5E2E2E2E2F5F5F5F5E2E2E2E2E2E2E2E2F5F5F5E2F5F5F5F5F5E2F5F5F5F5F5F5F5F5F5F5F5F5F5F5F5F5F5F5F5F5F5F5F5F5F5F5F5F5F5F5F5F5F5F5F5F5F5F5F5F5F5F5F5F5F5F5F5F5F5F5F5F5F5F5F5F5F5F5F5F5BEBEBEBEBEBEBEBEBEBEBEF5BE
310
BEBEBEBEBEBEBEBEBEBEBEBEF5BEBEF5BEBEBEBEBEBEBEBEBEF5BEBEBEBEBEBEBEBEBEBEBEBEF5F5F5F5F5F5F5F5E2F5F5E2EFE2F5F5E2F5F5F5F5F5F5F5F5F5F5F5F5F5F5F5F5F5F5F5F5F5F5F5F5E2E2E2E2F5F5F5F5F5E2F5E2E2E2E2E2F5E2F5F5F5E2F5F5F5F5F5E2F5F5F5F5F5F5F5F5F5F5F5F5F5F5F5F5F5F5F5F5
310
F5F5F5F5F5F5F5F5F5F5F5F5F5F5F5F5F5F5F5F5F5F5F5F5F5F5F5F5F5F5F5F5F5F5F5F5F5F5F5F5BEBEF5BEBEBEBEBEBEF5F5F5BEBEBEBEBEBEBEBEBEBEBEBEF5F5BEBEBEBEBEBEBEBEBEBEBEF5F5BEBEBEBEBEBEBEBEBEBEF5F5F5F5F5F5F5F5F5F5E2F5F5E2EFE2F5F5E2F5F5F5F5F5F5F5F5F5F5F5F5F5F5F5F5F5F5F5
310
F5F5F5F5F5F5F5E2E2F5F5F5F5E2BEE2E2E2E2F5E2F5E2F5F5F5E2E2E2F5F5F5E2F5F5F5F5F5F5F5F5F5F5F5F5F5F5F5F5F5F5F5F5F5F5F5F5F5F5F5F5F5F5F5F5F5F5F5F5F5F5F5F5F5F5F5F5F5F5F5F5F5F5F5F5F5F5F5F5F5F5F5F5BEBEBEBEBEBEBEBEBEBEBEBEBEF5BEBEBEBEBEBEBEBEBEBEBEBEBEBEBEF5BEBEBEBE
310
BEF5BEBEBEBEBEBEBEBEBEBEF5BEBEBEBEBEBEBEBEF5F5F5F5E2F5F5E2EFE2F5F5E2F5F5F5F5F5F5F5F5F5F5F5F5F5F5F5F5F5F5F5F5F5F5F5F5F5F5F5E2E2E2E2E2BEBEE2E2E2F5E2F5E2E2F5F5F5E2E2E2E2E2F5E2F5F5F5F5F5F5F5F5F5F5F5F5F5F5F5F5F5F5F5F5F5F5F5F5F5F5F5F5F5F5F5F5F5F5F5F5F5F5F5F5F5
310
F5F5F5F5F5F5F5F5F5F5F5F5F5F5F5F5F5F5F5BEBEBEBEBEBEBEBEBEBEBEBEBEBEBEBEBEBEBEF5BEBEBEBEBEBEBEBEBEF5BEBEBEBEBEF5BEBEBEBEBEBEBEBEBEBEBEBEBEBEBEBEBEBEBEF5F5F5F5E2F5F5E2EFE2F5F5E2F5F5F5F5F5F5F5F5F5F5F5F5F5F5F5F5F5F5F5F5F5F5F5F5F5F5F5F5F5E2E2F5BEE2E2E2F5E2F5E2
310
F5F5F5F5F5E2E2E2E2F5E2E2F5F5F5F5F5F5F5F5F5F5F5F5F5F5F5F5F5F5F5F5F5F5F5F5F5F5F5F5F5F5F5F5F5F5F5F5F5F5F5F5F5F5F5F5F5F5F5F5F5F5F5F5F5F5F5F5F5F5F5F5BEBEF5BEBEBEBEBEBEBEBEBEBEF5BEBEBEBEBEBEBEBEBEBEF5BEBEBEBEF5BEBEBEBEBEF5BEBEBEBEBEBEF5BEBEBEF5BEBEBEBEBEBEBEBE
310
F5F5F5F5E2F5F5E2EFE2F5F5E2F5F5F5F5F5F5F5F5F5F5F5F5F5F5F5F5F5F5F5F5F5F5F5F5F5F5F5F5F5F5E2E2BEE2E2E2E2E2E2E2E2E2F5F5E2E2F5E2E2F5E2F5F5F5F5F5F5F5F5F5F5F5F5F5F5F5F5F5F5F5F5F5F5F5F5F5F5F5F5F5F5F5F5F5F5F5F5F5F5F5F5F5F5F5F5F5F5F5F5F5F5F5F5F5F5F5F5F5F5F5F5F5F5F5
310
F5F5F5F5F5F5F5F5F5F5F5F5F5F5F5F5F5F5F5F5F5F5F5F5F5F5F5F5F5F5F5F5F5F5F5F5F5F5F5F5F5F5F5F5F5F5F5F5F5F5F5F5F5F5F5F5F5E2F5F5E2EFE2F5F5E2F5F5F5F5F5F5F5F5F5F5F5F5F5F5F5F5F5F5F5F5F5F5F5F5F5F5F5F5F5F5E2E2BEE2E2E2E2E2F5E2E2E2E2E2E2F5E2E2E2E2F5F5F5F5F5F5F5F5F5F5F5
310
F5F5F5F5F5F5F5F5F5F5F5F5F5F5F5F5F5F5F5F5F5F5F5F5F5F5F5F5F5F5F5F5F5F5F5F5F5F5F5F5F5F5F5F5F5F5F5F5F5F5F5F5BEF5F5F5F5F5F5F5F5F5F5F5F5F5F5F5F5F5F5F5F5F5F5F5F5F5F5F5F5F5F5F5F5F5F5F5F5BEF5F5F5F5F5BEF5F5F5F5F5BEF5F5F5F5F5F5F5F5E2F5F5E2EFE2F5F5E2F5F5F5F5F5F5F5F5
310
F5F5F5F5F5F5F5F5F5F5F5F5F5F5F5F5F5F5F5F5F5F5E2BEE2E2E2F5E2E2F5E2F5F5F5E2F5E2E2F5BEE2E2E2F5F5F5F5F5F5F5F5F5F5F5F5F5F5F5F5F5F5F5F5F5F5F5F5F5F5F5F5F5F5F5F5F5F5F5F5F5F5F5F5F5F5F5F5F5F5F5F5F5F5F5F5F5F5F5F5F5F5F5F5BEBEF5BEBEBEBEBEBEBEBEBEBEF5BEBEBEBEBEBEBEBEF5
310
BEBEBEBEBEBEBEF5BEBEBEBEBEBEBEBEBEBEBEBEBEBEBEBEBEBEBEBEF5F5F5F5F5F5F5F5E2F5F5E2EFE2F5F5E2F5F5F5F5F5F5F5F5F5F5F5F5F5F5F5F5F5F5F5F5F5F5F5F5F5F5F5F5F5F5E2BEE2F5F5E2F5F5E2F5E2E2F5E2E2E2F5E2BEF5E2E2F5F5F5F5F5F5F5F5F5F5F5F5F5F5F5F5F5F5F5F5F5F5F5F5F5F5F5F5F5F5
310
F5F5F5F5F5F5F5F5F5F5F5F5F5F5F5F5F5F5F5F5F5F5F5F5F5F5F5F5F5F5BEBEF5BEBEBEBEBEBEBEBEBEBEF5BEBEBEBEBEBEBEBEF5BEBEBEBEBEBEF5F5F5F5BEBEBEF5BEBEF5BEBEBEBEBEBEBEBEBEBEBEF5F5F5F5F5F5F5F5E2F5F5E2EFE2F5F5E2F5F5F5F5F5F5F5F5F5F5F5F5F5F5F5F5F5F5F5F5F5F5F5F5F5F5F5F5F5
310
F5E2BEF5F5F5F5E2E2F5E2F5E2E2E2E2E2E2E2BEE2E2F5F5F5F5F5F5F5F5F5F5F5F5F5F5F5F5F5F5F5F5F5F5F5F5F5F5F5F5F5F5F5F5F5F5F5F5F5F5F5F5F5F5F5F5F5F5F5F5F5F5F5F5F5F5F5F5F5F5F5F5F5F5F5F5F5F5F5F5F5F5F5F5F5F5F5F5F5F5F5F5F5F5F5F5F5F5F5F5F5F5F5F5F5F5F5F5F5F5F5F5F5F5F5F5F5
310
F5F5F5F5F5F5F5F5F5F5F5F5F5F5F5E2F5F5E2EFE2F5F5E2F5F5F5F5F5F5F5F5F5F5F5F5F5F5F5F5F5F5F5F5F5F5F5F5F5F5BEBEF5F5BEE2E2F5F5F5E2F5F5F5F5F5E2E2E2E2E2E2E2BEF5F5F5F5F5F5F5F5F5F5F5F5F5F5F5F5F5F5F5F5F5F5F5F5F5F5F5F5F5F5F5F5F5F5F5F5F5F5F5F5F5F5F5F5F5F5F5F5F5F5F5F5F5
310
F5F5F5F5F5F5F5F5F5F5F5F5F5F5F5F5F5F5F5F5F5F5F5F5F5F5F5F5F5F5F5F5F5F5F5F5F5F5F5F5F5F5F5F5F5F5F5F5F5F5F5F5F5F5F5F5F5F5F5F5F5F5F5F5F5F5F5F5E2F5F5E2EFE2F5F5E2F5F5F5F5F5F5F5F5F5F5F5F5F5F5F5F5F5F5F5F5F5F5F5F5F5F5BEBEF5F5BEF5F5E2E2E2F5F5F5F5F5F5F5F5E2E2E2F5F5BE
310
F5F5F5F5F5F5F5F5F5F5F5F5F5F5F5F5F5F5F5F5F5F5F5F5F5F5F5F5F5F5F5F5F5F5F5F5F5F5F5F5F5F5F5F5F5F5F5F5F5F5F5F5F5F5F5F5F5F5F5F5F5F5BEBEBEBEBEBEBEF5F5F5F5F5F5F5F5F5F5F5F5F5F5F5F5F5F5F5F5F5F5F5F5F5F5F5F5F5F5F5F5F5F5F5F5F5F5F5F5F5F5F5F5F5F5F5F5F5F5F5F5E2F5F5E2EFE2
310
F5F5E2F5F5F5F5F5F5F5F5F5F5F5F5F5F5F5F5F5F5F5F5F5F5F5F5F5BEF5BEF5BEF5F5F5F5F5F5F5F5F5F5F5F5F5F5F5E2E2F5F5BEF5F5F5F5F5F5F5F5F5F5F5F5F5F5F5F5F5F5F5F5F5F5F5F5F5F5F5F5F5F5F5F5F5F5F5F5F5F5F5F5F5F5F5F5F5F5F5F5F5F5F5F5F5F5F5F5F5F5F5F5F5F5BEBEBEBEBEBEBEF5F5F5F5F5
310
F5F5F5F5F5F5F5F5F5F5F5F5F5F5F5F5F5F5F5F5F5F5F5F5F5F5F5F5F5F5F5F5F5F5F5F5F5F5F5F5F5F5F5F5F5F5F5E2F5F5E2EFE2F5F5E2F5F5F5F5F5F5F5F5F5F5F5F5F5F5F5F5F5F5F5F5F5F5F5F5F5BEF5BEF5BEF5F5F5F5F5F5F5F5F5F5F5F5F5F5F5F5F5F5F5BEF5F5F5F5F5F5F5F5F5F5F5F5F5F5F5F5F5F5F5F5F5
310
F5F5F5F5F5F5F5F5F5F5F5F5F5F5F5F5F5F5F5F5F5F5F5F5F5F5F5F5F5F5F5F5F5F5F5F5F5F5F5F5F5BEBEBEBEBEBEBEF5F5F5F5F5F5F5F5F5F5F5F5F5F5F5F5F5F5F5F5F5F5F5F5F5F5F5F5F5F5F5F5F5F5F5F5F5F5F5F5F5F5F5F5F5F5F5F5F5F5F5F5E2F5F5E2EFE2F5F5E2F5F5F5F5F5F5F5F5F5F5F5F5F5F5F5F5F5F5
310
F5F5F5F5F5F5BEF5F5BEBEF5F5F5F5F5F5F5F5F5F5F5F5F5F5F5F5F5F5F5F5BEF5F5F5F5F5F5BEBEBEBEBEBEBEF5F5F5F5F5F5F5F5F5F5F5F5F5F5F5F5F5F5F5F5F5F5F5F5F5F5F5F5F5F5F5F5F5F5F5F5F5F5F5F5F5F5F5F5F5F5F5F5F5F5F5F5F5F5F5F5F5F5F5F5F5F5F5F5F5F5F5F5F5F5F5F5F5F5F5F5F5F5F5F5F5F5
310
F5F5F5F5F5F5F5F5F5F5F5F5F5F5F5F5F5F5F5F5F5F5F5F5F5F5E2F5F5E2EFE2F5F5E2F5F5F5F5F5F5F5F5F5F5F5F5F5F5F5F5F5F5F5F5F5F5F5BEF5F5F5F5F5F5F5F5F5F5F5F5F5F5F5F5F5F5F5F5F5F5F5F5F5F5BEF5F5BEBEBEBEBEBEBEBEBEBEF5F5F5F5F5F5F5F5F5F5F5F5F5F5F5F5F5F5F5F5F5F5F5F5F5F5F5BEBE
310
F5F5F5F5F5F5F5F5BEF5F5F5F5F5F5F5F5F5F5F5F5F5F5F5F5F5F5F5F5F5F5F5F5F5F5F5F5F5F5F5F5F5F5F5F5F5F5F5F5F5F5F5F5F5F5F5F5F5F5F5F5F5F5F5F5F5F5F5F5F5F5F5F5F5F5F5F5F5F5E2F5F5E2EFE2F5F5E2F5F5F5F5F5F5F5F5F5BEBEBEBEBEBEBEBEBEBEBEBEBEF5BEBEBEBEBEBEBEBEBEBEBEF5F5F5F5F5
310
F5F5F5F5F5F5F5F5F5F5F5BEF5BEBEF5F5BEBEBEBEBEBEBEBEBEF5F5F5F5F5F5F5F5F5F5F5F5F5F5F5F5F5BEF5F5BEF5F5F5BEBEBEF5BEBEBEBEBEBEBEBEF5F5F5F5F5F5F5F5F5F5F5F5F5F5F5F5F5F5F5F5F5F5F5F5F5F5F5F5F5F5F5F5F5F5F5F5F5F5F5F5F5F5F5F5F5F5F5F5F5F5F5F5F5F5F5F5F5F5F5F5F5F5F5F5F5
310
F5F5F5F5F5E2F5F5E2EFE2F5F5E2F5F5F5F5F5F5F5F5F5BEBEBEF5BEBEBEBEBEBEBEBEBEF5BEBEBEBEBEBEBEBEBEBEBEF5F5F5F5F5F5F5F5F5F5F5F5F5F5F5F5BEF5BEF5F5F5BEBEBEBEBEBEBEBEBEBEF5F5F5F5F5F5F5F5F5F5F5F5F5F5BEBEBEF5F5BEBEBEBEF5BEBEF5BEBEBEBEBEBEBEBEF5F5F5F5F5F5F5F5F5F5F5F5
310
F5F5F5F5F5F5F5F5F5F5F5F5F5F5F5F5F5F5F5F5F5F5F5F5F5F5F5F5F5F5F5F5F5F5F5F5F5F5F5F5F5F5F5F5F5F5F5F5F5F5F5F5F5F5F5F5F5F5E2F5F5E2EFE2F5F5E2F5F5F5F5F5F5F5F5F5F5BEF5F5F5F5F5F5F5F5F5F5F5F5F5F5F5F5F5F5F5F5F5F5BEF5F5F5F5F5F5F5F5F5F5F5F5F5F5F5F5F5BEBEF5F5F5F5F5F5F5
310
F5F5F5F5F5F5F5F5F5F5F5F5F5F5F5F5F5F5F5F5F5F5BEF5BEBEF5F5F5F5F5BEF5F5F5F5F5F5F5F5F5F5F5F5F5F5F5F5F5F5F5F5F5F5F5F5F5F5F5F5F5F5F5F5F5F5F5F5F5F5F5F5F5F5F5F5F5F5F5F5F5F5F5F5F5F5F5F5F5F5F5F5F5F5F5F5F5F5F5F5F5F5F5F5F5F5F5F5F5F5F5E2F5F5E2EFE2F5F5E2F5F5F5F5F5F5F5
310
F5F5F5F5F5F5F5F5BEBEBEBEBEBEBEF5BEBEBEBEBEF5F5F5F5F5F5F5F5F5F5F5F5F5F5F5F5F5F5F5F5F5F5F5BEF5F5F5F5F5F5F5F5F5F5F5F5F5F5F5F5F5F5F5F5F5F5F5F5F5F5F5F5F5F5BEBEBEBEF5F5BEBEBEBEBEBEBEF5BEBEBEBEBEBEF5F5F5F5F5F5F5F5F5F5F5F5F5F5F5F5F5F5F5F5F5F5F5F5F5F5F5F5F5F5F5F5
310
F5F5F5F5F5F5F5F5F5F5F5F5F5F5F5F5F5F5F5F5F5F5F5F5F5F5F5F5F5F5F5F5F5F5F5F5F5E2F5F5E2EFE2F5F5E2F5F5F5F5F5F5F5F5F5F5F5F5F5F5F5BEBEBEBEBEBEBEF5BEBEBEBEBEF5F5F5F5F5F5F5F5F5F5F5F5F5F5F5F5F5F5F5F5F5F5F5F5F5F5F5F5F5F5F5F5F5F5F5F5F5F5F5F5F5F5F5F5F5F5F5F5F5F5F5F5F5
310
F5BEBEBEBEF5F5BEBEBEBEBEBEBEF5BEBEBEBEBEBEF5F5F5F5F5F5F5F5F5F5F5F5F5F5F5F5F5F5F5F5F5F5F5F5F5F5F5F5F5F5F5F5F5F5F5F5F5F5F5F5F5F5F5F5F5F5F5F5F5F5F5F5F5F5F5F5F5F5F5F5F5F5F5F5F5F5F5F5F5E2F5F5E2EFE2F5F5E2F5F5F5F5F5F5F5F5F5F5F5F5F5F5F5F5F5F5F5F5F5F5F5F5F5F5F5F5
310
F5F5F5F5F5F5F5F5F5F5F5F5F5F5F5F5F5F5F5F5F5F5F5F5F5F5F5F5F5F5F5F5F5F5F5F5F5F5F5F5F5F5F5F5F5F5F5F5F5F5F5F5F5F5BEBEBEBEF5F5F5F5F5F5F5F5F5F5F5F5F5F5F5F5F5F5F5F5F5F5F5F5F5F5F5F5F5F5F5F5F5F5F5F5F5F5F5F5F5F5F5F5F5F5F5F5F5F5F5F5F5F5F5F5F5F5F5F5F5F5F5F5F5F5F5F5F5
310
F5F5F5F5F5F5F5F5F5F5F5F5F5F5F5F5E2F5F5E2EFE2F5F5E2F5F5F5F5F5F5F5F5F5F5F5F5F5F5F5F5F5F5F5F5F5F5F5F5F5F5F5F5F5F5F5F5F5F5F5F5F5F5F5F5F5F5F5F5F5F5F5F5F5F5F5F5F5F5F5F5F5F5F5F5F5F5F5F5F5F5F5F5F5F5F5F5F5F5F5F5F5F5F5F5F5F5BEBEBEBEF5F5F5F5F5F5F5F5F5F5F5F5F5F5F5F5
310
F5F5F5F5F5F5F5F5F5F5F5F5F5F5F5F5F5F5F5F5F5F5F5F5F5F5F5F5F5F5F5F5F5F5F5F5F5F5F5F5F5F5F5F5F5F5F5F5F5F5F5F5F5F5F5F5F5F5F5F5F5F5F5F5F5F5F5F5F5E2F5F5E2EFE2F5F5E2F5F5F5F5F5F5F5F5F5F5F5F5F5F5F5F5F5F5F5F5F5F5F5F5F5F5F5F5F5F5F5F5F5F5F5F5F5F5F5F5F5F5F5F5F5F5F5F5F5
310
F5F5F5F5F5F5F5F5F5F5F5F5F5F5F5F5F5F5F5F5F5F5F5F5F5F5F5F5F5F5F5F5F5BEBEBEBEF5F5F5F5F5F5F5F5F5F5F5F5F5F5F5F5F5F5F5F5F5F5F5F5F5F5F5F5F5F5F5F5F5F5F5F5F5F5F5F5F5F5F5F5F5F5F5F5F5F5F5F5F5F5F5F5F5F5F5F5F5F5F5F5F5F5F5F5F5F5F5F5F5F5F5F5F5F5F5F5F5F5F5F5F5E2F5F5E2EF
310
E2F5F5E2F5F5F5F5F5F5F5F5F5F5F5F5F5F5F5F5F5F5F5F5F5F5F5F5F5F5F5F5F5F5F5F5F5F5F5F5F5F5F5F5F5F5F5F5F5F5F5F5F5F5F5F5F5F5F5F5F5F5F5F5F5F5F5F5F5F5F5F5F5F5F5F5F5F5F5F5F5F5F5F5F5F5BEBEBEBEF5F5F5F5F5F5F5F5F5F5F5F5F5F5F5F5F5F5F5F5F5F5F5F5F5F5F5F5F5F5F5F5F5F5F5F5F5
310
F5F5F5F5F5F5F5F5F5F5F5F5F5F5F5F5F5F5F5F5F5F5F5F5F5F5F5F5F5F5F5F5F5F5F5F5F5F5F5F5F5F5F5F5F5F5F5F5E2F5F5E2EFE2F5F5E2F5F5F5F5F5F5F5F5F5F5F5F5F5F5F5F5F5F5F5F5F5F5F5F5F5F5F5F5F5F5F5F5F5F5F5F5F5F5F5F5F5F5F5F5F5F5F5F5F5F5F5F5F5F5F5F5F5F5F5F5F5F5F5F5F5F5F5F5F5F5
310
F5F5F5F5F5F5F5F5F5F5F5F5BEBEBEBEF5F5F5F5F5F5F5F5F5F5F5F5F5F5F5F5F5F5F5F5F5F5F5F5F5F5F5F5F5F5F5F5F5F5F5F5F5F5F5F5F5F5F5F5F5F5F5F5F5F5F5F5F5F5F5F5F5F5F5F5F5F5F5F5F5F5F5F5F5F5F5F5F5F5F5F5F5F5F5F5F5F5F5F5F5E2F5F5E2EFE2F5F5E2F5F5F5F5F5F5F5F5F5F5F5F5F5F5F5F5F5
310
F5F5F5F5F5F5F5F5F5F5F5F5F5F5F5F5F5F5F5F5F5F5F5F5F5F5F5F5F5F5F5F5F5F5F5F5F5F5F5F5F5F5F5F5F5F5F5F5F5F5F5F5F5F5F5F5F5F5F5F5F5F5F5F5F5BEBEBEBEF5F5F5F5F5F5F5F5F5F5F5F5F5F5F5F5F5F5F5F5F5F5F5F5F5F5F5F5F5F5F5F5F5F5F5F5F5F5F5F5F5F5F5F5F5F5F5F5F5F5F5F5F5F5F5F5F5F5
310
F5F5F5F5F5F5F5F5F5F5F5F5F5F5F5F5F5F5F5F5F5F5F5F5F5F5F5E2F5F5E2EFE2F5F5E2F5F5F5F5F5F5F5F5F5F5F5F5F5F5F5F5F5F5F5F5F5F5F5F5F5F5F5F5F5F5F5F5F5F5F5F5F5F5F5F5F5F5F5F5F5F5F5F5F5F5F5F5F5F5F5F5F5F5F5F5F5F5F5F5F5F5F5F5F5F5F5F5F5F5F5F5F5F5F5F5F5F5BEBEBEBEF5F5F5F5F5
310
F5F5F5F5F5F5F5F5F5F5F5F5F5F5F5F5F5F5F5F5F5F5F5F5F5F5F5F5F5F5F5F5F5F5F5F5F5F5F5F5F5F5F5F5F5F5F5F5F5F5F5F5F5F5F5F5F5F5F5F5F5F5F5F5F5F5F5F5F5F5F5F5F5F5F5F5F5F5F5F5E2F5F5E2EFE2F5F5E2F5F5F5F5F5F5F5F5F5F5F5F5F5F5F5F5F5F5F5F5F5F5F5F5F5F5F5E2E2E2E2F5F5F5E2E2E2E2
310
E2E2E2E2BEBEBEBEBEBEBEBEBEBEF5F5F5F5F5F5F5F5F5F5F5F5F5F5F5F5F5F5F5F5F5F5F5F5F5F5F5F5F5F5BEBEBEBEE2E2E2E2E2E2E2E2E2E2E2E2E2E2BEBEBEBEBEBEBEBEBEBEF5F5F5F5F5F5F5F5F5F5F5F5F5F5F5F5F5F5F5F5F5F5F5F5F5F5F5F5F5F5F5F5F5F5F5F5F5F5F5F5F5F5F5F5F5F5F5F5F5F5F5F5F5F5F5
310
F5F5F5F5F5F5E2F5F5E2EFE2F5F5E2F5F5F5F5F5F5F5F5F5F5F5F5F5F5F5F5F5F5F5F5F5F5F5F5F5F5F5E2F5F5E2E2E2E2E2E2E2E2E2E2F5F5F5E2F5F5F5F5F5F5BEBEF5F5F5F5F5F5F5F5F5F5F5F5F5F5F5F5F5F5F5F5F5F5F5E2E2E2E2E2E2E2BEBEBEBEF5F5F5F5F5E2E2E2E2E2E2E2E2E2BEF5F5F5F5F5F5F5F5BEF5F5
310
F5F5F5F5F5F5F5F5F5F5F5F5F5F5F5F5F5F5F5F5F5F5F5F5F5F5F5F5F5F5F5F5F5F5F5F5F5F5F5F5F5F5F5F5F5F5F5F5F5F5F5F5F5F5F5F5F5F5F5E2F5F5E2EFE2F5F5E2F5F5F5F5F5F5F5F5F5F5F5F5F5F5F5F5F5F5F5F5F5F5F5F5F5F5F5E2F5F5E2E2E2E2E2E2E2E2E2E2E2F5F5E2F5F5F5F5F5F5BEF5F5F5F5F5F5F5F5
310
F5F5F5F5F5F5F5F5F5F5F5F5F5F5F5F5E2F5F5F5F5E2F5BEBEBEBEF5F5F5F5F5E2F5E2E2E2E2E2E2E2BEF5F5F5F5F5F5F5F5BEF5F5F5F5F5F5F5F5F5F5F5F5F5F5F5F5F5F5F5F5F5F5F5F5F5F5F5F5F5F5F5F5F5F5F5F5F5F5F5F5F5F5F5F5F5F5F5F5F5F5F5F5F5F5F5F5F5F5F5F5F5E2F5F5E2EFE2F5F5E2F5F5F5F5F5F5
310
F5F5F5F5F5F5F5F5F5F5F5F5F5F5F5F5F5F5F5F5F5E2F5E2E2E2E2E2E2E2E2E2E2E2E2E2F5E2F5F5F5F5F5F5BEF5F5F5F5F5F5F5F5F5F5F5F5F5F5F5F5F5F5F5F5F5F5F5F5E2F5F5F5F5E2F5BEE2E2BEF5F5F5F5F5E2E2E2E2E2E2E2F5F5BEF5F5F5F5F5F5F5F5BEF5F5F5F5F5F5F5F5F5F5F5F5F5F5F5F5F5F5F5F5F5F5F5
310
F5F5F5F5F5F5F5F5F5F5F5F5F5F5F5F5F5F5F5F5F5F5F5F5F5F5F5F5F5F5F5F5F5F5F5F5F5F5E2F5F5E2EFE2F5F5E2F5F5F5F5F5F5F5F5F5F5F5F5F5F5F5F5F5F5F5F5F5F5F5F5F5F5F5E2F5E2E2E2E2E2E2F5E2E2E2E2F5E2E2E2F5F5F5F5F5F5BEF5F5F5F5F5F5F5F5F5F5F5F5F5F5F5F5F5F5F5F5F5F5F5F5E2F5F5F5F5
310
E2F5BEE2E2BEF5F5F5F5F5E2E2E2E2E2E2E2F5F5BEF5F5F5F5F5F5F5F5BEF5F5F5F5F5F5F5F5F5F5F5F5F5F5F5F5F5F5F5F5F5F5F5F5F5F5F5F5F5F5F5F5F5F5F5F5F5F5F5F5F5F5F5F5F5F5F5F5F5F5F5F5F5F5F5F5F5F5F5F5F5E2F5F5E2EFE2F5F5E2F5F5F5F5F5F5F5F5F5F5F5F5F5F5F5F5F5F5F5F5F5F5F5F5F5F5F5
310
E2E2E2E2E2F5F5F5F5F5F5F5E2E2E2E2E2F5F5F5F5F5F5BEF5F5F5F5F5F5F5F5F5F5F5F5F5F5F5F5F5F5F5F5F5F5F5F5E2F5F5F5F5E2E2BEE2E2BEF5F5F5F5F5E2E2E2E2E2E2E2F5F5BEF5F5F5F5F5F5F5F5BEF5F5F5F5F5F5F5F5F5F5F5F5F5F5F5F5F5F5F5F5F5F5F5F5F5F5F5F5F5F5F5F5F5F5F5F5F5F5F5F5F5F5F5F5
310
F5F5F5F5F5F5F5F5F5F5F5F5F5F5F5F5F5E2F5F5E2EFE2F5F5E2F5F5F5F5F5F5F5F5F5F5F5F5F5F5F5F5F5F5F5F5F5F5F5F5F5F5F5E2E2E2E2E2F5F5F5F5F5F5F5E2E2E2E2E2F5F5F5F5F5F5BEF5F5F5F5F5F5F5F5F5F5F5F5F5F5F5F5F5F5F5F5F5F5F5F5E2F5F5F5F5E2F5BEE2E2BEF5F5F5F5F5E2F5E2E2E2E2E2E2E2BE
310
F5F5F5F5F5F5F5F5BEF5F5F5F5F5F5F5F5F5F5F5F5F5F5F5F5F5F5F5F5F5F5F5F5F5F5F5F5F5F5F5F5F5F5F5F5F5F5F5F5F5F5F5F5F5F5F5F5F5F5F5F5F5F5F5F5F5F5F5F5F5E2F5F5E2EFE2F5F5E2F5F5F5F5F5F5F5F5F5F5F5F5F5F5F5F5F5F5F5F5F5F5F5F5F5F5F5E2E2E2E2F5F5F5F5F5F5F5F5E2E2E2E2E2F5F5F5F5
310
F5F5BEF5F5F5F5F5F5F5F5F5F5F5F5F5F5F5F5F5F5F5F5F5F5F5F5E2F5F5F5F5E2F5BEE2E2BEF5F5F5F5F5E2F5F5F5F5F5F5F5F5BEF5F5F5F5F5F5F5F5BEF5F5F5F5F5F5F5F5F5F5F5F5F5F5F5F5F5F5F5F5F5F5F5F5F5F5F5F5F5F5F5F5F5F5F5F5F5F5F5F5F5F5F5F5F5F5F5F5F5F5F5F5F5F5F5F5F5F5F5F5F5E2F5F5E2
310
EFE2F5F5E2F5F5F5F5F5F5F5F5F5F5F5F5F5F5F5F5F5F5F5F5F5F5F5F5F5F5F5E2E2E2E2F5F5F5F5F5F5F5F5F5E2E2E2E2F5F5F5F5F5F5BEBEBEF5F5F5F5F5F5F5F5F5F5F5F5F5F5F5F5F5F5F5F5F5F5E2F5F5F5F5E2F5BEE2E2BEF5F5F5F5F5E2F5F5F5F5F5F5F5F5BEF5F5F5F5F5F5F5F5BEF5F5F5F5F5F5F5F5F5F5F5F5
310
F5F5F5F5F5F5F5F5F5F5F5F5F5F5F5F5F5F5F5F5F5F5F5F5F5F5F5F5F5F5F5F5F5F5F5F5F5F5F5F5F5F5F5F5F5F5F5F5F5E2F5F5E2EFE2F5F5E2F5F5F5F5F5F5F5F5F5F5F5F5F5F5F5F5F5F5F5F5F5F5F5F5F5F5F5E2E2E2E2F5F5F5F5F5F5F5F5F5E2E2E2E2F5F5F5F5F5BEBEBEBEF5F5F5F5F5F5F5F5F5F5F5F5F5F5F5F5
310
F5F5F5F5F5F5E2F5F5F5F5E2F5BEE2E2BEF5F5F5F5F5E2F5F5F5F5F5F5F5F5BEF5F5F5F5F5F5F5F5BEF5F5F5F5F5F5F5F5F5F5F5F5F5F5F5F5F5F5F5F5F5F5F5F5F5F5F5F5F5F5F5F5F5F5F5F5F5F5F5F5F5F5F5F5F5F5F5F5F5F5F5F5F5F5F5F5F5F5F5F5F5E2F5F5E2EFE2F5F5E2F5F5F5F5F5F5F5F5F5F5F5F5F5F5F5F5
310
F5F5F5F5F5F5F5F5F5F5F5E2E2E2E2F5F5F5F5F5F5F5F5E2E2E2E2E2F5F5F5F5F5BEF5BEF5F5F5F5F5F5F5F5F5F5F5F5F5F5F5F5F5F5F5F5F5F5F5E2F5F5F5F5E2F5BEE2E2BEF5F5F5F5F5E2F5F5F5F5F5F5F5F5BEF5F5F5F5F5F5F5F5BEF5F5F5F5F5F5F5F5F5F5F5F5F5F5F5F5F5F5F5F5F5F5F5F5F5F5F5F5F5F5F5F5F5
310
F5F5F5F5F5F5F5F5F5F5F5F5F5F5F5F5F5F5F5F5F5F5F5F5F5F5F5F5E2F5F5E2EFE2F5F5E2F5F5F5F5F5F5F5F5F5F5F5F5F5F5F5F5F5F5F5F5F5F5F5F5F5F5F5E2E2E2E2E2F5F5F5F5F5F5F5E2E2E2E2E2F5F5F5F5F5F5BEBEF5F5F5F5F5F5F5F5F5F5F5F5F5F5F5F5F5F5F5F5F5F5F5E2F5F5F5F5E2E2BEE2E2BEF5F5F5F5
310
F5E2F5E2E2E2E2E2E2E2BEF5F5F5F5F5F5F5F5BEF5F5F5F5F5F5F5F5F5F5F5F5F5F5F5F5F5F5F5F5F5F5F5F5F5F5F5F5F5F5F5F5F5F5F5F5F5F5F5F5F5F5F5F5F5F5F5F5F5F5F5F5F5F5F5F5F5F5F5F5F5E2F5F5E2EFE2F5F5E2F5F5F5F5F5F5F5F5F5F5F5F5F5F5F5F5F5F5F5F5F5F5F5F5F5F5F5E2E2E2E2F5E2F5F5F5F5
310
F5E2E2E2E2E2E2F5F5F5F5F5F5BEF5F5F5F5F5F5F5F5F5F5F5F5F5F5F5F5F5F5F5F5F5F5F5F5E2F5F5F5F5E2F5BEE2E2BEF5F5F5F5F5E2E2E2E2E2E2E2F5F5BEF5F5F5F5F5F5F5F5BEF5F5F5F5F5F5F5F5F5F5F5F5F5F5F5F5F5F5F5F5F5F5F5F5F5F5F5F5F5F5F5F5F5F5F5F5F5F5F5F5F5F5F5F5F5F5F5F5F5F5F5F5F5F5
310
F5F5F5F5F5F5F5E2F5F5E2EFE2F5F5E2F5F5F5F5F5F5F5F5F5F5F5F5F5F5F5F5F5F5F5F5F5F5F5F5F5F5F5E2F5E2E2E2E2E2E2E2E2E2E2E2E2E2F5E2F5F5F5F5F5F5BEF5F5F5F5F5F5F5F5F5F5F5F5F5F5F5F5F5F5F5F5F5F5F5F5E2F5F5F5F5E2F5BEE2E2BEF5F5F5F5F5E2E2E2E2E2E2E2F5F5BEF5F5F5F5F5F5F5F5BEF5
310
F5F5F5F5F5F5F5F5F5F5F5F5F5F5F5F5F5F5F5F5F5F5F5F5F5F5F5F5F5F5F5F5F5F5F5F5F5F5F5F5F5F5F5F5F5F5F5F5F5F5F5F5F5F5F5F5F5F5F5F5E2F5F5E2EFE2F5F5E2F5F5F5F5F5F5F5F5F5F5F5F5F5F5F5F5F5F5F5F5F5F5F5F5F5F5F5E2F5F5E2E2E2E2E2E2E2E2E2E2E2E2F5E2F5F5F5F5F5F5BEF5F5F5F5F5F5F5
310
F5F5F5F5F5F5F5F5F5F5F5F5F5F5F5F5F5E2F5F5F5F5E2F5BEE2E2BEF5F5F5F5F5E2E2E2E2E2E2E2F5F5BEF5F5F5F5F5F5F5F5BEF5F5F5F5F5F5F5F5F5F5F5F5F5F5F5F5F5F5F5F5F5F5F5F5F5F5F5F5F5F5F5F5F5F5F5F5F5F5F5F5F5F5F5F5F5F5F5F5F5F5F5F5F5F5F5F5F5F5F5F5F5E2F5F5E2EFE2F5F5E2F5F5F5F5F5
310
F5F5F5F5F5F5F5F5F5F5F5F5F5F5F5F5F5F5F5F5F5F5E2F5F5E2E2E2E2E2E2E2E2E2E2E2F5F5E2F5F5F5F5F5F5BEF5F5F5F5F5F5F5F5F5F5F5F5F5F5F5F5F5F5F5F5F5F5F5F5BEE2E2E2E2E2F5BEBEBEBEF5F5F5F5F5E2F5E2E2E2E2E2E2E2BEF5F5F5F5F5F5F5F5BEF5F5F5F5F5F5F5F5F5F5F5F5F5F5F5F5F5F5F5F5F5F5
310
F5F5F5F5F5F5F5F5F5F5F5F5F5F5F5F5F5F5F5F5F5F5F5F5F5F5F5F5F5F5F5F5F5F5F5F5F5F5F5E2F5F5E2EFE2F5F5E2F5F5F5F5F5F5F5F5F5F5F5F5F5F5F5F5F5F5F5F5F5F5F5F5F5F5F5BEF5F5E2E2E2E2E2E2E2E2E2E2F5F5F5BEF5F5F5F5F5F5BEF5F5F5F5F5F5F5F5F5F5F5F5F5F5F5F5F5F5F5F5F5F5F5F5BEF5F5F5
310
F5E2E2BEBEBEBEF5F5F5F5F5E2E2E2E2E2E2E2E2E2BEF5F5F5F5F5F5F5F5BEF5F5F5F5F5F5F5F5F5F5F5F5F5F5F5F5F5F5F5F5F5F5F5F5F5F5F5F5F5F5F5F5F5F5F5F5F5F5F5F5F5F5F5F5F5F5F5F5F5F5F5F5F5F5F5F5F5F5F5F5F5E2F5F5E2EFE2F5F5E2F5F5F5F5F5F5F5F5F5F5F5F5F5F5F5F5F5F5F5F5F5F5F5F5F5F5
310
F5BEE2E2E2F5F5F5E2E2E2F5F5E2E2E2E2BEF5F5F5F5F5F5BEBEF5F5F5F5F5F5F5F5F5F5F5F5F5F5F5F5F5F5F5F5F5F5F5BEF5F5F5F5F5F5BEBEBEBEE2E2E2E2E2E2E2E2E2E2E2E2E2E2BEBEBEBEBEBEBEBEBEBEF5F5F5F5F5F5F5F5F5F5F5F5F5F5F5F5F5F5F5F5F5F5F5F5F5F5F5F5F5F5F5F5F5F5F5F5F5F5F5F5F5F5F5
310
F5F5F5F5F5F5F5F5F5F5F5F5F5F5F5F5F5F5E2F5F5E2EFE2F5F5E2F5F5F5F5F5F5F5F5F5F5F5F5F5F5F5F5F5F5F5F5F5F5F5F5F5F5F5BEF5F5F5F5F5F5F5F5E2E2E2E2BEBEBEBEBEBEBEBEBEBEBEBEF5F5F5F5F5F5F5F5F5F5F5F5F5F5F5F5F5F5F5F5F5F5F5BEF5F5F5F5F5F5BEBEBEBEE2E2E2F5F5F5F5F5F5F5F5F5F5F5
310
BEF5F5F5F5F5F5F5F5BEF5F5F5F5F5F5F5F5F5F5F5F5F5F5F5F5F5F5F5F5F5F5F5F5F5F5F5F5F5F5F5F5F5F5F5F5F5F5F5F5F5F5F5F5F5F5F5F5F5F5F5F5F5F5F5F5F5F5F5F5F5E2F5F5E2EFE2F5F5E2F5F5F5F5F5F5F5F5F5F5F5F5F5F5F5F5F5F5F5F5F5F5F5F5F5F5F5BEF5F5F5F5F5F5F5F5F5F5F5F5F5F5F5BEF5F5F5
310
F5F5F5F5F5F5F5F5F5F5F5F5F5F5F5F5F5F5F5F5F5F5F5F5F5F5F5F5BEF5F5F5F5F5F5BEBEBEBEF5F5F5F5F5F5F5F5F5F5F5F5F5F5BEF5F5F5F5F5F5F5F5BEF5F5F5F5F5F5F5F5F5F5F5F5F5F5F5F5F5F5F5F5F5F5F5F5F5F5F5F5F5F5F5F5F5F5F5F5F5F5F5F5F5F5F5F5F5F5F5F5F5F5F5F5F5F5F5F5F5F5F5F5F5E2F5F5
310
E2EFE2F5F5E2F5F5F5F5F5F5F5F5F5F5F5F5F5F5F5F5F5F5F5F5F5F5F5F5F5F5F5BEF5F5F5F5F5F5F5F5F5F5F5F5F5F5F5BEF5F5F5F5F5F5F5F5F5F5F5F5F5F5F5F5F5F5F5F5F5F5F5F5F5F5F5F5F5F5F5BEF5F5F5F5F5F5BEBEBEBEF5F5F5F5F5F5F5F5F5F5F5F5F5F5BEF5F5F5F5F5F5F5F5BEF5F5F5F5F5F5F5F5F5F5F5
310
F5F5F5F5F5F5F5F5F5F5F5F5F5F5F5F5F5F5F5F5F5F5F5F5F5F5F5F5F5F5F5F5F5F5F5F5F5F5F5F5F5F5F5F5F5F5F5F5F5F5E2F5F5E2EFE2F5F5E2F5F5F5F5F5F5F5F5F5F5F5F5F5F5F5F5F5F5F5F5F5F5F5F5F5F5F5BEF5F5F5F5F5F5F5F5F5F5F5F5F5F5F5BEF5F5F5F5F5F5F5F5F5F5F5F5F5F5F5F5F5F5F5F5F5F5F5F5
310
F5F5F5F5F5F5F5BEF5F5F5F5F5F5BEBEBEBEF5F5F5F5F5F5F5F5F5F5F5F5F5F5BEF5F5F5F5F5F5F5F5BEF5F5F5F5F5F5F5F5F5F5F5F5F5F5F5F5F5F5F5F5F5F5F5F5F5F5F5F5F5F5F5F5F5F5F5F5F5F5F5F5F5F5F5F5F5F5F5F5F5F5F5F5F5F5F5F5F5F5F5F5F5E2F5F5E2EFE2F5F5E2F5F5F5F5F5F5F5F5F5F5F5F5F5F5F5
310
F5F5F5F5F5F5F5F5F5F5F5F5BEF5F5F5F5F5F5F5F5F5F5F5F5F5F5F5BEF5F5F5F5F5F5F5F5F5F5F5F5F5F5F5F5F5F5F5F5F5F5F5F5F5F5F5F5F5F5F5BEF5F5F5F5F5F5BEBEBEBEF5F5F5F5F5F5F5F5F5F5F5F5F5F5BEF5F5F5F5F5F5F5F5BEF5F5F5F5F5F5F5F5F5F5F5F5F5F5F5F5F5F5F5F5F5F5F5F5F5F5F5F5F5F5F5F5
310
F5F5F5F5F5F5F5F5F5F5F5F5F5F5F5F5F5F5F5F5F5F5F5F5F5F5F5F5F5E2F5F5E2EFE2F5F5E2F5F5F5F5F5F5F5F5F5F5F5F5F5F5F5F5F5F5F5F5F5F5F5F5F5F5F5BEF5F5F5F5F5F5F5F5F5F5F5F5F5F5F5BEF5F5F5F5F5F5F5F5F5F5F5F5F5F5F5F5F5F5F5F5F5F5F5F5F5F5F5F5F5F5F5BEF5F5F5F5F5F5BEBEBEBEF5F5F5
310
F5F5F5F5F5F5F5F5F5F5F5BEF5F5F5F5F5F5F5F5BEF5F5F5F5F5F5F5F5F5F5F5F5F5F5F5F5F5F5F5F5F5F5F5F5F5F5F5F5F5F5F5F5F5F5F5F5F5F5F5F5F5F5F5F5F5F5F5F5F5F5F5F5F5F5F5F5F5F5F5F5F5E2F5F5E2EFE2F5F5E2F5F5F5F5F5F5F5F5F5F5F5F5F5F5F5F5F5F5F5F5F5F5F5F5F5F5F5BEF5F5F5F5F5F5F5F5
310
F5F5F5F5F5F5F5BEF5F5F5F5F5F5F5F5F5F5F5F5F5F5F5F5F5F5F5F5F5F5F5F5F5F5F5F5F5F5F5BEF5F5F5F5F5F5BEBEBEBEF5F5F5F5F5F5F5F5F5F5F5F5F5F5BEF5F5F5F5F5F5F5F5BEF5F5F5F5F5F5F5F5F5F5F5F5F5F5F5F5F5F5F5F5F5F5F5F5F5F5F5F5F5F5F5F5F5F5F5F5F5F5F5F5F5F5F5F5F5F5F5F5F5F5F5F5F5
310
F5F5F5F5F5F5F5F5E2F5F5E2EFE2F5F5E2F5F5F5F5F5F5F5F5F5F5F5F5F5F5F5F5F5F5F5F5F5F5F5F5F5F5F5BEF5F5F5F5F5F5F5F5F5F5F5F5F5F5F5BEF5F5F5F5F5F5F5F5F5F5F5F5F5F5F5F5F5F5F5F5F5F5F5F5F5F5F5F5F5F5F5BEF5F5F5F5F5F5BEBEBEBEF5F5F5F5F5F5F5F5F5F5F5F5F5F5BEF5F5F5F5F5F5F5F5BE
310
F5F5F5F5F5F5F5F5F5F5F5F5F5F5F5F5F5F5F5F5F5F5F5F5F5F5F5F5F5F5F5F5F5F5F5F5F5F5F5F5F5F5F5F5F5F5F5F5F5F5F5F5F5F5F5F5F5F5F5F5F5E2F5F5E2EFE2F5F5E2F5F5F5F5F5F5F5F5F5F5F5F5F5F5F5F5F5F5F5F5F5F5F5F5F5F5F5BEF5F5F5F5F5F5F5F5F5F5F5F5F5F5F5BEF5F5F5F5F5F5F5F5F5F5F5F5F5
310
F5F5F5F5F5F5F5F5F5F5F5F5F5F5F5F5F5F5BEF5F5F5F5F5F5BEF5BEBEF5F5F5F5F5F5F5F5F5F5F5F5F5F5BEF5F5F5F5F5F5F5F5BEF5F5F5F5F5F5F5F5F5F5F5F5F5F5F5F5F5F5F5F5F5F5F5F5F5F5F5F5F5F5F5F5F5F5F5F5F5F5F5F5F5F5F5F5F5F5F5F5F5F5F5F5F5F5F5F5F5F5F5F5F5E2F5F5E2EFE2F5F5E2F5F5F5F5
310
F5F5F5F5F5F5F5F5F5F5F5F5F5F5F5F5F5F5F5F5F5F5F5BEF5F5F5F5F5F5F5F5F5F5F5F5F5F5F5BEF5F5F5F5F5F5F5F5F5F5F5F5F5F5F5F5F5F5F5F5F5F5F5F5F5F5F5F5F5F5F5BEF5F5F5F5F5F5BEF5F5BEF5F5F5F5F5F5F5F5F5F5F5F5F5F5BEF5F5F5F5F5F5F5F5BEF5F5F5F5F5F5F5F5F5F5F5F5F5F5F5F5F5F5F5F5F5
310
F5F5F5F5F5F5F5F5F5F5F5F5F5F5F5F5F5F5F5F5F5F5F5F5F5F5F5F5F5F5F5F5F5F5F5F5F5F5F5F5E2F5F5E2EFE2F5F5E2F5F5F5F5F5F5F5F5F5F5F5F5F5F5F5F5F5F5F5F5F5F5F5F5F5F5F5BEF5F5F5F5F5F5BEBEBEF5F5F5F5F5F5BEF5F5F5F5F5F5F5F5F5F5F5F5F5F5F5F5F5F5F5F5F5F5F5F5F5F5F5F5F5F5F5BEF5F5
310
F5F5F5F5BEF5F5BEF5F5F5F5F5F5F5F5F5F5F5F5F5F5BEF5F5F5F5F5F5F5F5BEF5F5F5F5F5F5F5F5F5F5F5F5F5F5F5F5F5F5F5F5F5F5F5F5F5F5F5F5F5F5F5F5F5F5F5F5F5F5F5F5F5F5F5F5F5F5F5F5F5F5F5F5F5F5F5F5F5F5F5F5F5E2F5F5E2EFE2F5F5E2F5F5F5F5F5F5F5F5F5F5F5F5F5F5F5F5F5F5F5F5F5F5F5F5F5
310
F5F5BEBEBEBEBEBEBEBEBEBEBEBEBEBEBEBEBEF5F5F5F5F5F5F5F5F5F5F5F5F5F5F5F5F5F5F5F5F5F5F5F5F5F5F5F5F5F5F5BEF5F5F5F5F5F5BEF5F5BEF5F5F5F5F5F5F5F5F5F5F5F5F5F5BEF5F5F5F5F5F5F5F5BEF5F5F5F5F5F5F5F5F5F5F5F5F5F5F5F5F5F5F5F5BEBEBEBEBEF5BEBEBEBEBEBEBEBEBEF5BEBEBEBEBEBE
310
BEBEBEBEBEBEBEBEBEF5F5F5F5F5F5F5F5F5F5E2F5F5E2EFE2F5F5E2F5F5F5F5F5F5F5F5F5F5F5F5F5F5F5F5F5F5F5F5F5F5F5F5F5F5F5BEF5F5F5F5F5BEBEBEBEF5F5F5F5F5F5BEF5F5F5F5F5F5F5F5F5F5F5F5F5F5F5F5F5F5F5F5F5F5F5F5F5F5F5F5F5F5F5BEF5F5F5F5F5F5BEF5F5BEF5F5F5F5F5F5F5F5F5F5F5F5F5
310
F5BEF5F5F5F5F5F5F5F5BEF5F5F5F5F5F5F5F5F5F5F5F5F5F5F5F5F5F5F5F5BEBEBEBEBEF5BEBEBEBEBEBEBEF5BEF5BEBEBEBEBEBEBEBEBEBEF5BEBEBEBEF5F5F5F5F5F5F5F5F5F5E2F5F5E2EFE2F5F5E2F5F5F5F5F5F5F5F5F5F5F5F5F5F5F5F5F5F5F5F5F5F5F5F5F5F5F5F5F5F5F5F5F5F5F5BEF5F5F5F5F5F5F5F5F5F5
310
F5F5F5F5F5F5F5F5F5F5F5F5F5F5F5F5F5F5F5F5F5F5F5F5F5F5F5F5F5BEF5F5F5F5F5F5BEF5F5BEF5F5F5F5F5F5F5F5F5F5F5F5F5F5BEF5F5F5F5F5F5F5F5BEF5F5BEBEBEBEBEBEBEF5F5F5F5F5F5F5F5F5BEF5BEBEBEBEBEBEBEBEBEBEBEBEBEF5BEBEBEBEBEBEBEBEBEBEBEF5BEBEBEBEBEBEBEBEF5F5F5F5F5F5F5E2F5
310
F5E2EFE2F5F5E2F5F5F5F5F5F5F5F5F5F5F5F5F5F5F5F5F5F5F5F5F5F5F5F5F5F5F5F5F5F5F5F5F5F5F5F5F5F5F5F5F5F5F5F5F5F5F5F5F5F5F5F5F5F5F5F5F5F5F5F5F5F5F5F5F5F5F5F5F5F5F5F5F5F5F5BEF5F5F5F5F5F5BEF5F5BEF5F5F5F5F5F5F5F5F5F5F5F5F5F5BEF5F5F5F5F5F5F5F5BEF5F5BEBEF5BEBEBEBEF5
310
F5F5F5F5F5F5F5F5BEF5BEBEBEBEBEBEBEBEF5BEBEBEBEF5BEBEBEBEBEBEBEBEBEBEBEF5BEBEBEBEBEBEBEBEF5F5F5F5F5F5F5E2F5F5E2EFE2F5F5E2F5F5F5F5F5F5F5F5F5F5F5F5F5F5F5F5F5F5F5F5F5F5F5F5F5F5F5F5F5F5F5F5F5F5F5F5F5F5F5F5F5F5F5F5F5F5F5F5F5F5F5F5F5F5F5F5F5F5F5F5F5F5F5F5F5F5F5
310
F5F5F5F5BEBEF5F5BEF5F5F5F5F5F5BEF5F5BEF5F5F5F5F5BEBEBEF5F5F5F5F5F5BEF5F5F5F5F5F5F5F5BEF5F5BEBEBEBEBEBEBEF5F5F5F5F5F5F5F5F5F5F5BEBEF5BEF5F5F5F5F5F5F5F5F5F5F5F5F5F5F5F5F5F5F5F5F5F5F5F5F5F5F5BEF5F5F5F5F5F5F5F5F5E2F5F5E2EFE2F5F5E2F5F5F5F5F5F5F5F5F5F5F5F5F5F5
310
F5F5F5F5F5F5F5F5F5F5F5F5F5F5F5F5F5F5F5F5F5F5F5F5F5F5F5F5F5F5F5F5F5F5F5F5F5F5F5F5F5F5F5F5F5F5F5F5F5F5F5F5F5F5F5F5F5BEBEBEBEBEBEBEBEBEBEBEBEF5F5BEBEBEBEBEBEBEBEBEBEBEBEBEBEBEBEBEBEBEBEBEBEBEBEBEBEBEF5BEBEBEBEBEF5F5F5F5F5F5F5F5F5F5F5F5BEF5BEBEF5F5F5F5F5F5F5
310
F5F5F5F5F5F5F5F5F5F5F5F5F5F5F5F5F5F5F5F5BEF5F5F5F5F5F5F5F5F5E2F5F5E2EFE2F5F5E2F5F5F5F5F5F5F5F5F5F5F5F5F5F5F5F5F5F5F5F5F5F5F5F5F5F5F5F5F5F5F5F5F5F5F5F5F5F5F5F5F5F5F5F5F5F5F5F5F5F5F5F5F5F5F5F5F5F5F5F5F5F5F5F5F5F5F5F5F5F5F5BEBEF5F5BEF5F5F5F5F5F5BEF5F5BEF5F5
310
F5F5F5BEF5BEF5F5F5F5F5F5BEF5F5F5F5F5F5F5F5BEF5F5F5F5F5BEF5F5F5F5F5F5F5F5F5F5F5F5F5F5BEBEBEBEBEF5F5F5F5F5F5F5F5F5F5F5F5F5F5F5F5F5F5F5F5F5F5F5F5F5F5BEF5F5F5F5F5F5F5F5F5E2F5F5E2EFE2F5F5E2F5F5F5F5F5F5F5F5F5F5F5F5F5F5F5F5F5F5F5F5F5F5F5F5F5F5F5F5F5F5F5F5F5F5F5
310
F5F5F5F5F5F5F5F5F5F5F5F5F5F5F5F5F5F5F5F5F5F5F5F5F5F5F5F5F5F5F5F5F5F5F5F5BEBEF5F5F5F5F5F5F5F5F5F5F5F5F5F5F5F5F5F5F5BEBEF5F5F5F5F5F5F5F5F5F5F5F5F5F5F5F5F5F5F5F5F5BEF5F5F5F5F5F5F5F5F5F5F5F5F5F5BEF5BEBEBEF5F5F5F5F5F5F5F5F5F5F5F5F5F5F5F5F5F5F5F5F5F5F5F5F5F5BE
310
BEF5F5F5F5F5F5F5F5E2F5F5E2EFE2F5F5E2F5F5F5F5F5F5F5F5F5F5F5F5F5F5F5F5F5F5F5F5F5F5F5F5F5F5F5F5F5F5F5F5F5F5F5F5F5F5F5F5F5F5F5F5F5F5F5F5F5F5F5F5F5F5F5F5F5F5F5F5F5F5F5F5F5F5F5F5F5F5F5F5F5F5F5F5F5F5F5F5F5F5F5F5F5F5F5F5F5F5F5F5F5F5F5F5F5F5F5F5F5F5F5F5F5F5F5F5F5
310
F5F5F5F5F5F5BEF5F5F5F5F5F5F5F5F5F5F5F5F5F5BEF5BEBEBEBEF5F5F5F5F5F5F5F5F5F5F5F5F5F5F5F5F5F5F5F5F5F5F5F5F5BEBEF5F5F5F5F5F5F5F5E2F5F5E2EFE2F5F5E2F5F5F5F5F5F5F5F5F5F5F5F5F5F5F5F5F5F5F5F5F5F5F5F5F5F5F5F5F5F5F5F5F5F5F5F5F5F5F5F5F5F5F5F5F5F5F5F5F5F5F5F5F5F5F5F5
310
F5F5F5F5F5F5F5F5F5F5F5F5F5F5F5F5F5F5F5F5F5F5F5F5F5F5F5F5F5F5F5F5F5F5F5F5F5F5F5F5F5F5F5F5F5F5F5F5F5F5F5F5F5F5F5F5F5F5F5BEF5F5F5F5F5F5F5F5F5F5F5F5F5F5BEBEBEBEF5F5F5F5F5F5F5F5F5F5F5F5F5F5F5F5F5F5F5F5F5F5F5F5F5F5F5BEBEF5F5F5F5F5F5F5F5E2F5F5E2EFE2F5F5E2F5F5F5
310
F5F5F5F5F5F5F5F5F5F5F5F5F5F5F5F5F5F5F5F5F5F5F5F5F5F5F5F5F5F5F5F5F5F5F5F5F5F5F5F5F5F5F5F5F5F5F5F5F5F5F5F5F5F5F5F5F5F5F5F5F5F5F5F5F5F5F5F5F5F5F5F5F5F5F5F5F5F5F5F5F5F5F5F5F5F5F5F5F5F5F5F5F5F5F5F5F5F5F5F5F5F5F5F5F5F5F5F5F5F5F5F5F5F5F5F5F5F5F5F5F5F5F5F5F5F5F5
310
BEF5BEBEBEF5F5F5F5F5F5F5F5F5F5F5F5F5F5F5F5F5F5F5F5F5F5F5F5F5F5BEBEF5F5F5F5F5F5F5F5E2F5F5E2EFE2F5F5E2F5F5F5F5F5F5F5F5F5F5F5F5F5F5F5F5F5F5F5F5F5F5F5F5F5F5F5F5F5F5F5F5F5F5F5F5F5F5F5F5F5F5F5F5F5F5F5F5F5F5F5F5F5F5F5F5F5F5F5F5F5F5F5F5F5F5F5F5F5F5F5F5F5F5F5F5F5
310
F5F5F5F5F5F5F5F5F5F5F5F5F5F5F5F5F5F5F5F5F5F5F5F5F5F5F5F5F5F5F5F5F5F5F5F5F5F5F5F5F5F5F5F5F5F5F5F5F5F5F5F5F5BEBEBEBEBEF5F5F5F5F5F5F5F5F5F5F5F5F5F5F5F5F5F5F5F5F5F5F5F5F5F5F5BEF5F5F5F5F5F5F5F5E2F5F5E2EFE2F5F5E2F5F5F5F5F5F5F5F5F5F5F5F5F5F5F5F5F5F5F5F5F5F5F5F5
310
F5F5F5F5F5F5F5F5F5F5F5F5F5F5F5F5F5F5F5F5F5F5F5F5F5F5F5F5F5F5F5F5F5F5F5F5F5F5F5F5F5F5F5F5F5F5F5F5F5F5F5F5F5F5F5F5F5F5F5F5F5F5F5F5F5F5F5F5F5F5F5F5F5F5F5F5F5F5F5F5F5F5F5F5F5F5F5F5F5F5F5F5F5F5F5F5F5F5F5F5F5F5F5F5F5F5BEF5BEBEBEF5F5F5F5F5F5F5F5F5F5F5F5F5F5F5F5
310
F5F5F5F5F5F5F5F5F5F5BEBEF5F5F5F5F5F5F5F5E2F5F5E2EFE2F5F5E2F5F5F5F5F5F5F5F5F5F5F5F5F5F5F5F5F5F5F5F5F5F5F5F5F5F5F5F5F5F5F5F5F5F5F5F5F5F5F5F5F5F5F5F5F5F5F5F5F5F5F5F5F5F5F5F5F5F5F5F5F5F5F5F5F5F5F5F5F5F5F5F5F5F5F5F5F5F5F5F5F5F5F5F5F5F5F5F5F5F5F5F5F5F5F5F5F5F5
310
F5F5F5F5F5F5F5F5F5F5F5F5F5F5F5F5F5F5F5F5F5F5F5F5F5F5F5F5F5F5F5F5BEF5BEBEBEBEF5F5F5F5F5F5F5F5F5F5F5F5F5F5F5F5F5F5F5F5F5F5F5F5F5F5BEF5F5F5F5F5F5F5F5E2F5F5E2EFE2F5F5E2F5F5F5F5F5F5F5F5F5F5F5F5F5F5F5F5F5F5F5F5F5F5F5F5F5F5F5F5F5F5F5F5F5F5F5F5F5F5F5F5F5F5F5F5F5
310
F5F5F5F5F5F5F5F5F5F5F5F5F5F5F5F5F5F5F5F5F5F5F5F5F5F5F5F5F5F5F5F5F5F5F5F5F5F5F5F5F5F5F5F5F5F5F5F5F5F5F5F5F5F5F5F5F5F5F5F5F5F5F5F5F5F5F5F5F5F5F5F5F5F5F5F5F5F5F5F5F5F5F5F5BEBEBEBEBEBEBEBEBEBEBEBEBEBEBEBEBEBEBEBEBEBEBEBEBEBEBEBEBEBEBEBEBEBEBEBEBEBEBEBEBEF5E2
310
F5F5E2EFE2F5F5E2F5F5F5F5F5F5F5F5F5F5F5F5F5F5F5F5F5F5F5F5F5F5F5F5F5F5F5F5F5F5F5F5F5F5F5F5F5F5F5F5F5F5F5F5F5F5F5F5F5F5F5F5F5F5F5F5F5F5F5F5F5F5F5F5F5F5F5F5F5F5F5F5F5F5F5F5F5F5F5F5F5F5F5F5F5F5F5F5F5F5F5F5F5F5F5F5F5F5F5F5F5F5F5F5F5F5F5F5F5F5F5F5F5F5F5F5F5F5F5
310
F5F5F5F5F5F5F5F5F5F5F5BEBEBEBEBEBEF5BEBEBEBEBEBEBEBEBEBEBEF5F5F5F5F5F5F5F5F5F5F5F5F5BEBEBEBEBEBEBEBEBEBEE2F5F5E2EFE2F5F5E2E2E2E2E2E2E2E2F5F5F5F5F5F5F5F5F5E2E2E2E2E2E2E2E2E2E2E2E2E2E2E2E2F5F5F5F5F5F5F5F5F5E2E2E2E2E2E2E2E2E2E2E2E2E2E2E2E2F5F5F5F5F5F5F5F5E2
310
E2E2E2E2E2E2E2E2E2E2E2E2E2E2E2F5F5F5F5F5F5F5F5F5E2E2E2E2E2E2E2E2E2E2E2E2E2E2E2E2F5F5F5F5F5F5F5F5E2E2E2E2E2E2E2E2E2E2E2E2E2E2E2E2BEBEBEBEBEBEF5BEBEBEBEBEBEBEBEBEBEBEE2E2E2E2E2E2E2F5F5F5F5F5F5BEBEBEBEBEBEBEBEBEBEE2F5F5E2EFE2F5F5E2F5F5F5F5F5F5F5F5F5F5F5F5F5
310
F5F5F5F5F5F5F5F5F5F5F5F5F5F5F5F5F5F5F5F5F5F5F5F5F5F5F5F5F5F5F5F5F5F5F5F5F5F5F5F5F5F5F5F5F5F5F5F5F5F5F5F5F5F5F5F5F5F5F5F5F5F5F5F5F5F5F5F5F5F5F5F5F5F5F5F5F5F5F5F5F5F5F5F5F5F5F5F5F5F5F5F5F5F5F5F5F5F5F5F5F5F5F5F5F5F5F5F5F5F5F5F5F5F5F5F5F5F5F5F5F5F5F5F5F5F5F5
310
F5F5F5F5F5F5F5F5F5F5F5F5F5F5F5F5F5F5F5F5F5F5F5F5F5F5F5F5F5F5F5E2F5F5E2EFE2F5F5E2F5F5F5F5F5F5F5F5F5F5F5F5F5F5F5F5F5F5F5F5F5F5F5F5F5F5F5F5F5F5F5F5F5F5F5F5F5F5F5F5F5F5F5F5F5F5F5F5F5F5F5F5F5F5F5F5F5F5F5F5F5F5F5F5F5F5F5F5F5F5F5F5F5F5F5F5F5F5F5F5F5F5F5F5F5F5F5
310
F5F5F5F5F5F5F5F5F5F5F5F5F5F5F5F5F5F5F5F5F5F5F5F5F5F5F5F5F5F5F5F5F5F5F5F5F5F5F5F5F5F5F5BEBEBEBEBEBEF5BEBEBEF5BEBEBEBEBEBEBEBEBEBEF5BEBEBEBEBEBEBEBEBEF5F5F5F5F5F5F5F5F5F5E2F5F5E2EFE2F5F5E2F5F5F5F5F5F5F5F5F5F5F5F5F5F5F5F5F5F5F5F5F5F5F5F5F5F5F5F5F5F5F5F5F5F5
310
F5F5F5F5F5F5F5F5F5F5F5F5F5F5F5F5F5F5F5F5F5F5F5F5F5F5F5F5F5F5F5F5F5F5F5F5F5F5F5F5F5F5F5F5F5F5F5F5F5F5F5F5F5F5F5F5F5F5F5F5F5F5F5F5F5F5F5F5F5F5F5F5F5F5F5F5F5F5F5F5F5F5F5F5F5F5F5F5F5F5F5F5F5F5F5F5BEBEBEBEBEBEF5BEF5F5F5BEBEBEBEBEBEBEBEBEBEF5BEBEBEBEBEBEBEBEBE
310
F5F5F5F5F5F5F5F5F5F5E2F5F5E2EFE2F5F5E2F5F5F5F5F5F5F5F5F5F5F5F5F5F5F5F5F5F5F5F5F5F5F5F5F5F5F5F5F5F5F5F5F5F5F5F5F5F5F5F5F5F5F5F5F5F5F5F5F5F5F5F5F5F5F5F5F5F5F5F5F5F5F5F5F5F5F5F5F5F5F5F5F5F5F5F5F5F5F5F5F5F5F5F5F5F5F5F5F5F5F5F5F5F5F5F5F5F5F5F5F5F5F5F5F5F5F5F5
310
F5F5F5F5F5F5F5F5F5F5F5F5F5F5F5F5F5F5F5F5F5F5F5F5F5F5F5F5F5F5F5F5F5F5F5F5F5F5F5F5F5F5F5F5F5F5F5F5F5F5F5F5F5F5F5F5F5F5F5F5F5F5F5E2F5F5E2EFE2F5F5E2E2E2E2E2E2E2E2E2E2E2E2E2E2E2E2E2E2E2E2E2E2E2E2E2E2E2E2E2E2E2E2E2E2E2E2E2E2E2E2E2E2E2E2E2E2E2E2E2E2E2E2E2E2E2E2
310
E2E2E2E2E2E2E2E2E2E2E2E2E2E2E2E2E2E2E2E2E2E2E2E2E2E2E2E2E2E2E2E2E2E2E2E2E2E2E2E2E2E2E2E2E2E2E2E2E2E2E2E2E2E2E2E2E2E2E2E2E2E2E2E2E2E2E2E2E2E2E2E2E2E2E2E2E2E2E2E2E2E2E2E2E2E2E2E2E2E2E2E2E2E2E2E2E2E2E2E2E2E2E2E2E2E2E2E2E2E2E2E2E2E2E2E2E2F5E2E2EFE2F5F5F5F5F5
310
F5F5F5F5F5F5F5F5F5F5F5F5F5F5F5F5F5F5F5F5F5F5F5F5F5F5F5F5F5F5F5F5F5F5F5F5F5F5F5F5F5F5F5F5F5F5F5F5F5F5F5F5F5F5F5F5F5F5F5F5F5F5F5F5F5F5F5F5F5F5F5F5F5F5F5F5F5F5F5F5F5F5F5F5F5F5F5F5F5F5F5F5F5F5F5F5F5F5F5F5F5F5F5F5F5F5F5F5F5F5F5F5F5F5F5F5F5F5F5F5F5F5F5F5F5F5F5
310
F5F5F5F5F5F5F5F5F5F5F5F5F5F5F5F5F5F5F5F5F5F5F5F5F5F5F5F5F5F5F5F5F5F5F5F5F5F5F5F5F5F5F5F5E2E2EFE2E2E2E2E2E2E2E2E2E2E2E2E2E2E2E2E2E2E2E2E2E2E2E2E2E2E2E2E2E2E2E2E2E2E2E2E2E2E2E2E2E2E2E2E2E2E2E2E2E2E2E2E2E2E2E2E2E2E2E2E2E2E2E2E2E2E2E2E2E2E2E2E2E2E2E2E2E2E2E2
310
E2E2E2E2E2E2E2E2E2E2E2E2E2E2E2E2E2E2E2E2E2E2E2E2E2E2E2E2E2E2E2E2E2E2E2E2E2E2E2E2E2E2E2E2E2E2E2E2E2E2E2E2E2E2E2E2E2E2E2E2E2E2E2E2E2E2E2E2E2E2E2E2E2E2E2E2E2E2E2E2E2E2E2E2E2E2E2E2E2E2E2E2E2E2E2E2E2E2E2EF
  0
XRECORD
  5
7D2
102
{ACAD_REACTORS
330
7D1
102
}
330
7D1
100
AcDbXrecord
280
     1
102
SHADEPLOT
 70
     0
102
SHADEPLOTRESLEVEL
 70
     2
102
SHADEPLOTCUSTOMDPI
 70
   300
  0
ENDSEC
  0
EOF
