  0
SECTION
  2
HEADER
  9
$ACADVER
  1
AC1015
  9
$ACADMAINTVER
 70
    18
  9
$DWGCODEPAGE
  3
ANSI_1252
  9
$INSBASE
 10
0.0
 20
0.0
 30
0.0
  9
$EXTMIN
 10
0.0
 20
0.0
 30
0.0
  9
$EXTMAX
 10
279.4
 20
215.9
 30
0.0
  9
$LIMMIN
 10
0.0
 20
0.0
  9
$LIMMAX
 10
279.4
 20
215.9
  9
$ORTHOMODE
 70
     0
  9
$REGENMODE
 70
     1
  9
$FILLMODE
 70
     1
  9
$QTEXTMODE
 70
     0
  9
$MIRRTEXT
 70
     0
  9
$LTSCALE
 40
0.5
  9
$ATTMODE
 70
     1
  9
$TEXTSIZE
 40
0.2
  9
$TRACEWID
 40
0.05
  9
$TEXTSTYLE
  7
Standard
  9
$CLAYER
  8
0
  9
$CELTYPE
  6
ByLayer
  9
$CECOLOR
 62
   256
  9
$CELTSCALE
 40
1.0
  9
$DISPSILH
 70
     0
  9
$DIMSCALE
 40
1.0
  9
$DIMASZ
 40
1.799999999999999
  9
$DIMEXO
 40
0.0625
  9
$DIMDLI
 40
0.38
  9
$DIMRND
 40
0.0
  9
$DIMDLE
 40
0.0
  9
$DIMEXE
 40
0.18
  9
$DIMTP
 40
0.0
  9
$DIMTM
 40
0.0
  9
$DIMTXT
 40
0.3048000037670135
  9
$DIMCEN
 40
0.09
  9
$DIMTSZ
 40
0.0
  9
$DIMTOL
 70
     0
  9
$DIMLIM
 70
     0
  9
$DIMTIH
 70
     1
  9
$DIMTOH
 70
     1
  9
$DIMSE1
 70
     0
  9
$DIMSE2
 70
     0
  9
$DIMTAD
 70
     0
  9
$DIMZIN
 70
     0
  9
$DIMBLK
  1

  9
$DIMASO
 70
     1
  9
$DIMSHO
 70
     1
  9
$DIMPOST
  1

  9
$DIMAPOST
  1

  9
$DIMALT
 70
     0
  9
$DIMALTD
 70
     2
  9
$DIMALTF
 40
25.4
  9
$DIMLFAC
 40
1.0
  9
$DIMTOFL
 70
     0
  9
$DIMTVP
 40
0.0
  9
$DIMTIX
 70
     0
  9
$DIMSOXD
 70
     0
  9
$DIMSAH
 70
     0
  9
$DIMBLK1
  1

  9
$DIMBLK2
  1

  9
$DIMSTYLE
  2
Standard
  9
$DIMCLRD
 70
     0
  9
$DIMCLRE
 70
     0
  9
$DIMCLRT
 70
     0
  9
$DIMTFAC
 40
1.0
  9
$DIMGAP
 40
0.09
  9
$DIMJUST
 70
     0
  9
$DIMSD1
 70
     0
  9
$DIMSD2
 70
     0
  9
$DIMTOLJ
 70
     1
  9
$DIMTZIN
 70
     0
  9
$DIMALTZ
 70
     0
  9
$DIMALTTZ
 70
     0
  9
$DIMUPT
 70
     0
  9
$DIMDEC
 70
     4
  9
$DIMTDEC
 70
     4
  9
$DIMALTU
 70
     2
  9
$DIMALTTD
 70
     2
  9
$DIMTXSTY
  7
Standard
  9
$DIMAUNIT
 70
     0
  9
$DIMADEC
 70
     0
  9
$DIMALTRND
 40
0.0
  9
$DIMAZIN
 70
     0
  9
$DIMDSEP
 70
    46
  9
$DIMATFIT
 70
     3
  9
$DIMFRAC
 70
     0
  9
$DIMLDRBLK
  1

  9
$DIMLUNIT
 70
     2
  9
$DIMLWD
 70
    -2
  9
$DIMLWE
 70
    -2
  9
$DIMTMOVE
 70
     0
  9
$LUNITS
 70
     2
  9
$LUPREC
 70
     4
  9
$SKETCHINC
 40
0.1
  9
$FILLETRAD
 40
0.0
  9
$AUNITS
 70
     0
  9
$AUPREC
 70
     0
  9
$MENU
  1
.
  9
$ELEVATION
 40
0.0
  9
$PELEVATION
 40
0.0
  9
$THICKNESS
 40
0.0
  9
$LIMCHECK
 70
     0
  9
$CHAMFERA
 40
0.0
  9
$CHAMFERB
 40
0.0
  9
$CHAMFERC
 40
0.0
  9
$CHAMFERD
 40
0.0
  9
$SKPOLY
 70
     0
  9
$TDCREATE
 40
2456171.611289734
  9
$TDUCREATE
 40
2456171.777956400
  9
$TDUPDATE
 40
2456171.611289734
  9
$TDUUPDATE
 40
2456171.777956400
  9
$TDINDWG
 40
0.0000235069
  9
$TDUSRTIMER
 40
0.0000235069
  9
$USRTIMER
 70
     1
  9
$ANGBASE
 50
0.0
  9
$ANGDIR
 70
     0
  9
$PDMODE
 70
     0
  9
$PDSIZE
 40
0.0
  9
$PLINEWID
 40
0.0
  9
$SPLFRAME
 70
     0
  9
$SPLINETYPE
 70
     6
  9
$SPLINESEGS
 70
     8
  9
$HANDSEED
  5
804
  9
$SURFTAB1
 70
     6
  9
$SURFTAB2
 70
     6
  9
$SURFTYPE
 70
     6
  9
$SURFU
 70
     6
  9
$SURFV
 70
     6
  9
$UCSBASE
  2

  9
$UCSNAME
  2

  9
$UCSORG
 10
0.0
 20
0.0
 30
0.0
  9
$UCSXDIR
 10
1.0
 20
0.0
 30
0.0
  9
$UCSYDIR
 10
0.0
 20
1.0
 30
0.0
  9
$UCSORTHOREF
  2

  9
$UCSORTHOVIEW
 70
     0
  9
$UCSORGTOP
 10
0.0
 20
0.0
 30
0.0
  9
$UCSORGBOTTOM
 10
0.0
 20
0.0
 30
0.0
  9
$UCSORGLEFT
 10
0.0
 20
0.0
 30
0.0
  9
$UCSORGRIGHT
 10
0.0
 20
0.0
 30
0.0
  9
$UCSORGFRONT
 10
0.0
 20
0.0
 30
0.0
  9
$UCSORGBACK
 10
0.0
 20
0.0
 30
0.0
  9
$PUCSBASE
  2

  9
$PUCSNAME
  2

  9
$PUCSORG
 10
0.0
 20
0.0
 30
0.0
  9
$PUCSXDIR
 10
1.0
 20
0.0
 30
0.0
  9
$PUCSYDIR
 10
0.0
 20
1.0
 30
0.0
  9
$PUCSORTHOREF
  2

  9
$PUCSORTHOVIEW
 70
     0
  9
$PUCSORGTOP
 10
0.0
 20
0.0
 30
0.0
  9
$PUCSORGBOTTOM
 10
0.0
 20
0.0
 30
0.0
  9
$PUCSORGLEFT
 10
0.0
 20
0.0
 30
0.0
  9
$PUCSORGRIGHT
 10
0.0
 20
0.0
 30
0.0
  9
$PUCSORGFRONT
 10
0.0
 20
0.0
 30
0.0
  9
$PUCSORGBACK
 10
0.0
 20
0.0
 30
0.0
  9
$USERI1
 70
     0
  9
$USERI2
 70
     0
  9
$USERI3
 70
     0
  9
$USERI4
 70
     0
  9
$USERI5
 70
     0
  9
$USERR1
 40
0.0
  9
$USERR2
 40
0.0
  9
$USERR3
 40
0.0
  9
$USERR4
 40
0.0
  9
$USERR5
 40
0.0
  9
$WORLDVIEW
 70
     1
  9
$SHADEDGE
 70
     3
  9
$SHADEDIF
 70
    70
  9
$TILEMODE
 70
     1
  9
$MAXACTVP
 70
    64
  9
$PINSBASE
 10
0.0
 20
0.0
 30
0.0
  9
$PLIMCHECK
 70
     0
  9
$PEXTMIN
 10
0.0
 20
0.0
 30
0.0
  9
$PEXTMAX
 10
279.4
 20
215.9
 30
0.0
  9
$PLIMMIN
 10
0.0
 20
0.0
  9
$PLIMMAX
 10
279.4
 20
215.9
  9
$UNITMODE
 70
     0
  9
$VISRETAIN
 70
     1
  9
$PLINEGEN
 70
     0
  9
$PSLTSCALE
 70
     1
  9
$TREEDEPTH
 70
  3020
  9
$CMLSTYLE
  2
Standard
  9
$CMLJUST
 70
     0
  9
$CMLSCALE
 40
1.0
  9
$PROXYGRAPHICS
 70
     1
  9
$MEASUREMENT
 70
     1
  9
$CELWEIGHT
370
    -1
  9
$ENDCAPS
280
     0
  9
$JOINSTYLE
280
     0
  9
$LWDISPLAY
290
     0
  9
$INSUNITS
 70
     4
  9
$HYPERLINKBASE
  1

  9
$STYLESHEET
  1

  9
$XEDIT
290
     1
  9
$CEPSNTYPE
380
     0
  9
$PSTYLEMODE
290
     1
  9
$FINGERPRINTGUID
  2
{6CE501A6-23EE-4D3E-840A-2400AD9DF745}
  9
$VERSIONGUID
  2
{FCAD0AE9-6E80-4B14-929B-52B323BBBE83}
  9
$EXTNAMES
290
     1
  9
$PSVPSCALE
 40
0.0
  9
$OLESTARTUP
290
     0
  0
ENDSEC
  0
SECTION
  2
CLASSES
  0
CLASS
  1
ACDBDICTIONARYWDFLT
  2
AcDbDictionaryWithDefault
  3
ObjectDBX Classes
 90
        0
280
     0
281
     0
  0
CLASS
  1
MATERIAL
  2
AcDbMaterial
  3
ObjectDBX Classes
 90
     1153
280
     0
281
     0
  0
CLASS
  1
VISUALSTYLE
  2
AcDbVisualStyle
  3
ObjectDBX Classes
 90
     4095
280
     0
281
     0
  0
CLASS
  1
SCALE
  2
AcDbScale
  3
ObjectDBX Classes
 90
     1153
280
     0
281
     0
  0
CLASS
  1
TABLESTYLE
  2
AcDbTableStyle
  3
ObjectDBX Classes
 90
     4095
280
     0
281
     0
  0
CLASS
  1
MLEADERSTYLE
  2
AcDbMLeaderStyle
  3
ACDB_MLEADERSTYLE_CLASS
 90
     4095
280
     0
281
     0
  0
CLASS
  1
DICTIONARYVAR
  2
AcDbDictionaryVar
  3
ObjectDBX Classes
 90
        0
280
     0
281
     0
  0
CLASS
  1
CELLSTYLEMAP
  2
AcDbCellStyleMap
  3
ObjectDBX Classes
 90
     1152
280
     0
281
     0
  0
CLASS
  1
ACDBPLACEHOLDER
  2
AcDbPlaceHolder
  3
ObjectDBX Classes
 90
        0
280
     0
281
     0
  0
CLASS
  1
LAYOUT
  2
AcDbLayout
  3
ObjectDBX Classes
 90
        0
280
     0
281
     0
  0
ENDSEC
  0
SECTION
  2
TABLES
  0
TABLE
  2
VPORT
  5
8
330
0
100
AcDbSymbolTable
 70
     1
  0
VPORT
  5
57
330
8
100
AcDbSymbolTableRecord
100
AcDbViewportTableRecord
  2
*Active
 70
     0
 10
0.0
 20
0.0
 11
1.0
 21
1.0
 12
139.7
 22
107.95
 13
0.0
 23
0.0
 14
1.0
 24
1.0
 15
0.0
 25
0.0
 16
0.0
 26
0.0
 36
1.0
 17
0.0
 27
0.0
 37
0.0
 40
215.9
 41
1.294117647058823
 42
50.0
 43
0.0
 44
0.0
 50
0.0
 51
0.0
 71
     0
 72
   100
 73
     1
 74
     1
 75
     0
 76
     0
 77
     0
 78
     0
281
     0
 65
     1
110
0.0
120
0.0
130
0.0
111
1.0
121
0.0
131
0.0
112
0.0
122
1.0
132
0.0
 79
     0
146
0.0
  0
ENDTAB
  0
TABLE
  2
LTYPE
  5
5
330
0
100
AcDbSymbolTable
 70
    59
  0
LTYPE
  5
5B
330
5
100
AcDbSymbolTableRecord
100
AcDbLinetypeTableRecord
  2
ByBlock
 70
     0
  3

 72
    65
 73
     0
 40
0.0
  0
LTYPE
  5
5C
330
5
100
AcDbSymbolTableRecord
100
AcDbLinetypeTableRecord
  2
ByLayer
 70
     0
  3

 72
    65
 73
     0
 40
0.0
  0
LTYPE
  5
5D
330
5
100
AcDbSymbolTableRecord
100
AcDbLinetypeTableRecord
  2
Continuous
 70
     0
  3
Solid line
 72
    65
 73
     0
 40
0.0
  0
LTYPE
  5
74
330
5
100
AcDbSymbolTableRecord
100
AcDbLinetypeTableRecord
  2
BY_STANDARD
 70
     0
  3
By Standard ____________    ____    ____   _
 72
    65
 73
     6
 40
1.240299999999999
 49
0.6614
 74
     0
 49
-0.0827
 74
     0
 49
0.1654
 74
     0
 49
-0.0827
 74
     0
 49
0.1654
 74
     0
 49
-0.0827
 74
     0
  0
LTYPE
  5
75
330
5
100
AcDbSymbolTableRecord
100
AcDbLinetypeTableRecord
  2
CHAIN
 70
     0
  3
Chain ____ _ ____ _ ____ _ ____ _ ____ _ ____
 72
    65
 73
     4
 40
0.7087
 49
0.4724000000000001
 74
     0
 49
-0.0591
 74
     0
 49
0.1181
 74
     0
 49
-0.0591
 74
     0
  0
LTYPE
  5
76
330
5
100
AcDbSymbolTableRecord
100
AcDbLinetypeTableRecord
  2
DASH_DOT
 70
     0
  3
Dash dot __ . __ . __ . __ . __ . __ . __ . __
 72
    65
 73
     4
 40
0.37
 49
0.24
 74
     0
 49
-0.06
 74
     0
 49
0.01
 74
     0
 49
-0.06
 74
     0
  0
LTYPE
  5
77
330
5
100
AcDbSymbolTableRecord
100
AcDbLinetypeTableRecord
  2
DOUBLE_DASH_DOT
 70
     0
  3
Double-Dash Dot __ __ . __ __ . __ __ . __ _
 72
    65
 73
     6
 40
0.4398
 49
0.24
 74
     0
 49
-0.06
 74
     0
 49
0.0098
 74
     0
 49
-0.06
 74
     0
 49
0.01
 74
     0
 49
-0.06
 74
     0
  0
LTYPE
  5
78
330
5
100
AcDbSymbolTableRecord
100
AcDbLinetypeTableRecord
  2
DASH_TRIPLE_DOT
 70
     0
  3
Dash Triple-Dot _ . . . _ . . . _ . . . _
 72
    65
 73
     8
 40
0.51
 49
0.24
 74
     0
 49
-0.06
 74
     0
 49
0.01
 74
     0
 49
-0.06
 74
     0
 49
0.01
 74
     0
 49
-0.06
 74
     0
 49
0.01
 74
     0
 49
-0.06
 74
     0
  0
LTYPE
  5
79
330
5
100
AcDbSymbolTableRecord
100
AcDbLinetypeTableRecord
  2
DASHED
 70
     0
  3
Dashed __ __ __ __ __ __ __ __ __ __ __ __ __ _
 72
    65
 73
     2
 40
0.2067
 49
0.1654
 74
     0
 49
-0.0413
 74
     0
  0
LTYPE
  5
7A
330
5
100
AcDbSymbolTableRecord
100
AcDbLinetypeTableRecord
  2
DASH_DOUBLE_DOT
 70
     0
  3
Dash Double-Dot __ . . __ . . __ . . __ . .
 72
    65
 73
     6
 40
0.4398
 49
0.24
 74
     0
 49
-0.06
 74
     0
 49
0.0098
 74
     0
 49
-0.06
 74
     0
 49
0.01
 74
     0
 49
-0.06
 74
     0
  0
LTYPE
  5
7B
330
5
100
AcDbSymbolTableRecord
100
AcDbLinetypeTableRecord
  2
DASHED_SPACE
 70
     0
  3
Dashed Space __ __ __ __ __ __ __ __ __ __ __ _
 72
    65
 73
     2
 40
0.2067
 49
0.1654
 74
     0
 49
-0.0413
 74
     0
  0
LTYPE
  5
7C
330
5
100
AcDbSymbolTableRecord
100
AcDbLinetypeTableRecord
  2
DOTTED
 70
     0
  3
Dotted . . . . . . . . . . . . . . . . . . . . 
 72
    65
 73
     2
 40
0.0482
 49
0.0069
 74
     0
 49
-0.0413
 74
     0
  0
LTYPE
  5
7D
330
5
100
AcDbSymbolTableRecord
100
AcDbLinetypeTableRecord
  2
DOUBLE_DASH_CHAIN
 70
     0
  3
Double-Dash Chain ______  __  __  ______  __  _
 72
    65
 73
     6
 40
1.240299999999999
 49
0.6614
 74
     0
 49
-0.0827
 74
     0
 49
0.1654
 74
     0
 49
-0.0827
 74
     0
 49
0.1654
 74
     0
 49
-0.0827
 74
     0
  0
LTYPE
  5
7F
330
5
100
AcDbSymbolTableRecord
100
AcDbLinetypeTableRecord
  2
DOUBLE_DASH_DOUBLE_DOT
 70
     0
  3
Double-Dash Double-dot _ _ . . _ _ . . _
 72
    65
 73
     8
 40
0.7400000000000001
 49
0.24
 74
     0
 49
-0.06
 74
     0
 49
0.24
 74
     0
 49
-0.06
 74
     0
 49
0.01
 74
     0
 49
-0.06
 74
     0
 49
0.01
 74
     0
 49
-0.06
 74
     0
  0
LTYPE
  5
80
330
5
100
AcDbSymbolTableRecord
100
AcDbLinetypeTableRecord
  2
DOUBLE_DASH_TRIPLE_DOT
 70
     0
  3
Double Dash Triple Dot __ __ . . . __ __ . .
 72
    65
 73
    10
 40
0.8100000000000001
 49
0.24
 74
     0
 49
-0.06
 74
     0
 49
0.24
 74
     0
 49
-0.06
 74
     0
 49
0.01
 74
     0
 49
-0.06
 74
     0
 49
0.01
 74
     0
 49
-0.06
 74
     0
 49
0.01
 74
     0
 49
-0.06
 74
     0
  0
LTYPE
  5
81
330
5
100
AcDbSymbolTableRecord
100
AcDbLinetypeTableRecord
  2
LONG_DASH_DOTTED
 70
     0
  3
Long Dash Dotted ____ . ____ . ____ . ____ . _
 72
    65
 73
     4
 40
0.3543
 49
0.2362
 74
     0
 49
-0.0295
 74
     0
 49
0.0591
 74
     0
 49
-0.0295
 74
     0
  0
LTYPE
  5
82
330
5
100
AcDbSymbolTableRecord
100
AcDbLinetypeTableRecord
  2
LONG_DASH_DOUBLE_DOT
 70
     0
  3
Long Dash Double Dot ________  .  .  ________  
 72
    65
 73
     6
 40
0.6799999999999999
 49
0.48
 74
     0
 49
-0.06
 74
     0
 49
0.01
 74
     0
 49
-0.06
 74
     0
 49
0.01
 74
     0
 49
-0.06
 74
     0
  0
LTYPE
  5
83
330
5
100
AcDbSymbolTableRecord
100
AcDbLinetypeTableRecord
  2
LONG_DASH_TRIPLE_DOT
 70
     0
  3
Long Dash Triple Dot ____ ... ____ ... ____
 72
    65
 73
     8
 40
0.3689
 49
0.2362
 74
     0
 49
-0.0295
 74
     0
 49
0.0049
 74
     0
 49
-0.0295
 74
     0
 49
0.0049
 74
     0
 49
-0.0295
 74
     0
 49
0.0049
 74
     0
 49
-0.0295
 74
     0
  0
LTYPE
  5
84
330
5
100
AcDbSymbolTableRecord
100
AcDbLinetypeTableRecord
  2
BORDER
 70
     0
  3
Border __ __ . __ __ . __ __ . __ __ . __ __ .
 72
    65
 73
     6
 40
1.75
 49
0.5
 74
     0
 49
-0.25
 74
     0
 49
0.5
 74
     0
 49
-0.25
 74
     0
 49
0.0
 74
     0
 49
-0.25
 74
     0
  0
LTYPE
  5
85
330
5
100
AcDbSymbolTableRecord
100
AcDbLinetypeTableRecord
  2
BORDER2
 70
     0
  3
Border (.5x) __.__.__.__.__.__.__.__.__.__.__.
 72
    65
 73
     6
 40
0.875
 49
0.25
 74
     0
 49
-0.125
 74
     0
 49
0.25
 74
     0
 49
-0.125
 74
     0
 49
0.0
 74
     0
 49
-0.125
 74
     0
  0
LTYPE
  5
86
330
5
100
AcDbSymbolTableRecord
100
AcDbLinetypeTableRecord
  2
BORDERX2
 70
     0
  3
Border (2x) ____  ____  .  ____  ____  .  ___
 72
    65
 73
     6
 40
3.5
 49
1.0
 74
     0
 49
-0.5
 74
     0
 49
1.0
 74
     0
 49
-0.5
 74
     0
 49
0.0
 74
     0
 49
-0.5
 74
     0
  0
LTYPE
  5
87
330
5
100
AcDbSymbolTableRecord
100
AcDbLinetypeTableRecord
  2
CENTER
 70
     0
  3
Center ____ _ ____ _ ____ _ ____ _ ____ _ ____
 72
    65
 73
     4
 40
2.0
 49
1.25
 74
     0
 49
-0.25
 74
     0
 49
0.25
 74
     0
 49
-0.25
 74
     0
  0
LTYPE
  5
88
330
5
100
AcDbSymbolTableRecord
100
AcDbLinetypeTableRecord
  2
CENTER2
 70
     0
  3
Center (.5x) ___ _ ___ _ ___ _ ___ _ ___ _ ___
 72
    65
 73
     4
 40
1.125
 49
0.75
 74
     0
 49
-0.125
 74
     0
 49
0.125
 74
     0
 49
-0.125
 74
     0
  0
LTYPE
  5
89
330
5
100
AcDbSymbolTableRecord
100
AcDbLinetypeTableRecord
  2
CENTERX2
 70
     0
  3
Center (2x) ________  __  ________  __  _____
 72
    65
 73
     4
 40
4.0
 49
2.5
 74
     0
 49
-0.5
 74
     0
 49
0.5
 74
     0
 49
-0.5
 74
     0
  0
LTYPE
  5
8A
330
5
100
AcDbSymbolTableRecord
100
AcDbLinetypeTableRecord
  2
DASHDOT2
 70
     0
  3
Dash dot (.5x) _._._._._._._._._._._._._._._.
 72
    65
 73
     4
 40
0.5
 49
0.25
 74
     0
 49
-0.125
 74
     0
 49
0.0
 74
     0
 49
-0.125
 74
     0
  0
LTYPE
  5
8B
330
5
100
AcDbSymbolTableRecord
100
AcDbLinetypeTableRecord
  2
DASHDOTX2
 70
     0
  3
Dash dot (2x) ____  .  ____  .  ____  .  ___
 72
    65
 73
     4
 40
2.0
 49
1.0
 74
     0
 49
-0.5
 74
     0
 49
0.0
 74
     0
 49
-0.5
 74
     0
  0
LTYPE
  5
8D
330
5
100
AcDbSymbolTableRecord
100
AcDbLinetypeTableRecord
  2
DASHED2
 70
     0
  3
Dashed (.5x) _ _ _ _ _ _ _ _ _ _ _ _ _ _ _ _ _
 72
    65
 73
     2
 40
0.375
 49
0.25
 74
     0
 49
-0.125
 74
     0
  0
LTYPE
  5
8E
330
5
100
AcDbSymbolTableRecord
100
AcDbLinetypeTableRecord
  2
DASHEDX2
 70
     0
  3
Dashed (2x) ____  ____  ____  ____  ____  ___
 72
    65
 73
     2
 40
1.5
 49
1.0
 74
     0
 49
-0.5
 74
     0
  0
LTYPE
  5
8F
330
5
100
AcDbSymbolTableRecord
100
AcDbLinetypeTableRecord
  2
DIVIDE
 70
     0
  3
Divide ____ . . ____ . . ____ . . ____ . . ____
 72
    65
 73
     6
 40
1.25
 49
0.5
 74
     0
 49
-0.25
 74
     0
 49
0.0
 74
     0
 49
-0.25
 74
     0
 49
0.0
 74
     0
 49
-0.25
 74
     0
  0
LTYPE
  5
90
330
5
100
AcDbSymbolTableRecord
100
AcDbLinetypeTableRecord
  2
DIVIDE2
 70
     0
  3
Divide (.5x) __..__..__..__..__..__..__..__.._
 72
    65
 73
     6
 40
0.625
 49
0.25
 74
     0
 49
-0.125
 74
     0
 49
0.0
 74
     0
 49
-0.125
 74
     0
 49
0.0
 74
     0
 49
-0.125
 74
     0
  0
LTYPE
  5
91
330
5
100
AcDbSymbolTableRecord
100
AcDbLinetypeTableRecord
  2
DIVIDEX2
 70
     0
  3
Divide (2x) ________  .  .  ________  .  .  _
 72
    65
 73
     6
 40
2.5
 49
1.0
 74
     0
 49
-0.5
 74
     0
 49
0.0
 74
     0
 49
-0.5
 74
     0
 49
0.0
 74
     0
 49
-0.5
 74
     0
  0
LTYPE
  5
92
330
5
100
AcDbSymbolTableRecord
100
AcDbLinetypeTableRecord
  2
DOT
 70
     0
  3
Dot . . . . . . . . . . . . . . . . . . . . . .
 72
    65
 73
     2
 40
0.25
 49
0.0
 74
     0
 49
-0.25
 74
     0
  0
LTYPE
  5
93
330
5
100
AcDbSymbolTableRecord
100
AcDbLinetypeTableRecord
  2
DOT2
 70
     0
  3
Dot (.5x) .....................................
 72
    65
 73
     2
 40
0.125
 49
0.0
 74
     0
 49
-0.125
 74
     0
  0
LTYPE
  5
94
330
5
100
AcDbSymbolTableRecord
100
AcDbLinetypeTableRecord
  2
DOTX2
 70
     0
  3
Dot (2x) .  .  .  .  .  .  .  .  .  .  .  .  . 
 72
    65
 73
     2
 40
0.5
 49
0.0
 74
     0
 49
-0.5
 74
     0
  0
LTYPE
  5
95
330
5
100
AcDbSymbolTableRecord
100
AcDbLinetypeTableRecord
  2
HIDDEN
 70
     0
  3
Hidden __ __ __ __ __ __ __ __ __ __ __ __ __ _
 72
    65
 73
     2
 40
0.375
 49
0.25
 74
     0
 49
-0.125
 74
     0
  0
LTYPE
  5
96
330
5
100
AcDbSymbolTableRecord
100
AcDbLinetypeTableRecord
  2
HIDDEN2
 70
     0
  3
Hidden (.5x) _ _ _ _ _ _ _ _ _ _ _ _ _ _ _ _ _
 72
    65
 73
     2
 40
0.1875
 49
0.125
 74
     0
 49
-0.0625
 74
     0
  0
LTYPE
  5
97
330
5
100
AcDbSymbolTableRecord
100
AcDbLinetypeTableRecord
  2
HIDDENX2
 70
     0
  3
Hidden (2x) ____ ____ ____ ____ ____ ____ ____
 72
    65
 73
     2
 40
0.75
 49
0.5
 74
     0
 49
-0.25
 74
     0
  0
LTYPE
  5
98
330
5
100
AcDbSymbolTableRecord
100
AcDbLinetypeTableRecord
  2
PHANTOM
 70
     0
  3
Phantom ______  __  __  ______  __  __  ______
 72
    65
 73
     6
 40
2.5
 49
1.25
 74
     0
 49
-0.25
 74
     0
 49
0.25
 74
     0
 49
-0.25
 74
     0
 49
0.25
 74
     0
 49
-0.25
 74
     0
  0
LTYPE
  5
99
330
5
100
AcDbSymbolTableRecord
100
AcDbLinetypeTableRecord
  2
PHANTOM2
 70
     0
  3
Phantom (.5x) ___ _ _ ___ _ _ ___ _ _ ___ _ _
 72
    65
 73
     6
 40
1.25
 49
0.625
 74
     0
 49
-0.125
 74
     0
 49
0.125
 74
     0
 49
-0.125
 74
     0
 49
0.125
 74
     0
 49
-0.125
 74
     0
  0
LTYPE
  5
9A
330
5
100
AcDbSymbolTableRecord
100
AcDbLinetypeTableRecord
  2
PHANTOMX2
 70
     0
  3
Phantom (2x) ____________    ____    ____   _
 72
    65
 73
     6
 40
5.0
 49
2.5
 74
     0
 49
-0.5
 74
     0
 49
0.5
 74
     0
 49
-0.5
 74
     0
 49
0.5
 74
     0
 49
-0.5
 74
     0
  0
LTYPE
  5
9B
330
5
100
AcDbSymbolTableRecord
100
AcDbLinetypeTableRecord
  2
ACAD_ISO02W100
 70
     0
  3
ISO dash __ __ __ __ __ __ __ __ __ __ __ __ __
 72
    65
 73
     2
 40
0.59
 49
0.47
 74
     0
 49
-0.12
 74
     0
  0
LTYPE
  5
9C
330
5
100
AcDbSymbolTableRecord
100
AcDbLinetypeTableRecord
  2
ACAD_ISO03W100
 70
     0
  3
ISO dash space __    __    __    __    __    __
 72
    65
 73
     2
 40
1.179999999999999
 49
0.47
 74
     0
 49
-0.71
 74
     0
  0
LTYPE
  5
9D
330
5
100
AcDbSymbolTableRecord
100
AcDbLinetypeTableRecord
  2
ACAD_ISO04W100
 70
     0
  3
ISO long-dash dot ____ . ____ . ____ . ____ . _
 72
    65
 73
     4
 40
1.179999999999999
 49
0.9399999999999998
 74
     0
 49
-0.12
 74
     0
 49
0.0
 74
     0
 49
-0.12
 74
     0
  0
LTYPE
  5
9E
330
5
100
AcDbSymbolTableRecord
100
AcDbLinetypeTableRecord
  2
ACAD_ISO05W100
 70
     0
  3
ISO long-dash double-dot ____ .. ____ .. ____ .
 72
    65
 73
     6
 40
1.299999999999999
 49
0.9399999999999998
 74
     0
 49
-0.12
 74
     0
 49
0.0
 74
     0
 49
-0.12
 74
     0
 49
0.0
 74
     0
 49
-0.12
 74
     0
  0
LTYPE
  5
9F
330
5
100
AcDbSymbolTableRecord
100
AcDbLinetypeTableRecord
  2
ACAD_ISO06W100
 70
     0
  3
ISO long-dash triple-dot ____ ... ____ ... ____
 72
    65
 73
     8
 40
1.419999999999999
 49
0.9399999999999998
 74
     0
 49
-0.12
 74
     0
 49
0.0
 74
     0
 49
-0.12
 74
     0
 49
0.0
 74
     0
 49
-0.12
 74
     0
 49
0.0
 74
     0
 49
-0.12
 74
     0
  0
LTYPE
  5
A0
330
5
100
AcDbSymbolTableRecord
100
AcDbLinetypeTableRecord
  2
ACAD_ISO07W100
 70
     0
  3
ISO dot . . . . . . . . . . . . . . . . . . . .
 72
    65
 73
     2
 40
0.12
 49
0.0
 74
     0
 49
-0.12
 74
     0
  0
LTYPE
  5
A1
330
5
100
AcDbSymbolTableRecord
100
AcDbLinetypeTableRecord
  2
ACAD_ISO08W100
 70
     0
  3
ISO long-dash short-dash ____ __ ____ __ ____ _
 72
    65
 73
     4
 40
0.95
 49
0.47
 74
     0
 49
-0.12
 74
     0
 49
0.24
 74
     0
 49
-0.12
 74
     0
  0
LTYPE
  5
A2
330
5
100
AcDbSymbolTableRecord
100
AcDbLinetypeTableRecord
  2
ACAD_ISO09W100
 70
     0
  3
ISO long-dash double-short-dash ____ __ __ ____
 72
    65
 73
     6
 40
1.31
 49
0.47
 74
     0
 49
-0.12
 74
     0
 49
0.24
 74
     0
 49
-0.12
 74
     0
 49
0.24
 74
     0
 49
-0.12
 74
     0
  0
LTYPE
  5
A3
330
5
100
AcDbSymbolTableRecord
100
AcDbLinetypeTableRecord
  2
ACAD_ISO10W100
 70
     0
  3
ISO dash dot __ . __ . __ . __ . __ . __ . __ .
 72
    65
 73
     4
 40
0.71
 49
0.47
 74
     0
 49
-0.12
 74
     0
 49
0.0
 74
     0
 49
-0.12
 74
     0
  0
LTYPE
  5
A4
330
5
100
AcDbSymbolTableRecord
100
AcDbLinetypeTableRecord
  2
ACAD_ISO11W100
 70
     0
  3
ISO double-dash dot __ __ . __ __ . __ __ . __ 
 72
    65
 73
     6
 40
1.299999999999999
 49
0.47
 74
     0
 49
-0.12
 74
     0
 49
0.47
 74
     0
 49
-0.12
 74
     0
 49
0.0
 74
     0
 49
-0.12
 74
     0
  0
LTYPE
  5
A5
330
5
100
AcDbSymbolTableRecord
100
AcDbLinetypeTableRecord
  2
ACAD_ISO12W100
 70
     0
  3
ISO dash double-dot __ . . __ . . __ . . __ . .
 72
    65
 73
     6
 40
0.8299999999999998
 49
0.47
 74
     0
 49
-0.12
 74
     0
 49
0.0
 74
     0
 49
-0.12
 74
     0
 49
0.0
 74
     0
 49
-0.12
 74
     0
  0
LTYPE
  5
A6
330
5
100
AcDbSymbolTableRecord
100
AcDbLinetypeTableRecord
  2
ACAD_ISO13W100
 70
     0
  3
ISO double-dash double-dot __ __ . . __ __ . . 
 72
    65
 73
     8
 40
1.419999999999999
 49
0.47
 74
     0
 49
-0.12
 74
     0
 49
0.47
 74
     0
 49
-0.12
 74
     0
 49
0.0
 74
     0
 49
-0.12
 74
     0
 49
0.0
 74
     0
 49
-0.12
 74
     0
  0
LTYPE
  5
A7
330
5
100
AcDbSymbolTableRecord
100
AcDbLinetypeTableRecord
  2
ACAD_ISO14W100
 70
     0
  3
ISO dash triple-dot __ . . . __ . . . __ . . . 
 72
    65
 73
     8
 40
0.95
 49
0.47
 74
     0
 49
-0.12
 74
     0
 49
0.0
 74
     0
 49
-0.12
 74
     0
 49
0.0
 74
     0
 49
-0.12
 74
     0
 49
0.0
 74
     0
 49
-0.12
 74
     0
  0
LTYPE
  5
A8
330
5
100
AcDbSymbolTableRecord
100
AcDbLinetypeTableRecord
  2
ACAD_ISO15W100
 70
     0
  3
ISO double-dash triple-dot __ __ . . . __ __ . 
 72
    65
 73
    10
 40
1.539999999999999
 49
0.47
 74
     0
 49
-0.12
 74
     0
 49
0.47
 74
     0
 49
-0.12
 74
     0
 49
0.0
 74
     0
 49
-0.12
 74
     0
 49
0.0
 74
     0
 49
-0.12
 74
     0
 49
0.0
 74
     0
 49
-0.12
 74
     0
  0
LTYPE
  5
AB
330
5
100
AcDbSymbolTableRecord
100
AcDbLinetypeTableRecord
  2
FENCELINE1
 70
     0
  3
Fenceline circle ----0-----0----0-----0----0---
 72
    65
 73
     4
 40
1.45
 49
0.25
 74
     0
 49
-0.1
 74
     4
 75
   133
340
AA
 46
0.1
 50
0.0
 44
-0.1
 45
0.0
 49
-0.1
 74
     0
 49
1.0
 74
     0
  0
LTYPE
  5
AC
330
5
100
AcDbSymbolTableRecord
100
AcDbLinetypeTableRecord
  2
FENCELINE2
 70
     0
  3
Fenceline square ----[]-----[]----[]-----[]----
 72
    65
 73
     4
 40
1.45
 49
0.25
 74
     0
 49
-0.1
 74
     4
 75
   132
340
AA
 46
0.1
 50
0.0
 44
-0.1
 45
0.0
 49
-0.1
 74
     0
 49
1.0
 74
     0
  0
LTYPE
  5
AD
330
5
100
AcDbSymbolTableRecord
100
AcDbLinetypeTableRecord
  2
TRACKS
 70
     0
  3
Tracks -|-|-|-|-|-|-|-|-|-|-|-|-|-|-|-|-|-|-|-|
 72
    65
 73
     2
 40
0.3
 49
0.15
 74
     4
 75
   130
340
AA
 46
0.25
 50
0.0
 44
0.0
 45
0.0
 49
0.15
 74
     0
  0
LTYPE
  5
AE
330
5
100
AcDbSymbolTableRecord
100
AcDbLinetypeTableRecord
  2
BATTING
 70
     0
  3
Batting SSSSSSSSSSSSSSSSSSSSSSSSSSSSSSSSSSSSSSS
 72
    65
 73
     4
 40
0.4001000000000001
 49
0.0001
 74
     0
 49
-0.1
 74
     4
 75
   134
340
AA
 46
0.1
 50
0.0
 44
-0.1
 45
0.0
 49
-0.2
 74
     4
 75
   134
340
AA
 46
0.1
 50
180.0
 44
0.1
 45
0.0
 49
-0.1
 74
     0
  0
LTYPE
  5
AF
330
5
100
AcDbSymbolTableRecord
100
AcDbLinetypeTableRecord
  2
HOT_WATER_SUPPLY
 70
     0
  3
Hot water supply ---- HW ---- HW ---- HW ----
 72
    65
 73
     3
 40
0.9
 49
0.5
 74
     0
 49
-0.2
 74
     2
 75
     0
340
55
 46
0.1
 50
0.0
 44
-0.1
 45
-0.05
  9
HW
 49
-0.2
 74
     0
  0
LTYPE
  5
B0
330
5
100
AcDbSymbolTableRecord
100
AcDbLinetypeTableRecord
  2
GAS_LINE
 70
     0
  3
Gas line ----GAS----GAS----GAS----GAS----GAS---
 72
    65
 73
     3
 40
0.95
 49
0.5
 74
     0
 49
-0.2
 74
     2
 75
     0
340
55
 46
0.1
 50
0.0
 44
-0.1
 45
-0.05
  9
GAS
 49
-0.25
 74
     0
  0
LTYPE
  5
B1
330
5
100
AcDbSymbolTableRecord
100
AcDbLinetypeTableRecord
  2
ZIGZAG
 70
     0
  3
Zig zag /\/\/\/\/\/\/\/\/\/\/\/\/\/\/\/\/\/\/\/
 72
    65
 73
     4
 40
0.8001000000000001
 49
0.0001
 74
     0
 49
-0.2
 74
     4
 75
   131
340
AA
 46
0.2
 50
0.0
 44
-0.2
 45
0.0
 49
-0.4
 74
     4
 75
   131
340
AA
 46
0.2
 50
180.0
 44
0.2
 45
0.0
 49
-0.2
 74
     0
  0
ENDTAB
  0
TABLE
  2
LAYER
  5
2
330
0
100
AcDbSymbolTable
 70
    27
  0
LAYER
  5
54
330
2
100
AcDbSymbolTableRecord
100
AcDbLayerTableRecord
  2
0
 70
     0
 62
     7
  6
Continuous
370
    -3
390
F
  0
LAYER
  5
B5
330
2
100
AcDbSymbolTableRecord
100
AcDbLayerTableRecord
  2
Border {c3}
 70
     0
 62
     7
  6
Continuous
370
    70
390
F
  0
LAYER
  5
BA
330
2
100
AcDbSymbolTableRecord
100
AcDbLayerTableRecord
  2
Dimension {c3}
 70
     0
 62
     7
  6
Continuous
370
    25
390
F
  0
LAYER
  5
BB
330
2
100
AcDbSymbolTableRecord
100
AcDbLayerTableRecord
  2
Hatch {c3}
 70
     0
 62
     7
  6
Continuous
370
    18
390
F
  0
LAYER
  5
C3
330
2
100
AcDbSymbolTableRecord
100
AcDbLayerTableRecord
  2
Symbol {c3}
 70
     0
 62
     7
  6
Continuous
370
    25
390
F
  0
LAYER
  5
C4
330
2
100
AcDbSymbolTableRecord
100
AcDbLayerTableRecord
  2
Title {c3}
 70
     0
 62
     7
  6
Continuous
370
    50
390
F
  0
LAYER
  5
C6
330
2
100
AcDbSymbolTableRecord
100
AcDbLayerTableRecord
  2
Visible {c3}
 70
     0
 62
     7
  6
Continuous
370
    50
390
F
  0
LAYER
  5
C7
330
2
100
AcDbSymbolTableRecord
100
AcDbLayerTableRecord
  2
Visible Narrow {c3}
 70
     0
 62
     7
  6
Continuous
370
    35
390
F
  0
LAYER
  5
419
330
2
100
AcDbSymbolTableRecord
100
AcDbLayerTableRecord
  2
Defpoints
 70
     0
 62
     7
  6
Continuous
290
     0
370
    -3
390
F
  0
ENDTAB
  0
TABLE
  2
STYLE
  5
3
330
0
100
AcDbSymbolTable
 70
    11
  0
STYLE
  5
55
330
3
100
AcDbSymbolTableRecord
100
AcDbTextStyleTableRecord
  2
Standard
 70
     0
 40
0.0
 41
1.0
 50
0.0
 71
     0
 42
0.2
  3
TAHOMA.TTF
  4

1001
ACAD
1000
Tahoma
1071
      256
  0
STYLE
  5
5A
330
3
100
AcDbSymbolTableRecord
100
AcDbTextStyleTableRecord
  2
Annotative
 70
     0
 40
0.0
 41
1.0
 50
0.0
 71
     0
 42
0.2
  3
txt
  4

1001
AcadAnnotative
1000
AnnotativeData
1002
{
1070
     1
1070
     1
1002
}
  0
STYLE
  5
AA
330
3
100
AcDbSymbolTableRecord
100
AcDbTextStyleTableRecord
  2

 70
     1
 40
0.0
 41
1.0
 50
0.0
 71
     0
 42
0.2
  3
ltypeshp.shx
  4

  0
STYLE
  5
CB
330
3
100
AcDbSymbolTableRecord
100
AcDbTextStyleTableRecord
  2
Dim Text {c3}
 70
     0
 40
0.0
 41
1.0
 50
0.0
 71
     0
 42
0.2
  3
TAHOMA.TTF
  4

1001
ACAD
1000
Tahoma
1071
      256
  0
STYLE
  5
CC
330
3
100
AcDbSymbolTableRecord
100
AcDbTextStyleTableRecord
  2
Heading Text {c3}
 70
     0
 40
0.0
 41
1.0
 50
0.0
 71
     0
 42
0.2
  3
TAHOMA.TTF
  4

1001
ACAD
1000
Tahoma
1071
      256
  0
STYLE
  5
CD
330
3
100
AcDbSymbolTableRecord
100
AcDbTextStyleTableRecord
  2
Label Text {c3}
 70
     0
 40
0.0
 41
1.0
 50
0.0
 71
     0
 42
0.2
  3
TAHOMA.TTF
  4

1001
ACAD
1000
Tahoma
1071
      256
  0
STYLE
  5
CE
330
3
100
AcDbSymbolTableRecord
100
AcDbTextStyleTableRecord
  2
Note Text {c3}
 70
     0
 40
0.0
 41
1.0
 50
0.0
 71
     0
 42
0.2
  3
TAHOMA.TTF
  4

1001
ACAD
1000
Tahoma
1071
      256
  0
STYLE
  5
11D
330
3
100
AcDbSymbolTableRecord
100
AcDbTextStyleTableRecord
  2
Note Text (ANSI)
 70
     0
 40
0.0
 41
1.0
 50
0.0
 71
     0
 42
0.2
  3
TAHOMA.TTF
  4

1001
ACAD
1000
Tahoma
1071
      256
  0
STYLE
  5
188
330
3
100
AcDbSymbolTableRecord
100
AcDbTextStyleTableRecord
  2
Text Style9
 70
     0
 40
0.0
 41
1.0
 50
0.0
 71
     0
 42
0.2
  3
ARIAL.TTF
  4

1001
ACAD
1000
Arial
1071
      256
  0
STYLE
  5
18D
330
3
100
AcDbSymbolTableRecord
100
AcDbTextStyleTableRecord
  2
Text Style39
 70
     0
 40
0.0
 41
1.0
 50
0.0
 71
     0
 42
0.2
  3
TAHOMA.TTF
  4

1001
ACAD
1000
Tahoma
1071
      256
  0
STYLE
  5
194
330
3
100
AcDbSymbolTableRecord
100
AcDbTextStyleTableRecord
  2
Text Style76
 70
     0
 40
0.0
 41
1.0
 50
0.0
 71
     0
 42
0.2
  3
TAHOMA.TTF
  4

1001
ACAD
1000
Tahoma
1071
      256
  0
ENDTAB
  0
TABLE
  2
VIEW
  5
6
330
0
100
AcDbSymbolTable
 70
     0
  0
ENDTAB
  0
TABLE
  2
UCS
  5
7
330
0
100
AcDbSymbolTable
 70
     0
  0
ENDTAB
  0
TABLE
  2
APPID
  5
9
330
0
100
AcDbSymbolTable
 70
     5
  0
APPID
  5
56
330
9
100
AcDbSymbolTableRecord
100
AcDbRegAppTableRecord
  2
ACAD
 70
     0
  0
APPID
  5
5E
330
9
100
AcDbSymbolTableRecord
100
AcDbRegAppTableRecord
  2
AcadAnnotative
 70
     0
  0
APPID
  5
18C
330
9
100
AcDbSymbolTableRecord
100
AcDbRegAppTableRecord
  2
AcadAnnoPO
 70
     0
  0
APPID
  5
7FC
330
9
100
AcDbSymbolTableRecord
100
AcDbRegAppTableRecord
  2
ACAD_MLEADERVER
 70
     0
  0
APPID
  5
803
330
9
100
AcDbSymbolTableRecord
100
AcDbRegAppTableRecord
  2
AcDbAttr
 70
     0
  0
ENDTAB
  0
TABLE
  2
DIMSTYLE
  5
A
330
0
100
AcDbSymbolTable
 70
     7
100
AcDbDimStyleTable
 71
     2
340
CF
340
58
  0
DIMSTYLE
105
58
330
A
100
AcDbSymbolTableRecord
100
AcDbDimStyleTableRecord
  2
Standard
 70
     0
340
55
  0
DIMSTYLE
105
59
330
A
100
AcDbSymbolTableRecord
100
AcDbDimStyleTableRecord
  2
Annotative
 70
     0
340
55
1001
AcadAnnotative
1000
AnnotativeData
1002
{
1070
     1
1070
     1
1002
}
  0
DIMSTYLE
105
CF
102
{ACAD_REACTORS
330
418
330
53C
330
65F
102
}
330
A
100
AcDbSymbolTableRecord
100
AcDbDimStyleTableRecord
  2
mm[in] {c3 - mm[in]}
 70
     0
  3
 mm\X
  4
 in
 40
0.5
 41
2.5
 42
1.600199999999999
 43
5.999999999999999
 44
3.174999999999999
 45
0.00000001
 46
10.0
 78
     4
 79
     1
140
4.57200002670288
143
0.03937
147
0.8000000000000001
170
     1
171
     6
176
   176
177
   176
178
   176
179
     1
271
     1
272
     1
273
     7
274
     6
284
     4
286
     4
340
CB
371
    -1
372
    -1
  0
DIMSTYLE
105
D0
330
A
100
AcDbSymbolTableRecord
100
AcDbDimStyleTableRecord
  2
mm[in] {c3 - mm[in]}$7
 70
     0
  3
 mm\X
  4
 in
 40
0.5
 41
2.5
 42
1.600199999999999
 43
5.999999999999999
 44
3.174999999999999
 45
0.00000001
 46
10.0
 78
     4
 79
     1
140
4.57200002670288
143
0.03937
147
0.8000000000000001
170
     1
171
     6
176
   176
177
   176
178
   176
179
     1
271
     1
272
     1
273
     7
274
     6
284
     4
286
     4
340
CB
371
    -1
372
    -1
  0
DIMSTYLE
105
D1
330
A
100
AcDbSymbolTableRecord
100
AcDbDimStyleTableRecord
  2
Alternate {c3}
 70
     0
 40
0.5
 41
2.489200115203857
340
55
342
D2
  0
DIMSTYLE
105
E3
330
A
100
AcDbSymbolTableRecord
100
AcDbDimStyleTableRecord
  2
Datum {c3}
 70
     0
 40
0.5
 41
2.489200115203857
340
55
342
D2
  0
DIMSTYLE
105
F2
330
A
100
AcDbSymbolTableRecord
100
AcDbDimStyleTableRecord
  2
Large {c3}
 70
     0
 40
0.5
 41
4.978400230407714
340
55
342
D2
  0
ENDTAB
  0
TABLE
  2
BLOCK_RECORD
  5
1
330
0
100
AcDbSymbolTable
 70
    10
  0
BLOCK_RECORD
  5
6C
330
1
100
AcDbSymbolTableRecord
100
AcDbBlockTableRecord
  2
*Model_Space
340
6F
  0
BLOCK_RECORD
  5
68
330
1
100
AcDbSymbolTableRecord
100
AcDbBlockTableRecord
  2
*Paper_Space
340
6B
  0
BLOCK_RECORD
  5
70
330
1
100
AcDbSymbolTableRecord
100
AcDbBlockTableRecord
  2
*Paper_Space0
340
73
  0
BLOCK_RECORD
  5
D2
330
1
100
AcDbSymbolTableRecord
100
AcDbBlockTableRecord
  2
_Closed
340
0
  0
BLOCK_RECORD
  5
D9
330
1
100
AcDbSymbolTableRecord
100
AcDbBlockTableRecord
  2
DatumFilled45
340
0
  0
BLOCK_RECORD
  5
E4
330
1
100
AcDbSymbolTableRecord
100
AcDbBlockTableRecord
  2
Filled-1
340
0
  0
BLOCK_RECORD
  5
F3
330
1
100
AcDbSymbolTableRecord
100
AcDbBlockTableRecord
  2
Borders c3 - Border
340
0
102
{BLKREFS
331
133
102
}
  0
BLOCK_RECORD
  5
134
330
1
100
AcDbSymbolTableRecord
100
AcDbBlockTableRecord
  2
Title Blocks c3-mm[in] (C)
340
0
102
{BLKREFS
331
196
102
}
  0
BLOCK_RECORD
  5
1A1
330
1
100
AcDbSymbolTableRecord
100
AcDbBlockTableRecord
  2
Revision History
340
0
102
{BLKREFS
331
1C2
102
}
  0
BLOCK_RECORD
  5
41A
330
1
100
AcDbSymbolTableRecord
100
AcDbBlockTableRecord
  2
*D7
340
0
  0
BLOCK_RECORD
  5
53D
330
1
100
AcDbSymbolTableRecord
100
AcDbBlockTableRecord
  2
*D8
340
0
  0
BLOCK_RECORD
  5
660
330
1
100
AcDbSymbolTableRecord
100
AcDbBlockTableRecord
  2
*D9
340
0
  0
ENDTAB
  0
ENDSEC
  0
SECTION
  2
BLOCKS
  0
BLOCK
  5
6D
330
6C
100
AcDbEntity
  8
0
100
AcDbBlockBegin
  2
*Model_Space
 70
     0
 10
0.0
 20
0.0
 30
0.0
  3
*Model_Space
  1

  0
ENDBLK
  5
6E
330
6C
100
AcDbEntity
  8
0
100
AcDbBlockEnd
  0
BLOCK
  5
69
330
68
100
AcDbEntity
 67
     1
  8
0
100
AcDbBlockBegin
  2
*Paper_Space
 70
     0
 10
0.0
 20
0.0
 30
0.0
  3
*Paper_Space
  1

  0
ENDBLK
  5
6A
330
68
100
AcDbEntity
 67
     1
  8
0
100
AcDbBlockEnd
  0
BLOCK
  5
71
330
70
100
AcDbEntity
 67
     1
  8
0
100
AcDbBlockBegin
  2
*Paper_Space0
 70
     0
 10
0.0
 20
0.0
 30
0.0
  3
*Paper_Space0
  1

  0
ENDBLK
  5
72
330
70
100
AcDbEntity
 67
     1
  8
0
100
AcDbBlockEnd
  0
BLOCK
  5
D7
330
D2
100
AcDbEntity
  8
0
100
AcDbBlockBegin
  2
_Closed
 70
     0
 10
0.0
 20
0.0
 30
0.0
  3
_Closed
  1

  0
LINE
  5
D3
330
D2
100
AcDbEntity
  8
0
  6
ByBlock
 62
     0
370
    -2
100
AcDbLine
 10
-1.0
 20
0.1666666666666666
 30
0.0
 11
0.0
 21
0.0
 31
0.0
  0
LINE
  5
D4
330
D2
100
AcDbEntity
  8
0
  6
ByBlock
 62
     0
370
    -2
100
AcDbLine
 10
0.0
 20
0.0
 30
0.0
 11
-1.0
 21
-0.1666666666666666
 31
0.0
  0
LINE
  5
D5
330
D2
100
AcDbEntity
  8
0
  6
ByBlock
 62
     0
370
    -2
100
AcDbLine
 10
-1.0
 20
0.1666666666666666
 30
0.0
 11
-1.0
 21
-0.1666666666666666
 31
0.0
  0
LINE
  5
D6
330
D2
100
AcDbEntity
  8
0
  6
ByBlock
 62
     0
370
    -2
100
AcDbLine
 10
0.0
 20
0.0
 30
0.0
 11
-1.0
 21
0.0
 31
0.0
  0
ENDBLK
  5
D8
330
D2
100
AcDbEntity
  8
0
100
AcDbBlockEnd
  0
BLOCK
  5
DA
330
D9
100
AcDbEntity
  8
0
100
AcDbBlockBegin
  2
DatumFilled45
 70
     0
 10
0.0
 20
0.0
 30
0.0
  3
DatumFilled45
  1

  0
POLYLINE
  5
DC
330
D9
100
AcDbEntity
  8
0
 62
     0
100
AcDb2dPolyline
 66
     1
 10
0.0
 20
0.0
 30
0.0
 70
   128
  0
VERTEX
  5
DD
330
DC
100
AcDbEntity
  8
0
 62
     0
100
AcDbVertex
100
AcDb2dVertex
 10
0.0
 20
1.0
 30
0.0
  0
VERTEX
  5
DE
330
DC
100
AcDbEntity
  8
0
 62
     0
100
AcDbVertex
100
AcDb2dVertex
 10
0.0
 20
-1.0
 30
0.0
  0
VERTEX
  5
E0
330
DC
100
AcDbEntity
  8
0
 62
     0
100
AcDbVertex
100
AcDb2dVertex
 10
-1.0
 20
0.0
 30
0.0
  0
VERTEX
  5
E1
330
DC
100
AcDbEntity
  8
0
 62
     0
100
AcDbVertex
100
AcDb2dVertex
 10
0.0
 20
1.0
 30
0.0
  0
SEQEND
  5
DF
330
DC
100
AcDbEntity
  8
0
 62
     0
  0
SOLID
  5
E2
330
D9
100
AcDbEntity
  8
0
 62
     0
100
AcDbTrace
 10
0.0
 20
1.0
 30
0.0
 11
0.0
 21
-1.0
 31
0.0
 12
-1.0
 22
0.0
 32
0.0
 13
0.0
 23
1.0
 33
0.0
  0
ENDBLK
  5
DB
330
D9
100
AcDbEntity
  8
0
100
AcDbBlockEnd
  0
BLOCK
  5
E5
330
E4
100
AcDbEntity
  8
0
100
AcDbBlockBegin
  2
Filled-1
 70
     0
 10
0.0
 20
0.0
 30
0.0
  3
Filled-1
  1

  0
LINE
  5
E7
330
E4
100
AcDbEntity
  8
0
 62
     0
100
AcDbLine
 10
-1.0
 20
0.0
 30
0.0
 11
0.0
 21
0.0
 31
0.0
  0
POLYLINE
  5
E8
330
E4
100
AcDbEntity
  8
0
 62
     0
100
AcDb2dPolyline
 66
     1
 10
0.0
 20
0.0
 30
0.0
 70
   128
  0
VERTEX
  5
E9
330
E8
100
AcDbEntity
  8
0
 62
     0
100
AcDbVertex
100
AcDb2dVertex
 10
-1.0
 20
-0.0994897959183674
 30
0.0
  0
VERTEX
  5
EA
330
E8
100
AcDbEntity
  8
0
 62
     0
100
AcDbVertex
100
AcDb2dVertex
 10
0.0
 20
0.0
 30
0.0
  0
VERTEX
  5
EC
330
E8
100
AcDbEntity
  8
0
 62
     0
100
AcDbVertex
100
AcDb2dVertex
 10
-1.0
 20
0.0994897959183674
 30
0.0
  0
VERTEX
  5
ED
330
E8
100
AcDbEntity
  8
0
 62
     0
100
AcDbVertex
100
AcDb2dVertex
 10
-1.0
 20
-0.0994897959183674
 30
0.0
  0
SEQEND
  5
EB
330
E8
100
AcDbEntity
  8
0
 62
     0
  0
SOLID
  5
EE
330
E4
100
AcDbEntity
  8
0
 62
     0
100
AcDbTrace
 10
-1.0
 20
-0.0994897959183674
 30
0.0
 11
0.0
 21
0.0
 31
0.0
 12
-1.0
 22
0.0994897959183674
 32
0.0
 13
-1.0
 23
-0.0994897959183674
 33
0.0
  0
LINE
  5
EF
330
E4
100
AcDbEntity
  8
0
 62
     0
100
AcDbLine
 10
-1.0
 20
-0.0994897959183674
 30
0.0
 11
0.0
 21
0.0
 31
0.0
  0
LINE
  5
F0
330
E4
100
AcDbEntity
  8
0
 62
     0
100
AcDbLine
 10
0.0
 20
0.0
 30
0.0
 11
-1.0
 21
0.0994897959183674
 31
0.0
  0
LINE
  5
F1
330
E4
100
AcDbEntity
  8
0
 62
     0
100
AcDbLine
 10
-1.0
 20
0.0994897959183674
 30
0.0
 11
-1.0
 21
-0.0994897959183674
 31
0.0
  0
ENDBLK
  5
E6
330
E4
100
AcDbEntity
  8
0
100
AcDbBlockEnd
  0
BLOCK
  5
F4
330
F3
100
AcDbEntity
  8
0
100
AcDbBlockBegin
  2
Borders c3 - Border
 70
     0
 10
0.0
 20
0.0
 30
0.0
  3
Borders c3 - Border
  1

  0
POLYLINE
  5
F6
330
F3
100
AcDbEntity
  8
Border {c3}
100
AcDb2dPolyline
 66
     1
 10
0.0
 20
0.0
 30
0.0
 70
   128
  0
VERTEX
  5
F7
330
F6
100
AcDbEntity
  8
Border {c3}
100
AcDbVertex
100
AcDb2dVertex
 10
19.0499997138977
 20
12.69999980926513
 30
0.0
  0
VERTEX
  5
F8
330
F6
100
AcDbEntity
  8
Border {c3}
100
AcDbVertex
100
AcDb2dVertex
 10
19.0499997138977
 20
419.099998474121
 30
0.0
  0
VERTEX
  5
FA
330
F6
100
AcDbEntity
  8
Border {c3}
100
AcDbVertex
100
AcDb2dVertex
 10
539.7499847412109
 20
419.099998474121
 30
0.0
  0
VERTEX
  5
FB
330
F6
100
AcDbEntity
  8
Border {c3}
100
AcDbVertex
100
AcDb2dVertex
 10
539.7499847412109
 20
12.69999980926513
 30
0.0
  0
VERTEX
  5
FC
330
F6
100
AcDbEntity
  8
Border {c3}
100
AcDbVertex
100
AcDb2dVertex
 10
19.0499997138977
 20
12.69999980926513
 30
0.0
  0
SEQEND
  5
F9
330
F6
100
AcDbEntity
  8
Border {c3}
  0
POLYLINE
  5
FD
330
F3
100
AcDbEntity
  8
Border {c3}
100
AcDb2dPolyline
 66
     1
 10
0.0
 20
0.0
 30
0.0
 70
   128
  0
VERTEX
  5
FE
330
FD
100
AcDbEntity
  8
Border {c3}
100
AcDbVertex
100
AcDb2dVertex
 10
279.4000053405762
 20
6.349999904632568
 30
0.0
  0
VERTEX
  5
FF
330
FD
100
AcDbEntity
  8
Border {c3}
100
AcDbVertex
100
AcDb2dVertex
 10
279.4000053405762
 20
12.69999980926513
 30
0.0
  0
VERTEX
  5
101
330
FD
100
AcDbEntity
  8
Border {c3}
100
AcDbVertex
100
AcDb2dVertex
 10
277.2002983093262
 20
8.889999985694885
 30
0.0
  0
VERTEX
  5
102
330
FD
100
AcDbEntity
  8
Border {c3}
100
AcDbVertex
100
AcDb2dVertex
 10
281.5997123718262
 20
8.889999985694885
 30
0.0
  0
VERTEX
  5
103
330
FD
100
AcDbEntity
  8
Border {c3}
100
AcDbVertex
100
AcDb2dVertex
 10
279.4000053405762
 20
12.69999980926513
 30
0.0
  0
SEQEND
  5
100
330
FD
100
AcDbEntity
  8
Border {c3}
  0
POLYLINE
  5
104
330
F3
100
AcDbEntity
  8
Border {c3}
100
AcDb2dPolyline
 66
     1
 10
0.0
 20
0.0
 30
0.0
 70
   128
  0
VERTEX
  5
105
330
104
100
AcDbEntity
  8
Border {c3}
100
AcDbVertex
100
AcDb2dVertex
 10
279.4000053405762
 20
425.4499816894531
 30
0.0
  0
VERTEX
  5
106
330
104
100
AcDbEntity
  8
Border {c3}
100
AcDbVertex
100
AcDb2dVertex
 10
279.4000053405762
 20
419.099998474121
 30
0.0
  0
VERTEX
  5
108
330
104
100
AcDbEntity
  8
Border {c3}
100
AcDbVertex
100
AcDb2dVertex
 10
277.2002983093262
 20
422.9100036621093
 30
0.0
  0
VERTEX
  5
109
330
104
100
AcDbEntity
  8
Border {c3}
100
AcDbVertex
100
AcDb2dVertex
 10
281.5997123718262
 20
422.9100036621093
 30
0.0
  0
VERTEX
  5
10A
330
104
100
AcDbEntity
  8
Border {c3}
100
AcDbVertex
100
AcDb2dVertex
 10
279.4000053405762
 20
419.099998474121
 30
0.0
  0
SEQEND
  5
107
330
104
100
AcDbEntity
  8
Border {c3}
  0
POLYLINE
  5
10B
330
F3
100
AcDbEntity
  8
Border {c3}
100
AcDb2dPolyline
 66
     1
 10
0.0
 20
0.0
 30
0.0
 70
   128
  0
VERTEX
  5
10C
330
10B
100
AcDbEntity
  8
Border {c3}
100
AcDbVertex
100
AcDb2dVertex
 10
12.69999980926513
 20
215.9000015258789
 30
0.0
  0
VERTEX
  5
10D
330
10B
100
AcDbEntity
  8
Border {c3}
100
AcDbVertex
100
AcDb2dVertex
 10
19.0499997138977
 20
215.9000015258789
 30
0.0
  0
VERTEX
  5
10F
330
10B
100
AcDbEntity
  8
Border {c3}
100
AcDbVertex
100
AcDb2dVertex
 10
15.2400004863739
 20
218.0997085571289
 30
0.0
  0
VERTEX
  5
110
330
10B
100
AcDbEntity
  8
Border {c3}
100
AcDbVertex
100
AcDb2dVertex
 10
15.2400004863739
 20
213.7002944946289
 30
0.0
  0
VERTEX
  5
111
330
10B
100
AcDbEntity
  8
Border {c3}
100
AcDbVertex
100
AcDb2dVertex
 10
19.0499997138977
 20
215.9000015258789
 30
0.0
  0
SEQEND
  5
10E
330
10B
100
AcDbEntity
  8
Border {c3}
  0
POLYLINE
  5
112
330
F3
100
AcDbEntity
  8
Border {c3}
100
AcDb2dPolyline
 66
     1
 10
0.0
 20
0.0
 30
0.0
 70
   128
  0
VERTEX
  5
113
330
112
100
AcDbEntity
  8
Border {c3}
100
AcDbVertex
100
AcDb2dVertex
 10
546.1000061035156
 20
215.9000015258789
 30
0.0
  0
VERTEX
  5
114
330
112
100
AcDbEntity
  8
Border {c3}
100
AcDbVertex
100
AcDb2dVertex
 10
539.7499847412109
 20
215.9000015258789
 30
0.0
  0
VERTEX
  5
116
330
112
100
AcDbEntity
  8
Border {c3}
100
AcDbVertex
100
AcDb2dVertex
 10
543.5599899291992
 20
218.0997085571289
 30
0.0
  0
VERTEX
  5
117
330
112
100
AcDbEntity
  8
Border {c3}
100
AcDbVertex
100
AcDb2dVertex
 10
543.5599899291992
 20
213.7002944946289
 30
0.0
  0
VERTEX
  5
118
330
112
100
AcDbEntity
  8
Border {c3}
100
AcDbVertex
100
AcDb2dVertex
 10
539.7499847412109
 20
215.9000015258789
 30
0.0
  0
SEQEND
  5
115
330
112
100
AcDbEntity
  8
Border {c3}
  0
LINE
  5
119
330
F3
100
AcDbEntity
  8
Border {c3}
100
AcDbLine
 10
139.7000026702881
 20
12.69999980926513
 30
0.0
 11
139.7000026702881
 21
8.636000156402587
 31
0.0
  0
LINE
  5
11A
330
F3
100
AcDbEntity
  8
Border {c3}
100
AcDbLine
 10
139.7000026702881
 20
419.099998474121
 30
0.0
 11
139.7000026702881
 21
423.1639862060546
 31
0.0
  0
LINE
  5
11B
330
F3
100
AcDbEntity
  8
Border {c3}
100
AcDbLine
 10
419.099998474121
 20
12.69999980926513
 30
0.0
 11
419.099998474121
 21
8.636000156402587
 31
0.0
  0
LINE
  5
11C
330
F3
100
AcDbEntity
  8
Border {c3}
100
AcDbLine
 10
419.099998474121
 20
419.099998474121
 30
0.0
 11
419.099998474121
 21
423.1639862060546
 31
0.0
  0
MTEXT
  5
11E
330
F3
100
AcDbEntity
  8
Border {c3}
100
AcDbMText
 10
488.2623644919561
 20
420.1159999999999
 30
0.0
 40
3.048000037670135
 41
0.0
 71
     7
 72
     1
  1
1
  7
Note Text (ANSI)
 73
     1
 44
1.0
1001
ACAD
1000
MTEXTBEGIN
1070
    73
1070
     1
1070
    44
1040
1.0
1070
    74
1070
     0
1000
MTEXTEND
  0
MTEXT
  5
120
330
F3
100
AcDbEntity
  8
Border {c3}
100
AcDbMText
 10
488.2623644919561
 20
8.635999962329863
 30
0.0
 40
3.048000037670135
 41
0.0
 71
     7
 72
     1
  1
1
  7
Note Text (ANSI)
 73
     1
 44
1.0
1001
ACAD
1000
MTEXTBEGIN
1070
    73
1070
     1
1070
    44
1040
1.0
1070
    74
1070
     0
1000
MTEXTEND
  0
MTEXT
  5
121
330
F3
100
AcDbEntity
  8
Border {c3}
100
AcDbMText
 10
348.3258390835278
 20
420.1159999999999
 30
0.0
 40
3.048000037670135
 41
0.0
 71
     7
 72
     1
  1
2
  7
Note Text (ANSI)
 73
     1
 44
1.0
1001
ACAD
1000
MTEXTBEGIN
1070
    73
1070
     1
1070
    44
1040
1.0
1070
    74
1070
     0
1000
MTEXTEND
  0
MTEXT
  5
122
330
F3
100
AcDbEntity
  8
Border {c3}
100
AcDbMText
 10
348.3258390835278
 20
8.635999962329863
 30
0.0
 40
3.048000037670135
 41
0.0
 71
     7
 72
     1
  1
2
  7
Note Text (ANSI)
 73
     1
 44
1.0
1001
ACAD
1000
MTEXTBEGIN
1070
    73
1070
     1
1070
    44
1040
1.0
1070
    74
1070
     0
1000
MTEXTEND
  0
MTEXT
  5
123
330
F3
100
AcDbEntity
  8
Border {c3}
100
AcDbMText
 10
208.6014550208033
 20
420.0517795808464
 30
0.0
 40
3.048000037670135
 41
0.0
 71
     7
 72
     1
  1
3
  7
Note Text (ANSI)
 73
     1
 44
1.0
1001
ACAD
1000
MTEXTBEGIN
1070
    73
1070
     1
1070
    44
1040
1.0
1070
    74
1070
     0
1000
MTEXTEND
  0
MTEXT
  5
124
330
F3
100
AcDbEntity
  8
Border {c3}
100
AcDbMText
 10
208.6014550208033
 20
8.571779543176292
 30
0.0
 40
3.048000037670135
 41
0.0
 71
     7
 72
     1
  1
3
  7
Note Text (ANSI)
 73
     1
 44
1.0
1001
ACAD
1000
MTEXTBEGIN
1070
    73
1070
     1
1070
    44
1040
1.0
1070
    74
1070
     0
1000
MTEXTEND
  0
MTEXT
  5
125
330
F3
100
AcDbEntity
  8
Border {c3}
100
AcDbMText
 10
68.78684992599783
 20
420.1159999999999
 30
0.0
 40
3.048000037670135
 41
0.0
 71
     7
 72
     1
  1
4
  7
Note Text (ANSI)
 73
     1
 44
1.0
1001
ACAD
1000
MTEXTBEGIN
1070
    73
1070
     1
1070
    44
1040
1.0
1070
    74
1070
     0
1000
MTEXTEND
  0
MTEXT
  5
126
330
F3
100
AcDbEntity
  8
Border {c3}
100
AcDbMText
 10
68.78684992599783
 20
8.635999962329863
 30
0.0
 40
3.048000037670135
 41
0.0
 71
     7
 72
     1
  1
4
  7
Note Text (ANSI)
 73
     1
 44
1.0
1001
ACAD
1000
MTEXTBEGIN
1070
    73
1070
     1
1070
    44
1040
1.0
1070
    74
1070
     0
1000
MTEXTEND
  0
LINE
  5
127
330
F3
100
AcDbEntity
  8
Border {c3}
100
AcDbLine
 10
19.0499997138977
 20
107.9500007629394
 30
0.0
 11
14.98600006103515
 21
107.9500007629394
 31
0.0
  0
LINE
  5
128
330
F3
100
AcDbEntity
  8
Border {c3}
100
AcDbLine
 10
539.7499847412109
 20
107.9500007629394
 30
0.0
 11
543.8140106201172
 21
107.9500007629394
 31
0.0
  0
LINE
  5
129
330
F3
100
AcDbEntity
  8
Border {c3}
100
AcDbLine
 10
19.0499997138977
 20
323.849983215332
 30
0.0
 11
14.98600006103515
 21
323.849983215332
 31
0.0
  0
LINE
  5
12A
330
F3
100
AcDbEntity
  8
Border {c3}
100
AcDbLine
 10
539.7499847412109
 20
323.849983215332
 30
0.0
 11
543.8140106201172
 21
323.849983215332
 31
0.0
  0
MTEXT
  5
12B
330
F3
100
AcDbEntity
  8
Border {c3}
100
AcDbMText
 10
15.21349436009943
 20
52.45099998116494
 30
0.0
 40
3.048000037670135
 41
0.0
 71
     7
 72
     1
  1
A
  7
Note Text (ANSI)
 73
     1
 44
1.0
1001
ACAD
1000
MTEXTBEGIN
1070
    73
1070
     1
1070
    44
1040
1.0
1070
    74
1070
     0
1000
MTEXTEND
  0
MTEXT
  5
12C
330
F3
100
AcDbEntity
  8
Border {c3}
100
AcDbMText
 10
540.9934943977695
 20
52.45099998116494
 30
0.0
 40
3.048000037670135
 41
0.0
 71
     7
 72
     1
  1
A
  7
Note Text (ANSI)
 73
     1
 44
1.0
1001
ACAD
1000
MTEXTBEGIN
1070
    73
1070
     1
1070
    44
1040
1.0
1070
    74
1070
     0
1000
MTEXTEND
  0
MTEXT
  5
12D
330
F3
100
AcDbEntity
  8
Border {c3}
100
AcDbMText
 10
15.57979267448747
 20
160.4009999811649
 30
0.0
 40
3.048000037670135
 41
0.0
 71
     7
 72
     1
  1
B
  7
Note Text (ANSI)
 73
     1
 44
1.0
1001
ACAD
1000
MTEXTBEGIN
1070
    73
1070
     1
1070
    44
1040
1.0
1070
    74
1070
     0
1000
MTEXTEND
  0
MTEXT
  5
12E
330
F3
100
AcDbEntity
  8
Border {c3}
100
AcDbMText
 10
541.3597927121576
 20
160.4009999811649
 30
0.0
 40
3.048000037670135
 41
0.0
 71
     7
 72
     1
  1
B
  7
Note Text (ANSI)
 73
     1
 44
1.0
1001
ACAD
1000
MTEXTBEGIN
1070
    73
1070
     1
1070
    44
1040
1.0
1070
    74
1070
     0
1000
MTEXTEND
  0
MTEXT
  5
12F
330
F3
100
AcDbEntity
  8
Border {c3}
100
AcDbMText
 10
15.38563907886036
 20
268.2966596232727
 30
0.0
 40
3.048000037670135
 41
0.0
 71
     7
 72
     1
  1
C
  7
Note Text (ANSI)
 73
     1
 44
1.0
1001
ACAD
1000
MTEXTBEGIN
1070
    73
1070
     1
1070
    44
1040
1.0
1070
    74
1070
     0
1000
MTEXTEND
  0
MTEXT
  5
130
330
F3
100
AcDbEntity
  8
Border {c3}
100
AcDbMText
 10
541.1656391165304
 20
268.2966596232727
 30
0.0
 40
3.048000037670135
 41
0.0
 71
     7
 72
     1
  1
C
  7
Note Text (ANSI)
 73
     1
 44
1.0
1001
ACAD
1000
MTEXTBEGIN
1070
    73
1070
     1
1070
    44
1040
1.0
1070
    74
1070
     0
1000
MTEXTEND
  0
MTEXT
  5
131
330
F3
100
AcDbEntity
  8
Border {c3}
100
AcDbMText
 10
15.39330643028581
 20
376.3009999811649
 30
0.0
 40
3.048000037670135
 41
0.0
 71
     7
 72
     1
  1
D
  7
Note Text (ANSI)
 73
     1
 44
1.0
1001
ACAD
1000
MTEXTBEGIN
1070
    73
1070
     1
1070
    44
1040
1.0
1070
    74
1070
     0
1000
MTEXTEND
  0
MTEXT
  5
132
330
F3
100
AcDbEntity
  8
Border {c3}
100
AcDbMText
 10
541.1733064679559
 20
376.3009999811649
 30
0.0
 40
3.048000037670135
 41
0.0
 71
     7
 72
     1
  1
D
  7
Note Text (ANSI)
 73
     1
 44
1.0
1001
ACAD
1000
MTEXTBEGIN
1070
    73
1070
     1
1070
    44
1040
1.0
1070
    74
1070
     0
1000
MTEXTEND
  0
ENDBLK
  5
F5
330
F3
100
AcDbEntity
  8
0
100
AcDbBlockEnd
  0
BLOCK
  5
135
330
134
100
AcDbEntity
  8
0
100
AcDbBlockBegin
  2
Title Blocks c3-mm[in] (C)
 70
     2
 10
0.0
 20
0.0
 30
0.0
  3
Title Blocks c3-mm[in] (C)
  1

  0
HATCH
  5
145
330
134
100
AcDbEntity
  8
Hatch {c3}
 62
   176
100
AcDbHatch
 10
0.0
 20
0.0
 30
0.0
210
0.0
220
0.0
230
1.0
  2
SOLID
 70
     1
 71
     0
 91
        1
 92
        1
 93
       14
 72
     2
 10
176.3337794481173
 20
324.4779838690845
 40
2.000000000000368
 50
0.0
 51
90.0
 73
     1
 72
     1
 10
176.3337794481173
 20
326.4779838690845
 11
167.3337794481153
 21
326.4779838690845
 72
     1
 10
167.3337794481153
 20
326.4779838690845
 11
167.3337794481153
 21
324.4779838690847
 72
     1
 10
167.3337794481153
 20
324.4779838690847
 11
176.3337794481171
 21
324.4779838690838
 72
     1
 10
176.3337794481171
 20
324.4779838690838
 11
176.3337794481171
 21
322.4779838690833
 72
     1
 10
176.3337794481171
 20
322.4779838690833
 11
167.3337794481153
 21
322.4779838690833
 72
     1
 10
167.3337794481153
 20
322.4779838690833
 11
167.3337794481153
 21
320.4779838690835
 72
     1
 10
167.3337794481153
 20
320.4779838690836
 11
176.3337794481171
 21
320.4779838690836
 72
     1
 10
176.3337794481171
 20
320.4779838690836
 11
176.3337794481171
 21
318.4779838690831
 72
     1
 10
176.3337794481171
 20
318.4779838690831
 11
167.3337794481153
 21
318.4779838690831
 72
     1
 10
167.3337794481153
 20
318.4779838690831
 11
167.3337794481153
 21
316.4779838690834
 72
     1
 10
167.3337794481153
 20
316.4779838690834
 11
176.3337794481173
 21
316.4779838690834
 72
     2
 10
176.3337794481173
 20
318.4779838690833
 40
2.000000000000368
 50
270.0
 51
360.0
 73
     1
 72
     1
 10
178.3337794481173
 20
318.4779838690833
 11
178.3337794481172
 21
324.4779838690845
 97
        0
 75
     0
 76
     1
 98
        1
 10
0.0
 20
0.0
  0
LINE
  5
146
330
134
100
AcDbEntity
  8
Title {c3}
100
AcDbLine
 10
60.3837794481153
 20
328.4779838690837
 30
0.0
 11
60.3837794481153
 21
301.4904838690836
 31
0.0
  0
LINE
  5
147
330
134
100
AcDbEntity
  8
Title {c3}
100
AcDbLine
 10
60.3837794481153
 20
301.4904838690836
 30
0.0
 11
98.48377944811531
 21
301.4904838690836
 31
0.0
  0
LINE
  5
148
330
134
100
AcDbEntity
  8
Title {c3}
100
AcDbLine
 10
98.48377944811531
 20
301.4904838690836
 30
0.0
 11
98.48377944811531
 21
328.4779838690837
 31
0.0
  0
LINE
  5
149
330
134
100
AcDbEntity
  8
Title {c3}
100
AcDbLine
 10
98.48377944811531
 20
328.4779838690837
 30
0.0
 11
60.3837794481153
 21
328.4779838690837
 31
0.0
  0
LINE
  5
14A
330
134
100
AcDbEntity
  8
Title {c3}
100
AcDbLine
 10
60.3837794481153
 20
301.4904838690836
 30
0.0
 11
60.3837794481153
 21
274.5029838690836
 31
0.0
  0
LINE
  5
14B
330
134
100
AcDbEntity
  8
Title {c3}
100
AcDbLine
 10
60.3837794481153
 20
274.5029838690836
 30
0.0
 11
98.48377944811531
 21
274.5029838690836
 31
0.0
  0
LINE
  5
14C
330
134
100
AcDbEntity
  8
Title {c3}
100
AcDbLine
 10
98.48377944811531
 20
274.5029838690836
 30
0.0
 11
98.48377944811531
 21
301.4904838690836
 31
0.0
  0
LINE
  5
14D
330
134
100
AcDbEntity
  8
Title {c3}
100
AcDbLine
 10
98.48377944811531
 20
274.5029838690836
 30
0.0
 11
136.5837794481153
 21
274.5029838690836
 31
0.0
  0
LINE
  5
14E
330
134
100
AcDbEntity
  8
Title {c3}
100
AcDbLine
 10
136.5837794481153
 20
274.5029838690836
 30
0.0
 11
136.5837794481153
 21
285.2979838690836
 31
0.0
  0
LINE
  5
14F
330
134
100
AcDbEntity
  8
Title {c3}
100
AcDbLine
 10
136.5837794481153
 20
285.2979838690836
 30
0.0
 11
98.48377944811531
 21
285.2979838690836
 31
0.0
  0
LINE
  5
150
330
134
100
AcDbEntity
  8
Title {c3}
100
AcDbLine
 10
136.5837794481153
 20
285.2979838690836
 30
0.0
 11
136.5837794481153
 21
296.0929838690836
 31
0.0
  0
LINE
  5
151
330
134
100
AcDbEntity
  8
Title {c3}
100
AcDbLine
 10
136.5837794481153
 20
296.0929838690836
 30
0.0
 11
98.48377944811531
 21
296.0929838690836
 31
0.0
  0
LINE
  5
152
330
134
100
AcDbEntity
  8
Title {c3}
100
AcDbLine
 10
136.5837794481153
 20
296.0929838690836
 30
0.0
 11
136.5837794481153
 21
306.8879838690837
 31
0.0
  0
LINE
  5
153
330
134
100
AcDbEntity
  8
Title {c3}
100
AcDbLine
 10
136.5837794481153
 20
306.8879838690837
 30
0.0
 11
98.48377944811531
 21
306.8879838690837
 31
0.0
  0
LINE
  5
154
330
134
100
AcDbEntity
  8
Title {c3}
100
AcDbLine
 10
136.5837794481153
 20
306.8879838690837
 30
0.0
 11
136.5837794481153
 21
317.6829838690836
 31
0.0
  0
LINE
  5
155
330
134
100
AcDbEntity
  8
Title {c3}
100
AcDbLine
 10
136.5837794481153
 20
317.6829838690836
 30
0.0
 11
98.48377944811531
 21
317.6829838690836
 31
0.0
  0
LINE
  5
156
330
134
100
AcDbEntity
  8
Title {c3}
100
AcDbLine
 10
136.5837794481153
 20
317.6829838690836
 30
0.0
 11
136.5837794481153
 21
328.4779838690837
 31
0.0
  0
LINE
  5
157
330
134
100
AcDbEntity
  8
Title {c3}
100
AcDbLine
 10
136.5837794481153
 20
328.4779838690837
 30
0.0
 11
98.48377944811531
 21
328.4779838690837
 31
0.0
  0
LINE
  5
158
330
134
100
AcDbEntity
  8
Title {c3}
100
AcDbLine
 10
136.5837794481153
 20
328.4779838690837
 30
0.0
 11
263.5837794481153
 21
328.4779838690837
 31
0.0
  0
LINE
  5
159
330
134
100
AcDbEntity
  8
Title {c3}
100
AcDbLine
 10
263.5837794481153
 20
328.4779838690837
 30
0.0
 11
263.5837794481153
 21
308.1579838690836
 31
0.0
  0
LINE
  5
15A
330
134
100
AcDbEntity
  8
Title {c3}
100
AcDbLine
 10
263.5837794481153
 20
308.1579838690836
 30
0.0
 11
136.5837794481153
 21
308.1579838690836
 31
0.0
  0
LINE
  5
15B
330
134
100
AcDbEntity
  8
Title {c3}
100
AcDbLine
 10
263.5837794481153
 20
308.1579838690836
 30
0.0
 11
263.5837794481153
 21
285.2979838690836
 31
0.0
  0
LINE
  5
15C
330
134
100
AcDbEntity
  8
Title {c3}
100
AcDbLine
 10
263.5837794481153
 20
285.2979838690836
 30
0.0
 11
263.5837794481153
 21
274.5029838690836
 31
0.0
  0
LINE
  5
15D
330
134
100
AcDbEntity
  8
Title {c3}
100
AcDbLine
 10
155.6337794481153
 20
285.2979838690836
 30
0.0
 11
155.6337794481153
 21
274.5029838690836
 31
0.0
  0
LINE
  5
15E
330
134
100
AcDbEntity
  8
Title {c3}
100
AcDbLine
 10
174.6837794481153
 20
285.2979838690836
 30
0.0
 11
174.6837794481153
 21
274.5029838690836
 31
0.0
  0
LINE
  5
15F
330
134
100
AcDbEntity
  8
Title {c3}
100
AcDbLine
 10
193.7337794481153
 20
285.2979838690836
 30
0.0
 11
193.7337794481153
 21
274.5029838690836
 31
0.0
  0
LINE
  5
160
330
134
100
AcDbEntity
  8
Title {c3}
100
AcDbLine
 10
155.6337794481153
 20
285.2979838690836
 30
0.0
 11
136.5837794481153
 21
285.2979838690836
 31
0.0
  0
LINE
  5
161
330
134
100
AcDbEntity
  8
Title {c3}
100
AcDbLine
 10
155.6337794481153
 20
285.2979838690836
 30
0.0
 11
174.6837794481153
 21
285.2979838690836
 31
0.0
  0
LINE
  5
162
330
134
100
AcDbEntity
  8
Title {c3}
100
AcDbLine
 10
174.6837794481153
 20
285.2979838690836
 30
0.0
 11
193.7337794481153
 21
285.2979838690836
 31
0.0
  0
LINE
  5
163
330
134
100
AcDbEntity
  8
Title {c3}
100
AcDbLine
 10
193.7337794481153
 20
285.2979838690836
 30
0.0
 11
263.5837794481153
 21
285.2979838690836
 31
0.0
  0
LINE
  5
164
330
134
100
AcDbEntity
  8
Title {c3}
100
AcDbLine
 10
136.5837794481153
 20
274.5029838690836
 30
0.0
 11
155.6337794481153
 21
274.5029838690836
 31
0.0
  0
LINE
  5
165
330
134
100
AcDbEntity
  8
Title {c3}
100
AcDbLine
 10
155.6337794481153
 20
274.5029838690836
 30
0.0
 11
174.6837794481153
 21
274.5029838690836
 31
0.0
  0
LINE
  5
166
330
134
100
AcDbEntity
  8
Title {c3}
100
AcDbLine
 10
174.6837794481153
 20
274.5029838690836
 30
0.0
 11
193.7337794481153
 21
274.5029838690836
 31
0.0
  0
LINE
  5
167
330
134
100
AcDbEntity
  8
Title {c3}
100
AcDbLine
 10
193.7337794481153
 20
274.5029838690836
 30
0.0
 11
263.5837794481153
 21
274.5029838690836
 31
0.0
  0
LINE
  5
168
330
134
100
AcDbEntity
  8
Title {c3}
 62
   176
100
AcDbLine
 10
167.3337794481153
 20
326.4779838690845
 30
0.0
 11
176.3337794481173
 21
326.4779838690845
 31
0.0
  0
ARC
  5
169
330
134
100
AcDbEntity
  8
Title {c3}
 62
   176
100
AcDbCircle
 10
176.3337794481173
 20
324.4779838690845
 30
0.0
 40
2.000000000000368
100
AcDbArc
 50
0.0
 51
90.0
  0
LINE
  5
16A
330
134
100
AcDbEntity
  8
Title {c3}
 62
   176
100
AcDbLine
 10
178.3337794481172
 20
324.4779838690845
 30
0.0
 11
178.3337794481173
 21
318.4779838690833
 31
0.0
  0
ARC
  5
16B
330
134
100
AcDbEntity
  8
Title {c3}
 62
   176
100
AcDbCircle
 10
176.3337794481173
 20
318.4779838690833
 30
0.0
 40
2.000000000000368
100
AcDbArc
 50
270.0
 51
0.0
  0
LINE
  5
16C
330
134
100
AcDbEntity
  8
Title {c3}
 62
   176
100
AcDbLine
 10
176.3337794481173
 20
316.4779838690834
 30
0.0
 11
167.3337794481153
 21
316.4779838690834
 31
0.0
  0
LINE
  5
16D
330
134
100
AcDbEntity
  8
Title {c3}
 62
   176
100
AcDbLine
 10
167.3337794481153
 20
316.4779838690834
 30
0.0
 11
167.3337794481153
 21
318.4779838690831
 31
0.0
  0
LINE
  5
16E
330
134
100
AcDbEntity
  8
Title {c3}
 62
   176
100
AcDbLine
 10
167.3337794481153
 20
318.4779838690831
 30
0.0
 11
176.3337794481171
 21
318.4779838690831
 31
0.0
  0
LINE
  5
16F
330
134
100
AcDbEntity
  8
Title {c3}
 62
   176
100
AcDbLine
 10
176.3337794481171
 20
318.4779838690831
 30
0.0
 11
176.3337794481171
 21
320.4779838690836
 31
0.0
  0
LINE
  5
170
330
134
100
AcDbEntity
  8
Title {c3}
 62
   176
100
AcDbLine
 10
176.3337794481171
 20
320.4779838690836
 30
0.0
 11
167.3337794481153
 21
320.4779838690836
 31
0.0
  0
LINE
  5
171
330
134
100
AcDbEntity
  8
Title {c3}
 62
   176
100
AcDbLine
 10
167.3337794481153
 20
320.4779838690836
 30
0.0
 11
167.3337794481153
 21
322.4779838690833
 31
0.0
  0
LINE
  5
172
330
134
100
AcDbEntity
  8
Title {c3}
 62
   176
100
AcDbLine
 10
167.3337794481153
 20
322.4779838690833
 30
0.0
 11
176.3337794481171
 21
322.4779838690833
 31
0.0
  0
LINE
  5
173
330
134
100
AcDbEntity
  8
Title {c3}
 62
   176
100
AcDbLine
 10
176.3337794481171
 20
322.4779838690833
 30
0.0
 11
176.3337794481171
 21
324.4779838690838
 31
0.0
  0
LINE
  5
174
330
134
100
AcDbEntity
  8
Title {c3}
 62
   176
100
AcDbLine
 10
176.3337794481171
 20
324.4779838690838
 30
0.0
 11
167.3337794481153
 21
324.4779838690847
 31
0.0
  0
LINE
  5
175
330
134
100
AcDbEntity
  8
Title {c3}
 62
   176
100
AcDbLine
 10
167.3337794481153
 20
324.4779838690847
 30
0.0
 11
167.3337794481153
 21
326.4779838690845
 31
0.0
  0
MTEXT
  5
176
330
134
100
AcDbEntity
  8
Title {c3}
100
AcDbMText
 10
79.4337794481153
 20
314.6513306008023
 30
0.0
 40
2.031999975442886
 41
38.10000000000001
 71
     5
 72
     1
  1
\fTahoma|b0|i0;\H2.0320;\LTOLERANCE\P\l\fTahoma|b0|i0;\H2.0320;XXX. +/- 1.00\PXX.X +/- 0.30\PX.XX +/- 0.10\PANGLES +/- 0.5 DEG\P \PUNLESS OTHERWISE\PSPECIFIED
  7
Note Text {c3}
 73
     2
 44
0.9878842830657958
1001
ACAD
1000
MTEXTBEGIN
1070
    73
1070
     2
1070
    44
1040
0.9878842830657958
1070
    74
1070
     0
1000
MTEXTEND
  0
MTEXT
  5
177
330
134
100
AcDbEntity
  8
Title {c3}
100
AcDbMText
 10
79.43377944811527
 20
288.0903200531681
 30
0.0
 40
2.031999975442886
 41
35.0
 71
     5
 72
     1
  1
\fArial|b0|i0;\H2.0320;This drawing is the property of c3controls.  This drawing may not be copied, used or disclosed, for any purpose except as authorized in writing by c3controls.
  7
Note Text {c3}
 73
     2
 44
0.9442214369773864
1001
ACAD
1000
MTEXTBEGIN
1070
    73
1070
     2
1070
    44
1040
0.9442214369773864
1070
    74
1070
     0
1000
MTEXTEND
  0
MTEXT
  5
178
330
134
100
AcDbEntity
  8
Title {c3}
100
AcDbMText
 10
99.7537794481153
 20
327.2079838690836
 30
0.0
 40
2.285999953746795
 41
8.184169228729167
 71
     1
 72
     1
  1
\fArial|b0|i0;\H2.2860;\LUnits\l\fArial|b0|i0;\H2.2860;:
  7
Note Text {c3}
 73
     1
 44
1.0
1001
ACAD
1000
MTEXTBEGIN
1070
    73
1070
     1
1070
    44
1040
1.0
1070
    74
1070
     0
1000
MTEXTEND
  0
MTEXT
  5
179
330
134
100
AcDbEntity
  8
Title {c3}
100
AcDbMText
 10
200.0837794481153
 20
310.0629838690837
 30
0.0
 40
2.540000081062316
 41
120.3571049358808
 71
     5
 72
     1
  1
\fArial|b0|i0;\H2.5400;P.O. BOX 496         BEAVER, PA 15009         www.c3controls.com
  7
Note Text {c3}
 73
     1
 44
1.0
1001
ACAD
1000
MTEXTBEGIN
1070
    73
1070
     1
1070
    44
1040
1.0
1070
    74
1070
     0
1000
MTEXTEND
  0
MTEXT
  5
17A
330
134
100
AcDbEntity
  8
Title {c3}
100
AcDbMText
 10
99.7537794481153
 20
316.4129838690836
 30
0.0
 40
2.285999953746795
 41
14.73006471991539
 71
     1
 72
     1
  1
\fArial|b0|i0;\H2.2860;\LDrawn By\l\fArial|b0|i0;\H2.2860;:
  7
Note Text {c3}
 73
     1
 44
1.0
1001
ACAD
1000
MTEXTBEGIN
1070
    73
1070
     1
1070
    44
1040
1.0
1070
    74
1070
     0
1000
MTEXTEND
  0
MTEXT
  5
17B
330
134
100
AcDbEntity
  8
Title {c3}
100
AcDbMText
 10
99.7537794481153
 20
305.6179838690836
 30
0.0
 40
2.285999953746795
 41
17.74960502982139
 71
     1
 72
     1
  1
\fArial|b0|i0;\H2.2860;\LModeled By\l\fArial|b0|i0;\H2.2860;:
  7
Note Text {c3}
 73
     1
 44
1.0
1001
ACAD
1000
MTEXTBEGIN
1070
    73
1070
     1
1070
    44
1040
1.0
1070
    74
1070
     0
1000
MTEXTEND
  0
MTEXT
  5
17C
330
134
100
AcDbEntity
  8
Title {c3}
100
AcDbMText
 10
99.7537794481153
 20
294.8229838690837
 30
0.0
 40
2.285999953746795
 41
19.17138561606407
 71
     1
 72
     1
  1
\fArial|b0|i0;\H2.2860;\LApproved By\l\fArial|b0|i0;\H2.2860;:
  7
Note Text {c3}
 73
     1
 44
1.0
1001
ACAD
1000
MTEXTBEGIN
1070
    73
1070
     1
1070
    44
1040
1.0
1070
    74
1070
     0
1000
MTEXTEND
  0
MTEXT
  5
17D
330
134
100
AcDbEntity
  8
Title {c3}
100
AcDbMText
 10
99.7537794481153
 20
284.0279838690836
 30
0.0
 40
2.285999953746795
 41
17.52857730945621
 71
     1
 72
     1
  1
\fArial|b0|i0;\H2.2860;\LCreated On\l\fArial|b0|i0;\H2.2860;:
  7
Note Text {c3}
 73
     1
 44
1.0
1001
ACAD
1000
MTEXTBEGIN
1070
    73
1070
     1
1070
    44
1040
1.0
1070
    74
1070
     0
1000
MTEXTEND
  0
MTEXT
  5
17E
330
134
100
AcDbEntity
  8
Title {c3}
100
AcDbMText
 10
137.8537794481153
 20
284.0279838690836
 30
0.0
 40
2.285999953746795
 41
9.229376763105392
 71
     1
 72
     1
  1
\fArial|b0|i0;\H2.2860;\LRev #\l\fArial|b0|i0;\H2.2860;:
  7
Note Text {c3}
 73
     1
 44
1.0
1001
ACAD
1000
MTEXTBEGIN
1070
    73
1070
     1
1070
    44
1040
1.0
1070
    74
1070
     0
1000
MTEXTEND
  0
MTEXT
  5
17F
330
134
100
AcDbEntity
  8
Title {c3}
100
AcDbMText
 10
175.9537794481152
 20
284.0279838690836
 30
0.0
 40
2.285999953746795
 41
8.875673860311508
 71
     1
 72
     1
  1
\fArial|b0|i0;\H2.2860;\LScale\l\fArial|b0|i0;\H2.2860;:
  7
Note Text {c3}
 73
     1
 44
1.0
1001
ACAD
1000
MTEXTBEGIN
1070
    73
1070
     1
1070
    44
1040
1.0
1070
    74
1070
     0
1000
MTEXTEND
  0
MTEXT
  5
180
330
134
100
AcDbEntity
  8
Title {c3}
100
AcDbMText
 10
156.9037794481153
 20
284.0279838690836
 30
0.0
 40
2.285999953746795
 41
7.100190967321395
 71
     1
 72
     1
  1
\fArial|b0|i0;\H2.2860;\LSize\l\fArial|b0|i0;\H2.2860;:
  7
Note Text {c3}
 73
     1
 44
1.0
1001
ACAD
1000
MTEXTBEGIN
1070
    73
1070
     1
1070
    44
1040
1.0
1070
    74
1070
     0
1000
MTEXTEND
  0
MTEXT
  5
181
330
134
100
AcDbEntity
  8
Title {c3}
100
AcDbMText
 10
195.0037794481153
 20
284.0279838690836
 30
0.0
 40
2.285999953746795
 41
20.03026046634982
 71
     1
 72
     1
  1
\fArial|b0|i0;\H2.2860;\LPart Number\l\fArial|b0|i0;\H2.2860;:
  7
Note Text {c3}
 73
     1
 44
1.0
1001
ACAD
1000
MTEXTBEGIN
1070
    73
1070
     1
1070
    44
1040
1.0
1070
    74
1070
     0
1000
MTEXTEND
  0
MTEXT
  5
182
330
134
100
AcDbEntity
  8
Title {c3}
100
AcDbMText
 10
137.8537794481153
 20
306.8879838690837
 30
0.0
 40
2.285999953746795
 41
16.85924991965294
 71
     1
 72
     1
  1
\fArial|b0|i0;\H2.2860;\LDescription\l\fArial|b0|i0;\H2.2860;:
  7
Note Text {c3}
 73
     1
 44
1.0
1001
ACAD
1000
MTEXTBEGIN
1070
    73
1070
     1
1070
    44
1040
1.0
1070
    74
1070
     0
1000
MTEXTEND
  0
MTEXT
  5
183
330
134
100
AcDbEntity
  8
Title {c3}
100
AcDbMText
 10
117.5337794481153
 20
321.4929838690836
 30
0.0
 40
3.174999952316284
 41
35.98968715240871
 71
     5
 72
     1
  1
\fArial|b0|i0;\H3.1750;mm [in]
  7
Note Text {c3}
 73
     1
 44
1.0
1001
ACAD
1000
MTEXTBEGIN
1070
    73
1070
     1
1070
    44
1040
1.0
1070
    74
1070
     0
1000
MTEXTEND
  0
MTEXT
  5
184
330
134
100
AcDbEntity
  8
Title {c3}
100
AcDbMText
 10
165.1587794481153
 20
278.3129838690836
 30
0.0
 40
3.174999952316284
 41
17.46372461297259
 71
     5
 72
     1
  1
\fArial|b0|i0;\H3.1750;C
  7
Note Text {c3}
 73
     1
 44
1.0
1001
ACAD
1000
MTEXTBEGIN
1070
    73
1070
     1
1070
    44
1040
1.0
1070
    74
1070
     0
1000
MTEXTEND
  0
MTEXT
  5
185
330
134
100
AcDbEntity
  8
Title {c3}
 62
   176
100
AcDbMText
 10
157.8337794481153
 20
316.4779838690834
 30
0.0
 40
8.500000238418579
 41
0.0
 71
     7
 72
     1
  1
\fEurostile ExtendedTwo|b0|i0;\H8.5000;c
  7
Note Text {c3}
 73
     1
 44
1.0
1001
ACAD
1000
MTEXTBEGIN
1070
    73
1070
     1
1070
    44
1040
1.0
1070
    74
1070
     0
1000
MTEXTEND
  0
MTEXT
  5
186
330
134
100
AcDbEntity
  8
Title {c3}
 62
     7
100
AcDbMText
 10
242.3337794481173
 20
316.4779838690833
 30
0.0
 40
8.500000238418579
 41
66.51529325837067
 71
     9
 72
     5
  1
\fEurostile ExtendedTwo|b0|i0;\H8.5000;controls
  7
Note Text {c3}
 73
     1
 44
1.0
1001
ACAD
1000
MTEXTBEGIN
1070
    73
1070
     1
1070
    44
1040
1.0
1070
    74
1070
     0
1000
MTEXTEND
  0
MTEXT
  5
187
330
134
100
AcDbEntity
  8
Title {c3}
100
AcDbMText
 10
242.3337794481173
 20
324.4779838690838
 30
0.0
 40
3.048000037670135
 41
0.0
 71
     1
 72
     1
  1
\fArial|b0|i0;\H3.0480;®
  7
Note Text {c3}
 73
     1
 44
1.0
1001
ACAD
1000
MTEXTBEGIN
1070
    73
1070
     1
1070
    44
1040
1.0
1070
    74
1070
     0
1000
MTEXTEND
  0
ATTDEF
  5
189
102
{ACAD_XDICTIONARY
360
792
102
}
330
134
100
AcDbEntity
  8
Title {c3}
100
AcDbText
 10
107.1424767392384
 20
309.1364729784833
 30
0.0
 40
3.174999952316284
  1
A. Roberts
  7
Text Style9
100
AcDbAttributeDefinition
  3
AUTHOR
  2
AUTHOR_001
 70
     0
  0
ATTDEF
  5
18E
102
{ACAD_XDICTIONARY
360
795
102
}
330
134
100
AcDbEntity
  8
Title {c3}
100
AcDbText
 10
105.1557574714893
 20
298.2771024294321
 30
0.0
 40
3.174999952316284
  1
S. Panikkottil
  7
Text Style39
100
AcDbAttributeDefinition
  3
AUTHOR
  2
AUTHOR_001
 70
     0
  0
ATTDEF
  5
18F
102
{ACAD_XDICTIONARY
360
798
102
}
330
134
100
AcDbEntity
  8
Title {c3}
100
AcDbText
 10
117.5337794481153
 20
287.5204838929255
 30
0.0
 40
3.174999952316284
  1

  7
Text Style39
 72
     1
 11
117.5337794481153
 21
289.1079838690836
 31
0.0
100
AcDbAttributeDefinition
  3
CHECKED BY
  2
CHECKED_BY
 70
     0
 74
     2
  0
ATTDEF
  5
190
102
{ACAD_XDICTIONARY
360
79B
102
}
330
134
100
AcDbEntity
  8
Title {c3}
100
AcDbText
 10
107.4948944410602
 20
276.999484896198
 30
0.0
 40
3.174999952316284
  1
2/26/2009
  7
Text Style39
100
AcDbAttributeDefinition
  3
CREATION DATE
  2
CREATION_DATE_001
 70
     0
  0
ATTDEF
  5
191
102
{ACAD_XDICTIONARY
360
79E
102
}
330
134
100
AcDbEntity
  8
Title {c3}
100
AcDbText
 10
144.8528526704697
 20
276.720153134107
 30
0.0
 40
3.174999952316284
  1
1
  7
Text Style39
100
AcDbAttributeDefinition
  3
Rev #
  2
Rev_#_001
 70
     0
  0
ATTDEF
  5
192
102
{ACAD_XDICTIONARY
360
7A1
102
}
330
134
100
AcDbEntity
  8
Title {c3}
100
AcDbText
 10
179.7490666205334
 20
276.6934993400143
 30
0.0
 40
3.174999952316284
  1
2 : 1
  7
Text Style39
100
AcDbAttributeDefinition
  3
Scale
  2
Scale_001
 70
     0
  0
ATTDEF
  5
193
102
{ACAD_XDICTIONARY
360
7A4
102
}
330
134
100
AcDbEntity
  8
Title {c3}
100
AcDbText
 10
215.3308162500274
 20
276.7254838929255
 30
0.0
 40
3.174999952316284
  1
22P30224G01
  7
Text Style39
100
AcDbAttributeDefinition
  3
PART NUMBER
  2
PART_NUMBER_001
 70
     0
  0
ATTDEF
  5
195
102
{ACAD_XDICTIONARY
360
7A9
102
}
330
134
100
AcDbEntity
  8
Title {c3}
100
AcDbText
 10
151.87410027354
 20
298.5250893663295
 30
0.0
 40
3.810000121593475
  1
OD 22mm IEC Multi-Voltage Light Module
  7
Text Style76
100
AcDbAttributeDefinition
  3
DESCRIPTION
  2
DESCRIPTION_001
 70
     0
  0
ATTDEF
  5
7A7
102
{ACAD_XDICTIONARY
360
7A8
102
}
330
134
100
AcDbEntity
  8
Title {c3}
100
AcDbText
 10
179.0635302883501
 20
292.0036519520238
 30
0.0
 40
3.810000121593475
  1
(Non-Relampable)
  7
Text Style76
100
AcDbAttributeDefinition
  3
DESCRIPTION
  2
DESCRIPTION_002
 70
     0
  0
ENDBLK
  5
136
330
134
100
AcDbEntity
  8
0
100
AcDbBlockEnd
  0
BLOCK
  5
1A2
330
1A1
100
AcDbEntity
  8
0
100
AcDbBlockBegin
  2
Revision History
 70
     0
 10
0.0
 20
0.0
 30
0.0
  3
Revision History
  1

  0
MTEXT
  5
1A4
330
1A1
100
AcDbEntity
  8
Symbol {c3}
100
AcDbMText
 10
341.9758390835278
 20
82.21888974189765
 30
0.0
 40
3.048000037670135
 41
0.0
 71
     7
 72
     1
  1
2
  7
Note Text (ANSI)
 73
     1
 44
1.22107720375061
1001
ACAD
1000
MTEXTBEGIN
1070
    73
1070
     1
1070
    44
1040
1.22107720375061
1070
    74
1070
     0
1000
MTEXTEND
  0
MTEXT
  5
1A5
330
1A1
100
AcDbEntity
  8
Symbol {c3}
100
AcDbMText
 10
358.8403798694882
 20
81.85209233194596
 30
0.0
 40
3.048000037670135
 41
0.0
 71
     7
 72
     1
  1
8/31/2012
  7
Note Text (ANSI)
 73
     1
 44
1.0
1001
ACAD
1000
MTEXTBEGIN
1070
    73
1070
     1
1070
    44
1040
1.0
1070
    74
1070
     0
1000
MTEXTEND
  0
MTEXT
  5
1A6
330
1A1
100
AcDbEntity
  8
Symbol {c3}
100
AcDbMText
 10
424.9846550613743
 20
81.75082165628678
 30
0.0
 40
3.048000037670135
 41
0.0
 71
     7
 72
     1
  1
Added Tangent Lines
  7
Note Text (ANSI)
 73
     1
 44
1.0
1001
ACAD
1000
MTEXTBEGIN
1070
    73
1070
     1
1070
    44
1040
1.0
1070
    74
1070
     0
1000
MTEXTEND
  0
MTEXT
  5
1A7
330
1A1
100
AcDbEntity
  8
Symbol {c3}
100
AcDbMText
 10
513.1138851590176
 20
82.21518471950671
 30
0.0
 40
3.048000037670135
 41
0.0
 71
     7
 72
     1
  1
W. Price
  7
Note Text (ANSI)
 73
     1
 44
1.0
1001
ACAD
1000
MTEXTBEGIN
1070
    73
1070
     1
1070
    44
1040
1.0
1070
    74
1070
     0
1000
MTEXTEND
  0
LINE
  5
1A8
330
1A1
100
AcDbEntity
  8
Symbol {c3}
100
AcDbLine
 10
336.55
 20
86.18899999380118
 30
0.0
 11
539.75
 21
86.18899999380118
 31
0.0
  0
MTEXT
  5
1A9
330
1A1
100
AcDbEntity
  8
Symbol {c3}
100
AcDbMText
 10
342.212364491956
 20
77.41805988550192
 30
0.0
 40
3.048000037670135
 41
0.0
 71
     7
 72
     1
  1
1
  7
Note Text (ANSI)
 73
     1
 44
1.0
1001
ACAD
1000
MTEXTBEGIN
1070
    73
1070
     1
1070
    44
1040
1.0
1070
    74
1070
     0
1000
MTEXTEND
  0
MTEXT
  5
1AA
330
1A1
100
AcDbEntity
  8
Symbol {c3}
100
AcDbMText
 10
358.8915864012097
 20
77.02409229427582
 30
0.0
 40
3.048000037670135
 41
0.0
 71
     7
 72
     1
  1
7/18/2011
  7
Note Text (ANSI)
 73
     1
 44
1.0
1001
ACAD
1000
MTEXTBEGIN
1070
    73
1070
     1
1070
    44
1040
1.0
1070
    74
1070
     0
1000
MTEXTEND
  0
MTEXT
  5
1AB
330
1A1
100
AcDbEntity
  8
Symbol {c3}
100
AcDbMText
 10
428.2297575826105
 20
76.92282161861664
 30
0.0
 40
3.048000037670135
 41
0.0
 71
     7
 72
     1
  1
Drawing Released
  7
Note Text (ANSI)
 73
     1
 44
1.0
1001
ACAD
1000
MTEXTBEGIN
1070
    73
1070
     1
1070
    44
1040
1.0
1070
    74
1070
     0
1000
MTEXTEND
  0
MTEXT
  5
1AC
330
1A1
100
AcDbEntity
  8
Symbol {c3}
100
AcDbMText
 10
511.0424896389348
 20
77.32296425569808
 30
0.0
 40
3.048000037670135
 41
0.0
 71
     7
 72
     1
  1
A. Roberts
  7
Note Text (ANSI)
 73
     1
 44
1.0
1001
ACAD
1000
MTEXTBEGIN
1070
    73
1070
     1
1070
    44
1040
1.0
1070
    74
1070
     0
1000
MTEXTEND
  0
LINE
  5
1AD
330
1A1
100
AcDbEntity
  8
Symbol {c3}
100
AcDbLine
 10
336.55
 20
81.36099995613106
 30
0.0
 11
539.75
 21
81.36099995613106
 31
0.0
  0
LINE
  5
1AE
330
1A1
100
AcDbEntity
  8
Symbol {c3}
100
AcDbLine
 10
336.55
 20
76.53299991846091
 30
0.0
 11
539.75
 21
76.53299991846091
 31
0.0
  0
LINE
  5
1AF
330
1A1
100
AcDbEntity
  8
Symbol {c3}
100
AcDbLine
 10
336.55
 20
86.18899999380118
 30
0.0
 11
336.55
 21
76.53299991846091
 31
0.0
  0
LINE
  5
1B0
330
1A1
100
AcDbEntity
  8
Symbol {c3}
100
AcDbLine
 10
349.2500000000001
 20
86.18899999380118
 30
0.0
 11
349.2500000000001
 21
76.53299991846091
 31
0.0
  0
LINE
  5
1B1
330
1A1
100
AcDbEntity
  8
Symbol {c3}
100
AcDbLine
 10
387.3500000000001
 20
86.18899999380118
 30
0.0
 11
387.3500000000001
 21
76.53299991846091
 31
0.0
  0
LINE
  5
1B2
330
1A1
100
AcDbEntity
  8
Symbol {c3}
100
AcDbLine
 10
501.65
 20
86.18899999380118
 30
0.0
 11
501.65
 21
76.53299991846091
 31
0.0
  0
LINE
  5
1B3
330
1A1
100
AcDbEntity
  8
Symbol {c3}
100
AcDbLine
 10
539.75
 20
86.18899999380118
 30
0.0
 11
539.75
 21
76.53299991846091
 31
0.0
  0
LINE
  5
1B4
330
1A1
100
AcDbEntity
  8
Symbol {c3}
100
AcDbLine
 10
336.55
 20
66.67500000000007
 30
0.0
 11
539.7499999999999
 21
66.67500000000007
 31
0.0
  0
LINE
  5
1B5
330
1A1
100
AcDbEntity
  8
Symbol {c3}
100
AcDbLine
 10
336.55
 20
66.67500000000007
 30
0.0
 11
336.55
 21
71.70499988079078
 31
0.0
  0
LINE
  5
1B6
330
1A1
100
AcDbEntity
  8
Symbol {c3}
100
AcDbLine
 10
539.7499999999999
 20
66.67500000000007
 30
0.0
 11
539.7499999999999
 21
71.70499988079078
 31
0.0
  0
MTEXT
  5
1B7
330
1A1
100
AcDbEntity
  8
Symbol {c3}
100
AcDbMText
 10
422.7280389880347
 20
67.10541719436651
 30
0.0
 40
3.24999988079071
 41
0.0
 71
     7
 72
     1
  1
Revision History
  7
Heading Text {c3}
 73
     1
 44
1.0
1001
ACAD
1000
MTEXTBEGIN
1070
    73
1070
     1
1070
    44
1040
1.0
1070
    74
1070
     0
1000
MTEXTEND
  0
LINE
  5
1B8
330
1A1
100
AcDbEntity
  8
Symbol {c3}
100
AcDbLine
 10
336.55
 20
71.70499988079078
 30
0.0
 11
539.7499999999999
 21
71.70499988079078
 31
0.0
  0
LINE
  5
1B9
330
1A1
100
AcDbEntity
  8
Symbol {c3}
100
AcDbLine
 10
336.55
 20
71.70499988079078
 30
0.0
 11
336.55
 21
76.53299991846091
 31
0.0
  0
MTEXT
  5
1BA
330
1A1
100
AcDbEntity
  8
Symbol {c3}
100
AcDbMText
 10
339.7578930849489
 20
72.5690647100844
 30
0.0
 40
3.048000037670135
 41
0.0
 71
     7
 72
     1
  1
Rev
  7
Note Text (ANSI)
 73
     1
 44
1.0
1001
ACAD
1000
MTEXTBEGIN
1070
    73
1070
     1
1070
    44
1040
1.0
1070
    74
1070
     0
1000
MTEXTEND
  0
LINE
  5
1BB
330
1A1
100
AcDbEntity
  8
Symbol {c3}
100
AcDbLine
 10
349.2500000000001
 20
71.70499988079078
 30
0.0
 11
349.2500000000001
 21
76.53299991846091
 31
0.0
  0
MTEXT
  5
1BC
330
1A1
100
AcDbEntity
  8
Symbol {c3}
100
AcDbMText
 10
364.278567516273
 20
72.56288967121398
 30
0.0
 40
3.048000037670135
 41
0.0
 71
     7
 72
     1
  1
Date
  7
Note Text (ANSI)
 73
     1
 44
1.0
1001
ACAD
1000
MTEXTBEGIN
1070
    73
1070
     1
1070
    44
1040
1.0
1070
    74
1070
     0
1000
MTEXTEND
  0
LINE
  5
1BD
330
1A1
100
AcDbEntity
  8
Symbol {c3}
100
AcDbLine
 10
387.3500000000001
 20
71.70499988079078
 30
0.0
 11
387.3500000000001
 21
76.53299991846091
 31
0.0
  0
MTEXT
  5
1BE
330
1A1
100
AcDbEntity
  8
Symbol {c3}
100
AcDbMText
 10
434.4986582154688
 20
72.16398204237228
 30
0.0
 40
3.048000037670135
 41
0.0
 71
     7
 72
     1
  1
Description
  7
Note Text (ANSI)
 73
     1
 44
1.0
1001
ACAD
1000
MTEXTBEGIN
1070
    73
1070
     1
1070
    44
1040
1.0
1070
    74
1070
     0
1000
MTEXTEND
  0
LINE
  5
1BF
330
1A1
100
AcDbEntity
  8
Symbol {c3}
100
AcDbLine
 10
501.65
 20
71.70499988079078
 30
0.0
 11
501.65
 21
76.53299991846091
 31
0.0
  0
MTEXT
  5
1C0
330
1A1
100
AcDbEntity
  8
Symbol {c3}
100
AcDbMText
 10
508.9750858455999
 20
72.10593665510422
 30
0.0
 40
3.048000037670135
 41
0.0
 71
     7
 72
     1
  1
Approved By
  7
Note Text (ANSI)
 73
     1
 44
1.0
1001
ACAD
1000
MTEXTBEGIN
1070
    73
1070
     1
1070
    44
1040
1.0
1070
    74
1070
     0
1000
MTEXTEND
  0
LINE
  5
1C1
330
1A1
100
AcDbEntity
  8
Symbol {c3}
100
AcDbLine
 10
539.75
 20
71.70499988079078
 30
0.0
 11
539.75
 21
76.53299991846091
 31
0.0
  0
ENDBLK
  5
1A3
330
1A1
100
AcDbEntity
  8
0
100
AcDbBlockEnd
  0
BLOCK
  5
41B
330
41A
100
AcDbEntity
  8
0
100
AcDbBlockBegin
  2
*D7
 70
     1
 10
0.0
 20
0.0
 30
0.0
  3
*D7
  1

  0
LINE
  5
532
330
41A
100
AcDbEntity
  8
Dimension {c3}
 62
   176
100
AcDbLine
 10
111.5233674539586
 20
105.4781885552365
 30
0.0
 11
111.5233674539586
 21
137.9052042995656
 31
0.0
  0
LINE
  5
533
330
41A
100
AcDbEntity
  8
Dimension {c3}
 62
   176
100
AcDbLine
 10
166.3111408137995
 20
120.1178042995656
 30
0.0
 11
166.3111408137995
 21
137.9052042995656
 31
0.0
  0
LINE
  5
534
330
41A
100
AcDbEntity
  8
Dimension {c3}
 62
   176
100
AcDbLine
 10
112.7733674539586
 20
136.3177042995656
 30
0.0
 11
131.3161238030362
 21
136.3177042995656
 31
0.0
  0
LINE
  5
535
330
41A
100
AcDbEntity
  8
Dimension {c3}
 62
   176
100
AcDbLine
 10
165.0611408137995
 20
136.3177042995656
 30
0.0
 11
146.5183844647218
 21
136.3177042995656
 31
0.0
  0
SOLID
  5
536
330
41A
100
AcDbEntity
  8
Dimension {c3}
 62
   176
100
AcDbTrace
 10
112.7733674539586
 20
136.5260376328989
 30
0.0
 11
112.7733674539586
 21
136.1093709662322
 31
0.0
 12
111.5233674539586
 22
136.3177042995656
 32
0.0
 13
111.5233674539586
 23
136.3177042995656
 33
0.0
  0
SOLID
  5
537
330
41A
100
AcDbEntity
  8
Dimension {c3}
 62
   176
100
AcDbTrace
 10
165.0611408137995
 20
136.5260376328989
 30
0.0
 11
165.0611408137995
 21
136.1093709662322
 31
0.0
 12
166.3111408137995
 22
136.3177042995656
 32
0.0
 13
166.3111408137995
 23
136.3177042995656
 33
0.0
  0
MTEXT
  5
538
330
41A
100
AcDbEntity
  8
Dimension {c3}
 62
   176
100
AcDbMText
 10
138.917254133879
 20
139.7441455553065
 30
0.0
 40
2.28600001335144
 41
0.0
 71
     2
 72
     1
  1
\A1; 54.8 mm\P[2 5/32 in]
  7
Dim Text {c3}
 73
     1
 44
1.0
1001
ACAD
1000
MTEXTBEGIN
1070
    73
1070
     1
1070
    44
1040
1.0
1070
    74
1070
     0
1000
MTEXTEND
  0
POINT
  5
539
330
41A
100
AcDbEntity
  8
Defpoints
 62
     0
100
AcDbPoint
 10
111.5233674539586
 20
104.6780885552365
 30
0.0
  0
POINT
  5
53A
330
41A
100
AcDbEntity
  8
Defpoints
 62
     0
100
AcDbPoint
 10
166.3111408137995
 20
119.3177042995656
 30
0.0
  0
POINT
  5
53B
330
41A
100
AcDbEntity
  8
Defpoints
 62
     0
100
AcDbPoint
 10
166.3111408137995
 20
136.3177042995656
 30
0.0
  0
ENDBLK
  5
41C
330
41A
100
AcDbEntity
  8
0
100
AcDbBlockEnd
  0
BLOCK
  5
53E
330
53D
100
AcDbEntity
  8
0
100
AcDbBlockBegin
  2
*D8
 70
     1
 10
0.0
 20
0.0
 30
0.0
  3
*D8
  1

  0
LINE
  5
655
330
53D
100
AcDbEntity
  8
Dimension {c3}
 62
   176
100
AcDbLine
 10
217.6962061355637
 20
128.0231109894995
 30
0.0
 11
217.6962061355637
 21
136.8367944241981
 31
0.0
  0
LINE
  5
656
330
53D
100
AcDbEntity
  8
Dimension {c3}
 62
   176
100
AcDbLine
 10
227.7900061355637
 20
128.0493944241985
 30
0.0
 11
227.7900061355637
 21
136.8367944241981
 31
0.0
  0
LINE
  5
657
330
53D
100
AcDbEntity
  8
Dimension {c3}
 62
   176
100
AcDbLine
 10
226.5400061355637
 20
135.2492944241981
 30
0.0
 11
218.9462061355637
 21
135.2492944241981
 31
0.0
  0
LINE
  5
658
330
53D
100
AcDbEntity
  8
Dimension {c3}
 62
   176
100
AcDbLine
 10
217.6962061355637
 20
135.2492944241981
 30
0.0
 11
213.1620539561398
 21
135.2492944241981
 31
0.0
  0
SOLID
  5
659
330
53D
100
AcDbEntity
  8
Dimension {c3}
 62
   176
100
AcDbTrace
 10
226.5400061355637
 20
135.4576277575314
 30
0.0
 11
226.5400061355637
 21
135.0409610908648
 31
0.0
 12
227.7900061355637
 22
135.2492944241981
 32
0.0
 13
227.7900061355637
 23
135.2492944241981
 33
0.0
  0
SOLID
  5
65A
330
53D
100
AcDbEntity
  8
Dimension {c3}
 62
   176
100
AcDbTrace
 10
218.9462061355637
 20
135.4576277575314
 30
0.0
 11
218.9462061355637
 21
135.0409610908648
 31
0.0
 12
217.6962061355637
 22
135.2492944241981
 32
0.0
 13
217.6962061355637
 23
135.2492944241981
 33
0.0
  0
MTEXT
  5
65B
330
53D
100
AcDbEntity
  8
Dimension {c3}
 62
   176
100
AcDbMText
 10
206.0522063682603
 20
138.6726651627955
 30
0.0
 40
2.28600001335144
 41
0.0
 71
     2
 72
     1
  1
\A1; 10.1 mm\P[25/64 in]
  7
Dim Text {c3}
 73
     1
 44
1.0
1001
ACAD
1000
MTEXTBEGIN
1070
    73
1070
     1
1070
    44
1040
1.0
1070
    74
1070
     0
1000
MTEXTEND
  0
POINT
  5
65C
330
53D
100
AcDbEntity
  8
Defpoints
 62
     0
100
AcDbPoint
 10
217.6962061355637
 20
127.2230109894995
 30
0.0
  0
POINT
  5
65D
330
53D
100
AcDbEntity
  8
Defpoints
 62
     0
100
AcDbPoint
 10
227.7900061355637
 20
127.2492944241985
 30
0.0
  0
POINT
  5
65E
330
53D
100
AcDbEntity
  8
Defpoints
 62
     0
100
AcDbPoint
 10
227.7900061355637
 20
135.2492944241981
 30
0.0
  0
ENDBLK
  5
53F
330
53D
100
AcDbEntity
  8
0
100
AcDbBlockEnd
  0
BLOCK
  5
661
330
660
100
AcDbEntity
  8
0
100
AcDbBlockBegin
  2
*D9
 70
     1
 10
0.0
 20
0.0
 30
0.0
  3
*D9
  1

  0
LINE
  5
778
330
660
100
AcDbEntity
  8
Dimension {c3}
 62
   176
100
AcDbLine
 10
160.3020760995837
 20
128.1003287897321
 30
0.0
 11
181.0894760995838
 21
128.1003287897321
 31
0.0
  0
LINE
  5
779
330
660
100
AcDbEntity
  8
Dimension {c3}
 62
   176
100
AcDbLine
 10
160.3020760995837
 20
74.07655880298436
 30
0.0
 11
181.0894760995838
 21
74.07655880298436
 31
0.0
  0
LINE
  5
77A
330
660
100
AcDbEntity
  8
Dimension {c3}
 62
   176
100
AcDbLine
 10
179.5019760995838
 20
126.8503287897321
 30
0.0
 11
179.5019760995838
 21
104.9118145349556
 31
0.0
  0
LINE
  5
77B
330
660
100
AcDbEntity
  8
Dimension {c3}
 62
   176
100
AcDbLine
 10
179.5019760995838
 20
75.32655880298436
 30
0.0
 11
179.5019760995838
 21
97.26507305776083
 31
0.0
  0
SOLID
  5
77C
330
660
100
AcDbEntity
  8
Dimension {c3}
 62
   176
100
AcDbTrace
 10
179.2936427662505
 20
126.8503287897321
 30
0.0
 11
179.7103094329171
 21
126.8503287897321
 31
0.0
 12
179.5019760995838
 22
128.1003287897321
 32
0.0
 13
179.5019760995838
 23
128.1003287897321
 33
0.0
  0
SOLID
  5
77D
330
660
100
AcDbEntity
  8
Dimension {c3}
 62
   176
100
AcDbTrace
 10
179.2936427662505
 20
75.32655880298436
 30
0.0
 11
179.7103094329171
 21
75.32655880298436
 31
0.0
 12
179.5019760995838
 22
74.07655880298436
 32
0.0
 13
179.5019760995838
 23
74.07655880298436
 33
0.0
  0
MTEXT
  5
77E
330
660
100
AcDbEntity
  8
Dimension {c3}
 62
   176
100
AcDbMText
 10
179.5019760995838
 20
104.5118145349556
 30
0.0
 40
2.28600001335144
 41
0.0
 71
     2
 72
     1
  1
\A1; 54.0 mm\P[2 1/8 in]
  7
Dim Text {c3}
 73
     1
 44
1.0
1001
ACAD
1000
MTEXTBEGIN
1070
    73
1070
     1
1070
    44
1040
1.0
1070
    74
1070
     0
1000
MTEXTEND
  0
POINT
  5
77F
330
660
100
AcDbEntity
  8
Defpoints
 62
     0
100
AcDbPoint
 10
159.5019760995837
 20
128.1003287897321
 30
0.0
  0
POINT
  5
780
330
660
100
AcDbEntity
  8
Defpoints
 62
     0
100
AcDbPoint
 10
159.5019760995838
 20
74.07655880298438
 30
0.0
  0
POINT
  5
781
330
660
100
AcDbEntity
  8
Defpoints
 62
     0
100
AcDbPoint
 10
179.5019760995838
 20
74.07655880298436
 30
0.0
  0
ENDBLK
  5
662
330
660
100
AcDbEntity
  8
0
100
AcDbBlockEnd
  0
ENDSEC
  0
SECTION
  2
ENTITIES
  0
INSERT
  5
133
330
6C
100
AcDbEntity
  8
0
100
AcDbBlockReference
  2
Borders c3 - Border
 10
0.0
 20
0.0
 30
0.0
 41
0.5
 42
0.5
 43
0.5
  0
INSERT
  5
196
330
6C
100
AcDbEntity
  8
0
100
AcDbBlockReference
 66
     1
  2
Title Blocks c3-mm[in] (C)
 10
138.0831102759423
 20
-130.9014919345418
 30
0.0
 41
0.5
 42
0.5
 43
0.5
  0
ATTRIB
  5
199
102
{ACAD_XDICTIONARY
360
7AC
102
}
330
196
100
AcDbEntity
  8
Title {c3}
100
AcDbText
 10
191.6543486455616
 20
23.66674455469986
 30
0.0
 40
1.587499976158142
  1
A. Roberts
  7
Text Style9
100
AcDbAttribute
  2
AUTHOR_001
 70
     0
  0
ATTRIB
  5
19A
102
{ACAD_XDICTIONARY
360
7AF
102
}
330
196
100
AcDbEntity
  8
Title {c3}
100
AcDbText
 10
190.660989011687
 20
18.23705928017425
 30
0.0
 40
1.587499976158142
  1
S. Panikkottil
  7
Text Style39
100
AcDbAttribute
  2
AUTHOR_001
 70
     0
  0
ATTRIB
  5
19B
102
{ACAD_XDICTIONARY
360
7B2
102
}
330
196
100
AcDbEntity
  8
Title {c3}
100
AcDbText
 10
196.85
 20
12.85875001192094
 30
0.0
 40
1.587499976158142
  1

  7
Text Style39
 72
     1
 11
196.85
 21
13.65250000000001
 31
0.0
100
AcDbAttribute
  2
CHECKED_BY
 70
     0
 74
     2
  0
ATTRIB
  5
19C
102
{ACAD_XDICTIONARY
360
7B5
102
}
330
196
100
AcDbEntity
  8
Title {c3}
100
AcDbText
 10
191.8305574964724
 20
7.598250513557175
 30
0.0
 40
1.587499976158142
  1
2/26/2009
  7
Text Style39
100
AcDbAttribute
  2
CREATION_DATE_001
 70
     0
  0
ATTRIB
  5
19D
102
{ACAD_XDICTIONARY
360
7B8
102
}
330
196
100
AcDbEntity
  8
Title {c3}
100
AcDbText
 10
210.5095366111772
 20
7.458584632511699
 30
0.0
 40
1.587499976158142
  1
1
  7
Text Style39
100
AcDbAttribute
  2
Rev_#_001
 70
     0
  0
ATTRIB
  5
19E
102
{ACAD_XDICTIONARY
360
7BB
102
}
330
196
100
AcDbEntity
  8
Title {c3}
100
AcDbText
 10
227.957643586209
 20
7.445257735465374
 30
0.0
 40
1.587499976158142
  1
2 : 1
  7
Text Style39
100
AcDbAttribute
  2
Scale_001
 70
     0
  0
ATTRIB
  5
19F
102
{ACAD_XDICTIONARY
360
7BE
102
}
330
196
100
AcDbEntity
  8
Title {c3}
100
AcDbText
 10
245.7485184009561
 20
7.461250011920964
 30
0.0
 40
1.587499976158142
  1
22P30224G01
  7
Text Style39
100
AcDbAttribute
  2
PART_NUMBER_001
 70
     0
  0
ATTRIB
  5
1A0
102
{ACAD_XDICTIONARY
360
7C3
102
}
330
196
100
AcDbEntity
  8
Title {c3}
100
AcDbText
 10
214.0201604127124
 20
18.36105274862298
 30
0.0
 40
1.905000060796737
  1
OD 22mm IEC Multi-Voltage Light Module
  7
Text Style76
100
AcDbAttribute
  2
DESCRIPTION_001
 70
     0
  0
ATTRIB
  5
7C1
102
{ACAD_XDICTIONARY
360
7C2
102
}
330
196
100
AcDbEntity
  8
Title {c3}
100
AcDbText
 10
227.6148754201174
 20
15.10033404147012
 30
0.0
 40
1.905000060796737
  1
(Non-Relampable)
  7
Text Style76
100
AcDbAttribute
  2
DESCRIPTION_002
 70
     0
1001
AcDbAttr
1070
     0
1070
     1
  0
SEQEND
  5
198
330
196
100
AcDbEntity
  8
0
  0
INSERT
  5
1C2
330
6C
100
AcDbEntity
  8
Symbol {c3}
100
AcDbBlockReference
  2
Revision History
 10
0.0
 20
0.0
 30
0.0
 41
0.5
 42
0.5
 43
0.5
  0
LINE
  5
1C3
330
6C
100
AcDbEntity
  8
Visible {c3}
100
AcDbLine
 10
126.0611408137995
 20
115.3474585746833
 30
0.0
 11
125.0601555921246
 21
116.3484437963582
 31
0.0
  0
LINE
  5
1C4
330
6C
100
AcDbEntity
  8
Visible {c3}
100
AcDbLine
 10
125.0601555921246
 20
116.3484437963582
 30
0.0
 11
122.5711408137995
 21
116.3484437963582
 31
0.0
  0
LINE
  5
1C5
330
6C
100
AcDbEntity
  8
Visible {c3}
100
AcDbLine
 10
128.5775247020487
 20
118.6600052651115
 30
0.0
 11
127.5247548660529
 21
118.3581283723736
 31
0.0
  0
LINE
  5
1C6
330
6C
100
AcDbEntity
  8
Visible {c3}
100
AcDbLine
 10
126.0611408137995
 20
115.3474585746833
 30
0.0
 11
126.0611408137995
 21
113.8500855069456
 31
0.0
  0
LINE
  5
1C7
330
6C
100
AcDbEntity
  8
Visible {c3}
100
AcDbLine
 10
121.8711408137995
 20
118.3484437963582
 30
0.0
 11
127.4558455270987
 21
118.3484437963582
 31
0.0
  0
ARC
  5
1C8
330
6C
100
AcDbEntity
  8
Visible {c3}
100
AcDbCircle
 10
121.8711408137995
 20
117.8484437963582
 30
0.0
 40
0.4999999999999983
100
AcDbArc
 50
90.0
 51
180.0
  0
LINE
  5
1C9
330
6C
100
AcDbEntity
  8
Visible {c3}
100
AcDbLine
 10
121.3711408137995
 20
115.9484437963582
 30
0.0
 11
121.3711408137995
 21
117.8484437963582
 31
0.0
  0
ARC
  5
1CA
330
6C
100
AcDbEntity
  8
Visible {c3}
100
AcDbCircle
 10
122.3711408137995
 20
115.9484437963582
 30
0.0
 40
1.000000000000005
100
AcDbArc
 50
180.0
 51
270.0
  0
LINE
  5
1CB
330
6C
100
AcDbEntity
  8
Visible {c3}
100
AcDbLine
 10
122.7311071741469
 20
114.9484437963582
 30
0.0
 11
122.3711408137995
 21
114.9484437963582
 31
0.0
  0
ARC
  5
1CC
330
6C
100
AcDbEntity
  8
Visible {c3}
100
AcDbCircle
 10
122.7311071741469
 20
115.1135437963582
 30
0.0
 40
0.1650999999999951
100
AcDbArc
 50
270.0
 51
15.00000000000274
  0
LINE
  5
1CD
330
6C
100
AcDbEntity
  8
Visible {c3}
100
AcDbLine
 10
122.5711408137995
 20
116.3484437963582
 30
0.0
 11
122.8905815280673
 21
115.1562748207046
 31
0.0
  0
ARC
  5
1CE
330
6C
100
AcDbEntity
  8
Visible {c3}
100
AcDbCircle
 10
165.5173908137995
 20
82.85918329315084
 30
0.0
 40
0.7937499999999926
100
AcDbArc
 50
323.5000000000005
 51
0.0
  0
LINE
  5
1CF
330
6C
100
AcDbEntity
  8
Visible Narrow {c3}
100
AcDbLine
 10
165.5173908137995
 20
82.85918329315084
 30
0.0
 11
166.3111408137995
 21
82.85918329315084
 31
0.0
  0
LINE
  5
1D0
330
6C
100
AcDbEntity
  8
Visible Narrow {c3}
100
AcDbLine
 10
166.1554521969144
 20
82.38704270616695
 30
0.0
 11
165.5173908137995
 21
82.85918329315084
 31
0.0
  0
LINE
  5
1D1
330
6C
100
AcDbEntity
  8
Visible Narrow {c3}
100
AcDbLine
 10
166.3111408137995
 20
119.3177042995656
 30
0.0
 11
165.5173908137995
 21
119.3177042995656
 31
0.0
  0
ARC
  5
1D2
330
6C
100
AcDbEntity
  8
Visible {c3}
100
AcDbCircle
 10
165.5173908137995
 20
119.3177042995656
 30
0.0
 40
0.7937499999999976
100
AcDbArc
 50
0.0
 51
36.49999999999955
  0
LINE
  5
1D3
330
6C
100
AcDbEntity
  8
Visible Narrow {c3}
100
AcDbLine
 10
165.5173908137995
 20
119.3177042995656
 30
0.0
 11
166.1554521969144
 21
119.7898448865495
 31
0.0
  0
LINE
  5
1D4
330
6C
100
AcDbEntity
  8
Visible {c3}
100
AcDbLine
 10
160.305832960201
 20
74.48173601623302
 30
0.0
 11
166.1554521969144
 21
82.38704270616697
 31
0.0
  0
LINE
  5
1D5
330
6C
100
AcDbEntity
  8
Visible Narrow {c3}
100
AcDbLine
 10
165.5173908137995
 20
82.85918329315084
 30
0.0
 11
159.6677715770861
 21
74.95387660321691
 31
0.0
  0
LINE
  5
1D6
330
6C
100
AcDbEntity
  8
Visible Narrow {c3}
100
AcDbLine
 10
160.305832960201
 20
74.48173601623304
 30
0.0
 11
159.6677715770861
 21
74.95387660321691
 31
0.0
  0
LINE
  5
1D7
330
6C
100
AcDbEntity
  8
Visible {c3}
100
AcDbLine
 10
166.3111408137995
 20
82.85918329315084
 30
0.0
 11
166.3111408137995
 21
119.3177042995656
 31
0.0
  0
LINE
  5
1D8
330
6C
100
AcDbEntity
  8
Visible Narrow {c3}
100
AcDbLine
 10
165.5173908137995
 20
119.3177042995656
 30
0.0
 11
165.5173908137995
 21
82.85918329315084
 31
0.0
  0
LINE
  5
1D9
330
6C
100
AcDbEntity
  8
Visible {c3}
100
AcDbLine
 10
166.1554521969144
 20
119.7898448865494
 30
0.0
 11
160.305832960201
 21
127.6951515764834
 31
0.0
  0
LINE
  5
1DA
330
6C
100
AcDbEntity
  8
Visible Narrow {c3}
100
AcDbLine
 10
160.305832960201
 20
127.6951515764834
 30
0.0
 11
159.6677715770861
 21
127.2230109894995
 31
0.0
  0
LINE
  5
1DB
330
6C
100
AcDbEntity
  8
Visible Narrow {c3}
100
AcDbLine
 10
159.6677715770861
 20
127.2230109894995
 30
0.0
 11
165.5173908137995
 21
119.3177042995656
 31
0.0
  0
LINE
  5
1DC
330
6C
100
AcDbEntity
  8
Visible Narrow {c3}
100
AcDbLine
 10
159.3628029986237
 20
74.08629073424281
 30
0.0
 11
159.4732716475107
 21
74.87231601380642
 31
0.0
  0
ARC
  5
1DD
330
6C
100
AcDbEntity
  8
Visible {c3}
100
AcDbCircle
 10
159.5019760995838
 20
75.07655880298435
 30
0.0
 40
0.9999999999999804
100
AcDbArc
 50
261.9999999999987
 51
323.4999999999999
  0
ARC
  5
1DE
330
6C
100
AcDbEntity
  8
Visible Narrow {c3}
100
AcDbCircle
 10
159.5019760995837
 20
75.07655880298438
 30
0.0
 40
0.2062500000000009
100
AcDbArc
 50
261.9999999999986
 51
323.4999999999979
  0
LINE
  5
1DF
330
6C
100
AcDbEntity
  8
Visible Narrow {c3}
100
AcDbLine
 10
149.1466360176432
 20
75.52207936920881
 30
0.0
 11
149.2571046665302
 21
76.30810464877242
 31
0.0
  0
LINE
  5
1E0
330
6C
100
AcDbEntity
  8
Visible {c3}
100
AcDbLine
 10
149.1466360176432
 20
75.52207936920881
 30
0.0
 11
159.3628029986237
 21
74.08629073424281
 31
0.0
  0
LINE
  5
1E1
330
6C
100
AcDbEntity
  8
Visible Narrow {c3}
100
AcDbLine
 10
159.4732716475107
 20
74.87231601380642
 30
0.0
 11
149.2571046665302
 21
76.30810464877244
 31
0.0
  0
LINE
  5
1E2
330
6C
100
AcDbEntity
  8
Visible Narrow {c3}
100
AcDbLine
 10
147.7691408137995
 20
77.10670633280907
 30
0.0
 11
148.5628908137995
 21
77.10670633280907
 31
0.0
  0
ARC
  5
1E3
330
6C
100
AcDbEntity
  8
Visible {c3}
100
AcDbCircle
 10
149.3693408137995
 20
77.10670633280908
 30
0.0
 40
1.600200000000009
100
AcDbArc
 50
180.0
 51
261.9999999999994
  0
ARC
  5
1E4
330
6C
100
AcDbEntity
  8
Visible Narrow {c3}
100
AcDbCircle
 10
149.3693408137995
 20
77.10670633280907
 30
0.0
 40
0.8064499999999952
100
AcDbArc
 50
180.0
 51
261.9999999999998
  0
LINE
  5
1E5
330
6C
100
AcDbEntity
  8
Visible Narrow {c3}
100
AcDbLine
 10
147.7691408137995
 20
77.74170633280907
 30
0.0
 11
148.5628908137995
 21
77.74170633280907
 31
0.0
  0
LINE
  5
1E6
330
6C
100
AcDbEntity
  8
Visible {c3}
100
AcDbLine
 10
147.7691408137995
 20
77.74170633280907
 30
0.0
 11
147.7691408137995
 21
77.10670633280907
 31
0.0
  0
LINE
  5
1E7
330
6C
100
AcDbEntity
  8
Visible Narrow {c3}
100
AcDbLine
 10
148.5628908137995
 20
77.10670633280907
 30
0.0
 11
148.5628908137995
 21
77.74170633280907
 31
0.0
  0
ARC
  5
1E8
330
6C
100
AcDbEntity
  8
Visible {c3}
100
AcDbCircle
 10
146.2451408137995
 20
77.74170633280909
 30
0.0
 40
1.523999999999991
100
AcDbArc
 50
0.0
 51
68.98678502290545
  0
ARC
  5
1E9
330
6C
100
AcDbEntity
  8
Visible Narrow {c3}
100
AcDbCircle
 10
146.2451408137995
 20
77.74170633280906
 30
0.0
 40
2.317750000000009
100
AcDbArc
 50
0.0
 51
70.85327589208323
  0
SPLINE
  5
1EA
330
6C
100
AcDbEntity
  8
Visible {c3}
100
AcDbSpline
210
0.0
220
0.0
230
1.0
 70
     8
 71
     3
 72
    16
 73
    12
 74
     0
 42
0.0000000001
 43
0.0000000001
 40
-0.1252484356709354
 40
-0.1252484356709354
 40
-0.1252484356709354
 40
-0.1252484356709354
 40
-0.1245631932966169
 40
-0.1245631932966169
 40
-0.0929422716655636
 40
-0.0929422716655636
 40
-0.06186359363793
 40
-0.06186359363793
 40
-0.0308993966283804
 40
-0.0308993966283804
 40
0.0
 40
0.0
 40
0.0
 40
0.0
 10
147.0053358955153
 20
79.93124247095225
 30
0.0
 10
147.0047387208838
 20
79.92903752276236
 30
0.0
 10
147.0041414354852
 20
79.92683261536017
 30
0.0
 10
146.9759775934959
 20
79.82288574832224
 30
0.0
 10
146.9484731946161
 20
79.72237351997467
 30
0.0
 10
146.8972538894588
 20
79.53711254732664
 30
0.0
 10
146.8739638674817
 20
79.45386193903397
 30
0.0
 10
146.8345461159905
 20
79.31414934764092
 30
0.0
 10
146.8187734041047
 20
79.25890814624285
 30
0.0
 10
146.797211825282
 20
79.18368655577253
 30
0.0
 10
146.7916217104808
 20
79.16435689762194
 30
0.0
 10
146.7916217104808
 20
79.16435689762194
 30
0.0
  0
LINE
  5
1EB
330
6C
100
AcDbEntity
  8
Visible {c3}
100
AcDbLine
 10
137.0611408137994
 20
81.08424455301133
 30
0.0
 11
146.7916217104808
 21
79.16435689762194
 31
0.0
  0
LINE
  5
1EC
330
6C
100
AcDbEntity
  8
Visible Narrow {c3}
100
AcDbLine
 10
147.0053358955153
 20
79.93124247095225
 30
0.0
 11
137.2476917130464
 21
81.85648962065824
 31
0.0
  0
LINE
  5
1ED
330
6C
100
AcDbEntity
  8
Visible {c3}
100
AcDbLine
 10
137.0611408137994
 20
81.08424455301133
 30
0.0
 11
137.2476917130464
 21
81.85648962065826
 31
0.0
  0
SPLINE
  5
1EE
330
6C
100
AcDbEntity
  8
Visible {c3}
100
AcDbSpline
210
0.0
220
0.0
230
1.0
 70
     8
 71
     3
 72
    10
 73
     6
 74
     0
 42
0.0000000001
 43
0.0000000001
 40
0.4157191474406135
 40
0.4157191474406135
 40
0.4157191474406135
 40
0.4157191474406135
 40
0.490804581060589
 40
0.490804581060589
 40
0.5658900146805647
 40
0.5658900146805647
 40
0.5658900146805647
 40
0.5658900146805647
 10
136.6343969597575
 20
82.03234906127395
 30
0.0
 10
136.3788156595902
 20
82.01225127637036
 30
0.0
 10
136.1151295278821
 20
82.03989998375453
 30
0.0
 10
135.6339511861368
 20
82.1778756529771
 30
0.0
 10
135.3956810814848
 20
82.294160580222
 30
0.0
 10
135.1895860498536
 20
82.44664192298285
 30
0.0
  0
LINE
  5
1EF
330
6C
100
AcDbEntity
  8
Visible Narrow {c3}
100
AcDbLine
 10
135.1895860498536
 20
82.44664192298285
 30
0.0
 11
131.8664719312537
 21
83.39952956284134
 31
0.0
  0
LINE
  5
1F0
330
6C
100
AcDbEntity
  8
Visible Narrow {c3}
100
AcDbLine
 10
131.647684780074
 20
82.6365280916903
 30
0.0
 11
131.8664719312537
 21
83.39952956284134
 31
0.0
  0
LINE
  5
1F1
330
6C
100
AcDbEntity
  8
Visible {c3}
100
AcDbLine
 10
131.647684780074
 20
82.6365280916903
 30
0.0
 11
137.0611408137994
 21
81.08424455301133
 31
0.0
  0
LINE
  5
1F2
330
6C
100
AcDbEntity
  8
Visible Narrow {c3}
100
AcDbLine
 10
137.2476917130464
 20
81.85648962065824
 30
0.0
 11
136.6343969597575
 21
82.03234906127395
 31
0.0
  0
LINE
  5
1F3
330
6C
100
AcDbEntity
  8
Visible Narrow {c3}
100
AcDbLine
 10
130.5611408137995
 20
84.07842063559778
 30
0.0
 11
131.3548908137995
 21
84.07842063559778
 31
0.0
  0
ARC
  5
1F4
330
6C
100
AcDbEntity
  8
Visible {c3}
100
AcDbCircle
 10
132.0611408137995
 20
84.07842063559778
 30
0.0
 40
1.499999999999999
100
AcDbArc
 50
180.0
 51
254.0
  0
ARC
  5
1F5
330
6C
100
AcDbEntity
  8
Visible Narrow {c3}
100
AcDbCircle
 10
132.0611408137995
 20
84.07842063559778
 30
0.0
 40
0.7062499999999956
100
AcDbArc
 50
180.0
 51
254.0000000000002
  0
LINE
  5
1F6
330
6C
100
AcDbEntity
  8
Visible Narrow {c3}
100
AcDbLine
 10
130.5611408137995
 20
85.26295873232951
 30
0.0
 11
131.3548908137994
 21
85.26295873232951
 31
0.0
  0
LINE
  5
1F7
330
6C
100
AcDbEntity
  8
Visible {c3}
100
AcDbLine
 10
130.5611408137995
 20
85.26295873232951
 30
0.0
 11
130.5611408137995
 21
84.07842063559778
 31
0.0
  0
LINE
  5
1F8
330
6C
100
AcDbEntity
  8
Visible Narrow {c3}
100
AcDbLine
 10
131.3548908137995
 20
84.07842063559778
 30
0.0
 11
131.3548908137994
 21
85.26295873232951
 31
0.0
  0
LINE
  5
1F9
330
6C
100
AcDbEntity
  8
Visible Narrow {c3}
100
AcDbLine
 10
130.4887045493811
 20
85.35908490192335
 30
0.0
 11
130.7074917005609
 21
86.12208637307439
 31
0.0
  0
ARC
  5
1FA
330
6C
100
AcDbEntity
  8
Visible {c3}
100
AcDbCircle
 10
130.4611408137995
 20
85.26295873232951
 30
0.0
 40
0.0999999999999995
100
AcDbArc
 50
0.0
 51
73.99999999999632
  0
ARC
  5
1FB
330
6C
100
AcDbEntity
  8
Visible Narrow {c3}
100
AcDbCircle
 10
130.4611408137995
 20
85.26295873232951
 30
0.0
 40
0.8937500000000063
100
AcDbArc
 50
0.0
 51
73.99999999999934
  0
LINE
  5
1FC
330
6C
100
AcDbEntity
  8
Visible Narrow {c3}
100
AcDbLine
 10
126.7855034579825
 20
86.42096072741891
 30
0.0
 11
127.0042906091622
 21
87.18396219856996
 31
0.0
  0
LINE
  5
1FD
330
6C
100
AcDbEntity
  8
Visible {c3}
100
AcDbLine
 10
126.7855034579825
 20
86.42096072741891
 30
0.0
 11
130.4887045493811
 21
85.35908490192335
 31
0.0
  0
LINE
  5
1FE
330
6C
100
AcDbEntity
  8
Visible Narrow {c3}
100
AcDbLine
 10
130.7074917005609
 20
86.12208637307439
 30
0.0
 11
127.0042906091622
 21
87.18396219856996
 31
0.0
  0
LINE
  5
1FF
330
6C
100
AcDbEntity
  8
Visible Narrow {c3}
100
AcDbLine
 10
126.0611408137995
 20
87.38222242335723
 30
0.0
 11
126.8548908137995
 21
87.38222242335723
 31
0.0
  0
ARC
  5
200
330
6C
100
AcDbEntity
  8
Visible {c3}
100
AcDbCircle
 10
127.0611408137995
 20
87.38222242335723
 30
0.0
 40
1.0
100
AcDbArc
 50
180.0
 51
254.0000000000004
  0
ARC
  5
201
330
6C
100
AcDbEntity
  8
Visible Narrow {c3}
100
AcDbCircle
 10
127.0611408137995
 20
87.38222242335723
 30
0.0
 40
0.2062499999999989
100
AcDbArc
 50
180.0
 51
253.9999999999982
  0
LINE
  5
202
330
6C
100
AcDbEntity
  8
Visible Narrow {c3}
100
AcDbLine
 10
126.0611408137995
 20
113.8500855069456
 30
0.0
 11
126.8548908137995
 21
113.8500855069456
 31
0.0
  0
LINE
  5
203
330
6C
100
AcDbEntity
  8
Visible {c3}
100
AcDbLine
 10
126.0611408137995
 20
113.8500855069456
 30
0.0
 11
126.0611408137995
 21
87.38222242335723
 31
0.0
  0
LINE
  5
204
330
6C
100
AcDbEntity
  8
Visible Narrow {c3}
100
AcDbLine
 10
126.8548908137995
 20
87.38222242335723
 30
0.0
 11
126.8548908137995
 21
113.8500855069456
 31
0.0
  0
LINE
  5
205
330
6C
100
AcDbEntity
  8
Visible Narrow {c3}
100
AcDbLine
 10
126.9190447669843
 20
115.2057081191295
 30
0.0
 11
127.2588205917573
 21
114.4883578201822
 31
0.0
  0
ARC
  5
206
330
6C
100
AcDbEntity
  8
Visible {c3}
100
AcDbCircle
 10
127.5611408137995
 20
113.8500855069456
 30
0.0
 40
1.499999999999995
100
AcDbArc
 50
115.3447613020979
 51
180.0
  0
ARC
  5
207
330
6C
100
AcDbEntity
  8
Visible Narrow {c3}
100
AcDbCircle
 10
127.5611408137995
 20
113.8500855069456
 30
0.0
 40
0.7062499999999928
100
AcDbArc
 50
115.3447613020975
 51
180.0
  0
LINE
  5
208
330
6C
100
AcDbEntity
  8
Visible Narrow {c3}
100
AcDbLine
 10
127.4909807357743
 20
116.1094565272521
 30
0.0
 11
128.2847307357743
 21
116.1094565272521
 31
0.0
  0
ARC
  5
209
330
6C
100
AcDbEntity
  8
Visible {c3}
100
AcDbCircle
 10
126.4909807357742
 20
116.1094565272521
 30
0.0
 40
1.000000000000005
100
AcDbArc
 50
295.3447613020982
 51
0.0
  0
ARC
  5
20A
330
6C
100
AcDbEntity
  8
Visible Narrow {c3}
100
AcDbCircle
 10
126.4909807357743
 20
116.1094565272521
 30
0.0
 40
1.793749999999996
100
AcDbArc
 50
295.3447613020977
 51
0.0
  0
LINE
  5
20B
330
6C
100
AcDbEntity
  8
Visible Narrow {c3}
100
AcDbLine
 10
127.4909807357742
 20
117.218112721204
 30
0.0
 11
128.2847307357743
 21
117.218112721204
 31
0.0
  0
LINE
  5
20C
330
6C
100
AcDbEntity
  8
Visible {c3}
100
AcDbLine
 10
127.4909807357743
 20
117.218112721204
 30
0.0
 11
127.4909807357743
 21
116.1094565272521
 31
0.0
  0
LINE
  5
20D
330
6C
100
AcDbEntity
  8
Visible Narrow {c3}
100
AcDbLine
 10
128.2847307357743
 20
116.1094565272521
 30
0.0
 11
128.2847307357743
 21
117.218112721204
 31
0.0
  0
LINE
  5
20E
330
6C
100
AcDbEntity
  8
Visible Narrow {c3}
100
AcDbLine
 10
128.5775247020487
 20
118.6600052651115
 30
0.0
 11
128.7963118532285
 21
117.8970037939605
 31
0.0
  0
ARC
  5
20F
330
6C
100
AcDbEntity
  8
Visible {c3}
100
AcDbCircle
 10
128.9909807357742
 20
117.218112721204
 30
0.0
 40
1.499999999999995
100
AcDbArc
 50
106.0
 51
180.0
  0
ARC
  5
210
330
6C
100
AcDbEntity
  8
Visible Narrow {c3}
100
AcDbCircle
 10
128.9909807357743
 20
117.218112721204
 30
0.0
 40
0.7062500000000016
100
AcDbArc
 50
105.9999999999998
 51
180.0
  0
SPLINE
  5
211
330
6C
100
AcDbEntity
  8
Visible {c3}
100
AcDbSpline
210
0.0
220
0.0
230
1.0
 70
     8
 71
     3
 72
    10
 73
     6
 74
     0
 42
0.0000000001
 43
0.0000000001
 40
0.4157191474406132
 40
0.4157191474406132
 40
0.4157191474406132
 40
0.4157191474406132
 40
0.4908045810605889
 40
0.4908045810605889
 40
0.5658900146805645
 40
0.5658900146805645
 40
0.5658900146805645
 40
0.5658900146805645
 10
135.1895860498536
 20
119.7302456697336
 30
0.0
 10
135.3956810814848
 20
119.8827270124944
 30
0.0
 10
135.6339511861368
 20
119.9990119397394
 30
0.0
 10
136.1151295278821
 20
120.1369876089619
 30
0.0
 10
136.3788156595902
 20
120.1646363163461
 30
0.0
 10
136.6343969597575
 20
120.1445385314425
 30
0.0
  0
LINE
  5
212
330
6C
100
AcDbEntity
  8
Visible Narrow {c3}
100
AcDbLine
 10
136.6343969597575
 20
120.1445385314425
 30
0.0
 11
137.2476917130467
 21
120.3203979720582
 31
0.0
  0
LINE
  5
213
330
6C
100
AcDbEntity
  8
Visible {c3}
100
AcDbLine
 10
137.0611408137994
 20
121.0926430397051
 30
0.0
 11
137.2476917130467
 21
120.3203979720582
 31
0.0
  0
LINE
  5
214
330
6C
100
AcDbEntity
  8
Visible {c3}
100
AcDbLine
 10
137.0611408137994
 20
121.0926430397051
 30
0.0
 11
128.5775247020487
 21
118.6600052651115
 31
0.0
  0
LINE
  5
215
330
6C
100
AcDbEntity
  8
Visible Narrow {c3}
100
AcDbLine
 10
128.7963118532285
 20
117.8970037939605
 30
0.0
 11
135.1895860498536
 21
119.7302456697336
 31
0.0
  0
LINE
  5
216
330
6C
100
AcDbEntity
  8
Visible Narrow {c3}
100
AcDbLine
 10
137.2476917130467
 20
120.3203979720582
 30
0.0
 11
147.0053358955153
 21
122.2456451217641
 31
0.0
  0
SPLINE
  5
217
330
6C
100
AcDbEntity
  8
Visible {c3}
100
AcDbSpline
210
0.0
220
0.0
230
1.0
 70
     8
 71
     3
 72
    16
 73
    12
 74
     0
 42
0.0000000001
 43
0.0000000001
 40
-0.0006853154496077
 40
-0.0006853154496077
 40
-0.0006853154496077
 40
-0.0006853154496077
 40
0.0
 40
0.0
 40
0.0316242937342305
 40
0.0316242937342305
 40
0.0627062860393603
 40
0.0627062860393603
 40
0.0936737851179677
 40
0.0936737851179677
 40
0.1245764769049996
 40
0.1245764769049996
 40
0.1245764769049996
 40
0.1245764769049996
 10
147.0053358955153
 20
122.2456451217641
 30
0.0
 10
147.0047387208837
 20
122.2478500699541
 30
0.0
 10
147.0041414354852
 20
122.2500549773562
 30
0.0
 10
146.975977593496
 20
122.3540018443942
 30
0.0
 10
146.9484731946161
 20
122.4545140727417
 30
0.0
 10
146.8972538894587
 20
122.6397750453898
 30
0.0
 10
146.8739638674817
 20
122.7230256536824
 30
0.0
 10
146.8345461159905
 20
122.8627382450755
 30
0.0
 10
146.8187734041047
 20
122.9179794464736
 30
0.0
 10
146.797211825282
 20
122.9932010369439
 30
0.0
 10
146.7916217104808
 20
123.0125306950945
 30
0.0
 10
146.7916217104808
 20
123.0125306950945
 30
0.0
  0
LINE
  5
218
330
6C
100
AcDbEntity
  8
Visible {c3}
100
AcDbLine
 10
146.7916217104808
 20
123.0125306950945
 30
0.0
 11
137.0611408137994
 21
121.0926430397051
 31
0.0
  0
LINE
  5
219
330
6C
100
AcDbEntity
  8
Visible Narrow {c3}
100
AcDbLine
 10
147.7691408137995
 20
124.4351812599074
 30
0.0
 11
148.5628908137995
 21
124.4351812599074
 31
0.0
  0
ARC
  5
21A
330
6C
100
AcDbEntity
  8
Visible {c3}
100
AcDbCircle
 10
146.2451408137995
 20
124.4351812599074
 30
0.0
 40
1.523999999999992
100
AcDbArc
 50
291.0132149770939
 51
0.0
  0
ARC
  5
21B
330
6C
100
AcDbEntity
  8
Visible Narrow {c3}
100
AcDbCircle
 10
146.2451408137995
 20
124.4351812599074
 30
0.0
 40
2.317750000000012
100
AcDbArc
 50
289.1467241079159
 51
0.0
  0
LINE
  5
21C
330
6C
100
AcDbEntity
  8
Visible Narrow {c3}
100
AcDbLine
 10
147.7691408137995
 20
125.0701812599074
 30
0.0
 11
148.5628908137995
 21
125.0701812599074
 31
0.0
  0
LINE
  5
21D
330
6C
100
AcDbEntity
  8
Visible {c3}
100
AcDbLine
 10
147.7691408137995
 20
125.0701812599074
 30
0.0
 11
147.7691408137995
 21
124.4351812599074
 31
0.0
  0
LINE
  5
21E
330
6C
100
AcDbEntity
  8
Visible Narrow {c3}
100
AcDbLine
 10
148.5628908137995
 20
124.4351812599074
 30
0.0
 11
148.5628908137995
 21
125.0701812599074
 31
0.0
  0
LINE
  5
21F
330
6C
100
AcDbEntity
  8
Visible Narrow {c3}
100
AcDbLine
 10
149.1466360176432
 20
126.6548082235076
 30
0.0
 11
149.2571046665302
 21
125.868782943944
 31
0.0
  0
ARC
  5
220
330
6C
100
AcDbEntity
  8
Visible {c3}
100
AcDbCircle
 10
149.3693408137995
 20
125.0701812599073
 30
0.0
 40
1.600200000000006
100
AcDbArc
 50
98.00000000000064
 51
180.0
  0
ARC
  5
221
330
6C
100
AcDbEntity
  8
Visible Narrow {c3}
100
AcDbCircle
 10
149.3693408137995
 20
125.0701812599074
 30
0.0
 40
0.8064500000000039
100
AcDbArc
 50
98.00000000000007
 51
180.0
  0
LINE
  5
222
330
6C
100
AcDbEntity
  8
Visible Narrow {c3}
100
AcDbLine
 10
159.3628029986237
 20
128.0905968584736
 30
0.0
 11
159.4732716475107
 21
127.30457157891
 31
0.0
  0
LINE
  5
223
330
6C
100
AcDbEntity
  8
Visible {c3}
100
AcDbLine
 10
159.3628029986237
 20
128.0905968584736
 30
0.0
 11
149.1466360176432
 21
126.6548082235076
 31
0.0
  0
LINE
  5
224
330
6C
100
AcDbEntity
  8
Visible Narrow {c3}
100
AcDbLine
 10
149.2571046665302
 20
125.868782943944
 30
0.0
 11
159.4732716475107
 21
127.30457157891
 31
0.0
  0
ARC
  5
225
330
6C
100
AcDbEntity
  8
Visible {c3}
100
AcDbCircle
 10
159.5019760995837
 20
127.1003287897321
 30
0.0
 40
0.9999999999999976
100
AcDbArc
 50
36.49999999999946
 51
98.00000000000018
  0
ARC
  5
226
330
6C
100
AcDbEntity
  8
Visible Narrow {c3}
100
AcDbCircle
 10
159.5019760995837
 20
127.100328789732
 30
0.0
 40
0.2062500000000123
100
AcDbArc
 50
36.49999999999918
 51
97.99999999999613
  0
CIRCLE
  5
227
330
6C
100
AcDbEntity
  8
Visible {c3}
100
AcDbCircle
 10
161.5105408137995
 20
113.7884437963582
 30
0.0
 40
2.1463
  0
ARC
  5
228
330
6C
100
AcDbEntity
  8
Visible {c3}
100
AcDbCircle
 10
136.4661408137995
 20
118.0048437963582
 30
0.0
 40
2.1463
100
AcDbArc
 50
126.4962347669717
 51
85.50376523302835
  0
CIRCLE
  5
229
330
6C
100
AcDbEntity
  8
Visible {c3}
100
AcDbCircle
 10
136.4661408137995
 20
118.0048437963582
 30
0.0
 40
0.8382000000000001
  0
CIRCLE
  5
22A
330
6C
100
AcDbEntity
  8
Visible {c3}
100
AcDbCircle
 10
161.5105408137995
 20
113.7884437963582
 30
0.0
 40
0.8382000000000001
  0
CIRCLE
  5
22B
330
6C
100
AcDbEntity
  8
Visible {c3}
100
AcDbCircle
 10
161.5105408137995
 20
88.38844379635823
 30
0.0
 40
2.1463
  0
CIRCLE
  5
22C
330
6C
100
AcDbEntity
  8
Visible {c3}
100
AcDbCircle
 10
161.5105408137995
 20
88.38844379635823
 30
0.0
 40
0.8382000000000001
  0
ARC
  5
22D
330
6C
100
AcDbEntity
  8
Visible {c3}
100
AcDbCircle
 10
136.4661408137995
 20
84.17204379635823
 30
0.0
 40
2.146300000000001
100
AcDbArc
 50
274.4962347669717
 51
233.5037652330284
  0
CIRCLE
  5
22E
330
6C
100
AcDbEntity
  8
Visible {c3}
100
AcDbCircle
 10
136.4661408137995
 20
84.17204379635823
 30
0.0
 40
0.8382000000000001
  0
LINE
  5
22F
330
6C
100
AcDbEntity
  8
Visible {c3}
100
AcDbLine
 10
126.0611408137995
 20
84.23844379635822
 30
0.0
 11
131.647684780074
 21
82.6365280916903
 31
0.0
  0
ARC
  5
230
330
6C
100
AcDbEntity
  8
Visible {c3}
100
AcDbCircle
 10
123.0150980363215
 20
83.83802104660052
 30
0.0
 40
0.4499999999999983
100
AcDbArc
 50
117.1483168153715
 51
254.7000000000013
  0
LINE
  5
231
330
6C
100
AcDbEntity
  8
Visible {c3}
100
AcDbLine
 10
126.0611408137995
 20
84.23844379635822
 30
0.0
 11
122.8097650835924
 21
84.23844379635823
 31
0.0
  0
LINE
  5
232
330
6C
100
AcDbEntity
  8
Visible {c3}
100
AcDbLine
 10
122.5711408137995
 20
85.84844379635823
 30
0.0
 11
126.0611408137995
 21
85.84844379635823
 31
0.0
  0
LINE
  5
233
330
6C
100
AcDbEntity
  8
Visible {c3}
100
AcDbLine
 10
122.5711408137995
 20
86.95334379635824
 30
0.0
 11
122.5711408137995
 21
85.84844379635823
 31
0.0
  0
ARC
  5
234
330
6C
100
AcDbEntity
  8
Visible {c3}
100
AcDbCircle
 10
122.4060408137995
 20
86.95334379635824
 30
0.0
 40
0.1651000000000002
100
AcDbArc
 50
0.0
 51
89.99999999999385
  0
LINE
  5
235
330
6C
100
AcDbEntity
  8
Visible {c3}
100
AcDbLine
 10
122.3711408137995
 20
87.11844379635824
 30
0.0
 11
122.4060408137995
 21
87.11844379635824
 31
0.0
  0
ARC
  5
236
330
6C
100
AcDbEntity
  8
Visible {c3}
100
AcDbCircle
 10
122.3711408137995
 20
86.11844379635824
 30
0.0
 40
1.000000000000005
100
AcDbArc
 50
90.00000000000101
 51
180.0
  0
LINE
  5
237
330
6C
100
AcDbEntity
  8
Visible {c3}
100
AcDbLine
 10
121.3711408137995
 20
83.71844379635822
 30
0.0
 11
121.3711408137995
 21
86.11844379635824
 31
0.0
  0
ARC
  5
238
330
6C
100
AcDbEntity
  8
Visible {c3}
100
AcDbCircle
 10
123.1711408137995
 20
83.71844379635822
 30
0.0
 40
1.799999999999997
100
AcDbArc
 50
180.0
 51
270.0
  0
LINE
  5
239
330
6C
100
AcDbEntity
  8
Visible {c3}
100
AcDbLine
 10
124.4211408137995
 20
81.91844379635822
 30
0.0
 11
123.1711408137995
 21
81.91844379635822
 31
0.0
  0
ARC
  5
23A
330
6C
100
AcDbEntity
  8
Visible {c3}
100
AcDbCircle
 10
124.4211408137995
 20
82.16844379635823
 30
0.0
 40
0.2499999999999991
100
AcDbArc
 50
270.0
 51
0.0
  0
LINE
  5
23B
330
6C
100
AcDbEntity
  8
Visible {c3}
100
AcDbLine
 10
124.6711408137995
 20
82.72764982807078
 30
0.0
 11
124.6711408137995
 21
82.16844379635823
 31
0.0
  0
ARC
  5
23C
330
6C
100
AcDbEntity
  8
Visible {c3}
100
AcDbCircle
 10
124.4211408137995
 20
82.72764982807077
 30
0.0
 40
0.2500000000000089
100
AcDbArc
 50
0.0
 51
74.69999999999477
  0
LINE
  5
23D
330
6C
100
AcDbEntity
  8
Visible {c3}
100
AcDbLine
 10
122.8963551638371
 20
83.40397020829451
 30
0.0
 11
124.4871090762908
 21
82.96878918268523
 31
0.0
  0
LINE
  5
23E
330
6C
100
AcDbEntity
  8
Visible {c3}
100
AcDbLine
 10
126.0611408137995
 20
85.84844379635823
 30
0.0
 11
127.2920141935876
 21
85.49549653425064
 31
0.0
  0
LINE
  5
23F
330
6C
100
AcDbEntity
  8
Visible {c3}
100
AcDbLine
 10
127.2920141935876
 20
85.49549653425064
 30
0.0
 11
130.4506879674727
 21
85.16350654279269
 31
0.0
  0
ARC
  5
240
330
6C
100
AcDbEntity
  8
Visible {c3}
100
AcDbCircle
 10
130.4611408137995
 20
85.26295873232951
 30
0.0
 40
0.0999999999999992
100
AcDbArc
 50
264.0000000000023
 51
0.0
  0
ARC
  5
241
330
6C
100
AcDbEntity
  8
Visible {c3}
100
AcDbCircle
 10
127.4558455270987
 20
118.5984437963582
 30
0.0
 40
0.2500000000000058
100
AcDbArc
 50
270.0
 51
286.0000000000009
  0
ARC
  5
242
330
6C
100
AcDbEntity
  8
Visible {c3}
100
AcDbCircle
 10
146.2511408137993
 20
124.4359231688616
 30
0.0
 40
1.520000000000032
100
AcDbArc
 50
290.2078793665822
 51
318.3876825253067
  0
LINE
  5
243
330
6C
100
AcDbEntity
  8
Visible {c3}
100
AcDbLine
 10
159.3626106547849
 20
128.0908567962522
 30
0.0
 11
149.1484638522625
 21
126.655352078848
 31
0.0
  0
ARC
  5
244
330
6C
100
AcDbEntity
  8
Visible {c3}
100
AcDbCircle
 10
149.3711408137994
 20
125.0709231688616
 30
0.0
 40
1.600000000000052
100
AcDbArc
 50
98.00000000002675
 51
106.5384998821506
  0
ARC
  5
245
330
6C
100
AcDbEntity
  8
Visible {c3}
100
AcDbCircle
 10
159.5017837557455
 20
75.07629886520596
 30
0.0
 40
1.000000000000029
100
AcDbArc
 50
291.7323622776705
 51
323.4999999999999
  0
ARC
  5
246
330
6C
100
AcDbEntity
  8
Visible {c3}
100
AcDbCircle
 10
159.5017837557455
 20
75.07629886520598
 30
0.0
 40
1.000000000000051
100
AcDbArc
 50
261.9999999999745
 51
291.732362277669
  0
ARC
  5
247
330
6C
100
AcDbEntity
  8
Visible {c3}
100
AcDbCircle
 10
159.5017837557454
 20
127.1005887275106
 30
0.0
 40
1.000000000000029
100
AcDbArc
 50
68.2676377223314
 51
98.00000000002663
  0
ARC
  5
248
330
6C
100
AcDbEntity
  8
Visible {c3}
100
AcDbCircle
 10
159.5017837557455
 20
127.1005887275107
 30
0.0
 40
0.9999999999999651
100
AcDbArc
 50
36.49999999999986
 51
68.26763772233121
  0
LINE
  5
249
330
6C
100
AcDbEntity
  8
Visible {c3}
100
AcDbLine
 10
159.362610654785
 20
74.08603079646443
 30
0.0
 11
149.1484638522626
 21
75.52153551386858
 31
0.0
  0
ARC
  5
24A
330
6C
100
AcDbEntity
  8
Visible {c3}
100
AcDbCircle
 10
146.2511408137995
 20
77.74096442385498
 30
0.0
 40
1.519999999999994
100
AcDbArc
 50
41.61231747640352
 51
69.79212063338562
  0
ARC
  5
24B
330
6C
100
AcDbEntity
  8
Visible {c3}
100
AcDbCircle
 10
149.3711408137994
 20
77.10596442385477
 30
0.0
 40
1.599999999999756
100
AcDbArc
 50
253.4615001222249
 51
261.9999999999744
  0
LINE
  5
24C
330
6C
100
AcDbEntity
  8
Visible {c3}
100
AcDbLine
 10
160.3058329602009
 20
74.48173601623325
 30
0.0
 11
160.3056406163628
 21
74.48147607845459
 31
0.0
  0
LINE
  5
24D
330
6C
100
AcDbEntity
  8
Visible {c3}
100
AcDbLine
 10
159.8720552543808
 20
74.14737528530372
 30
0.0
 11
159.871972197379
 21
74.14752549485377
 31
0.0
  0
LINE
  5
24E
330
6C
100
AcDbEntity
  8
Visible {c3}
100
AcDbLine
 10
160.3058329602009
 20
127.6951515764832
 30
0.0
 11
160.3056406163627
 21
127.695411514262
 31
0.0
  0
LINE
  5
24F
330
6C
100
AcDbEntity
  8
Visible {c3}
100
AcDbLine
 10
159.8720552543808
 20
128.0295123074129
 30
0.0
 11
159.8719721973788
 21
128.0293620978628
 31
0.0
  0
CIRCLE
  5
250
330
6C
100
AcDbEntity
  8
Visible {c3}
100
AcDbCircle
 10
136.4661408137995
 20
118.0048437963582
 30
0.0
 40
0.5079999999999995
  0
CIRCLE
  5
251
330
6C
100
AcDbEntity
  8
Visible {c3}
100
AcDbCircle
 10
136.4661408137995
 20
118.0048437963582
 30
0.0
 40
0.7449999999999992
  0
CIRCLE
  5
252
330
6C
100
AcDbEntity
  8
Visible {c3}
100
AcDbCircle
 10
136.4661408137995
 20
84.17204379635839
 30
0.0
 40
0.508000000000002
  0
CIRCLE
  5
253
330
6C
100
AcDbEntity
  8
Visible {c3}
100
AcDbCircle
 10
136.4661408137995
 20
84.17204379635839
 30
0.0
 40
0.7450000000000029
  0
CIRCLE
  5
254
330
6C
100
AcDbEntity
  8
Visible {c3}
100
AcDbCircle
 10
161.5105408137993
 20
113.7884437963582
 30
0.0
 40
0.5080000000000025
  0
CIRCLE
  5
255
330
6C
100
AcDbEntity
  8
Visible {c3}
100
AcDbCircle
 10
161.5105408137993
 20
113.7884437963582
 30
0.0
 40
0.7450000000000035
  0
CIRCLE
  5
256
330
6C
100
AcDbEntity
  8
Visible {c3}
100
AcDbCircle
 10
161.5105408137993
 20
88.38844379635837
 30
0.0
 40
0.5080000000000017
  0
CIRCLE
  5
257
330
6C
100
AcDbEntity
  8
Visible {c3}
100
AcDbCircle
 10
161.5105408137993
 20
88.38844379635837
 30
0.0
 40
0.7450000000000024
  0
LINE
  5
258
330
6C
100
AcDbEntity
  8
Visible {c3}
100
AcDbLine
 10
111.5233674539586
 20
97.49879903747995
 30
0.0
 11
111.5233674539586
 21
104.6780885552365
 31
0.0
  0
LINE
  5
259
330
6C
100
AcDbEntity
  8
Visible {c3}
100
AcDbLine
 10
111.5233674539586
 20
104.6780885552365
 30
0.0
 11
126.0611408137995
 21
104.9318463331442
 31
0.0
  0
LINE
  5
25A
330
6C
100
AcDbEntity
  8
Visible {c3}
100
AcDbLine
 10
111.5233674539586
 20
97.49879903747995
 30
0.0
 11
126.0611408137995
 21
97.24504125957219
 31
0.0
  0
ELLIPSE
  5
25B
330
6C
100
AcDbEntity
  8
Visible Narrow {c3}
100
AcDbEllipse
 10
73.94195267801695
 20
74.87231601380642
 30
0.0
 11
0.7937499999999981
 21
0.0000000000000044
 31
0.0
210
0.0
220
0.0
230
1.0
 40
0.9902680687415704
 41
4.712388980384684
 42
6.283185307179656
  0
LINE
  5
25C
330
6C
100
AcDbEntity
  8
Visible Narrow {c3}
100
AcDbLine
 10
73.94195267801695
 20
74.07655880298436
 30
0.0
 11
73.9419526780169
 21
74.08629073424281
 31
0.0
  0
LINE
  5
25D
330
6C
100
AcDbEntity
  8
Visible {c3}
100
AcDbLine
 10
74.73570267801694
 20
74.87231601380642
 30
0.0
 11
74.73570267801695
 21
74.87030880298437
 31
0.0
  0
ELLIPSE
  5
25E
330
6C
100
AcDbEntity
  8
Visible Narrow {c3}
100
AcDbEllipse
 10
73.9419526780139
 20
76.30810464877242
 30
0.0
 11
0.7937499999999981
 21
0.0000000000000044
 31
0.0
210
0.0
220
0.0
230
1.0
 40
0.9902680687415704
 41
4.712388980384684
 42
6.283185307179656
  0
LINE
  5
25F
330
6C
100
AcDbEntity
  8
Visible Narrow {c3}
100
AcDbLine
 10
73.94195267801388
 20
75.52207936920881
 30
0.0
 11
73.9419526780169
 21
74.08629073424281
 31
0.0
  0
LINE
  5
260
330
6C
100
AcDbEntity
  8
Visible {c3}
100
AcDbLine
 10
74.73570267801694
 20
74.87231601380642
 30
0.0
 11
74.73570267801391
 21
76.30810464877244
 31
0.0
  0
LINE
  5
261
330
6C
100
AcDbEntity
  8
Visible Narrow {c3}
100
AcDbLine
 10
73.94195267801347
 20
77.10670633280907
 30
0.0
 11
74.7357026780137
 21
77.10670633280907
 31
0.0
  0
LINE
  5
262
330
6C
100
AcDbEntity
  8
Visible Narrow {c3}
100
AcDbLine
 10
73.94195267801388
 20
75.52207936920881
 30
0.0
 11
73.94195267801348
 21
77.10670633280907
 31
0.0
  0
LINE
  5
263
330
6C
100
AcDbEntity
  8
Visible {c3}
100
AcDbLine
 10
74.7357026780137
 20
77.10670633280907
 30
0.0
 11
74.73570267801391
 21
76.30810464877244
 31
0.0
  0
LINE
  5
264
330
6C
100
AcDbEntity
  8
Visible Narrow {c3}
100
AcDbLine
 10
73.94195267801347
 20
77.74170633280907
 30
0.0
 11
74.7357026780137
 21
77.74170633280907
 31
0.0
  0
LINE
  5
265
330
6C
100
AcDbEntity
  8
Visible Narrow {c3}
100
AcDbLine
 10
73.94195267801348
 20
77.74170633280907
 30
0.0
 11
73.94195267801348
 21
77.10670633280907
 31
0.0
  0
LINE
  5
266
330
6C
100
AcDbEntity
  8
Visible {c3}
100
AcDbLine
 10
74.7357026780137
 20
77.10670633280907
 30
0.0
 11
74.7357026780137
 21
77.74170633280907
 31
0.0
  0
LINE
  5
267
330
6C
100
AcDbEntity
  8
Visible Narrow {c3}
100
AcDbLine
 10
73.94195267801318
 20
79.16435689762195
 30
0.0
 11
73.94195267801348
 21
77.74170633280907
 31
0.0
  0
LINE
  5
268
330
6C
100
AcDbEntity
  8
Visible {c3}
100
AcDbLine
 10
74.7357026780137
 20
77.74170633280906
 30
0.0
 11
74.73570267801324
 21
79.93124247095225
 31
0.0
  0
SPLINE
  5
269
330
6C
100
AcDbEntity
  8
Visible {c3}
100
AcDbSpline
210
0.0
220
0.0
230
1.0
 70
     8
 71
     3
 72
    16
 73
    12
 74
     0
 42
0.0000000001
 43
0.0000000001
 40
-0.1252484356709354
 40
-0.1252484356709354
 40
-0.1252484356709354
 40
-0.1252484356709354
 40
-0.1245631932966169
 40
-0.1245631932966169
 40
-0.0929422716655636
 40
-0.0929422716655636
 40
-0.06186359363793
 40
-0.06186359363793
 40
-0.0308993966283804
 40
-0.0308993966283804
 40
0.0
 40
0.0
 40
0.0
 40
0.0
 10
74.73570267801324
 20
79.93124247095225
 30
0.0
 10
74.73570267801324
 20
79.92903752276236
 30
0.0
 10
74.73569286425301
 20
79.92683261536017
 30
0.0
 10
74.7347675356134
 20
79.82288574832224
 30
0.0
 10
74.71297438210434
 20
79.72237351997467
 30
0.0
 10
74.6308553132849
 20
79.53711254732664
 30
0.0
 10
74.57196708527667
 20
79.45386193903397
 30
0.0
 10
74.42465411704652
 20
79.31414934764092
 30
0.0
 10
74.33772983284955
 20
79.25890814624285
 30
0.0
 10
74.14693901304589
 20
79.18368655577253
 30
0.0
 10
74.04495066677444
 20
79.16435689762194
 30
0.0
 10
73.94195267801318
 20
79.16435689762194
 30
0.0
  0
LINE
  5
26A
330
6C
100
AcDbEntity
  8
Visible Narrow {c3}
100
AcDbLine
 10
73.9419526780103
 20
81.08424455301133
 30
0.0
 11
73.94195267801318
 21
79.16435689762194
 31
0.0
  0
LINE
  5
26B
330
6C
100
AcDbEntity
  8
Visible {c3}
100
AcDbLine
 10
74.73570267801324
 20
79.93124247095225
 30
0.0
 11
74.73570267801034
 21
81.85648962065824
 31
0.0
  0
ELLIPSE
  5
26C
330
6C
100
AcDbEntity
  8
Visible {c3}
100
AcDbEllipse
 10
73.94195267801035
 20
81.85648962065819
 30
0.0
 11
0.7937499999999999
 21
0.0000000000045921
 31
0.0
210
0.0
220
0.0
230
1.0
 40
0.9729071718385707
 41
4.712388980379195
 42
6.283185307173706
  0
SPLINE
  5
26D
330
6C
100
AcDbEntity
  8
Visible {c3}
100
AcDbSpline
210
0.0
220
0.0
230
1.0
 70
     8
 71
     3
 72
    10
 73
     6
 74
     0
 42
0.0000000001
 43
0.0000000001
 40
0.4157191474406135
 40
0.4157191474406135
 40
0.4157191474406135
 40
0.4157191474406135
 40
0.490804581060589
 40
0.490804581060589
 40
0.5658900146805647
 40
0.5658900146805647
 40
0.5658900146805647
 40
0.5658900146805647
 10
74.73570267801017
 20
82.03234906127395
 30
0.0
 10
74.73570267801008
 20
82.01225127637036
 30
0.0
 10
74.72398727416487
 20
82.03989998375453
 30
0.0
 10
74.72398727416472
 20
82.1778756529771
 30
0.0
 10
74.7357026780098
 20
82.294160580222
 30
0.0
 10
74.73570267800974
 20
82.44664192298285
 30
0.0
  0
LINE
  5
26E
330
6C
100
AcDbEntity
  8
Visible {c3}
100
AcDbLine
 10
74.73570267800974
 20
82.44664192298285
 30
0.0
 11
74.73570267800875
 21
83.39952956284134
 31
0.0
  0
ELLIPSE
  5
26F
330
6C
100
AcDbEntity
  8
Visible Narrow {c3}
100
AcDbEllipse
 10
73.94195267800874
 20
83.39952956284134
 30
0.0
 11
0.793750000000001
 21
0.0
 31
0.0
210
0.0
220
0.0
230
1.0
 40
0.9612616959383192
 41
4.7123889803847
 42
6.283185307179769
  0
LINE
  5
270
330
6C
100
AcDbEntity
  8
Visible Narrow {c3}
100
AcDbLine
 10
73.94195267800869
 20
82.6365280916903
 30
0.0
 11
73.9419526780103
 21
81.08424455301133
 31
0.0
  0
LINE
  5
271
330
6C
100
AcDbEntity
  8
Visible {c3}
100
AcDbLine
 10
74.73570267801034
 20
81.85648962065824
 30
0.0
 11
74.73570267801017
 21
82.03234906127395
 31
0.0
  0
LINE
  5
272
330
6C
100
AcDbEntity
  8
Visible Narrow {c3}
100
AcDbLine
 10
73.94195267800836
 20
84.07842063559778
 30
0.0
 11
74.73570267800859
 21
84.07842063559778
 31
0.0
  0
LINE
  5
273
330
6C
100
AcDbEntity
  8
Visible Narrow {c3}
100
AcDbLine
 10
73.94195267800869
 20
82.6365280916903
 30
0.0
 11
73.94195267800836
 21
84.07842063559778
 31
0.0
  0
LINE
  5
274
330
6C
100
AcDbEntity
  8
Visible {c3}
100
AcDbLine
 10
74.73570267800859
 20
84.07842063559778
 30
0.0
 11
74.73570267800875
 21
83.39952956284134
 31
0.0
  0
LINE
  5
275
330
6C
100
AcDbEntity
  8
Visible Narrow {c3}
100
AcDbLine
 10
73.94195267800836
 20
85.26295873232951
 30
0.0
 11
74.73570267800861
 21
85.26295873232951
 31
0.0
  0
LINE
  5
276
330
6C
100
AcDbEntity
  8
Visible Narrow {c3}
100
AcDbLine
 10
73.94195267800836
 20
85.26295873232951
 30
0.0
 11
73.94195267800836
 21
84.07842063559778
 31
0.0
  0
LINE
  5
277
330
6C
100
AcDbEntity
  8
Visible {c3}
100
AcDbLine
 10
74.73570267800861
 20
84.07842063559778
 30
0.0
 11
74.73570267800861
 21
85.26295873232951
 31
0.0
  0
ELLIPSE
  5
278
330
6C
100
AcDbEntity
  8
Visible Narrow {c3}
100
AcDbEllipse
 10
73.9419526780084
 20
86.12208637307439
 30
0.0
 11
0.7937499999999988
 21
0.0
 31
0.0
210
0.0
220
0.0
230
1.0
 40
0.9612616959383192
 41
4.712388980384689
 42
6.283185307179766
  0
LINE
  5
279
330
6C
100
AcDbEntity
  8
Visible Narrow {c3}
100
AcDbLine
 10
73.94195267800833
 20
85.35908490192335
 30
0.0
 11
73.94195267800836
 21
85.26295873232951
 31
0.0
  0
LINE
  5
27A
330
6C
100
AcDbEntity
  8
Visible {c3}
100
AcDbLine
 10
74.73570267800861
 20
85.26295873232951
 30
0.0
 11
74.73570267800841
 21
86.12208637307439
 31
0.0
  0
ELLIPSE
  5
27B
330
6C
100
AcDbEntity
  8
Visible Narrow {c3}
100
AcDbEllipse
 10
73.94195267800731
 20
87.18396219856996
 30
0.0
 11
0.7937500000000009
 21
0.0
 31
0.0
210
0.0
220
0.0
230
1.0
 40
0.9612616959383185
 41
4.7123889803847
 42
6.283185307179767
  0
LINE
  5
27C
330
6C
100
AcDbEntity
  8
Visible Narrow {c3}
100
AcDbLine
 10
73.94195267800724
 20
86.42096072741891
 30
0.0
 11
73.94195267800833
 21
85.35908490192335
 31
0.0
  0
LINE
  5
27D
330
6C
100
AcDbEntity
  8
Visible {c3}
100
AcDbLine
 10
74.73570267800841
 20
86.12208637307439
 30
0.0
 11
74.7357026780073
 21
87.18396219856996
 31
0.0
  0
LINE
  5
27E
330
6C
100
AcDbEntity
  8
Visible Narrow {c3}
100
AcDbLine
 10
73.94195267800703
 20
87.38222242335723
 30
0.0
 11
74.73570267800726
 21
87.38222242335723
 31
0.0
  0
LINE
  5
27F
330
6C
100
AcDbEntity
  8
Visible Narrow {c3}
100
AcDbLine
 10
73.94195267800724
 20
86.42096072741891
 30
0.0
 11
73.94195267800703
 21
87.38222242335723
 31
0.0
  0
LINE
  5
280
330
6C
100
AcDbEntity
  8
Visible {c3}
100
AcDbLine
 10
74.73570267800726
 20
87.38222242335725
 30
0.0
 11
74.7357026780073
 21
87.18396219856996
 31
0.0
  0
LINE
  5
281
330
6C
100
AcDbEntity
  8
Visible Narrow {c3}
100
AcDbLine
 10
73.94195267800703
 20
113.8500855069456
 30
0.0
 11
74.73570267800726
 21
113.8500855069456
 31
0.0
  0
LINE
  5
282
330
6C
100
AcDbEntity
  8
Visible Narrow {c3}
100
AcDbLine
 10
73.94195267800703
 20
113.8500855069456
 30
0.0
 11
73.94195267800703
 21
87.38222242335723
 31
0.0
  0
LINE
  5
283
330
6C
100
AcDbEntity
  8
Visible {c3}
100
AcDbLine
 10
74.73570267800726
 20
87.38222242335723
 30
0.0
 11
74.73570267800726
 21
113.8500855069456
 31
0.0
  0
ELLIPSE
  5
284
330
6C
100
AcDbEntity
  8
Visible Narrow {c3}
100
AcDbEllipse
 10
73.94195267800738
 20
114.4883578201822
 30
0.0
 11
0.7937499999999983
 21
-0.0000000000000022
 31
0.0
210
0.0
220
0.0
230
1.0
 40
0.9037484081226201
 41
0.0
 42
1.570796326794877
  0
LINE
  5
285
330
6C
100
AcDbEntity
  8
Visible Narrow {c3}
100
AcDbLine
 10
73.94195267800703
 20
113.8500855069456
 30
0.0
 11
73.94195267800728
 21
115.2057081191295
 31
0.0
  0
LINE
  5
286
330
6C
100
AcDbEntity
  8
Visible {c3}
100
AcDbLine
 10
74.73570267800738
 20
114.4883578201822
 30
0.0
 11
74.73570267800726
 21
113.8500855069456
 31
0.0
  0
LINE
  5
287
330
6C
100
AcDbEntity
  8
Visible Narrow {c3}
100
AcDbLine
 10
73.94195267800745
 20
116.1094565272521
 30
0.0
 11
74.73570267800768
 21
116.1094565272521
 31
0.0
  0
LINE
  5
288
330
6C
100
AcDbEntity
  8
Visible Narrow {c3}
100
AcDbLine
 10
73.94195267800745
 20
116.1094565272521
 30
0.0
 11
73.94195267800728
 21
115.2057081191295
 31
0.0
  0
LINE
  5
289
330
6C
100
AcDbEntity
  8
Visible {c3}
100
AcDbLine
 10
74.73570267800738
 20
114.4883578201822
 30
0.0
 11
74.73570267800768
 21
116.1094565272522
 31
0.0
  0
LINE
  5
28A
330
6C
100
AcDbEntity
  8
Visible Narrow {c3}
100
AcDbLine
 10
73.94195267800745
 20
117.218112721204
 30
0.0
 11
74.73570267800768
 21
117.218112721204
 31
0.0
  0
LINE
  5
28B
330
6C
100
AcDbEntity
  8
Visible Narrow {c3}
100
AcDbLine
 10
73.94195267800745
 20
117.218112721204
 30
0.0
 11
73.94195267800745
 21
116.1094565272521
 31
0.0
  0
LINE
  5
28C
330
6C
100
AcDbEntity
  8
Visible {c3}
100
AcDbLine
 10
74.73570267800768
 20
116.1094565272521
 30
0.0
 11
74.73570267800768
 21
117.218112721204
 31
0.0
  0
ELLIPSE
  5
28D
330
6C
100
AcDbEntity
  8
Visible Narrow {c3}
100
AcDbEllipse
 10
73.94195267800784
 20
117.8970037939605
 30
0.0
 11
0.793750000000002
 21
0.0000000000000022
 31
0.0
210
0.0
220
0.0
230
1.0
 40
0.9612616959383196
 41
0.0
 42
1.570796326794882
  0
LINE
  5
28E
330
6C
100
AcDbEntity
  8
Visible Narrow {c3}
100
AcDbLine
 10
73.94195267800745
 20
117.218112721204
 30
0.0
 11
73.94195267800776
 21
118.6600052651115
 31
0.0
  0
LINE
  5
28F
330
6C
100
AcDbEntity
  8
Visible {c3}
100
AcDbLine
 10
74.73570267800784
 20
117.8970037939605
 30
0.0
 11
74.73570267800768
 21
117.218112721204
 31
0.0
  0
SPLINE
  5
290
330
6C
100
AcDbEntity
  8
Visible {c3}
100
AcDbSpline
210
0.0
220
0.0
230
1.0
 70
     8
 71
     3
 72
    10
 73
     6
 74
     0
 42
0.0000000001
 43
0.0000000001
 40
0.4157191474406132
 40
0.4157191474406132
 40
0.4157191474406132
 40
0.4157191474406132
 40
0.4908045810605889
 40
0.4908045810605889
 40
0.5658900146805645
 40
0.5658900146805645
 40
0.5658900146805645
 40
0.5658900146805645
 10
74.73570267800974
 20
119.7302456697336
 30
0.0
 10
74.7357026780098
 20
119.8827270124944
 30
0.0
 10
74.72398727416472
 20
119.9990119397394
 30
0.0
 10
74.72398727416487
 20
120.1369876089619
 30
0.0
 10
74.73570267801008
 20
120.1646363163461
 30
0.0
 10
74.73570267801017
 20
120.1445385314425
 30
0.0
  0
LINE
  5
291
330
6C
100
AcDbEntity
  8
Visible {c3}
100
AcDbLine
 10
74.73570267801017
 20
120.1445385314425
 30
0.0
 11
74.73570267801034
 21
120.3203979720582
 31
0.0
  0
ELLIPSE
  5
292
330
6C
100
AcDbEntity
  8
Visible {c3}
100
AcDbEllipse
 10
73.94195267801035
 20
120.3203979720582
 30
0.0
 11
0.7937499999999999
 21
-0.0000000000017051
 31
0.0
210
0.0
220
0.0
230
1.0
 40
0.9729071718385691
 41
0.0000000000022413
 42
1.570796326796997
  0
LINE
  5
293
330
6C
100
AcDbEntity
  8
Visible Narrow {c3}
100
AcDbLine
 10
73.9419526780103
 20
121.0926430397051
 30
0.0
 11
73.94195267800778
 21
118.6600052651115
 31
0.0
  0
LINE
  5
294
330
6C
100
AcDbEntity
  8
Visible {c3}
100
AcDbLine
 10
74.73570267800784
 20
117.8970037939605
 30
0.0
 11
74.73570267800974
 21
119.7302456697336
 31
0.0
  0
LINE
  5
295
330
6C
100
AcDbEntity
  8
Visible {c3}
100
AcDbLine
 10
74.73570267801034
 20
120.3203979720582
 30
0.0
 11
74.73570267801324
 21
122.2456451217641
 31
0.0
  0
SPLINE
  5
296
330
6C
100
AcDbEntity
  8
Visible {c3}
100
AcDbSpline
210
0.0
220
0.0
230
1.0
 70
     8
 71
     3
 72
    16
 73
    12
 74
     0
 42
0.0000000001
 43
0.0000000001
 40
-0.0006853154496077
 40
-0.0006853154496077
 40
-0.0006853154496077
 40
-0.0006853154496077
 40
0.0
 40
0.0
 40
0.0316242937342305
 40
0.0316242937342305
 40
0.0627062860393603
 40
0.0627062860393603
 40
0.0936737851179677
 40
0.0936737851179677
 40
0.1245764769049996
 40
0.1245764769049996
 40
0.1245764769049996
 40
0.1245764769049996
 10
74.73570267801324
 20
122.2456451217641
 30
0.0
 10
74.73570267801324
 20
122.2478500699541
 30
0.0
 10
74.73569286425301
 20
122.2500549773562
 30
0.0
 10
74.7347675356134
 20
122.3540018443942
 30
0.0
 10
74.71297438210434
 20
122.4545140727417
 30
0.0
 10
74.63085531328491
 20
122.6397750453898
 30
0.0
 10
74.57196708527667
 20
122.7230256536824
 30
0.0
 10
74.42465411704654
 20
122.8627382450755
 30
0.0
 10
74.33772983284956
 20
122.9179794464736
 30
0.0
 10
74.14693901304587
 20
122.9932010369439
 30
0.0
 10
74.04495066677442
 20
123.0125306950945
 30
0.0
 10
73.94195267801318
 20
123.0125306950945
 30
0.0
  0
LINE
  5
297
330
6C
100
AcDbEntity
  8
Visible Narrow {c3}
100
AcDbLine
 10
73.94195267801318
 20
123.0125306950945
 30
0.0
 11
73.9419526780103
 21
121.0926430397051
 31
0.0
  0
LINE
  5
298
330
6C
100
AcDbEntity
  8
Visible Narrow {c3}
100
AcDbLine
 10
73.94195267801347
 20
124.4351812599074
 30
0.0
 11
74.7357026780137
 21
124.4351812599074
 31
0.0
  0
LINE
  5
299
330
6C
100
AcDbEntity
  8
Visible Narrow {c3}
100
AcDbLine
 10
73.94195267801348
 20
124.4351812599074
 30
0.0
 11
73.94195267801318
 21
123.0125306950945
 31
0.0
  0
LINE
  5
29A
330
6C
100
AcDbEntity
  8
Visible {c3}
100
AcDbLine
 10
74.73570267801324
 20
122.2456451217642
 30
0.0
 11
74.7357026780137
 21
124.4351812599074
 31
0.0
  0
LINE
  5
29B
330
6C
100
AcDbEntity
  8
Visible Narrow {c3}
100
AcDbLine
 10
73.94195267801347
 20
125.0701812599074
 30
0.0
 11
74.7357026780137
 21
125.0701812599074
 31
0.0
  0
LINE
  5
29C
330
6C
100
AcDbEntity
  8
Visible Narrow {c3}
100
AcDbLine
 10
73.94195267801348
 20
125.0701812599074
 30
0.0
 11
73.94195267801348
 21
124.4351812599074
 31
0.0
  0
LINE
  5
29D
330
6C
100
AcDbEntity
  8
Visible {c3}
100
AcDbLine
 10
74.7357026780137
 20
124.4351812599074
 30
0.0
 11
74.7357026780137
 21
125.0701812599074
 31
0.0
  0
ELLIPSE
  5
29E
330
6C
100
AcDbEntity
  8
Visible Narrow {c3}
100
AcDbEllipse
 10
73.9419526780139
 20
125.868782943944
 30
0.0
 11
0.7937499999999983
 21
-0.0000000000000044
 31
0.0
210
0.0
220
0.0
230
1.0
 40
0.9902680687415704
 41
0.0
 42
1.570796326794901
  0
LINE
  5
29F
330
6C
100
AcDbEntity
  8
Visible Narrow {c3}
100
AcDbLine
 10
73.94195267801348
 20
125.0701812599073
 30
0.0
 11
73.94195267801388
 21
126.6548082235076
 31
0.0
  0
LINE
  5
2A0
330
6C
100
AcDbEntity
  8
Visible {c3}
100
AcDbLine
 10
74.73570267801391
 20
125.868782943944
 30
0.0
 11
74.7357026780137
 21
125.0701812599074
 31
0.0
  0
ELLIPSE
  5
2A1
330
6C
100
AcDbEntity
  8
Visible Narrow {c3}
100
AcDbEllipse
 10
73.94195267801695
 20
127.30457157891
 30
0.0
 11
0.7937499999999981
 21
-0.0000000000000044
 31
0.0
210
0.0
220
0.0
230
1.0
 40
0.9902680687415704
 41
0.0
 42
1.570796326794901
  0
LINE
  5
2A2
330
6C
100
AcDbEntity
  8
Visible Narrow {c3}
100
AcDbLine
 10
73.9419526780169
 20
128.0905968584736
 30
0.0
 11
73.94195267801388
 21
126.6548082235076
 31
0.0
  0
LINE
  5
2A3
330
6C
100
AcDbEntity
  8
Visible {c3}
100
AcDbLine
 10
74.73570267801391
 20
125.868782943944
 30
0.0
 11
74.73570267801694
 21
127.30457157891
 31
0.0
  0
LINE
  5
2A4
330
6C
100
AcDbEntity
  8
Visible Narrow {c3}
100
AcDbLine
 10
73.9419526780169
 20
128.0905968584736
 30
0.0
 11
73.94195267801695
 21
128.1003287897321
 31
0.0
  0
LINE
  5
2A5
330
6C
100
AcDbEntity
  8
Visible {c3}
100
AcDbLine
 10
74.73570267801695
 20
127.3065787897321
 30
0.0
 11
74.73570267801694
 21
127.30457157891
 31
0.0
  0
ARC
  5
2A6
330
6C
100
AcDbEntity
  8
Visible {c3}
100
AcDbCircle
 10
73.94195267801695
 20
74.87030880298437
 30
0.0
 40
0.79375
100
AcDbArc
 50
270.0
 51
0.0
  0
ARC
  5
2A7
330
6C
100
AcDbEntity
  8
Visible {c3}
100
AcDbCircle
 10
73.94195267801695
 20
127.3065787897321
 30
0.0
 40
0.79375
100
AcDbArc
 50
0.0
 51
90.0
  0
LINE
  5
2A8
330
6C
100
AcDbEntity
  8
Visible Narrow {c3}
100
AcDbLine
 10
73.24570267800727
 20
115.2057081191295
 30
0.0
 11
73.94195267800728
 21
115.2057081191295
 31
0.0
  0
LINE
  5
2A9
330
6C
100
AcDbEntity
  8
Visible Narrow {c3}
100
AcDbLine
 10
73.94195267800745
 20
116.1094565272521
 30
0.0
 11
73.24570267800744
 21
116.1094565272521
 31
0.0
  0
LINE
  5
2AA
330
6C
100
AcDbEntity
  8
Visible Narrow {c3}
100
AcDbLine
 10
73.24570267800703
 20
113.8500855069456
 30
0.0
 11
73.94195267800703
 21
113.8500855069456
 31
0.0
  0
LINE
  5
2AB
330
6C
100
AcDbEntity
  8
Visible Narrow {c3}
100
AcDbLine
 10
73.24570267800744
 20
117.218112721204
 30
0.0
 11
73.94195267800745
 21
117.218112721204
 31
0.0
  0
LINE
  5
2AC
330
6C
100
AcDbEntity
  8
Visible Narrow {c3}
100
AcDbLine
 10
73.94195267800778
 20
118.6600052651115
 30
0.0
 11
73.24570267800777
 21
118.6600052651115
 31
0.0
  0
LINE
  5
2AD
330
6C
100
AcDbEntity
  8
Visible {c3}
100
AcDbLine
 10
73.9419526780103
 20
121.0926430397051
 30
0.0
 11
65.83570267801029
 21
121.0926430397051
 31
0.0
  0
LINE
  5
2AE
330
6C
100
AcDbEntity
  8
Visible {c3}
100
AcDbLine
 10
65.83570267801317
 20
123.0125306950945
 30
0.0
 11
73.94195267801318
 21
123.0125306950945
 31
0.0
  0
LINE
  5
2AF
330
6C
100
AcDbEntity
  8
Visible Narrow {c3}
100
AcDbLine
 10
73.94195267801348
 20
124.4351812599074
 30
0.0
 11
65.83570267801346
 21
124.4351812599074
 31
0.0
  0
LINE
  5
2B0
330
6C
100
AcDbEntity
  8
Visible Narrow {c3}
100
AcDbLine
 10
73.94195267801348
 20
125.0701812599074
 30
0.0
 11
65.83570267801346
 21
125.0701812599074
 31
0.0
  0
LINE
  5
2B1
330
6C
100
AcDbEntity
  8
Visible Narrow {c3}
100
AcDbLine
 10
73.94195267801388
 20
126.6548082235076
 30
0.0
 11
65.83570267801388
 21
126.6548082235076
 31
0.0
  0
LINE
  5
2B2
330
6C
100
AcDbEntity
  8
Visible {c3}
100
AcDbLine
 10
73.93570267801402
 20
126.7246263680217
 30
0.0
 11
73.93570267801556
 21
127.4531013319162
 31
0.0
  0
LINE
  5
2B3
330
6C
100
AcDbEntity
  8
Visible {c3}
100
AcDbLine
 10
73.9419526780103
 20
81.08424455301133
 30
0.0
 11
65.83570267801029
 21
81.08424455301133
 31
0.0
  0
LINE
  5
2B4
330
6C
100
AcDbEntity
  8
Visible Narrow {c3}
100
AcDbLine
 10
73.94195267801388
 20
75.52207936920881
 30
0.0
 11
65.83570267801388
 21
75.52207936920881
 31
0.0
  0
LINE
  5
2B5
330
6C
100
AcDbEntity
  8
Visible {c3}
100
AcDbLine
 10
73.93570267801556
 20
74.72378626080026
 30
0.0
 11
73.93570267801402
 21
75.45226122469475
 31
0.0
  0
LINE
  5
2B6
330
6C
100
AcDbEntity
  8
Visible {c3}
100
AcDbLine
 10
73.93570267800703
 20
105.1035437963582
 30
0.0
 11
73.93570267800703
 21
97.07334379635824
 31
0.0
  0
LINE
  5
2B7
330
6C
100
AcDbEntity
  8
Visible Narrow {c3}
100
AcDbLine
 10
73.94195267801348
 20
77.10670633280907
 30
0.0
 11
65.83570267801346
 21
77.10670633280907
 31
0.0
  0
LINE
  5
2B8
330
6C
100
AcDbEntity
  8
Visible Narrow {c3}
100
AcDbLine
 10
73.94195267801348
 20
77.74170633280907
 30
0.0
 11
65.83570267801346
 21
77.74170633280907
 31
0.0
  0
LINE
  5
2B9
330
6C
100
AcDbEntity
  8
Visible {c3}
100
AcDbLine
 10
73.94195267801318
 20
79.16435689762194
 30
0.0
 11
65.83570267801317
 21
79.16435689762194
 31
0.0
  0
LINE
  5
2BA
330
6C
100
AcDbEntity
  8
Visible {c3}
100
AcDbLine
 10
65.83570267800777
 20
118.6600052651115
 30
0.0
 11
65.83570267801029
 21
121.0926430397051
 31
0.0
  0
LINE
  5
2BB
330
6C
100
AcDbEntity
  8
Visible {c3}
100
AcDbLine
 10
65.83570267801029
 20
121.0926430397051
 30
0.0
 11
65.83570267801317
 21
123.0094859660437
 31
0.0
  0
LINE
  5
2BC
330
6C
100
AcDbEntity
  8
Visible {c3}
100
AcDbLine
 10
65.83570267801334
 20
123.4265109907169
 30
0.0
 11
65.83570267801346
 21
124.4351812599074
 31
0.0
  0
LINE
  5
2BD
330
6C
100
AcDbEntity
  8
Visible {c3}
100
AcDbLine
 10
65.83570267801346
 20
124.4351812599074
 30
0.0
 11
65.83570267801346
 21
125.0701812599074
 31
0.0
  0
LINE
  5
2BE
330
6C
100
AcDbEntity
  8
Visible {c3}
100
AcDbLine
 10
65.8357026780138
 20
126.6047290478949
 30
0.0
 11
65.83570267801348
 21
125.0701812599074
 31
0.0
  0
LINE
  5
2BF
330
6C
100
AcDbEntity
  8
Visible {c3}
100
AcDbLine
 10
65.83570267800943
 20
81.91844379635822
 30
0.0
 11
65.83570267801029
 21
81.08424455301133
 31
0.0
  0
LINE
  5
2C0
330
6C
100
AcDbEntity
  8
Visible {c3}
100
AcDbLine
 10
65.8357026780138
 20
75.5721585447869
 30
0.0
 11
65.83570267801348
 21
77.10670633280907
 31
0.0
  0
LINE
  5
2C1
330
6C
100
AcDbEntity
  8
Visible {c3}
100
AcDbLine
 10
65.83570267801346
 20
77.74170633280907
 30
0.0
 11
65.83570267801346
 21
77.10670633280907
 31
0.0
  0
LINE
  5
2C2
330
6C
100
AcDbEntity
  8
Visible {c3}
100
AcDbLine
 10
65.83570267801334
 20
78.75037660203384
 30
0.0
 11
65.83570267801346
 21
77.74170633280907
 31
0.0
  0
LINE
  5
2C3
330
6C
100
AcDbEntity
  8
Visible {c3}
100
AcDbLine
 10
65.83570267801029
 20
81.08424455301133
 30
0.0
 11
65.83570267801317
 21
79.16740162667256
 31
0.0
  0
LINE
  5
2C4
330
6C
100
AcDbEntity
  8
Visible {c3}
100
AcDbLine
 10
65.83570267800702
 20
97.07334379635824
 30
0.0
 11
65.83570267800702
 21
87.38222242335723
 31
0.0
  0
LINE
  5
2C5
330
6C
100
AcDbEntity
  8
Visible {c3}
100
AcDbLine
 10
65.83570267800702
 20
113.8500855069456
 30
0.0
 11
65.83570267800702
 21
105.1035437963582
 31
0.0
  0
LINE
  5
2C6
330
6C
100
AcDbEntity
  8
Visible Narrow {c3}
100
AcDbLine
 10
65.83570267800777
 20
118.6600052651115
 30
0.0
 11
65.94570267800778
 21
118.6600052651115
 31
0.0
  0
LINE
  5
2C7
330
6C
100
AcDbEntity
  8
Visible {c3}
100
AcDbLine
 10
65.83570267800728
 20
115.2057081191295
 30
0.0
 11
65.83570267800702
 21
113.8500855069456
 31
0.0
  0
LINE
  5
2C8
330
6C
100
AcDbEntity
  8
Visible {c3}
100
AcDbLine
 10
65.83570267800728
 20
115.2057081191295
 30
0.0
 11
65.83570267800745
 21
116.1094565272521
 31
0.0
  0
LINE
  5
2C9
330
6C
100
AcDbEntity
  8
Visible {c3}
100
AcDbLine
 10
65.83570267800745
 20
116.1094565272521
 30
0.0
 11
65.83570267800745
 21
117.218112721204
 31
0.0
  0
LINE
  5
2CA
330
6C
100
AcDbEntity
  8
Visible {c3}
100
AcDbLine
 10
65.83570267800777
 20
118.6600052651115
 30
0.0
 11
65.83570267800745
 21
117.218112721204
 31
0.0
  0
LINE
  5
2CB
330
6C
100
AcDbEntity
  8
Visible Narrow {c3}
100
AcDbLine
 10
65.83570267800702
 20
113.8500855069456
 30
0.0
 11
65.94570267800702
 21
113.8500855069456
 31
0.0
  0
LINE
  5
2CC
330
6C
100
AcDbEntity
  8
Visible Narrow {c3}
100
AcDbLine
 10
65.94570267800745
 20
116.1094565272521
 30
0.0
 11
65.83570267800745
 21
116.1094565272521
 31
0.0
  0
LINE
  5
2CD
330
6C
100
AcDbEntity
  8
Visible Narrow {c3}
100
AcDbLine
 10
65.94570267800745
 20
117.218112721204
 30
0.0
 11
65.83570267800745
 21
117.218112721204
 31
0.0
  0
LINE
  5
2CE
330
6C
100
AcDbEntity
  8
Visible Narrow {c3}
100
AcDbLine
 10
65.94570267800728
 20
115.2057081191295
 30
0.0
 11
65.83570267800728
 21
115.2057081191295
 31
0.0
  0
LINE
  5
2CF
330
6C
100
AcDbEntity
  8
Visible {c3}
100
AcDbLine
 10
65.94570267800778
 20
118.6600052651115
 30
0.0
 11
65.94570267800746
 21
118.3581283723736
 31
0.0
  0
LINE
  5
2D0
330
6C
100
AcDbEntity
  8
Visible {c3}
100
AcDbLine
 10
73.24570267800777
 20
118.6600052651115
 30
0.0
 11
73.24570267800746
 21
118.3581283723736
 31
0.0
  0
LINE
  5
2D1
330
6C
100
AcDbEntity
  8
Visible {c3}
100
AcDbLine
 10
65.94570267800702
 20
114.9484437963582
 30
0.0
 11
65.94570267800702
 21
113.8500855069456
 31
0.0
  0
LINE
  5
2D2
330
6C
100
AcDbEntity
  8
Visible {c3}
100
AcDbLine
 10
73.24570267800703
 20
114.9484437963582
 30
0.0
 11
73.24570267800703
 21
113.8500855069456
 31
0.0
  0
LINE
  5
2D3
330
6C
100
AcDbEntity
  8
Visible {c3}
100
AcDbLine
 10
65.94570267800579
 20
118.3484437963582
 30
0.0
 11
73.24570267800578
 21
118.3484437963582
 31
0.0
  0
LINE
  5
2D4
330
6C
100
AcDbEntity
  8
Visible {c3}
100
AcDbLine
 10
73.24570267800578
 20
118.3484437963582
 30
0.0
 11
73.24570267800564
 21
117.8484437963582
 31
0.0
  0
LINE
  5
2D5
330
6C
100
AcDbEntity
  8
Visible {c3}
100
AcDbLine
 10
73.24570267800564
 20
115.9484437963582
 30
0.0
 11
73.24570267800564
 21
117.8484437963582
 31
0.0
  0
LINE
  5
2D6
330
6C
100
AcDbEntity
  8
Visible {c3}
100
AcDbLine
 10
73.24570267800564
 20
115.9484437963582
 30
0.0
 11
73.24570267800594
 21
114.9484437963582
 31
0.0
  0
LINE
  5
2D7
330
6C
100
AcDbEntity
  8
Visible {c3}
100
AcDbLine
 10
65.94570267800563
 20
117.8484437963582
 30
0.0
 11
65.94570267800579
 21
118.3484437963582
 31
0.0
  0
LINE
  5
2D8
330
6C
100
AcDbEntity
  8
Visible Narrow {c3}
100
AcDbLine
 10
65.94570267800563
 20
117.8484437963582
 30
0.0
 11
73.24570267800564
 21
117.8484437963582
 31
0.0
  0
LINE
  5
2D9
330
6C
100
AcDbEntity
  8
Visible {c3}
100
AcDbLine
 10
65.94570267800563
 20
117.8484437963582
 30
0.0
 11
65.94570267800563
 21
115.9484437963582
 31
0.0
  0
LINE
  5
2DA
330
6C
100
AcDbEntity
  8
Visible Narrow {c3}
100
AcDbLine
 10
65.94570267800563
 20
115.9484437963582
 30
0.0
 11
73.24570267800564
 21
115.9484437963582
 31
0.0
  0
LINE
  5
2DB
330
6C
100
AcDbEntity
  8
Visible {c3}
100
AcDbLine
 10
65.94570267800593
 20
114.9484437963582
 30
0.0
 11
65.94570267800564
 21
115.9484437963582
 31
0.0
  0
LINE
  5
2DC
330
6C
100
AcDbEntity
  8
Visible {c3}
100
AcDbLine
 10
65.94570267800593
 20
114.9484437963582
 30
0.0
 11
73.24570267800592
 21
114.9484437963582
 31
0.0
  0
LINE
  5
2DD
330
6C
100
AcDbEntity
  8
Visible Narrow {c3}
100
AcDbLine
 10
73.24570267800746
 20
118.3581283723736
 30
0.0
 11
65.94570267800746
 21
118.3581283723736
 31
0.0
  0
LINE
  5
2DE
330
6C
100
AcDbEntity
  8
Visible {c3}
100
AcDbLine
 10
73.24570267800743
 20
118.3484437963582
 30
0.0
 11
73.24570267800746
 21
118.3581283723736
 31
0.0
  0
LINE
  5
2DF
330
6C
100
AcDbEntity
  8
Visible {c3}
100
AcDbLine
 10
65.94570267800746
 20
118.3581283723736
 30
0.0
 11
65.94570267800745
 21
118.3484437963582
 31
0.0
  0
LINE
  5
2E0
330
6C
100
AcDbEntity
  8
Visible Narrow {c3}
100
AcDbLine
 10
65.83570267801691
 20
128.0905968584736
 30
0.0
 11
73.9419526780169
 21
128.0905968584736
 31
0.0
  0
LINE
  5
2E1
330
6C
100
AcDbEntity
  8
Visible Narrow {c3}
100
AcDbLine
 10
73.9419526780169
 20
74.08629073424281
 30
0.0
 11
65.83570267801691
 21
74.08629073424281
 31
0.0
  0
LINE
  5
2E2
330
6C
100
AcDbEntity
  8
Visible {c3}
100
AcDbLine
 10
73.94195267801695
 20
128.1003287897321
 30
0.0
 11
65.83570267801694
 21
128.1003287897321
 31
0.0
  0
LINE
  5
2E3
330
6C
100
AcDbEntity
  8
Visible {c3}
100
AcDbLine
 10
73.94195267801695
 20
74.07655880298436
 30
0.0
 11
65.83570267801694
 21
74.07655880298436
 31
0.0
  0
LINE
  5
2E4
330
6C
100
AcDbEntity
  8
Visible Narrow {c3}
100
AcDbLine
 10
73.93570267801556
 20
127.4531013319162
 30
0.0
 11
65.83570267801556
 21
127.4531013319162
 31
0.0
  0
LINE
  5
2E5
330
6C
100
AcDbEntity
  8
Visible Narrow {c3}
100
AcDbLine
 10
65.83570267801403
 20
126.7246263680217
 30
0.0
 11
73.93570267801402
 21
126.7246263680217
 31
0.0
  0
LINE
  5
2E6
330
6C
100
AcDbEntity
  8
Visible Narrow {c3}
100
AcDbLine
 10
65.83570267801556
 20
74.72378626080026
 30
0.0
 11
73.93570267801556
 21
74.72378626080026
 31
0.0
  0
LINE
  5
2E7
330
6C
100
AcDbEntity
  8
Visible Narrow {c3}
100
AcDbLine
 10
73.93570267801402
 20
75.45226122469475
 30
0.0
 11
65.83570267801403
 21
75.45226122469475
 31
0.0
  0
LINE
  5
2E8
330
6C
100
AcDbEntity
  8
Visible {c3}
100
AcDbLine
 10
73.93570267801405
 20
75.44739525906556
 30
0.0
 11
65.83570267801404
 21
75.44739525906556
 31
0.0
  0
LINE
  5
2E9
330
6C
100
AcDbEntity
  8
Visible {c3}
100
AcDbLine
 10
73.93570267801405
 20
126.7294923336509
 30
0.0
 11
65.83570267801404
 21
126.7294923336509
 31
0.0
  0
LINE
  5
2EA
330
6C
100
AcDbEntity
  8
Visible {c3}
100
AcDbLine
 10
74.73570267801017
 20
120.1445385314425
 30
0.0
 11
74.7357026780105
 21
119.7302456697336
 31
0.0
  0
LINE
  5
2EB
330
6C
100
AcDbEntity
  8
Visible {c3}
100
AcDbLine
 10
74.7357026780105
 20
82.44664192298285
 30
0.0
 11
74.73570267801015
 21
82.03234906127395
 31
0.0
  0
LINE
  5
2EC
330
6C
100
AcDbEntity
  8
Visible Narrow {c3}
100
AcDbLine
 10
73.94195267800836
 20
84.07842063559778
 30
0.0
 11
73.67070267800835
 21
84.07842063559778
 31
0.0
  0
LINE
  5
2ED
330
6C
100
AcDbEntity
  8
Visible Narrow {c3}
100
AcDbLine
 10
73.67070267800868
 20
82.6365280916903
 30
0.0
 11
73.94195267800869
 21
82.6365280916903
 31
0.0
  0
LINE
  5
2EE
330
6C
100
AcDbEntity
  8
Visible Narrow {c3}
100
AcDbLine
 10
73.94195267800836
 20
85.26295873232951
 30
0.0
 11
73.67070267800835
 21
85.26295873232951
 31
0.0
  0
LINE
  5
2EF
330
6C
100
AcDbEntity
  8
Visible {c3}
100
AcDbLine
 10
65.83570267800617
 20
81.91844379635822
 30
0.0
 11
65.83570267800564
 21
83.71844379635822
 31
0.0
  0
LINE
  5
2F0
330
6C
100
AcDbEntity
  8
Visible {c3}
100
AcDbLine
 10
65.83570267800564
 20
86.11844379635824
 30
0.0
 11
65.83570267800564
 21
83.71844379635822
 31
0.0
  0
LINE
  5
2F1
330
6C
100
AcDbEntity
  8
Visible {c3}
100
AcDbLine
 10
65.83570267800564
 20
86.11844379635824
 30
0.0
 11
65.83570267800593
 21
87.11844379635824
 31
0.0
  0
LINE
  5
2F2
330
6C
100
AcDbEntity
  8
Visible {c3}
100
AcDbLine
 10
73.67070267800594
 20
87.11844379635824
 30
0.0
 11
73.67070267800563
 21
86.11844379635824
 31
0.0
  0
LINE
  5
2F3
330
6C
100
AcDbEntity
  8
Visible {c3}
100
AcDbLine
 10
73.67070267800563
 20
83.71844379635822
 30
0.0
 11
73.67070267800563
 21
86.11844379635824
 31
0.0
  0
LINE
  5
2F4
330
6C
100
AcDbEntity
  8
Visible {c3}
100
AcDbLine
 10
73.67070267800563
 20
83.71844379635822
 30
0.0
 11
73.67070267800617
 21
81.91844379635822
 31
0.0
  0
LINE
  5
2F5
330
6C
100
AcDbEntity
  8
Visible {c3}
100
AcDbLine
 10
65.83570267800593
 20
87.11844379635824
 30
0.0
 11
73.67070267800594
 21
87.11844379635824
 31
0.0
  0
LINE
  5
2F6
330
6C
100
AcDbEntity
  8
Visible Narrow {c3}
100
AcDbLine
 10
65.83570267800564
 20
86.11844379635824
 30
0.0
 11
73.67070267800563
 21
86.11844379635824
 31
0.0
  0
LINE
  5
2F7
330
6C
100
AcDbEntity
  8
Visible Narrow {c3}
100
AcDbLine
 10
65.83570267800564
 20
83.71844379635822
 30
0.0
 11
73.67070267800563
 21
83.71844379635822
 31
0.0
  0
LINE
  5
2F8
330
6C
100
AcDbEntity
  8
Visible {c3}
100
AcDbLine
 10
65.83570267800617
 20
81.91844379635822
 30
0.0
 11
73.67070267800617
 21
81.91844379635822
 31
0.0
  0
LINE
  5
2F9
330
6C
100
AcDbEntity
  8
Visible {c3}
100
AcDbLine
 10
65.83570267800704
 20
87.11844379635824
 30
0.0
 11
65.83570267800704
 21
87.38222242335723
 31
0.0
  0
LINE
  5
2FA
330
6C
100
AcDbEntity
  8
Visible Narrow {c3}
100
AcDbLine
 10
73.94195267800703
 20
87.38222242335723
 30
0.0
 11
65.83570267800702
 21
87.38222242335723
 31
0.0
  0
LINE
  5
2FB
330
6C
100
AcDbEntity
  8
Visible Narrow {c3}
100
AcDbLine
 10
73.67070267800724
 20
86.42096072741891
 30
0.0
 11
73.94195267800724
 21
86.42096072741891
 31
0.0
  0
LINE
  5
2FC
330
6C
100
AcDbEntity
  8
Visible Narrow {c3}
100
AcDbLine
 10
65.83570267800702
 20
105.1035437963582
 30
0.0
 11
73.93570267800703
 21
105.1035437963582
 31
0.0
  0
LINE
  5
2FD
330
6C
100
AcDbEntity
  8
Visible Narrow {c3}
100
AcDbLine
 10
65.83570267800702
 20
97.07334379635824
 30
0.0
 11
73.93570267800703
 21
97.07334379635824
 31
0.0
  0
LINE
  5
2FE
330
6C
100
AcDbEntity
  8
Visible {c3}
100
AcDbLine
 10
73.93570267800708
 20
104.9384437963582
 30
0.0
 11
65.83570267800708
 21
104.9384437963582
 31
0.0
  0
LINE
  5
2FF
330
6C
100
AcDbEntity
  8
Visible {c3}
100
AcDbLine
 10
73.93570267800708
 20
97.23844379635822
 30
0.0
 11
65.83570267800708
 21
97.23844379635822
 31
0.0
  0
LINE
  5
300
330
6C
100
AcDbEntity
  8
Visible Narrow {c3}
100
AcDbLine
 10
73.93570267800763
 20
97.92334379635821
 30
0.0
 11
73.36305311367152
 21
97.92334379635821
 31
0.0
  0
LINE
  5
301
330
6C
100
AcDbEntity
  8
Visible Narrow {c3}
100
AcDbLine
 10
66.40575224234376
 20
97.92334379635821
 30
0.0
 11
65.83570267800762
 21
97.92334379635821
 31
0.0
  0
LINE
  5
302
330
6C
100
AcDbEntity
  8
Visible {c3}
100
AcDbLine
 10
73.93570267800767
 20
98.08844379635822
 30
0.0
 11
73.47097398546013
 21
98.08844379635822
 31
0.0
  0
LINE
  5
303
330
6C
100
AcDbEntity
  8
Visible {c3}
100
AcDbLine
 10
66.29783137055524
 20
98.08844379635822
 30
0.0
 11
65.83570267800768
 21
98.08844379635822
 31
0.0
  0
LINE
  5
304
330
6C
100
AcDbEntity
  8
Visible Narrow {c3}
100
AcDbLine
 10
73.93570267800763
 20
104.2535437963582
 30
0.0
 11
73.36305311367152
 21
104.2535437963582
 31
0.0
  0
LINE
  5
305
330
6C
100
AcDbEntity
  8
Visible Narrow {c3}
100
AcDbLine
 10
66.40575224234376
 20
104.2535437963582
 30
0.0
 11
65.83570267800762
 21
104.2535437963582
 31
0.0
  0
LINE
  5
306
330
6C
100
AcDbEntity
  8
Visible {c3}
100
AcDbLine
 10
73.93570267800767
 20
104.0884437963582
 30
0.0
 11
73.47097398546015
 21
104.0884437963582
 31
0.0
  0
LINE
  5
307
330
6C
100
AcDbEntity
  8
Visible {c3}
100
AcDbLine
 10
66.29783137055524
 20
104.0884437963582
 30
0.0
 11
65.83570267800768
 21
104.0884437963582
 31
0.0
  0
LINE
  5
308
330
6C
100
AcDbEntity
  8
Visible Narrow {c3}
100
AcDbLine
 10
73.67070267800833
 20
85.35908490192335
 30
0.0
 11
73.94195267800833
 21
85.35908490192335
 31
0.0
  0
LINE
  5
309
330
6C
100
AcDbEntity
  8
Visible {c3}
100
AcDbLine
 10
64.64190267801035
 20
120.3439411916987
 30
0.0
 11
64.64190267801014
 21
120.1491705509521
 31
0.0
  0
LINE
  5
30A
330
6C
100
AcDbEntity
  8
Visible {c3}
100
AcDbLine
 10
64.64190267801315
 20
122.2088476942652
 30
0.0
 11
64.64190267801035
 21
120.3439411916987
 31
0.0
  0
LINE
  5
30B
330
6C
100
AcDbEntity
  8
Visible {c3}
100
AcDbLine
 10
64.64190267801369
 20
124.4359231688616
 30
0.0
 11
64.64190267801315
 21
122.2088476942652
 31
0.0
  0
LINE
  5
30C
330
6C
100
AcDbEntity
  8
Visible {c3}
100
AcDbLine
 10
64.64190267801369
 20
125.0709231688616
 30
0.0
 11
64.64190267801369
 21
124.4359231688616
 31
0.0
  0
LINE
  5
30D
330
6C
100
AcDbEntity
  8
Visible {c3}
100
AcDbLine
 10
64.64190267801369
 20
125.0709231688616
 30
0.0
 11
64.64190267801391
 21
125.9126510272919
 31
0.0
  0
LINE
  5
30E
330
6C
100
AcDbEntity
  8
Visible {c3}
100
AcDbLine
 10
64.64190267801694
 20
127.348155744696
 30
0.0
 11
64.64190267801391
 21
125.9126510272919
 31
0.0
  0
LINE
  5
30F
330
6C
100
AcDbEntity
  8
Visible {c3}
100
AcDbLine
 10
64.64190267801694
 20
127.348155744696
 30
0.0
 11
64.64190267801696
 21
127.3505887275107
 31
0.0
  0
LINE
  5
310
330
6C
100
AcDbEntity
  8
Visible {c3}
100
AcDbLine
 10
64.64190267801694
 20
74.82629886520593
 30
0.0
 11
64.64190267801694
 21
74.82873184802055
 31
0.0
  0
LINE
  5
311
330
6C
100
AcDbEntity
  8
Visible {c3}
100
AcDbLine
 10
64.64190267801391
 20
76.26423656542471
 30
0.0
 11
64.64190267801694
 21
74.82873184802056
 31
0.0
  0
LINE
  5
312
330
6C
100
AcDbEntity
  8
Visible {c3}
100
AcDbLine
 10
64.64190267801391
 20
76.26423656542471
 30
0.0
 11
64.64190267801369
 21
77.10596442385498
 31
0.0
  0
LINE
  5
313
330
6C
100
AcDbEntity
  8
Visible {c3}
100
AcDbLine
 10
64.64190267801369
 20
77.74096442385499
 30
0.0
 11
64.64190267801369
 21
77.10596442385498
 31
0.0
  0
LINE
  5
314
330
6C
100
AcDbEntity
  8
Visible {c3}
100
AcDbLine
 10
64.64190267801315
 20
79.96803989845132
 30
0.0
 11
64.64190267801369
 21
77.74096442385498
 31
0.0
  0
LINE
  5
315
330
6C
100
AcDbEntity
  8
Visible {c3}
100
AcDbLine
 10
64.64190267801035
 20
81.83294640101784
 30
0.0
 11
64.64190267801315
 21
79.96803989845133
 31
0.0
  0
LINE
  5
316
330
6C
100
AcDbEntity
  8
Visible {c3}
100
AcDbLine
 10
64.64190267801014
 20
82.02771704176448
 30
0.0
 11
64.64190267801035
 21
81.83294640101784
 31
0.0
  0
LINE
  5
317
330
6C
100
AcDbEntity
  8
Visible {c3}
100
AcDbLine
 10
64.64190267800955
 20
82.60091386086845
 30
0.0
 11
64.64190267800976
 21
82.40231122982718
 31
0.0
  0
LINE
  5
318
330
6C
100
AcDbEntity
  8
Visible {c3}
100
AcDbLine
 10
64.64190267800955
 20
82.60091386086845
 30
0.0
 11
64.64190267800951
 21
82.72482565477176
 31
0.0
  0
LINE
  5
319
330
6C
100
AcDbEntity
  8
Visible {c3}
100
AcDbLine
 10
64.64190267800913
 20
85.11310105453857
 30
0.0
 11
64.6419026780095
 21
82.72482565477176
 31
0.0
  0
LINE
  5
31A
330
6C
100
AcDbEntity
  8
Visible {c3}
100
AcDbLine
 10
64.64190267800899
 20
85.53440115380977
 30
0.0
 11
64.64190267800913
 21
85.11310105453857
 31
0.0
  0
LINE
  5
31B
330
6C
100
AcDbEntity
  8
Visible {c3}
100
AcDbLine
 10
64.64190267800731
 20
87.15168242247656
 30
0.0
 11
64.64190267800899
 21
85.53440115380979
 31
0.0
  0
LINE
  5
31C
330
6C
100
AcDbEntity
  8
Visible {c3}
100
AcDbLine
 10
64.64190267800731
 20
87.15168242247658
 30
0.0
 11
64.64190267800725
 21
87.39199784646116
 31
0.0
  0
LINE
  5
31D
330
6C
100
AcDbEntity
  8
Visible {c3}
100
AcDbLine
 10
64.64190267800725
 20
113.831066691471
 30
0.0
 11
64.64190267800725
 21
87.39199784646116
 31
0.0
  0
LINE
  5
31E
330
6C
100
AcDbEntity
  8
Visible {c3}
100
AcDbLine
 10
64.64190267800725
 20
113.831066691471
 30
0.0
 11
64.64190267800738
 21
114.508877997563
 31
0.0
  0
LINE
  5
31F
330
6C
100
AcDbEntity
  8
Visible {c3}
100
AcDbLine
 10
64.64190267800768
 20
116.0904377117775
 30
0.0
 11
64.64190267800738
 21
114.508877997563
 31
0.0
  0
LINE
  5
320
330
6C
100
AcDbEntity
  8
Visible {c3}
100
AcDbLine
 10
64.64190267800768
 20
117.1990939057294
 30
0.0
 11
64.64190267800768
 21
116.0904377117775
 31
0.0
  0
LINE
  5
321
330
6C
100
AcDbEntity
  8
Visible {c3}
100
AcDbLine
 10
64.64190267800768
 20
117.1990939057294
 30
0.0
 11
64.64190267800785
 21
117.9200401776831
 31
0.0
  0
LINE
  5
322
330
6C
100
AcDbEntity
  8
Visible {c3}
100
AcDbLine
 10
64.64190267800976
 20
119.7745763628894
 30
0.0
 11
64.64190267800785
 21
117.9200401776831
 31
0.0
  0
SPLINE
  5
323
330
6C
100
AcDbEntity
  8
Visible {c3}
100
AcDbSpline
210
0.0
220
0.0
230
1.0
 70
     8
 71
     3
 72
    10
 73
     6
 74
     0
 42
0.0000000001
 43
0.0000000001
 40
0.4001129811414657
 40
0.4001129811414657
 40
0.4001129811414657
 40
0.4001129811414657
 40
0.4675764028872448
 40
0.4675764028872448
 40
0.5350398246330239
 40
0.5350398246330239
 40
0.5350398246330239
 40
0.5350398246330239
 10
64.64190267800976
 20
82.40231122982718
 30
0.0
 10
64.64190267800981
 20
82.27120435781564
 30
0.0
 10
64.65007308512614
 20
82.17087261564721
 30
0.0
 10
64.65007308512626
 20
82.04690302108472
 30
0.0
 10
64.64190267801007
 20
82.01778286581314
 30
0.0
 10
64.64190267801014
 20
82.02771704176448
 30
0.0
  0
ELLIPSE
  5
324
330
6C
100
AcDbEntity
  8
Visible {c3}
100
AcDbEllipse
 10
65.39190267801034
 20
81.83294640101784
 30
0.0
 11
-0.7499999999999952
 21
-0.0000000000000006
 31
0.0
210
0.0
220
0.0
230
1.0
 40
0.9729107100422337
 41
0.0
 42
1.570796326794753
  0
LINE
  5
325
330
6C
100
AcDbEntity
  8
Visible Narrow {c3}
100
AcDbLine
 10
65.39190267801029
 20
81.10326336848617
 30
0.0
 11
65.39190267800949
 21
81.87996758891472
 31
0.0
  0
ELLIPSE
  5
326
330
6C
100
AcDbEntity
  8
Visible Narrow {c3}
100
AcDbEllipse
 10
65.39190267800956
 20
82.60091386086845
 30
0.0
 11
-0.7499999999999986
 21
-0.0000000000000002
 31
0.0
210
0.0
220
0.0
230
1.0
 40
0.9612616959383199
 41
0.0
 42
1.57079632679473
  0
ELLIPSE
  5
327
330
6C
100
AcDbEntity
  8
Visible Narrow {c3}
100
AcDbEllipse
 10
65.39190267801315
 20
79.96803989845133
 30
0.0
 11
-0.7499999999999949
 21
-0.0000000000000006
 31
0.0
210
0.0
220
0.0
230
1.0
 40
0.9810905174433365
 41
0.0000000000001207
 42
1.570796326794895
  0
LINE
  5
328
330
6C
100
AcDbEntity
  8
Visible Narrow {c3}
100
AcDbLine
 10
65.39190267801311
 20
79.23222201036884
 30
0.0
 11
65.39190267801029
 21
81.10326336848617
 31
0.0
  0
LINE
  5
329
330
6C
100
AcDbEntity
  8
Visible Narrow {c3}
100
AcDbLine
 10
65.39190267801346
 20
77.74096442385499
 30
0.0
 11
64.64190267801369
 21
77.74096442385499
 31
0.0
  0
LINE
  5
32A
330
6C
100
AcDbEntity
  8
Visible Narrow {c3}
100
AcDbLine
 10
65.39190267801346
 20
77.74096442385499
 30
0.0
 11
65.39190267801311
 21
79.23222201036884
 31
0.0
  0
LINE
  5
32B
330
6C
100
AcDbEntity
  8
Visible Narrow {c3}
100
AcDbLine
 10
65.39190267801346
 20
77.10596442385498
 30
0.0
 11
64.64190267801369
 21
77.10596442385498
 31
0.0
  0
LINE
  5
32C
330
6C
100
AcDbEntity
  8
Visible Narrow {c3}
100
AcDbLine
 10
65.39190267801346
 20
77.10596442385498
 30
0.0
 11
65.39190267801346
 21
77.74096442385499
 31
0.0
  0
ELLIPSE
  5
32D
330
6C
100
AcDbEntity
  8
Visible Narrow {c3}
100
AcDbEllipse
 10
65.39190267801391
 20
76.26423656542472
 30
0.0
 11
-0.7499999999999997
 21
-0.000000000000005
 31
0.0
210
0.0
220
0.0
230
1.0
 40
0.990268068741507
 41
0.000000000000096
 42
1.57079632679489
  0
LINE
  5
32E
330
6C
100
AcDbEntity
  8
Visible Narrow {c3}
100
AcDbLine
 10
65.39190267801346
 20
77.105964423855
 30
0.0
 11
65.39190267801387
 21
75.52153551386858
 31
0.0
  0
ELLIPSE
  5
32F
330
6C
100
AcDbEntity
  8
Visible Narrow {c3}
100
AcDbEllipse
 10
65.39190267801695
 20
74.82873184802055
 30
0.0
 11
-0.7499999999999972
 21
-0.0000000000000006
 31
0.0
210
0.0
220
0.0
230
1.0
 40
0.9902680687415067
 41
0.0000000000000898
 42
1.570796326794895
  0
LINE
  5
330
330
6C
100
AcDbEntity
  8
Visible Narrow {c3}
100
AcDbLine
 10
65.3919026780169
 20
74.08603079646443
 30
0.0
 11
65.39190267801387
 21
75.52153551386858
 31
0.0
  0
LINE
  5
331
330
6C
100
AcDbEntity
  8
Visible Narrow {c3}
100
AcDbLine
 10
65.3919026780169
 20
74.08603079646441
 30
0.0
 11
65.39190267801695
 21
74.07629886520592
 31
0.0
  0
ELLIPSE
  5
332
330
6C
100
AcDbEntity
  8
Visible Narrow {c3}
100
AcDbEllipse
 10
65.39190267801695
 20
127.348155744696
 30
0.0
 11
-0.7499999999999997
 21
0.0000000000000039
 31
0.0
210
0.0
220
0.0
230
1.0
 40
0.9902680687415072
 41
4.712388980384706
 42
6.283185307179502
  0
LINE
  5
333
330
6C
100
AcDbEntity
  8
Visible Narrow {c3}
100
AcDbLine
 10
65.39190267801695
 20
128.1005887275107
 30
0.0
 11
65.3919026780169
 21
128.0908567962522
 31
0.0
  0
ELLIPSE
  5
334
330
6C
100
AcDbEntity
  8
Visible Narrow {c3}
100
AcDbEllipse
 10
65.39190267801391
 20
125.9126510272919
 30
0.0
 11
-0.7499999999999974
 21
-0.0000000000000006
 31
0.0
210
0.0
220
0.0
230
1.0
 40
0.990268068741507
 41
4.712388980384688
 42
6.283185307179496
  0
LINE
  5
335
330
6C
100
AcDbEntity
  8
Visible Narrow {c3}
100
AcDbLine
 10
65.39190267801387
 20
126.655352078848
 30
0.0
 11
65.3919026780169
 21
128.0908567962522
 31
0.0
  0
LINE
  5
336
330
6C
100
AcDbEntity
  8
Visible Narrow {c3}
100
AcDbLine
 10
65.39190267801346
 20
125.0709231688616
 30
0.0
 11
64.64190267801369
 21
125.0709231688616
 31
0.0
  0
LINE
  5
337
330
6C
100
AcDbEntity
  8
Visible Narrow {c3}
100
AcDbLine
 10
65.39190267801389
 20
126.655352078848
 30
0.0
 11
65.39190267801348
 21
125.0709231688616
 31
0.0
  0
LINE
  5
338
330
6C
100
AcDbEntity
  8
Visible Narrow {c3}
100
AcDbLine
 10
65.39190267801346
 20
124.4359231688616
 30
0.0
 11
64.64190267801369
 21
124.4359231688616
 31
0.0
  0
LINE
  5
339
330
6C
100
AcDbEntity
  8
Visible Narrow {c3}
100
AcDbLine
 10
65.39190267801346
 20
124.4359231688616
 30
0.0
 11
65.39190267801346
 21
125.0709231688616
 31
0.0
  0
ELLIPSE
  5
33A
330
6C
100
AcDbEntity
  8
Visible Narrow {c3}
100
AcDbEllipse
 10
65.39190267801315
 20
122.2088476942652
 30
0.0
 11
-0.7499999999999942
 21
-0.0000000000000006
 31
0.0
210
0.0
220
0.0
230
1.0
 40
0.9810905174433372
 41
4.712388980384688
 42
6.283185307179478
  0
LINE
  5
33B
330
6C
100
AcDbEntity
  8
Visible Narrow {c3}
100
AcDbLine
 10
65.39190267801311
 20
122.9446655823478
 30
0.0
 11
65.39190267801346
 21
124.4359231688616
 31
0.0
  0
LINE
  5
33C
330
6C
100
AcDbEntity
  8
Visible Narrow {c3}
100
AcDbLine
 10
65.39190267801029
 20
121.0736242242304
 30
0.0
 11
65.39190267801311
 21
122.9446655823478
 31
0.0
  0
ELLIPSE
  5
33D
330
6C
100
AcDbEntity
  8
Visible {c3}
100
AcDbEllipse
 10
65.39190267801034
 20
120.3439411916987
 30
0.0
 11
0.7499999999999952
 21
0.0000000000001107
 31
0.0
210
0.0
220
0.0
230
1.0
 40
0.9729107100422385
 41
1.570796326794907
 42
3.141592653589631
  0
ELLIPSE
  5
33E
330
6C
100
AcDbEntity
  8
Visible Narrow {c3}
100
AcDbEllipse
 10
65.3919026780095
 20
82.72482565477176
 30
0.0
 11
-0.7499999999999906
 21
0.0000000000000005
 31
0.0
210
0.0
220
0.0
230
1.0
 40
0.4656145203251133
 41
0.0
 42
1.570796326794376
  0
LINE
  5
33F
330
6C
100
AcDbEntity
  8
Visible Narrow {c3}
100
AcDbLine
 10
65.39190267800932
 20
82.37561476452794
 30
0.0
 11
65.39190267800949
 21
81.87996758891472
 31
0.0
  0
ELLIPSE
  5
340
330
6C
100
AcDbEntity
  8
Visible Narrow {c3}
100
AcDbEllipse
 10
65.39190267800913
 20
85.11310105453857
 30
0.0
 11
-0.7499999999999974
 21
0.0000000000000016
 31
0.0
210
0.0
220
0.0
230
1.0
 40
0.465614520325106
 41
0.0
 42
1.570796326794376
  0
LINE
  5
341
330
6C
100
AcDbEntity
  8
Visible Narrow {c3}
100
AcDbLine
 10
65.3919026780093
 20
82.37561476452794
 30
0.0
 11
65.39190267800893
 21
84.76389016429472
 31
0.0
  0
ELLIPSE
  5
342
330
6C
100
AcDbEntity
  8
Visible Narrow {c3}
100
AcDbEllipse
 10
65.39190267800897
 20
85.53440115380979
 30
0.0
 11
-0.7499999999999974
 21
-0.0000000000000009
 31
0.0
210
0.0
220
0.0
230
1.0
 40
0.9612616959383245
 41
0.0
 42
1.570796326794729
  0
LINE
  5
343
330
6C
100
AcDbEntity
  8
Visible Narrow {c3}
100
AcDbLine
 10
65.39190267800893
 20
84.76389016429472
 30
0.0
 11
65.39190267800892
 21
84.81345488185603
 31
0.0
  0
ELLIPSE
  5
344
330
6C
100
AcDbEntity
  8
Visible Narrow {c3}
100
AcDbEllipse
 10
65.39190267800731
 20
87.15168242247656
 30
0.0
 11
-0.7499999999999946
 21
0.0000000000000005
 31
0.0
210
0.0
220
0.0
230
1.0
 40
0.9612616959383192
 41
0.0
 42
1.570796326794731
  0
LINE
  5
345
330
6C
100
AcDbEntity
  8
Visible Narrow {c3}
100
AcDbLine
 10
65.39190267800892
 20
84.81345488185604
 30
0.0
 11
65.39190267800724
 21
86.43073615052285
 31
0.0
  0
LINE
  5
346
330
6C
100
AcDbEntity
  8
Visible Narrow {c3}
100
AcDbLine
 10
64.64190267800725
 20
87.39199784646116
 30
0.0
 11
65.39190267800703
 21
87.39199784646116
 31
0.0
  0
LINE
  5
347
330
6C
100
AcDbEntity
  8
Visible Narrow {c3}
100
AcDbLine
 10
65.39190267800703
 20
87.39199784646116
 30
0.0
 11
65.39190267800724
 21
86.43073615052285
 31
0.0
  0
LINE
  5
348
330
6C
100
AcDbEntity
  8
Visible Narrow {c3}
100
AcDbLine
 10
64.64190267800725
 20
113.831066691471
 30
0.0
 11
65.39190267800703
 21
113.831066691471
 31
0.0
  0
LINE
  5
349
330
6C
100
AcDbEntity
  8
Visible Narrow {c3}
100
AcDbLine
 10
65.39190267800703
 20
87.39199784646116
 30
0.0
 11
65.39190267800703
 21
113.831066691471
 31
0.0
  0
ELLIPSE
  5
34A
330
6C
100
AcDbEntity
  8
Visible Narrow {c3}
100
AcDbEllipse
 10
65.39190267800737
 20
114.508877997563
 30
0.0
 11
-0.7499999999999922
 21
-0.0000000000000015
 31
0.0
210
0.0
220
0.0
230
1.0
 40
0.9037484081226303
 41
4.712388980384948
 42
6.283185307179561
  0
LINE
  5
34B
330
6C
100
AcDbEntity
  8
Visible Narrow {c3}
100
AcDbLine
 10
65.39190267800728
 20
115.1866893036549
 30
0.0
 11
65.39190267800703
 21
113.831066691471
 31
0.0
  0
LINE
  5
34C
330
6C
100
AcDbEntity
  8
Visible Narrow {c3}
100
AcDbLine
 10
64.64190267800768
 20
116.0904377117775
 30
0.0
 11
65.39190267800745
 21
116.0904377117775
 31
0.0
  0
LINE
  5
34D
330
6C
100
AcDbEntity
  8
Visible Narrow {c3}
100
AcDbLine
 10
65.39190267800728
 20
115.1866893036549
 30
0.0
 11
65.39190267800745
 21
116.0904377117775
 31
0.0
  0
LINE
  5
34E
330
6C
100
AcDbEntity
  8
Visible Narrow {c3}
100
AcDbLine
 10
64.64190267800768
 20
117.1990939057294
 30
0.0
 11
65.39190267800745
 21
117.1990939057294
 31
0.0
  0
LINE
  5
34F
330
6C
100
AcDbEntity
  8
Visible Narrow {c3}
100
AcDbLine
 10
65.39190267800745
 20
116.0904377117775
 30
0.0
 11
65.39190267800745
 21
117.1990939057294
 31
0.0
  0
ELLIPSE
  5
350
330
6C
100
AcDbEntity
  8
Visible Narrow {c3}
100
AcDbEllipse
 10
65.39190267800783
 20
117.9200401776831
 30
0.0
 11
-0.7499999999999976
 21
-0.000000000000001
 31
0.0
210
0.0
220
0.0
230
1.0
 40
0.9612616959383213
 41
4.712388980384853
 42
6.283185307179572
  0
LINE
  5
351
330
6C
100
AcDbEntity
  8
Visible Narrow {c3}
100
AcDbLine
 10
65.39190267800778
 20
118.6409864496368
 30
0.0
 11
65.39190267800745
 21
117.1990939057294
 31
0.0
  0
SPLINE
  5
352
330
6C
100
AcDbEntity
  8
Visible {c3}
100
AcDbSpline
210
0.0
220
0.0
230
1.0
 70
     8
 71
     3
 72
    11
 73
     7
 74
     0
 42
0.0000000001
 43
0.0000000001
 40
-0.0674634217457783
 40
-0.0674634217457783
 40
-0.0674634217457783
 40
-0.0674634217457783
 40
0.0
 40
0.0
 40
0.0
 40
0.0674634217457783
 40
0.0674634217457783
 40
0.0674634217457783
 40
0.0674634217457783
 10
64.64190267801014
 20
120.1491705509521
 30
0.0
 10
64.64190267801008
 20
120.1591047269034
 30
0.0
 10
64.65007308512626
 20
120.1299845716319
 30
0.0
 10
64.65007308512621
 20
120.0679997743506
 30
0.0
 10
64.65007308512614
 20
120.0060149770694
 30
0.0
 10
64.64190267800981
 20
119.9056832349009
 30
0.0
 10
64.64190267800976
 20
119.7745763628894
 30
0.0
  0
LINE
  5
353
330
6C
100
AcDbEntity
  8
Visible Narrow {c3}
100
AcDbLine
 10
65.39190267800778
 20
118.6409864496368
 30
0.0
 11
65.39190267801029
 21
121.0736242242304
 31
0.0
  0
ARC
  5
354
330
6C
100
AcDbEntity
  8
Visible {c3}
100
AcDbCircle
 10
65.39190267801695
 20
74.82629886520593
 30
0.0
 40
0.7499999999999969
100
AcDbArc
 50
180.0
 51
270.0
  0
ARC
  5
355
330
6C
100
AcDbEntity
  8
Visible {c3}
100
AcDbCircle
 10
65.39190267801695
 20
127.3505887275107
 30
0.0
 40
0.7499999999999969
100
AcDbArc
 50
90.0
 51
180.0
  0
LINE
  5
356
330
6C
100
AcDbEntity
  8
Visible {c3}
100
AcDbLine
 10
64.64190267801014
 20
82.02771704176448
 30
0.0
 11
64.64190267801048
 21
82.40231122982718
 31
0.0
  0
LINE
  5
357
330
6C
100
AcDbEntity
  8
Visible {c3}
100
AcDbLine
 10
64.64190267801048
 20
119.7745763628894
 30
0.0
 11
64.64190267801014
 21
120.1491705509521
 31
0.0
  0
LINE
  5
358
330
6C
100
AcDbEntity
  8
Visible Narrow {c3}
100
AcDbLine
 10
65.39190267801346
 20
124.4359231688616
 30
0.0
 11
65.83570267801348
 21
124.4359231688616
 31
0.0
  0
LINE
  5
359
330
6C
100
AcDbEntity
  8
Visible Narrow {c3}
100
AcDbLine
 10
65.39190267801346
 20
125.0709231688616
 30
0.0
 11
65.83570267801348
 21
125.0709231688616
 31
0.0
  0
LINE
  5
35A
330
6C
100
AcDbEntity
  8
Visible Narrow {c3}
100
AcDbLine
 10
65.39190267801311
 20
122.9446655823478
 30
0.0
 11
65.8357026780131
 21
122.9446655823478
 31
0.0
  0
LINE
  5
35B
330
6C
100
AcDbEntity
  8
Visible {c3}
100
AcDbLine
 10
65.83570267801336
 20
123.4265109907161
 30
0.0
 11
65.83570267801317
 21
123.0094859660436
 31
0.0
  0
LINE
  5
35C
330
6C
100
AcDbEntity
  8
Visible {c3}
100
AcDbLine
 10
65.39190267801029
 20
121.0736242242304
 30
0.0
 11
65.83570267801029
 21
121.0736242242304
 31
0.0
  0
LINE
  5
35D
330
6C
100
AcDbEntity
  8
Visible {c3}
100
AcDbLine
 10
65.83570267801691
 20
128.0908567962522
 30
0.0
 11
65.83570267801388
 21
126.655352078848
 31
0.0
  0
LINE
  5
35E
330
6C
100
AcDbEntity
  8
Visible {c3}
100
AcDbLine
 10
65.8357026780138
 20
126.6047290478948
 30
0.0
 11
65.83570267801388
 21
126.655352078848
 31
0.0
  0
LINE
  5
35F
330
6C
100
AcDbEntity
  8
Visible Narrow {c3}
100
AcDbLine
 10
65.39190267801387
 20
126.655352078848
 30
0.0
 11
65.83570267801388
 21
126.655352078848
 31
0.0
  0
LINE
  5
360
330
6C
100
AcDbEntity
  8
Visible Narrow {c3}
100
AcDbLine
 10
65.83570267800777
 20
118.6409864496368
 30
0.0
 11
65.39190267800778
 21
118.6409864496368
 31
0.0
  0
LINE
  5
361
330
6C
100
AcDbEntity
  8
Visible Narrow {c3}
100
AcDbLine
 10
65.39190267800745
 20
117.1990939057294
 30
0.0
 11
65.83570267800745
 21
117.1990939057294
 31
0.0
  0
LINE
  5
362
330
6C
100
AcDbEntity
  8
Visible Narrow {c3}
100
AcDbLine
 10
65.39190267800745
 20
116.0904377117775
 30
0.0
 11
65.83570267800745
 21
116.0904377117775
 31
0.0
  0
LINE
  5
363
330
6C
100
AcDbEntity
  8
Visible {c3}
100
AcDbLine
 10
65.83570267800745
 20
117.1990939057294
 30
0.0
 11
65.83570267800745
 21
116.1094565272521
 31
0.0
  0
LINE
  5
364
330
6C
100
AcDbEntity
  8
Visible Narrow {c3}
100
AcDbLine
 10
65.39190267800728
 20
115.1866893036549
 30
0.0
 11
65.83570267800728
 21
115.1866893036549
 31
0.0
  0
LINE
  5
365
330
6C
100
AcDbEntity
  8
Visible Narrow {c3}
100
AcDbLine
 10
65.83570267800702
 20
113.831066691471
 30
0.0
 11
65.39190267800703
 21
113.831066691471
 31
0.0
  0
LINE
  5
366
330
6C
100
AcDbEntity
  8
Visible Narrow {c3}
100
AcDbLine
 10
65.83570267800702
 20
87.39199784646116
 30
0.0
 11
65.39190267800703
 21
87.39199784646116
 31
0.0
  0
LINE
  5
367
330
6C
100
AcDbEntity
  8
Visible Narrow {c3}
100
AcDbLine
 10
65.39190267800724
 20
86.43073615052285
 30
0.0
 11
65.83570267800723
 21
86.43073615052285
 31
0.0
  0
LINE
  5
368
330
6C
100
AcDbEntity
  8
Visible {c3}
100
AcDbLine
 10
65.83570267800702
 20
113.831066691471
 30
0.0
 11
65.83570267800702
 21
87.39199784646116
 31
0.0
  0
LINE
  5
369
330
6C
100
AcDbEntity
  8
Visible {c3}
100
AcDbLine
 10
65.39190267801029
 20
81.10326336848617
 30
0.0
 11
65.83570267801029
 21
81.10326336848617
 31
0.0
  0
LINE
  5
36A
330
6C
100
AcDbEntity
  8
Visible {c3}
100
AcDbLine
 10
65.8357026780169
 20
74.08603079646443
 30
0.0
 11
65.83570267801388
 21
75.52153551386858
 31
0.0
  0
LINE
  5
36B
330
6C
100
AcDbEntity
  8
Visible Narrow {c3}
100
AcDbLine
 10
65.39190267801387
 20
75.52153551386858
 30
0.0
 11
65.83570267801388
 21
75.52153551386858
 31
0.0
  0
LINE
  5
36C
330
6C
100
AcDbEntity
  8
Visible {c3}
100
AcDbLine
 10
65.83570267801334
 20
78.75037660203396
 30
0.0
 11
65.83570267801317
 21
79.16740162667267
 31
0.0
  0
LINE
  5
36D
330
6C
100
AcDbEntity
  8
Visible {c3}
100
AcDbLine
 10
65.8357026780138
 20
75.57215854478773
 30
0.0
 11
65.83570267801388
 21
75.5215355138686
 31
0.0
  0
LINE
  5
36E
330
6C
100
AcDbEntity
  8
Visible Narrow {c3}
100
AcDbLine
 10
65.39190267801346
 20
77.10596442385498
 30
0.0
 11
65.83570267801346
 21
77.10596442385498
 31
0.0
  0
LINE
  5
36F
330
6C
100
AcDbEntity
  8
Visible Narrow {c3}
100
AcDbLine
 10
65.39190267801346
 20
77.74096442385499
 30
0.0
 11
65.83570267801346
 21
77.74096442385499
 31
0.0
  0
LINE
  5
370
330
6C
100
AcDbEntity
  8
Visible Narrow {c3}
100
AcDbLine
 10
65.39190267801311
 20
79.23222201036884
 30
0.0
 11
65.83570267801309
 21
79.23222201036884
 31
0.0
  0
LINE
  5
371
330
6C
100
AcDbEntity
  8
Visible Narrow {c3}
100
AcDbLine
 10
65.39190267800892
 20
84.81345488185604
 30
0.0
 11
65.83570267800891
 21
84.81345488185604
 31
0.0
  0
LINE
  5
372
330
6C
100
AcDbEntity
  8
Visible Narrow {c3}
100
AcDbLine
 10
65.39190267800893
 20
84.76389016429472
 30
0.0
 11
65.83570267800893
 21
84.76389016429472
 31
0.0
  0
LINE
  5
373
330
6C
100
AcDbEntity
  8
Visible Narrow {c3}
100
AcDbLine
 10
65.83570267800931
 20
82.37561476452794
 30
0.0
 11
65.3919026780093
 21
82.37561476452794
 31
0.0
  0
LINE
  5
374
330
6C
100
AcDbEntity
  8
Visible Narrow {c3}
100
AcDbLine
 10
65.39190267800949
 20
81.87996758891472
 30
0.0
 11
65.83570267800948
 21
81.87996758891472
 31
0.0
  0
LINE
  5
375
330
6C
100
AcDbEntity
  8
Visible {c3}
100
AcDbLine
 10
65.8357026780169
 20
74.08603079646443
 30
0.0
 11
65.83570267801694
 21
74.07629886520592
 31
0.0
  0
LINE
  5
376
330
6C
100
AcDbEntity
  8
Visible Narrow {c3}
100
AcDbLine
 10
65.8357026780169
 20
74.08603079646443
 30
0.0
 11
65.3919026780169
 21
74.08603079646443
 31
0.0
  0
LINE
  5
377
330
6C
100
AcDbEntity
  8
Visible {c3}
100
AcDbLine
 10
65.83570267801694
 20
128.1005887275107
 30
0.0
 11
65.8357026780169
 21
128.0908567962522
 31
0.0
  0
LINE
  5
378
330
6C
100
AcDbEntity
  8
Visible Narrow {c3}
100
AcDbLine
 10
65.3919026780169
 20
128.0908567962522
 30
0.0
 11
65.83570267801691
 21
128.0908567962522
 31
0.0
  0
LINE
  5
379
330
6C
100
AcDbEntity
  8
Visible {c3}
100
AcDbLine
 10
65.39190267801695
 20
74.07629886520592
 30
0.0
 11
65.83570267801694
 21
74.07629886520592
 31
0.0
  0
LINE
  5
37A
330
6C
100
AcDbEntity
  8
Visible {c3}
100
AcDbLine
 10
65.39190267801695
 20
128.1005887275107
 30
0.0
 11
65.83570267801694
 21
128.1005887275107
 31
0.0
  0
ARC
  5
37B
330
6C
100
AcDbEntity
  8
Visible {c3}
100
AcDbCircle
 10
70.76070267800735
 20
102.4346437963582
 30
0.0
 40
3.174999999999984
100
AcDbArc
 50
0.0
 51
52.05472439377798
  0
ARC
  5
37C
330
6C
100
AcDbEntity
  8
Visible {c3}
100
AcDbCircle
 10
69.00810267800736
 20
102.4346437963582
 30
0.0
 40
3.17499999999999
100
AcDbArc
 50
127.9452756062225
 51
177.6810996786549
  0
ARC
  5
37D
330
6C
100
AcDbEntity
  8
Visible {c3}
100
AcDbCircle
 10
69.00810267800736
 20
99.74224379635822
 30
0.0
 40
3.174999999999994
100
AcDbArc
 50
182.3189003213489
 51
232.0547243937778
  0
ARC
  5
37E
330
6C
100
AcDbEntity
  8
Visible {c3}
100
AcDbCircle
 10
70.76070267800734
 20
99.74224379635822
 30
0.0
 40
3.174999999999989
100
AcDbArc
 50
307.9452756062223
 51
0.0
  0
ARC
  5
37F
330
6C
100
AcDbEntity
  8
Visible {c3}
100
AcDbCircle
 10
69.88440267800735
 20
101.0884437963582
 30
0.0
 40
3.860799999999985
100
AcDbArc
 50
274.286591979698
 51
85.71340802030183
  0
ARC
  5
380
330
6C
100
AcDbEntity
  8
Visible {c3}
100
AcDbCircle
 10
69.88440267800735
 20
101.0884437963582
 30
0.0
 40
3.860799999999985
100
AcDbArc
 50
94.28659197969791
 51
265.7134080203018
  0
CIRCLE
  5
381
330
6C
100
AcDbEntity
  8
Visible {c3}
100
AcDbCircle
 10
69.88440267800275
 20
101.0884437963582
 30
0.0
 40
3.547415506958222
  0
CIRCLE
  5
382
330
6C
100
AcDbEntity
  8
Visible {c3}
100
AcDbCircle
 10
69.88440267800275
 20
101.0884437963582
 30
0.0
 40
3.589644758878295
  0
LINE
  5
383
330
6C
100
AcDbEntity
  8
Visible Narrow {c3}
100
AcDbLine
 10
218.4899561355657
 20
82.85918329315084
 30
0.0
 11
218.4899561355656
 21
82.38704270616697
 31
0.0
  0
LINE
  5
384
330
6C
100
AcDbEntity
  8
Visible Narrow {c3}
100
AcDbLine
 10
217.6962061355655
 20
82.85918329315084
 30
0.0
 11
218.4899561355657
 21
82.85918329315084
 31
0.0
  0
ELLIPSE
  5
385
330
6C
100
AcDbEntity
  8
Visible Narrow {c3}
100
AcDbEllipse
 10
218.4899561355655
 20
82.85918329315084
 30
0.0
 11
-0.7937500000000018
 21
0.0
 31
0.0
210
0.0
220
0.0
230
1.0
 40
0.5948227867513411
 41
0.0
 42
1.570796326794448
  0
LINE
  5
386
330
6C
100
AcDbEntity
  8
Visible {c3}
100
AcDbLine
 10
222.5462061355657
 20
82.85918329315084
 30
0.0
 11
222.5462061355656
 21
82.38704270616697
 31
0.0
  0
LINE
  5
387
330
6C
100
AcDbEntity
  8
Visible Narrow {c3}
100
AcDbLine
 10
222.5462061355657
 20
82.85918329315084
 30
0.0
 11
218.4899561355657
 21
82.85918329315084
 31
0.0
  0
LINE
  5
388
330
6C
100
AcDbEntity
  8
Visible Narrow {c3}
100
AcDbLine
 10
218.4899561355657
 20
82.38704270616697
 30
0.0
 11
222.5462061355657
 21
82.38704270616697
 31
0.0
  0
LINE
  5
389
330
6C
100
AcDbEntity
  8
Visible Narrow {c3}
100
AcDbLine
 10
218.4899561355657
 20
119.3177042995656
 30
0.0
 11
217.6962061355655
 21
119.3177042995656
 31
0.0
  0
LINE
  5
38A
330
6C
100
AcDbEntity
  8
Visible Narrow {c3}
100
AcDbLine
 10
218.4899561355656
 20
119.7898448865494
 30
0.0
 11
218.4899561355657
 21
119.3177042995656
 31
0.0
  0
ELLIPSE
  5
38B
330
6C
100
AcDbEntity
  8
Visible Narrow {c3}
100
AcDbEllipse
 10
218.4899561355655
 20
119.3177042995656
 30
0.0
 11
-0.7937500000000022
 21
-0.0000000000000017
 31
0.0
210
0.0
220
0.0
230
1.0
 40
0.5948227867513407
 41
4.71238898038424
 42
6.283185307180028
  0
LINE
  5
38C
330
6C
100
AcDbEntity
  8
Visible {c3}
100
AcDbLine
 10
222.5462061355656
 20
119.7898448865494
 30
0.0
 11
222.5462061355657
 21
119.3177042995656
 31
0.0
  0
LINE
  5
38D
330
6C
100
AcDbEntity
  8
Visible Narrow {c3}
100
AcDbLine
 10
222.5462061355657
 20
119.7898448865494
 30
0.0
 11
218.4899561355657
 21
119.7898448865494
 31
0.0
  0
LINE
  5
38E
330
6C
100
AcDbEntity
  8
Visible Narrow {c3}
100
AcDbLine
 10
218.4899561355657
 20
119.3177042995656
 30
0.0
 11
222.5462061355657
 21
119.3177042995656
 31
0.0
  0
LINE
  5
38F
330
6C
100
AcDbEntity
  8
Visible Narrow {c3}
100
AcDbLine
 10
218.4899561355639
 20
74.48173601623302
 30
0.0
 11
218.4899561355657
 21
82.38704270616697
 31
0.0
  0
LINE
  5
390
330
6C
100
AcDbEntity
  8
Visible {c3}
100
AcDbLine
 10
217.6962061355655
 20
82.85918329315084
 30
0.0
 11
217.6962061355637
 21
74.95387660321691
 31
0.0
  0
ELLIPSE
  5
391
330
6C
100
AcDbEntity
  8
Visible Narrow {c3}
100
AcDbEllipse
 10
218.4899561355637
 20
74.95387660321691
 30
0.0
 11
-0.7937499999999981
 21
-0.0000000000000044
 31
0.0
210
0.0
220
0.0
230
1.0
 40
0.5948227867513414
 41
0.0
 42
1.570796326794445
  0
LINE
  5
392
330
6C
100
AcDbEntity
  8
Visible Narrow {c3}
100
AcDbLine
 10
218.4899561355657
 20
82.85918329315084
 30
0.0
 11
218.4899561355657
 21
119.3177042995656
 31
0.0
  0
LINE
  5
393
330
6C
100
AcDbEntity
  8
Visible {c3}
100
AcDbLine
 10
217.6962061355655
 20
119.3177042995656
 30
0.0
 11
217.6962061355655
 21
82.85918329315084
 31
0.0
  0
LINE
  5
394
330
6C
100
AcDbEntity
  8
Visible Narrow {c3}
100
AcDbLine
 10
218.4899561355657
 20
119.7898448865494
 30
0.0
 11
218.4899561355639
 21
127.6951515764834
 31
0.0
  0
ELLIPSE
  5
395
330
6C
100
AcDbEntity
  8
Visible Narrow {c3}
100
AcDbEllipse
 10
218.4899561355637
 20
127.2230109894995
 30
0.0
 11
-0.7937499999999967
 21
0.0
 31
0.0
210
0.0
220
0.0
230
1.0
 40
0.5948227867513414
 41
4.712388980385092
 42
6.28318530718088
  0
LINE
  5
396
330
6C
100
AcDbEntity
  8
Visible {c3}
100
AcDbLine
 10
217.6962061355637
 20
127.2230109894995
 30
0.0
 11
217.6962061355655
 21
119.3177042995656
 31
0.0
  0
LINE
  5
397
330
6C
100
AcDbEntity
  8
Visible Narrow {c3}
100
AcDbLine
 10
218.4899561355639
 20
74.48173601623302
 30
0.0
 11
218.4899561355637
 21
74.07655880298436
 31
0.0
  0
LINE
  5
398
330
6C
100
AcDbEntity
  8
Visible {c3}
100
AcDbLine
 10
217.6962061355637
 20
74.87030880298437
 30
0.0
 11
217.6962061355637
 21
74.95387660321691
 31
0.0
  0
LINE
  5
399
330
6C
100
AcDbEntity
  8
Visible Narrow {c3}
100
AcDbLine
 10
218.4899561355637
 20
128.1003287897321
 30
0.0
 11
218.4899561355639
 21
127.6951515764834
 31
0.0
  0
LINE
  5
39A
330
6C
100
AcDbEntity
  8
Visible {c3}
100
AcDbLine
 10
217.6962061355637
 20
127.2230109894995
 30
0.0
 11
217.6962061355637
 21
127.3065787897321
 31
0.0
  0
ARC
  5
39B
330
6C
100
AcDbEntity
  8
Visible {c3}
100
AcDbCircle
 10
218.4899561355637
 20
74.87030880298437
 30
0.0
 40
0.79375
100
AcDbArc
 50
180.0
 51
270.0
  0
ARC
  5
39C
330
6C
100
AcDbEntity
  8
Visible {c3}
100
AcDbCircle
 10
218.4899561355637
 20
127.3065787897321
 30
0.0
 40
0.79375
100
AcDbArc
 50
90.0
 51
180.0
  0
LINE
  5
39D
330
6C
100
AcDbEntity
  8
Visible Narrow {c3}
100
AcDbLine
 10
222.5462061355639
 20
74.48173601623302
 30
0.0
 11
218.4899561355639
 21
74.48173601623302
 31
0.0
  0
LINE
  5
39E
330
6C
100
AcDbEntity
  8
Visible Narrow {c3}
100
AcDbLine
 10
218.4899561355639
 20
127.6951515764834
 30
0.0
 11
222.5462061355639
 21
127.6951515764834
 31
0.0
  0
LINE
  5
39F
330
6C
100
AcDbEntity
  8
Visible {c3}
100
AcDbLine
 10
218.4899561355637
 20
128.1003287897321
 30
0.0
 11
226.5962061355637
 21
128.1003287897321
 31
0.0
  0
LINE
  5
3A0
330
6C
100
AcDbEntity
  8
Visible {c3}
100
AcDbLine
 10
218.4899561355637
 20
74.07655880298436
 30
0.0
 11
226.5962061355637
 21
74.07655880298436
 31
0.0
  0
LINE
  5
3A1
330
6C
100
AcDbEntity
  8
Visible {c3}
100
AcDbLine
 10
222.5462061355639
 20
74.48173601623302
 30
0.0
 11
222.5462061355642
 21
75.78834265143467
 31
0.0
  0
LINE
  5
3A2
330
6C
100
AcDbEntity
  8
Visible {c3}
100
AcDbLine
 10
222.5462061355653
 20
80.81244803029228
 30
0.0
 11
222.5462061355657
 21
82.38704270616697
 31
0.0
  0
LINE
  5
3A3
330
6C
100
AcDbEntity
  8
Visible {c3}
100
AcDbLine
 10
222.5462061355657
 20
84.24195485817376
 30
0.0
 11
222.5462061355657
 21
82.85918329315084
 31
0.0
  0
LINE
  5
3A4
330
6C
100
AcDbEntity
  8
Visible {c3}
100
AcDbLine
 10
222.5462061355642
 20
75.78834265143467
 30
0.0
 11
222.5462061355638
 21
76.79954138891196
 31
0.0
  0
ELLIPSE
  5
3A5
330
6C
100
AcDbEntity
  8
Visible {c3}
100
AcDbEllipse
 10
222.5462061355648
 20
78.30039534086347
 30
0.0
 11
-3.125000000000001
 21
-0.0000000000000013
 31
0.0
210
0.0
220
0.0
230
1.0
 40
0.8038568606172173
 41
4.712388980384348
 42
7.853981633974141
  0
ELLIPSE
  5
3A6
330
6C
100
AcDbEntity
  8
Visible {c3}
100
AcDbEllipse
 10
222.5462061355644
 20
79.31159407834076
 30
0.0
 11
-3.124999999999996
 21
-0.00000000000126
 31
0.0
210
0.0
220
0.0
230
1.0
 40
0.803856860617218
 41
0.2026536811274871
 42
1.570796326794402
  0
LINE
  5
3A7
330
6C
100
AcDbEntity
  8
Visible Narrow {c3}
100
AcDbLine
 10
226.5962061355657
 20
84.24195485817376
 30
0.0
 11
222.5462061355657
 21
84.24195485817376
 31
0.0
  0
LINE
  5
3A8
330
6C
100
AcDbEntity
  8
Visible Narrow {c3}
100
AcDbLine
 10
222.5462061355657
 20
117.9349327345427
 30
0.0
 11
226.5962061355657
 21
117.9349327345427
 31
0.0
  0
LINE
  5
3A9
330
6C
100
AcDbEntity
  8
Visible {c3}
100
AcDbLine
 10
222.5462061355654
 20
118.9349327345427
 30
0.0
 11
226.5962061355654
 21
118.9349327345427
 31
0.0
  0
LINE
  5
3AA
330
6C
100
AcDbEntity
  8
Visible {c3}
100
AcDbLine
 10
222.5462061355654
 20
83.24195485817375
 30
0.0
 11
226.5962061355654
 21
83.24195485817375
 31
0.0
  0
LINE
  5
3AB
330
6C
100
AcDbEntity
  8
Visible {c3}
100
AcDbLine
 10
226.5962061355657
 20
84.24195485817376
 30
0.0
 11
226.5962061355657
 21
98.08844379635822
 31
0.0
  0
LINE
  5
3AC
330
6C
100
AcDbEntity
  8
Visible {c3}
100
AcDbLine
 10
226.5962061355657
 20
102.3384437963582
 30
0.0
 11
226.5962061355657
 21
99.83844379635824
 31
0.0
  0
LINE
  5
3AD
330
6C
100
AcDbEntity
  8
Visible {c3}
100
AcDbLine
 10
226.5962061355657
 20
117.9349327345427
 30
0.0
 11
226.5962061355657
 21
104.0884437963582
 31
0.0
  0
LINE
  5
3AE
330
6C
100
AcDbEntity
  8
Visible {c3}
100
AcDbLine
 10
226.5962061355657
 20
98.08844379635822
 30
0.0
 11
218.4962061355657
 21
98.08844379635822
 31
0.0
  0
LINE
  5
3AF
330
6C
100
AcDbEntity
  8
Visible {c3}
100
AcDbLine
 10
218.4962061355657
 20
99.83844379635824
 30
0.0
 11
226.5962061355657
 21
99.83844379635824
 31
0.0
  0
LINE
  5
3B0
330
6C
100
AcDbEntity
  8
Visible {c3}
100
AcDbLine
 10
218.4962061355657
 20
98.08844379635822
 30
0.0
 11
218.4962061355657
 21
99.83844379635824
 31
0.0
  0
LINE
  5
3B1
330
6C
100
AcDbEntity
  8
Visible {c3}
100
AcDbLine
 10
218.4962061355657
 20
102.3384437963582
 30
0.0
 11
218.4962061355657
 21
104.0884437963582
 31
0.0
  0
LINE
  5
3B2
330
6C
100
AcDbEntity
  8
Visible {c3}
100
AcDbLine
 10
226.5962061355657
 20
102.3384437963582
 30
0.0
 11
218.4962061355657
 21
102.3384437963582
 31
0.0
  0
LINE
  5
3B3
330
6C
100
AcDbEntity
  8
Visible {c3}
100
AcDbLine
 10
218.4962061355657
 20
104.0884437963582
 30
0.0
 11
226.5962061355657
 21
104.0884437963582
 31
0.0
  0
LINE
  5
3B4
330
6C
100
AcDbEntity
  8
Visible {c3}
100
AcDbLine
 10
222.5462061355657
 20
119.3177042995656
 30
0.0
 11
222.5462061355657
 21
117.9349327345427
 31
0.0
  0
LINE
  5
3B5
330
6C
100
AcDbEntity
  8
Visible {c3}
100
AcDbLine
 10
222.5462061355657
 20
119.7898448865494
 30
0.0
 11
222.5462061355653
 21
121.3644395624241
 31
0.0
  0
ELLIPSE
  5
3B6
330
6C
100
AcDbEntity
  8
Visible {c3}
100
AcDbEllipse
 10
222.5462061355648
 20
123.8764922518529
 30
0.0
 11
-3.124999999999996
 21
-0.0000000000000018
 31
0.0
210
0.0
220
0.0
230
1.0
 40
0.8038568606172171
 41
4.712388959311628
 42
7.853981633974846
  0
LINE
  5
3B7
330
6C
100
AcDbEntity
  8
Visible {c3}
100
AcDbLine
 10
222.5462061355642
 20
126.3885449412818
 30
0.0
 11
222.5462061355639
 21
127.6951515764834
 31
0.0
  0
LINE
  5
3B8
330
6C
100
AcDbEntity
  8
Visible {c3}
100
AcDbLine
 10
222.5462061355638
 20
125.3773462038045
 30
0.0
 11
222.5462061355642
 21
126.3885449412818
 31
0.0
  0
ELLIPSE
  5
3B9
330
6C
100
AcDbEntity
  8
Visible {c3}
100
AcDbEllipse
 10
222.5462061355644
 20
122.8652935143757
 30
0.0
 11
-3.124999999999996
 21
0.0000000000000015
 31
0.0
210
0.0
220
0.0
230
1.0
 40
0.8038568606172159
 41
4.71238898038503
 42
6.080531626051516
  0
LINE
  5
3BA
330
6C
100
AcDbEntity
  8
Visible {c3}
100
AcDbLine
 10
222.5462061355638
 20
125.3773462038045
 30
0.0
 11
222.5462061355633
 21
124.0389949336139
 31
0.0
  0
LINE
  5
3BB
330
6C
100
AcDbEntity
  8
Visible {c3}
100
AcDbLine
 10
219.7832784754051
 20
124.0389949336139
 30
0.0
 11
222.5462061355633
 21
124.0389949336139
 31
0.0
  0
LINE
  5
3BC
330
6C
100
AcDbEntity
  8
Visible {c3}
100
AcDbLine
 10
222.5462061355638
 20
76.79954138891196
 30
0.0
 11
222.5462061355633
 21
78.13789265910248
 31
0.0
  0
LINE
  5
3BD
330
6C
100
AcDbEntity
  8
Visible {c3}
100
AcDbLine
 10
219.7832784754051
 20
78.13789265910248
 30
0.0
 11
222.5462061355633
 21
78.13789265910248
 31
0.0
  0
LINE
  5
3BE
330
6C
100
AcDbEntity
  8
Visible {c3}
100
AcDbLine
 10
227.7900061355637
 20
127.3505887275107
 30
0.0
 11
227.7900061355637
 21
127.2492944241985
 31
0.0
  0
LINE
  5
3BF
330
6C
100
AcDbEntity
  8
Visible {c3}
100
AcDbLine
 10
227.7900061355655
 20
119.3983989459057
 30
0.0
 11
227.7900061355637
 21
127.2492944241985
 31
0.0
  0
LINE
  5
3C0
330
6C
100
AcDbEntity
  8
Visible {c3}
100
AcDbLine
 10
227.7900061355655
 20
119.3983989459057
 30
0.0
 11
227.7900061355655
 21
119.2496932492179
 31
0.0
  0
LINE
  5
3C1
330
6C
100
AcDbEntity
  8
Visible {c3}
100
AcDbLine
 10
227.7900061355655
 20
82.92719434349871
 30
0.0
 11
227.7900061355655
 21
119.2496932492179
 31
0.0
  0
LINE
  5
3C2
330
6C
100
AcDbEntity
  8
Visible {c3}
100
AcDbLine
 10
227.7900061355655
 20
82.92719434349871
 30
0.0
 11
227.7900061355655
 21
82.77848864681088
 31
0.0
  0
LINE
  5
3C3
330
6C
100
AcDbEntity
  8
Visible {c3}
100
AcDbLine
 10
227.7900061355637
 20
74.9275931685181
 30
0.0
 11
227.7900061355655
 21
82.77848864681088
 31
0.0
  0
LINE
  5
3C4
330
6C
100
AcDbEntity
  8
Visible {c3}
100
AcDbLine
 10
227.7900061355637
 20
74.92759316851809
 30
0.0
 11
227.7900061355637
 21
74.82629886520593
 31
0.0
  0
ELLIPSE
  5
3C5
330
6C
100
AcDbEntity
  8
Visible Narrow {c3}
100
AcDbEllipse
 10
227.0400061355637
 20
74.9275931685181
 30
0.0
 11
0.7499999999999936
 21
-0.0000000000000006
 31
0.0
210
0.0
220
0.0
230
1.0
 40
0.5948227867513462
 41
4.712388980384216
 42
6.283185307178225
  0
LINE
  5
3C6
330
6C
100
AcDbEntity
  8
Visible Narrow {c3}
100
AcDbLine
 10
227.0400061355636
 20
74.07629886520592
 30
0.0
 11
227.0400061355639
 21
74.48147607845458
 31
0.0
  0
ELLIPSE
  5
3C7
330
6C
100
AcDbEntity
  8
Visible Narrow {c3}
100
AcDbEllipse
 10
227.0400061355655
 20
82.77848864681088
 30
0.0
 11
0.7499999999999945
 21
-0.0000000000000006
 31
0.0
210
0.0
220
0.0
230
1.0
 40
0.5948227867513423
 41
4.712388980384263
 42
6.283185307178232
  0
LINE
  5
3C8
330
6C
100
AcDbEntity
  8
Visible Narrow {c3}
100
AcDbLine
 10
227.0400061355656
 20
82.33237155674737
 30
0.0
 11
227.0400061355639
 21
74.48147607845459
 31
0.0
  0
LINE
  5
3C9
330
6C
100
AcDbEntity
  8
Visible Narrow {c3}
100
AcDbLine
 10
227.0400061355657
 20
82.92719434349871
 30
0.0
 11
227.7900061355655
 21
82.92719434349871
 31
0.0
  0
LINE
  5
3CA
330
6C
100
AcDbEntity
  8
Visible Narrow {c3}
100
AcDbLine
 10
227.0400061355656
 20
82.33237155674737
 30
0.0
 11
227.0400061355657
 21
82.92719434349871
 31
0.0
  0
LINE
  5
3CB
330
6C
100
AcDbEntity
  8
Visible Narrow {c3}
100
AcDbLine
 10
227.0400061355657
 20
119.2496932492179
 30
0.0
 11
227.7900061355655
 21
119.2496932492179
 31
0.0
  0
LINE
  5
3CC
330
6C
100
AcDbEntity
  8
Visible Narrow {c3}
100
AcDbLine
 10
227.0400061355657
 20
119.2496932492179
 30
0.0
 11
227.0400061355657
 21
82.92719434349871
 31
0.0
  0
ELLIPSE
  5
3CD
330
6C
100
AcDbEntity
  8
Visible Narrow {c3}
100
AcDbEllipse
 10
227.0400061355655
 20
119.3983989459057
 30
0.0
 11
0.7499999999999965
 21
-0.0000000000000028
 31
0.0
210
0.0
220
0.0
230
1.0
 40
0.5948227867513416
 41
0.0000000000013503
 42
1.570796326795325
  0
LINE
  5
3CE
330
6C
100
AcDbEntity
  8
Visible Narrow {c3}
100
AcDbLine
 10
227.0400061355657
 20
119.2496932492179
 30
0.0
 11
227.0400061355656
 21
119.8445160359692
 31
0.0
  0
ELLIPSE
  5
3CF
330
6C
100
AcDbEntity
  8
Visible Narrow {c3}
100
AcDbEllipse
 10
227.0400061355637
 20
127.2492944241985
 30
0.0
 11
0.7499999999999961
 21
0.0000000000000039
 31
0.0
210
0.0
220
0.0
230
1.0
 40
0.594822786751347
 41
0.0000000000013476
 42
1.570796326795319
  0
LINE
  5
3D0
330
6C
100
AcDbEntity
  8
Visible Narrow {c3}
100
AcDbLine
 10
227.0400061355639
 20
127.695411514262
 30
0.0
 11
227.0400061355656
 21
119.8445160359692
 31
0.0
  0
LINE
  5
3D1
330
6C
100
AcDbEntity
  8
Visible Narrow {c3}
100
AcDbLine
 10
227.0400061355639
 20
127.695411514262
 30
0.0
 11
227.0400061355636
 21
128.1005887275107
 31
0.0
  0
ARC
  5
3D2
330
6C
100
AcDbEntity
  8
Visible {c3}
100
AcDbCircle
 10
227.0400061355636
 20
74.82629886520593
 30
0.0
 40
0.7499999999999969
100
AcDbArc
 50
270.0
 51
0.0
  0
ARC
  5
3D3
330
6C
100
AcDbEntity
  8
Visible {c3}
100
AcDbCircle
 10
227.0400061355636
 20
127.3505887275107
 30
0.0
 40
0.7499999999999969
100
AcDbArc
 50
0.0
 51
90.0
  0
ELLIPSE
  5
3D4
330
6C
100
AcDbEntity
  8
Visible {c3}
100
AcDbEllipse
 10
222.5462061355644
 20
122.8653512059196
 30
0.0
 11
3.124999999999986
 21
-0.0000000000012636
 31
0.0
210
0.0
220
0.0
230
1.0
 40
0.8038568606172194
 41
0.2026536811284906
 42
1.570796326795392
  0
LINE
  5
3D5
330
6C
100
AcDbEntity
  8
Visible {c3}
100
AcDbLine
 10
222.5462061355657
 20
119.8445160359692
 30
0.0
 11
222.5462061355653
 21
121.3644972539681
 31
0.0
  0
LINE
  5
3D6
330
6C
100
AcDbEntity
  8
Visible {c3}
100
AcDbLine
 10
222.5462061355642
 20
126.3886026328257
 30
0.0
 11
222.5462061355639
 21
127.695411514262
 31
0.0
  0
ELLIPSE
  5
3D7
330
6C
100
AcDbEntity
  8
Visible {c3}
100
AcDbEllipse
 10
222.5462061355648
 20
123.8765499433969
 30
0.0
 11
3.124999999999981
 21
-0.000000000000004
 31
0.0
210
0.0
220
0.0
230
1.0
 40
0.8038568606172201
 41
4.712388980385031
 42
7.853981633974824
  0
ELLIPSE
  5
3D8
330
6C
100
AcDbEntity
  8
Visible {c3}
100
AcDbEllipse
 10
222.5462061355644
 20
79.31153638679695
 30
0.0
 11
3.124999999999989
 21
0.0000000000000048
 31
0.0
210
0.0
220
0.0
230
1.0
 40
0.8038568606172201
 41
4.712388980384346
 42
6.080531626051677
  0
ELLIPSE
  5
3D9
330
6C
100
AcDbEntity
  8
Visible {c3}
100
AcDbEllipse
 10
222.5462061355648
 20
78.30033764931968
 30
0.0
 11
3.12499999999998
 21
-0.0000000000000033
 31
0.0
210
0.0
220
0.0
230
1.0
 40
0.8038568606172207
 41
4.712388980384325
 42
7.85398163397412
  0
LINE
  5
3DA
330
6C
100
AcDbEntity
  8
Visible Narrow {c3}
100
AcDbLine
 10
227.0400061355639
 20
74.48147607845459
 30
0.0
 11
222.5462061355639
 21
74.48147607845459
 31
0.0
  0
LINE
  5
3DB
330
6C
100
AcDbEntity
  8
Visible {c3}
100
AcDbLine
 10
222.5462061355638
 20
74.1473752853037
 30
0.0
 11
222.5462061355639
 21
74.48147607845459
 31
0.0
  0
LINE
  5
3DC
330
6C
100
AcDbEntity
  8
Visible {c3}
100
AcDbLine
 10
222.5462061355638
 20
74.14737528530372
 30
0.0
 11
226.5962061355637
 21
74.14737528530371
 31
0.0
  0
LINE
  5
3DD
330
6C
100
AcDbEntity
  8
Visible {c3}
100
AcDbLine
 10
226.5962061355637
 20
74.07629886520592
 30
0.0
 11
226.5962061355637
 21
74.1473752853037
 31
0.0
  0
LINE
  5
3DE
330
6C
100
AcDbEntity
  8
Visible {c3}
100
AcDbLine
 10
226.5962061355637
 20
128.0295123074129
 30
0.0
 11
226.5962061355637
 21
128.1005887275107
 31
0.0
  0
LINE
  5
3DF
330
6C
100
AcDbEntity
  8
Visible {c3}
100
AcDbLine
 10
226.5962061355657
 20
82.62214039511967
 30
0.0
 11
226.5962061355657
 21
82.92719434349871
 31
0.0
  0
LINE
  5
3E0
330
6C
100
AcDbEntity
  8
Visible {c3}
100
AcDbLine
 10
226.5962061355657
 20
119.2496932492179
 30
0.0
 11
226.5962061355657
 21
119.5547471975969
 31
0.0
  0
LINE
  5
3E1
330
6C
100
AcDbEntity
  8
Visible Narrow {c3}
100
AcDbLine
 10
227.0400061355657
 20
82.92719434349871
 30
0.0
 11
226.5962061355657
 21
82.92719434349871
 31
0.0
  0
LINE
  5
3E2
330
6C
100
AcDbEntity
  8
Visible {c3}
100
AcDbLine
 10
226.5962061355657
 20
82.62214039511967
 30
0.0
 11
222.5462061355657
 21
82.62214039511967
 31
0.0
  0
LINE
  5
3E3
330
6C
100
AcDbEntity
  8
Visible Narrow {c3}
100
AcDbLine
 10
222.5462061355657
 20
82.33237155674737
 30
0.0
 11
227.0400061355656
 21
82.33237155674737
 31
0.0
  0
LINE
  5
3E4
330
6C
100
AcDbEntity
  8
Visible Narrow {c3}
100
AcDbLine
 10
226.5962061355657
 20
119.2496932492179
 30
0.0
 11
227.0400061355657
 21
119.2496932492179
 31
0.0
  0
LINE
  5
3E5
330
6C
100
AcDbEntity
  8
Visible Narrow {c3}
100
AcDbLine
 10
227.0400061355656
 20
119.8445160359692
 30
0.0
 11
222.5462061355657
 21
119.8445160359692
 31
0.0
  0
LINE
  5
3E6
330
6C
100
AcDbEntity
  8
Visible {c3}
100
AcDbLine
 10
222.5462061355657
 20
119.5547471975969
 30
0.0
 11
226.5962061355657
 21
119.5547471975969
 31
0.0
  0
LINE
  5
3E7
330
6C
100
AcDbEntity
  8
Visible Narrow {c3}
100
AcDbLine
 10
222.5462061355639
 20
127.695411514262
 30
0.0
 11
227.0400061355639
 21
127.695411514262
 31
0.0
  0
LINE
  5
3E8
330
6C
100
AcDbEntity
  8
Visible {c3}
100
AcDbLine
 10
226.5962061355637
 20
128.0295123074129
 30
0.0
 11
222.5462061355638
 21
128.0295123074129
 31
0.0
  0
LINE
  5
3E9
330
6C
100
AcDbEntity
  8
Visible {c3}
100
AcDbLine
 10
222.5462061355639
 20
127.695411514262
 30
0.0
 11
222.5462061355638
 21
128.0295123074129
 31
0.0
  0
LINE
  5
3EA
330
6C
100
AcDbEntity
  8
Visible {c3}
100
AcDbLine
 10
227.0400061355636
 20
74.07629886520592
 30
0.0
 11
226.5962061355637
 21
74.07629886520592
 31
0.0
  0
LINE
  5
3EB
330
6C
100
AcDbEntity
  8
Visible {c3}
100
AcDbLine
 10
227.0400061355636
 20
128.1005887275107
 30
0.0
 11
226.5962061355637
 21
128.1005887275107
 31
0.0
  0
LINE
  5
3EC
330
6C
100
AcDbEntity
  8
Visible {c3}
100
AcDbLine
 10
226.5962061355657
 20
119.2496932492179
 30
0.0
 11
226.5962061355657
 21
82.92719434349871
 31
0.0
  0
LINE
  5
3ED
330
6C
100
AcDbEntity
  8
Visible {c3}
100
AcDbLine
 10
222.5462061355657
 20
82.33237155674737
 30
0.0
 11
222.5462061355653
 21
80.81239033874849
 31
0.0
  0
LINE
  5
3EE
330
6C
100
AcDbEntity
  8
Visible {c3}
100
AcDbLine
 10
222.5462061355642
 20
75.78828495989089
 30
0.0
 11
222.5462061355639
 21
74.48147607845459
 31
0.0
  0
LINE
  5
3EF
330
6C
100
AcDbEntity
  8
Visible {c3}
100
AcDbLine
 10
222.9907061355632
 20
80.53052430206379
 30
0.0
 11
222.9147801918194
 21
80.79485692397691
 31
0.0
  0
LINE
  5
3F0
330
6C
100
AcDbEntity
  8
Visible {c3}
100
AcDbLine
 10
222.1017061355632
 20
80.53052430206379
 30
0.0
 11
222.9907061355632
 21
80.53052430206379
 31
0.0
  0
LINE
  5
3F1
330
6C
100
AcDbEntity
  8
Visible {c3}
100
AcDbLine
 10
222.1017061355632
 20
80.53052430206379
 30
0.0
 11
222.1776491176703
 21
80.79491624224166
 31
0.0
  0
LINE
  5
3F2
330
6C
100
AcDbEntity
  8
Visible {c3}
100
AcDbLine
 10
222.1017061355633
 20
80.22835432639412
 30
0.0
 11
222.1017061355635
 21
80.78690597872743
 31
0.0
  0
LINE
  5
3F3
330
6C
100
AcDbEntity
  8
Visible {c3}
100
AcDbLine
 10
222.9907061355633
 20
80.22835432639412
 30
0.0
 11
222.1017061355633
 21
80.22835432639412
 31
0.0
  0
LINE
  5
3F4
330
6C
100
AcDbEntity
  8
Visible {c3}
100
AcDbLine
 10
222.9907061355634
 20
80.78684828718351
 30
0.0
 11
222.9907061355633
 21
80.22835432639412
 31
0.0
  0
ELLIPSE
  5
3F5
330
6C
100
AcDbEntity
  8
Visible {c3}
100
AcDbEllipse
 10
222.5462061355636
 20
81.60656691392233
 30
0.0
 11
-3.22772422651877
 21
-0.0000000000012965
 31
0.0
210
0.0
220
0.0
230
1.0
 40
0.8038568606172146
 41
1.37277160513214
 42
1.768821048456658
  0
SPLINE
  5
3F6
330
6C
100
AcDbEntity
  8
Visible {c3}
100
AcDbSpline
210
0.0
220
0.0
230
1.0
 70
    24
 71
     3
 72
    12
 73
     8
 74
     0
 42
0.0000000001
 43
0.0000000001
 40
0.0751103823149954
 40
0.0751103823149954
 40
0.0751103823149954
 40
0.0751103823149954
 40
0.0936985406186354
 40
0.0936985406186354
 40
0.1416172479019587
 40
0.1416172479019587
 40
0.1911850874433624
 40
0.1911850874433624
 40
0.1911850874433624
 40
0.1911850874433624
 10
221.9112061355631
 20
79.03392553308004
 30
0.0
 10
221.9112061355631
 20
79.03371888558661
 30
0.0
 10
221.9112061355632
 20
79.0383821393617
 30
0.0
 10
221.9112061355632
 20
79.07241434020964
 30
0.0
 10
221.9112061355633
 20
79.13871751437293
 30
0.0
 10
221.9112061355634
 20
79.30756420786834
 30
0.0
 10
221.9112061355634
 20
79.4420171038871
 30
0.0
 10
221.9112061355635
 20
79.57483526349152
 30
0.0
  0
LINE
  5
3F7
330
6C
100
AcDbEntity
  8
Visible {c3}
100
AcDbLine
 10
221.9112061355635
 20
79.57483526349154
 30
0.0
 11
221.9112061355637
 21
80.76003971030964
 31
0.0
  0
SPLINE
  5
3F8
330
6C
100
AcDbEntity
  8
Visible {c3}
100
AcDbSpline
210
0.0
220
0.0
230
1.0
 70
    24
 71
     3
 72
    12
 73
     8
 74
     0
 42
0.0000000001
 43
0.0000000001
 40
0.5938145759775057
 40
0.5938145759775057
 40
0.5938145759775057
 40
0.5938145759775057
 40
0.6433824155189094
 40
0.6433824155189094
 40
0.6913011228022328
 40
0.6913011228022328
 40
0.7098892811058729
 40
0.7098892811058729
 40
0.7098892811058729
 40
0.7098892811058729
 10
223.1812061355634
 20
79.57483526349152
 30
0.0
 10
223.1812061355634
 20
79.4420171038871
 30
0.0
 10
223.1812061355634
 20
79.30756420786834
 30
0.0
 10
223.1812061355633
 20
79.13871751437293
 30
0.0
 10
223.1812061355632
 20
79.07241434020964
 30
0.0
 10
223.1812061355632
 20
79.0383821393617
 30
0.0
 10
223.1812061355632
 20
79.03371888558661
 30
0.0
 10
223.1812061355631
 20
79.03392553308004
 30
0.0
  0
LINE
  5
3F9
330
6C
100
AcDbEntity
  8
Visible {c3}
100
AcDbLine
 10
223.1812061355637
 20
80.75998201876572
 30
0.0
 11
223.1812061355634
 21
79.57483526349154
 31
0.0
  0
ELLIPSE
  5
3FA
330
6C
100
AcDbEntity
  8
Visible Narrow {c3}
100
AcDbEllipse
 10
222.5462061355638
 20
81.15331195041781
 30
0.0
 11
-2.063749999999992
 21
-0.0000000000006567
 31
0.0
210
0.0
220
0.0
230
1.0
 40
0.8038568606172143
 41
1.883563048736057
 42
2.636410461745626
  0
ELLIPSE
  5
3FB
330
6C
100
AcDbEntity
  8
Visible Narrow {c3}
100
AcDbEllipse
 10
222.5462061355638
 20
81.15331195041781
 30
0.0
 11
-2.06374999999999
 21
-0.0000000000008286
 31
0.0
210
0.0
220
0.0
230
1.0
 40
0.8038568606172146
 41
0.5051536356467308
 42
1.258029604852858
  0
SPLINE
  5
3FC
330
6C
100
AcDbEntity
  8
Visible {c3}
100
AcDbSpline
210
0.0
220
0.0
230
1.0
 70
     8
 71
     3
 72
    12
 73
     8
 74
     0
 42
0.0000000001
 43
0.0000000001
 40
0.2068166662115524
 40
0.2068166662115524
 40
0.2068166662115524
 40
0.2068166662115524
 40
0.4796125983282217
 40
0.4796125983282217
 40
0.7524085304448909
 40
0.7524085304448909
 40
0.8556791715265759
 40
0.8556791715265759
 40
0.8556791715265759
 40
0.8556791715265759
 10
221.9112061355631
 20
79.03281787177701
 30
0.0
 10
221.6346186169833
 20
79.07946784850416
 30
0.0
 10
221.3631389722329
 20
79.15690573028074
 30
0.0
 10
220.8449121142943
 20
79.37357682444013
 30
0.0
 10
220.5980834152322
 20
79.51287868729354
 30
0.0
 10
220.2867190805257
 20
79.7471787169556
 30
0.0
 10
220.204242443027
 20
79.81590243438709
 30
0.0
 10
220.1253534588171
 20
79.88892253252789
 30
0.0
  0
SPLINE
  5
3FD
330
6C
100
AcDbEntity
  8
Visible {c3}
100
AcDbSpline
210
0.0
220
0.0
230
1.0
 70
     8
 71
     3
 72
    12
 73
     8
 74
     0
 42
0.0000000001
 43
0.0000000001
 40
5.427519313312212
 40
5.427519313312212
 40
5.427519313312212
 40
5.427519313312212
 40
5.530776776734697
 40
5.530776776734697
 40
5.803572708851366
 40
5.803572708851366
 40
6.076368640968033
 40
6.076368640968033
 40
6.076368640968033
 40
6.076368640968033
 10
224.9670286126851
 20
79.88889457995367
 30
0.0
 10
224.888148778297
 20
79.81588489432308
 30
0.0
 10
224.8056822801573
 20
79.74717050690408
 30
0.0
 10
224.4943288558942
 20
79.51287868729354
 30
0.0
 10
224.2475001568321
 20
79.37357682444013
 30
0.0
 10
223.7292732988934
 20
79.15690573028074
 30
0.0
 10
223.457793654143
 20
79.07946784850418
 30
0.0
 10
223.1812061355631
 20
79.03281787177701
 30
0.0
  0
LINE
  5
3FE
330
6C
100
AcDbEntity
  8
Visible {c3}
100
AcDbLine
 10
222.9907061355631
 20
121.6463632906528
 30
0.0
 11
222.9147801918194
 21
121.3820306687397
 31
0.0
  0
LINE
  5
3FF
330
6C
100
AcDbEntity
  8
Visible {c3}
100
AcDbLine
 10
222.1017061355631
 20
121.6463632906528
 30
0.0
 11
222.1815123619217
 21
121.3816044797352
 31
0.0
  0
LINE
  5
400
330
6C
100
AcDbEntity
  8
Visible {c3}
100
AcDbLine
 10
222.9907061355631
 20
121.6463632906528
 30
0.0
 11
222.1017061355631
 21
121.6463632906528
 31
0.0
  0
LINE
  5
401
330
6C
100
AcDbEntity
  8
Visible {c3}
100
AcDbLine
 10
222.1017061355636
 20
121.5340247487908
 30
0.0
 11
222.1017061355636
 21
121.389981613989
 31
0.0
  0
LINE
  5
402
330
6C
100
AcDbEntity
  8
Visible {c3}
100
AcDbLine
 10
221.4174804975019
 20
121.5340247487907
 30
0.0
 11
222.1017061355636
 21
121.5340247487908
 31
0.0
  0
LINE
  5
403
330
6C
100
AcDbEntity
  8
Visible {c3}
100
AcDbLine
 10
222.9907061355636
 20
121.5340247487908
 30
0.0
 11
223.6747464712866
 21
121.5340247487908
 31
0.0
  0
LINE
  5
404
330
6C
100
AcDbEntity
  8
Visible {c3}
100
AcDbLine
 10
222.9907061355636
 20
121.5340247487908
 30
0.0
 11
222.9907061355636
 21
121.3900393055331
 31
0.0
  0
LINE
  5
405
330
6C
100
AcDbEntity
  8
Visible {c3}
100
AcDbLine
 10
222.9907061355635
 20
122.401788229827
 30
0.0
 11
222.9907061355636
 21
121.5340247487908
 31
0.0
  0
LINE
  5
406
330
6C
100
AcDbEntity
  8
Visible {c3}
100
AcDbLine
 10
222.1017061355635
 20
122.401788229827
 30
0.0
 11
222.9907061355635
 21
122.401788229827
 31
0.0
  0
LINE
  5
407
330
6C
100
AcDbEntity
  8
Visible {c3}
100
AcDbLine
 10
222.1017061355636
 20
121.5340247487908
 30
0.0
 11
222.1017061355635
 21
122.401788229827
 31
0.0
  0
ELLIPSE
  5
408
330
6C
100
AcDbEntity
  8
Visible Narrow {c3}
100
AcDbEllipse
 10
222.5462061355638
 20
121.0235756422988
 30
0.0
 11
2.063749999999984
 21
-0.0000000000009588
 31
0.0
210
0.0
220
0.0
230
1.0
 40
0.8038568606172193
 41
0.5051821918444724
 42
2.636439017943308
  0
SPLINE
  5
409
330
6C
100
AcDbEntity
  8
Visible {c3}
100
AcDbSpline
210
0.0
220
0.0
230
1.0
 70
     8
 71
     3
 72
    18
 73
    14
 74
     0
 42
0.0000000001
 43
0.0000000001
 40
0.7151171552682923
 40
0.7151171552682923
 40
0.7151171552682923
 40
0.7151171552682923
 40
0.8682634544323198
 40
0.8682634544323198
 40
1.203527220987119
 40
1.203527220987119
 40
1.55538077793344
 40
1.55538077793344
 40
1.912129070358966
 40
1.912129070358966
 40
2.264705148983036
 40
2.264705148983036
 40
2.426462320662281
 40
2.426462320662281
 40
2.426462320662281
 40
2.426462320662281
 10
220.125353458817
 20
122.2879650601887
 30
0.0
 10
220.2423427197533
 20
122.3962509939035
 30
0.0
 10
220.3672097312982
 20
122.4950762175794
 30
0.0
 10
220.7848557686961
 20
122.7793124518968
 30
0.0
 10
221.1004899879852
 20
122.9278890368995
 30
0.0
 10
221.7757111850073
 20
123.1367103973926
 30
0.0
 10
222.1369022163873
 20
123.1923325044374
 30
0.0
 10
222.8654418654976
 20
123.2013612062653
 30
0.0
 10
223.2329447508666
 20
123.1533372265433
 30
0.0
 10
223.9344368920058
 20
122.9530192875074
 30
0.0
 10
224.2689982348455
 20
122.8018415782637
 30
0.0
 10
224.7111059127969
 20
122.5061813145568
 30
0.0
 10
224.8434600250961
 20
122.4023657647303
 30
0.0
 10
224.967028612685
 20
122.287993012763
 30
0.0
  0
ELLIPSE
  5
40A
330
6C
100
AcDbEntity
  8
Visible {c3}
100
AcDbEllipse
 10
222.5462061355606
 20
97.73883998593266
 30
0.0
 11
-30.3174020883823
 21
0.0000000000068082
 31
0.0
210
0.0
220
0.0
230
1.0
 40
0.594822786751335
 41
1.645654553818505
 42
1.654532074395098
  0
ELLIPSE
  5
40B
330
6C
100
AcDbEntity
  8
Visible {c3}
100
AcDbEllipse
 10
222.546206135561
 20
97.73883998602165
 30
0.0
 11
-30.31740208853236
 21
0.0000000000068057
 31
0.0
210
0.0
220
0.0
230
1.0
 40
0.5948227867513348
 41
1.487058941396313
 42
1.495938099772045
  0
ELLIPSE
  5
40C
330
6C
100
AcDbEntity
  8
Visible {c3}
100
AcDbEllipse
 10
222.5462061355587
 20
104.4380476067126
 30
0.0
 11
30.31740208850166
 21
0.0000000000070946
 31
0.0
210
0.0
220
0.0
230
1.0
 40
0.5948227867513519
 41
1.645654553817743
 42
1.654533712193487
  0
ELLIPSE
  5
40D
330
6C
100
AcDbEntity
  8
Visible {c3}
100
AcDbEllipse
 10
222.5462061355299
 20
104.4380476065527
 30
0.0
 11
30.31740208877143
 21
0.000000000007094
 31
0.0
210
0.0
220
0.0
230
1.0
 40
0.5948227867513519
 41
1.487060579194772
 42
1.495938099771242
  0
LINE
  5
40E
330
6C
100
AcDbEntity
  8
Visible {c3}
100
AcDbLine
 10
219.2962061355653
 20
104.0884437963582
 30
0.0
 11
219.2962061355653
 21
102.3384437963582
 31
0.0
  0
LINE
  5
40F
330
6C
100
AcDbEntity
  8
Visible {c3}
100
AcDbLine
 10
219.2962061355653
 20
99.83844379635824
 30
0.0
 11
219.2962061355653
 21
98.08844379635822
 31
0.0
  0
ARC
  5
410
330
6C
100
AcDbEntity
  8
Visible {c3}
100
AcDbCircle
 10
223.4238061355544
 20
99.74224379635822
 30
0.0
 40
3.174999999999968
100
AcDbArc
 50
328.6085744722388
 51
357.681099678654
  0
ARC
  5
411
330
6C
100
AcDbEntity
  8
Visible {c3}
100
AcDbCircle
 10
223.4238061355543
 20
102.4346437963582
 30
0.0
 40
3.174999999999994
100
AcDbArc
 50
2.318900321343367
 51
31.39142552776095
  0
ARC
  5
412
330
6C
100
AcDbEntity
  8
Visible {c3}
100
AcDbCircle
 10
222.5475061355543
 20
101.0884437963582
 30
0.0
 40
3.0478761877659
100
AcDbArc
 50
204.2124766632013
 51
259.8312191442799
  0
ARC
  5
413
330
6C
100
AcDbEntity
  8
Visible {c3}
100
AcDbCircle
 10
222.5475061355543
 20
101.0884437963582
 30
0.0
 40
3.047876187765901
100
AcDbArc
 50
100.1687808557193
 51
155.7875233367978
  0
ARC
  5
414
330
6C
100
AcDbEntity
  8
Visible {c3}
100
AcDbCircle
 10
222.5475061355543
 20
101.0884437963582
 30
0.0
 40
3.047876187765894
100
AcDbArc
 50
24.21247666320181
 51
79.83121914428065
  0
ARC
  5
415
330
6C
100
AcDbEntity
  8
Visible {c3}
100
AcDbCircle
 10
222.5475061355543
 20
101.0884437963582
 30
0.0
 40
3.0478761877659
100
AcDbArc
 50
280.1687808557193
 51
335.7875233367985
  0
ARC
  5
416
330
6C
100
AcDbEntity
  8
Visible {c3}
100
AcDbCircle
 10
222.5475061355497
 20
101.0884437963582
 30
0.0
 40
2.794492809053784
100
AcDbArc
 50
206.5711219261461
 51
333.4288780738536
  0
ARC
  5
417
330
6C
100
AcDbEntity
  8
Visible {c3}
100
AcDbCircle
 10
222.5475061355497
 20
101.0884437963582
 30
0.0
 40
2.794492809053784
100
AcDbArc
 50
26.57112192614512
 51
153.4288780738545
  0
DIMENSION
  5
418
330
6C
100
AcDbEntity
  8
Dimension {c3}
 62
   176
100
AcDbDimension
  2
*D7
 10
166.3111408137995
 20
136.3177042995656
 30
0.0
 11
138.917254133879
 21
136.3177042995656
 31
0.0
 70
   160
  1
 <> mm\X[2 5/32 in]
 71
     2
 42
54.78777335984084
  3
mm[in] {c3 - mm[in]}
100
AcDbAlignedDimension
 13
111.5233674539586
 23
104.6780885552365
 33
0.0
 14
166.3111408137995
 24
119.3177042995656
 34
0.0
 50
180.0
100
AcDbRotatedDimension
1001
ACAD
1000
DSTYLE
1002
{
1070
   289
1070
     1
1070
    73
1070
     0
1070
    74
1070
     0
1070
   145
1040
-0.25
1070
   271
1070
     1
1070
   170
1070
     0
1070
     3
1000

1070
   272
1070
     1
1070
    48
1040
0.0
1070
    47
1040
0.0
1002
}
  0
DIMENSION
  5
53C
330
6C
100
AcDbEntity
  8
Dimension {c3}
 62
   176
100
AcDbDimension
  2
*D8
 10
227.7900061355637
 20
135.2492944241981
 30
0.0
 11
206.0522063682603
 21
135.2492944241981
 31
0.0
 70
   160
  1
 <> mm\X[25/64 in]
 71
     2
 42
10.09380000000001
  3
mm[in] {c3 - mm[in]}
100
AcDbAlignedDimension
 13
217.6962061355637
 23
127.2230109894995
 33
0.0
 14
227.7900061355637
 24
127.2492944241985
 34
0.0
 50
180.0
100
AcDbRotatedDimension
1001
ACAD
1000
DSTYLE
1002
{
1070
   289
1070
     2
1070
    73
1070
     0
1070
    74
1070
     0
1070
   145
1040
-0.25
1070
   271
1070
     1
1070
   170
1070
     0
1070
     3
1000

1070
   272
1070
     1
1070
    48
1040
0.0
1070
    47
1040
0.0
1002
}
  0
DIMENSION
  5
65F
330
6C
100
AcDbEntity
  8
Dimension {c3}
 62
   176
100
AcDbDimension
  2
*D9
 10
179.5019760995838
 20
74.07655880298436
 30
0.0
 11
179.5019760995838
 21
101.0884437963582
 31
0.0
 70
   160
  1
 <> mm\X[2 1/8 in]
 71
     2
 42
54.02376998674771
  3
mm[in] {c3 - mm[in]}
100
AcDbAlignedDimension
 13
159.5019760995837
 23
128.1003287897321
 33
0.0
 14
159.5019760995838
 24
74.07655880298438
 34
0.0
 50
90.0
100
AcDbRotatedDimension
1001
ACAD
1000
DSTYLE
1002
{
1070
   289
1070
     1
1070
   145
1040
-0.25
1070
   271
1070
     1
1070
   170
1070
     0
1070
     3
1000

1070
   272
1070
     1
1070
    48
1040
0.0
1070
    47
1040
0.0
1002
}
  0
ENDSEC
  0
SECTION
  2
OBJECTS
  0
DICTIONARY
  5
C
330
0
100
AcDbDictionary
281
     1
  3
ACAD_COLOR
350
63
  3
ACAD_GROUP
350
D
  3
ACAD_LAYOUT
350
62
  3
ACAD_MATERIAL
350
10
  3
ACAD_MLEADERSTYLE
350
66
  3
ACAD_MLINESTYLE
350
5F
  3
ACAD_PLOTSETTINGS
350
61
  3
ACAD_PLOTSTYLENAME
350
E
  3
ACAD_SCALELIST
350
42
  3
ACAD_TABLESTYLE
350
64
  3
ACAD_VISUALSTYLE
350
29
  3
ACDB_RECOMPOSE_DATA
350
7C6
  3
AcDbVariableDictionary
350
782
  3
DWGPROPS
350
7C7
  0
DICTIONARY
  5
792
330
189
100
AcDbDictionary
280
     1
281
     1
  3
ACAD_MLATT
360
794
  3
ACAD_XREC_ROUNDTRIP
360
793
  0
DICTIONARY
  5
795
330
18E
100
AcDbDictionary
280
     1
281
     1
  3
ACAD_MLATT
360
797
  3
ACAD_XREC_ROUNDTRIP
360
796
  0
DICTIONARY
  5
798
330
18F
100
AcDbDictionary
280
     1
281
     1
  3
ACAD_MLATT
360
79A
  3
ACAD_XREC_ROUNDTRIP
360
799
  0
DICTIONARY
  5
79B
330
190
100
AcDbDictionary
280
     1
281
     1
  3
ACAD_MLATT
360
79D
  3
ACAD_XREC_ROUNDTRIP
360
79C
  0
DICTIONARY
  5
79E
330
191
100
AcDbDictionary
280
     1
281
     1
  3
ACAD_MLATT
360
7A0
  3
ACAD_XREC_ROUNDTRIP
360
79F
  0
DICTIONARY
  5
7A1
330
192
100
AcDbDictionary
280
     1
281
     1
  3
ACAD_MLATT
360
7A3
  3
ACAD_XREC_ROUNDTRIP
360
7A2
  0
DICTIONARY
  5
7A4
330
193
100
AcDbDictionary
280
     1
281
     1
  3
ACAD_MLATT
360
7A6
  3
ACAD_XREC_ROUNDTRIP
360
7A5
  0
DICTIONARY
  5
7A9
330
195
100
AcDbDictionary
280
     1
281
     1
  3
ACAD_MLATT
360
7AB
  3
ACAD_XREC_ROUNDTRIP
360
7AA
  0
DICTIONARY
  5
7A8
330
7A7
100
AcDbDictionary
280
     1
281
     1
  0
DICTIONARY
  5
7AC
330
199
100
AcDbDictionary
280
     1
281
     1
  3
ACAD_MLATT
360
7AE
  3
ACAD_XREC_ROUNDTRIP
360
7AD
  0
DICTIONARY
  5
7AF
330
19A
100
AcDbDictionary
280
     1
281
     1
  3
ACAD_MLATT
360
7B1
  3
ACAD_XREC_ROUNDTRIP
360
7B0
  0
DICTIONARY
  5
7B2
330
19B
100
AcDbDictionary
280
     1
281
     1
  3
ACAD_MLATT
360
7B4
  3
ACAD_XREC_ROUNDTRIP
360
7B3
  0
DICTIONARY
  5
7B5
330
19C
100
AcDbDictionary
280
     1
281
     1
  3
ACAD_MLATT
360
7B7
  3
ACAD_XREC_ROUNDTRIP
360
7B6
  0
DICTIONARY
  5
7B8
330
19D
100
AcDbDictionary
280
     1
281
     1
  3
ACAD_MLATT
360
7BA
  3
ACAD_XREC_ROUNDTRIP
360
7B9
  0
DICTIONARY
  5
7BB
330
19E
100
AcDbDictionary
280
     1
281
     1
  3
ACAD_MLATT
360
7BD
  3
ACAD_XREC_ROUNDTRIP
360
7BC
  0
DICTIONARY
  5
7BE
330
19F
100
AcDbDictionary
280
     1
281
     1
  3
ACAD_MLATT
360
7C0
  3
ACAD_XREC_ROUNDTRIP
360
7BF
  0
DICTIONARY
  5
7C3
330
1A0
100
AcDbDictionary
280
     1
281
     1
  3
ACAD_MLATT
360
7C5
  3
ACAD_XREC_ROUNDTRIP
360
7C4
  0
DICTIONARY
  5
7C2
330
7C1
100
AcDbDictionary
280
     1
281
     1
  0
DICTIONARY
  5
63
102
{ACAD_REACTORS
330
C
102
}
330
C
100
AcDbDictionary
281
     1
  0
DICTIONARY
  5
D
102
{ACAD_REACTORS
330
C
102
}
330
C
100
AcDbDictionary
281
     1
  0
DICTIONARY
  5
62
102
{ACAD_REACTORS
330
C
102
}
330
C
100
AcDbDictionary
281
     1
  3
Layout1
350
6B
  3
Layout2
350
73
  3
Model
350
6F
  0
DICTIONARY
  5
10
102
{ACAD_REACTORS
330
C
102
}
330
C
100
AcDbDictionary
281
     1
  3
ByBlock
350
19
  3
ByLayer
350
11
  3
Global
350
21
  0
DICTIONARY
  5
66
102
{ACAD_REACTORS
330
C
102
}
330
C
100
AcDbDictionary
281
     1
  3
Standard
350
67
  0
DICTIONARY
  5
5F
102
{ACAD_REACTORS
330
C
102
}
330
C
100
AcDbDictionary
281
     1
  3
Standard
350
60
  0
DICTIONARY
  5
61
102
{ACAD_REACTORS
330
C
102
}
330
C
100
AcDbDictionary
281
     1
  0
ACDBDICTIONARYWDFLT
  5
E
102
{ACAD_REACTORS
330
C
102
}
330
C
100
AcDbDictionary
281
     1
  3
Normal
350
F
100
AcDbDictionaryWithDefault
340
F
  0
DICTIONARY
  5
42
102
{ACAD_REACTORS
330
C
102
}
330
C
100
AcDbDictionary
281
     1
  3
A0
350
43
  3
A1
350
44
  3
A2
350
45
  3
A3
350
46
  3
A4
350
47
  3
A5
350
48
  3
A6
350
49
  3
A7
350
4A
  3
A8
350
4B
  3
A9
350
4C
  3
B0
350
4D
  3
B1
350
4E
  3
B2
350
4F
  3
B3
350
50
  3
B4
350
51
  3
B5
350
52
  3
B6
350
53
  0
DICTIONARY
  5
64
102
{ACAD_REACTORS
330
C
102
}
330
C
100
AcDbDictionary
281
     1
  3
Standard
350
65
  0
DICTIONARY
  5
29
102
{ACAD_REACTORS
330
C
102
}
330
C
100
AcDbDictionary
281
     1
  3
2dWireframe
350
2F
  3
Basic
350
2E
  3
Brighten
350
35
  3
ColorChange
350
39
  3
Conceptual
350
32
  3
Dim
350
34
  3
EdgeColorOff
350
41
  3
Facepattern
350
38
  3
Flat
350
2A
  3
FlatWithEdges
350
2B
  3
Gouraud
350
2C
  3
GouraudWithEdges
350
2D
  3
Hidden
350
31
  3
JitterOff
350
3F
  3
Linepattern
350
37
  3
OverhangOff
350
40
  3
Realistic
350
33
  3
Shaded
350
3E
  3
Shaded with edges
350
3D
  3
Shades of Gray
350
3A
  3
Sketchy
350
3B
  3
Thicken
350
36
  3
Wireframe
350
30
  3
X-Ray
350
3C
  0
XRECORD
  5
7C6
102
{ACAD_REACTORS
330
C
102
}
330
C
100
AcDbXrecord
280
     1
 90
        1
330
65
330
189
330
18E
330
18F
330
190
330
191
330
192
330
193
330
195
330
199
330
19A
330
19B
330
19C
330
19D
330
19E
330
19F
330
1A0
330
53C
  0
DICTIONARY
  5
782
102
{ACAD_REACTORS
330
C
102
}
330
C
100
AcDbDictionary
281
     1
  3
CANNOSCALE
350
786
  3
CMLEADERSTYLE
350
784
  3
CTABLESTYLE
350
783
  3
DIMASSOC
350
78D
  3
HIDETEXT
350
78C
  3
INDEXCTL
350
78B
  3
LAYEREVAL
350
788
  3
LAYERNOTIFY
350
789
  3
LIGHTINGUNITS
350
787
  3
MSLTSCALE
350
785
  3
SORTENTS
350
78A
  3
XCLIPFRAME
350
78E
  0
XRECORD
  5
7C7
102
{ACAD_REACTORS
330
C
102
}
330
C
100
AcDbXrecord
280
     1
  1
DWGPROPS COOKIE
  2

  3

  4
A. Roberts
  6

  7

  8

  9

300
Manager=
301
Company=
302
Category=
303
Part Number=DrawingTemplate
304
Description=
305
Project=
306
Designer=A. Roberts
307
Engineer=
308
Authority=
309
Cost Center=
 40
0.0000231481481481
 41
2456171.611289734
 42
2456171.611289734
  1

 90
       16
300
Vendor=
300
User Status=
300
Design Status=WorkInProgress
300
Checked by=
300
Engr Approved by=
300
Mfg Approved by=
  0
XRECORD
  5
794
102
{ACAD_REACTORS
330
792
102
}
330
792
100
AcDbXrecord
280
     1
 70
     4
 70
     0
 70
     0
 40
1.0
  2
AUTHOR
  1
Embedded Object
 10
117.5337794481153
 20
310.6979838690836
 30
0.0
 40
3.174999952316284
 41
34.67494386139798
 46
0.0
 71
     5
 72
     5
  1
A. Roberts
  7
Text Style9
 73
     1
 44
1.0
  0
XRECORD
  5
793
102
{ACAD_REACTORS
330
792
102
}
330
792
100
AcDbXrecord
280
     1
102
ACAD_MATT_HEIGHT
140
3.174999952316284
  0
XRECORD
  5
797
102
{ACAD_REACTORS
330
795
102
}
330
795
100
AcDbXrecord
280
     1
 70
     4
 70
     0
 70
     0
 40
1.0
  2
AUTHOR
  1
Embedded Object
 10
117.5337794481153
 20
299.9029838690836
 30
0.0
 40
3.174999952316284
 41
34.93789251960011
 46
0.0
 71
     5
 72
     5
  1
S. Panikkottil
  7
Text Style39
 73
     1
 44
1.0
  0
XRECORD
  5
796
102
{ACAD_REACTORS
330
795
102
}
330
795
100
AcDbXrecord
280
     1
102
ACAD_MATT_HEIGHT
140
3.174999952316284
  0
XRECORD
  5
79A
102
{ACAD_REACTORS
330
798
102
}
330
798
100
AcDbXrecord
280
     1
 70
     4
 70
     0
 70
     0
 40
1.0
  2
CHECKED_BY
  1
Embedded Object
 10
117.5337794481153
 20
289.1079838690836
 30
0.0
 40
3.174999952316284
 41
35.33478418445767
 46
0.0
 71
     5
 72
     5
  1

  7
Text Style39
 73
     1
 44
1.0
  0
XRECORD
  5
799
102
{ACAD_REACTORS
330
798
102
}
330
798
100
AcDbXrecord
280
     1
102
ACAD_MATT_HEIGHT
140
3.174999952316284
  0
XRECORD
  5
79D
102
{ACAD_REACTORS
330
79B
102
}
330
79B
100
AcDbXrecord
280
     1
 70
     4
 70
     0
 70
     0
 40
1.0
  2
CREATION_DATE
  1
Embedded Object
 10
117.5337794481153
 20
278.3129838690836
 30
0.0
 40
3.174999952316284
 41
39.66775954641338
 46
0.0
 71
     5
 72
     5
  1
2/26/2009
  7
Text Style39
 73
     1
 44
1.0
  0
XRECORD
  5
79C
102
{ACAD_REACTORS
330
79B
102
}
330
79B
100
AcDbXrecord
280
     1
102
ACAD_MATT_HEIGHT
140
3.174999952316284
  0
XRECORD
  5
7A0
102
{ACAD_REACTORS
330
79E
102
}
330
79E
100
AcDbXrecord
280
     1
 70
     4
 70
     0
 70
     0
 40
1.0
  2
Rev_#
  1
Embedded Object
 10
146.1087794481153
 20
278.3129838690836
 30
0.0
 40
3.174999952316284
 41
16.39327306961275
 46
0.0
 71
     5
 72
     5
  1
1
  7
Text Style39
 73
     1
 44
1.0
  0
XRECORD
  5
79F
102
{ACAD_REACTORS
330
79E
102
}
330
79E
100
AcDbXrecord
280
     1
102
ACAD_MATT_HEIGHT
140
3.174999952316284
  0
XRECORD
  5
7A3
102
{ACAD_REACTORS
330
7A1
102
}
330
7A1
100
AcDbXrecord
280
     1
 70
     4
 70
     0
 70
     0
 40
1.0
  2
Scale
  1
Embedded Object
 10
184.2087794481153
 20
278.3129838690836
 30
0.0
 40
3.174999952316284
 41
17.94754834711256
 46
0.0
 71
     5
 72
     5
  1
2 : 1
  7
Text Style39
 73
     1
 44
1.0
  0
XRECORD
  5
7A2
102
{ACAD_REACTORS
330
7A1
102
}
330
7A1
100
AcDbXrecord
280
     1
102
ACAD_MATT_HEIGHT
140
3.174999952316284
  0
XRECORD
  5
7A6
102
{ACAD_REACTORS
330
7A4
102
}
330
7A4
100
AcDbXrecord
280
     1
 70
     4
 70
     0
 70
     0
 40
1.0
  2
PART_NUMBER
  1
Embedded Object
 10
228.6587794481153
 20
278.3129838690836
 30
0.0
 40
3.174999952316284
 41
55.43842124286136
 46
0.0
 71
     5
 72
     5
  1
22P30224G01
  7
Text Style39
 73
     1
 44
1.0
  0
XRECORD
  5
7A5
102
{ACAD_REACTORS
330
7A4
102
}
330
7A4
100
AcDbXrecord
280
     1
102
ACAD_MATT_HEIGHT
140
3.174999952316284
  0
XRECORD
  5
7AB
102
{ACAD_REACTORS
330
7A9
102
}
330
7A9
100
AcDbXrecord
280
     1
 70
     4
 70
     0
 70
     1
340
7A7
 40
1.0
  2
DESCRIPTION
  1
Embedded Object
 10
200.0837794481153
 20
296.7279838690836
 30
0.0
 40
3.810000121593475
 41
124.024369043987
 46
0.0
 71
     5
 72
     5
  1
OD 22mm IEC Multi-Voltage Light Module (Non-Relampable)
  7
Text Style76
 73
     1
 44
1.0
  0
XRECORD
  5
7AA
102
{ACAD_REACTORS
330
7A9
102
}
330
7A9
100
AcDbXrecord
280
     1
102
ACAD_MATT_HEIGHT
140
3.810000121593475
  0
XRECORD
  5
7AE
102
{ACAD_REACTORS
330
7AC
102
}
330
7AC
100
AcDbXrecord
280
     1
 70
     2
 70
     0
 70
     0
 40
1.0
  2
AUTHOR
  1
Embedded Object
 10
196.85
 20
24.44750000000001
 30
0.0
 40
1.587499976158142
 41
17.33747193069899
 46
0.0
 71
     5
 72
     5
  1
A. Roberts
  7
Text Style9
 73
     1
 44
1.0
  0
XRECORD
  5
7AD
102
{ACAD_REACTORS
330
7AC
102
}
330
7AC
100
AcDbXrecord
280
     1
102
ACAD_MATT_HEIGHT
140
1.587499976158142
  0
XRECORD
  5
7B1
102
{ACAD_REACTORS
330
7AF
102
}
330
7AF
100
AcDbXrecord
280
     1
 70
     2
 70
     0
 70
     0
 40
1.0
  2
AUTHOR
  1
Embedded Object
 10
196.85
 20
19.05000000000003
 30
0.0
 40
1.587499976158142
 41
17.46894625980005
 46
0.0
 71
     5
 72
     5
  1
S. Panikkottil
  7
Text Style39
 73
     1
 44
1.0
  0
XRECORD
  5
7B0
102
{ACAD_REACTORS
330
7AF
102
}
330
7AF
100
AcDbXrecord
280
     1
102
ACAD_MATT_HEIGHT
140
1.587499976158142
  0
XRECORD
  5
7B4
102
{ACAD_REACTORS
330
7B2
102
}
330
7B2
100
AcDbXrecord
280
     1
 70
     2
 70
     0
 70
     0
 40
1.0
  2
CHECKED_BY
  1
Embedded Object
 10
196.85
 20
13.65250000000001
 30
0.0
 40
1.587499976158142
 41
17.66739209222883
 46
0.0
 71
     5
 72
     5
  1

  7
Text Style39
 73
     1
 44
1.0
  0
XRECORD
  5
7B3
102
{ACAD_REACTORS
330
7B2
102
}
330
7B2
100
AcDbXrecord
280
     1
102
ACAD_MATT_HEIGHT
140
1.587499976158142
  0
XRECORD
  5
7B7
102
{ACAD_REACTORS
330
7B5
102
}
330
7B5
100
AcDbXrecord
280
     1
 70
     2
 70
     0
 70
     0
 40
1.0
  2
CREATION_DATE
  1
Embedded Object
 10
196.85
 20
8.255000000000034
 30
0.0
 40
1.587499976158142
 41
19.83387977320669
 46
0.0
 71
     5
 72
     5
  1
2/26/2009
  7
Text Style39
 73
     1
 44
1.0
  0
XRECORD
  5
7B6
102
{ACAD_REACTORS
330
7B5
102
}
330
7B5
100
AcDbXrecord
280
     1
102
ACAD_MATT_HEIGHT
140
1.587499976158142
  0
XRECORD
  5
7BA
102
{ACAD_REACTORS
330
7B8
102
}
330
7B8
100
AcDbXrecord
280
     1
 70
     2
 70
     0
 70
     0
 40
1.0
  2
Rev_#
  1
Embedded Object
 10
211.1375
 20
8.255000000000034
 30
0.0
 40
1.587499976158142
 41
8.196636534806378
 46
0.0
 71
     5
 72
     5
  1
1
  7
Text Style39
 73
     1
 44
1.0
  0
XRECORD
  5
7B9
102
{ACAD_REACTORS
330
7B8
102
}
330
7B8
100
AcDbXrecord
280
     1
102
ACAD_MATT_HEIGHT
140
1.587499976158142
  0
XRECORD
  5
7BD
102
{ACAD_REACTORS
330
7BB
102
}
330
7BB
100
AcDbXrecord
280
     1
 70
     2
 70
     0
 70
     0
 40
1.0
  2
Scale
  1
Embedded Object
 10
230.1875
 20
8.255000000000034
 30
0.0
 40
1.587499976158142
 41
8.973774173556279
 46
0.0
 71
     5
 72
     5
  1
2 : 1
  7
Text Style39
 73
     1
 44
1.0
  0
XRECORD
  5
7BC
102
{ACAD_REACTORS
330
7BB
102
}
330
7BB
100
AcDbXrecord
280
     1
102
ACAD_MATT_HEIGHT
140
1.587499976158142
  0
XRECORD
  5
7C0
102
{ACAD_REACTORS
330
7BE
102
}
330
7BE
100
AcDbXrecord
280
     1
 70
     2
 70
     0
 70
     0
 40
1.0
  2
PART_NUMBER
  1
Embedded Object
 10
252.4125
 20
8.255000000000034
 30
0.0
 40
1.587499976158142
 41
27.71921062143068
 46
0.0
 71
     5
 72
     5
  1
22P30224G01
  7
Text Style39
 73
     1
 44
1.0
  0
XRECORD
  5
7BF
102
{ACAD_REACTORS
330
7BE
102
}
330
7BE
100
AcDbXrecord
280
     1
102
ACAD_MATT_HEIGHT
140
1.587499976158142
  0
XRECORD
  5
7C5
102
{ACAD_REACTORS
330
7C3
102
}
330
7C3
100
AcDbXrecord
280
     1
 70
     2
 70
     0
 70
     1
340
7C1
 40
1.0
  2
DESCRIPTION
  1
Embedded Object
 10
238.125
 20
17.46250000000003
 30
0.0
 40
1.905000060796737
 41
62.01218452199353
 46
0.0
 71
     5
 72
     5
  1
OD 22mm IEC Multi-Voltage Light Module (Non-Relampable)
  7
Text Style76
 73
     1
 44
1.0
  0
XRECORD
  5
7C4
102
{ACAD_REACTORS
330
7C3
102
}
330
7C3
100
AcDbXrecord
280
     1
102
ACAD_MATT_HEIGHT
140
1.905000060796737
  0
LAYOUT
  5
6B
102
{ACAD_XDICTIONARY
360
7FD
102
}
102
{ACAD_REACTORS
330
62
102
}
330
62
100
AcDbPlotSettings
  1

  2

  4

  6

 40
0.0
 41
0.0
 42
0.0
 43
0.0
 44
0.0
 45
0.0
 46
0.0
 47
0.0
 48
0.0
 49
0.0
140
0.0
141
0.0
142
1.0
143
1.0
 70
   688
 72
     0
 73
     0
 74
     5
  7

 75
    16
147
1.0
148
0.0
149
0.0
100
AcDbLayout
  1
Layout1
 70
     1
 71
     1
 10
0.0
 20
0.0
 11
12.0
 21
9.0
 12
0.0
 22
0.0
 32
0.0
 14
0.0
 24
0.0
 34
0.0
 15
0.0
 25
0.0
 35
0.0
146
0.0
 13
0.0
 23
0.0
 33
0.0
 16
1.0
 26
0.0
 36
0.0
 17
0.0
 27
1.0
 37
0.0
 76
     0
330
68
  0
LAYOUT
  5
73
102
{ACAD_XDICTIONARY
360
801
102
}
102
{ACAD_REACTORS
330
62
102
}
330
62
100
AcDbPlotSettings
  1

  2

  4

  6

 40
0.0
 41
0.0
 42
0.0
 43
0.0
 44
0.0
 45
0.0
 46
0.0
 47
0.0
 48
0.0
 49
0.0
140
0.0
141
0.0
142
1.0
143
1.0
 70
   688
 72
     0
 73
     0
 74
     5
  7

 75
    16
147
1.0
148
0.0
149
0.0
100
AcDbLayout
  1
Layout2
 70
     1
 71
     2
 10
0.0
 20
0.0
 11
12.0
 21
9.0
 12
0.0
 22
0.0
 32
0.0
 14
0.0
 24
0.0
 34
0.0
 15
0.0
 25
0.0
 35
0.0
146
0.0
 13
0.0
 23
0.0
 33
0.0
 16
1.0
 26
0.0
 36
0.0
 17
0.0
 27
1.0
 37
0.0
 76
     0
330
70
  0
LAYOUT
  5
6F
102
{ACAD_XDICTIONARY
360
7FF
102
}
102
{ACAD_REACTORS
330
62
102
}
330
62
100
AcDbPlotSettings
  1

  2

  4

  6

 40
0.0
 41
0.0
 42
0.0
 43
0.0
 44
0.0
 45
0.0
 46
0.0
 47
0.0
 48
0.0
 49
0.0
140
0.0
141
0.0
142
1.0
143
1.0
 70
  1712
 72
     0
 73
     0
 74
     0
  7

 75
     0
147
1.0
148
0.0
149
0.0
100
AcDbLayout
  1
Model
 70
     1
 71
     0
 10
0.0
 20
0.0
 11
12.0
 21
9.0
 12
0.0
 22
0.0
 32
0.0
 14
0.0
 24
0.0
 34
0.0
 15
0.0
 25
0.0
 35
0.0
146
0.0
 13
0.0
 23
0.0
 33
0.0
 16
1.0
 26
0.0
 36
0.0
 17
0.0
 27
1.0
 37
0.0
 76
     0
330
6C
  0
MATERIAL
  5
19
102
{ACAD_XDICTIONARY
360
1A
102
}
102
{ACAD_REACTORS
330
10
102
}
330
10
100
AcDbMaterial
  1
ByBlock
 72
     0
 43
0.0208333333333333
 43
0.0
 43
0.0
 43
0.0
 43
0.0
 43
0.0208333333333333
 43
0.0
 43
0.0
 43
0.0
 43
0.0
 43
1.0
 43
0.0
 43
0.0
 43
0.0
 43
0.0
 43
1.0
 77
     0
 47
0.0208333333333333
 47
0.0
 47
0.0
 47
0.0
 47
0.0
 47
0.0208333333333333
 47
0.0
 47
0.0
 47
0.0
 47
0.0
 47
1.0
 47
0.0
 47
0.0
 47
0.0
 47
0.0
 47
1.0
171
     0
 49
0.0208333333333333
 49
0.0
 49
0.0
 49
0.0
 49
0.0
 49
0.0208333333333333
 49
0.0
 49
0.0
 49
0.0
 49
0.0
 49
1.0
 49
0.0
 49
0.0
 49
0.0
 49
0.0
 49
1.0
175
     0
142
0.0208333333333333
142
0.0
142
0.0
142
0.0
142
0.0
142
0.0208333333333333
142
0.0
142
0.0
142
0.0
142
0.0
142
1.0
142
0.0
142
0.0
142
0.0
142
0.0
142
1.0
179
     0
144
0.0208333333333333
144
0.0
144
0.0
144
0.0
144
0.0
144
0.0208333333333333
144
0.0
144
0.0
144
0.0
144
0.0
144
1.0
144
0.0
144
0.0
144
0.0
144
0.0
144
1.0
147
0.0208333333333333
147
0.0
147
0.0
147
0.0
147
0.0
147
0.0208333333333333
147
0.0
147
0.0
147
0.0
147
0.0
147
1.0
147
0.0
147
0.0
147
0.0
147
0.0
147
1.0
  0
MATERIAL
  5
11
102
{ACAD_XDICTIONARY
360
12
102
}
102
{ACAD_REACTORS
330
10
102
}
330
10
100
AcDbMaterial
  1
ByLayer
 72
     0
 43
0.0208333333333333
 43
0.0
 43
0.0
 43
0.0
 43
0.0
 43
0.0208333333333333
 43
0.0
 43
0.0
 43
0.0
 43
0.0
 43
1.0
 43
0.0
 43
0.0
 43
0.0
 43
0.0
 43
1.0
 77
     0
 47
0.0208333333333333
 47
0.0
 47
0.0
 47
0.0
 47
0.0
 47
0.0208333333333333
 47
0.0
 47
0.0
 47
0.0
 47
0.0
 47
1.0
 47
0.0
 47
0.0
 47
0.0
 47
0.0
 47
1.0
171
     0
 49
0.0208333333333333
 49
0.0
 49
0.0
 49
0.0
 49
0.0
 49
0.0208333333333333
 49
0.0
 49
0.0
 49
0.0
 49
0.0
 49
1.0
 49
0.0
 49
0.0
 49
0.0
 49
0.0
 49
1.0
175
     0
142
0.0208333333333333
142
0.0
142
0.0
142
0.0
142
0.0
142
0.0208333333333333
142
0.0
142
0.0
142
0.0
142
0.0
142
1.0
142
0.0
142
0.0
142
0.0
142
0.0
142
1.0
179
     0
144
0.0208333333333333
144
0.0
144
0.0
144
0.0
144
0.0
144
0.0208333333333333
144
0.0
144
0.0
144
0.0
144
0.0
144
1.0
144
0.0
144
0.0
144
0.0
144
0.0
144
1.0
147
0.0208333333333333
147
0.0
147
0.0
147
0.0
147
0.0
147
0.0208333333333333
147
0.0
147
0.0
147
0.0
147
0.0
147
1.0
147
0.0
147
0.0
147
0.0
147
0.0
147
1.0
  0
MATERIAL
  5
21
102
{ACAD_XDICTIONARY
360
22
102
}
102
{ACAD_REACTORS
330
10
102
}
330
10
100
AcDbMaterial
  1
Global
 72
     0
 43
0.0208333333333333
 43
0.0
 43
0.0
 43
0.0
 43
0.0
 43
0.0208333333333333
 43
0.0
 43
0.0
 43
0.0
 43
0.0
 43
1.0
 43
0.0
 43
0.0
 43
0.0
 43
0.0
 43
1.0
 77
     0
 47
0.0208333333333333
 47
0.0
 47
0.0
 47
0.0
 47
0.0
 47
0.0208333333333333
 47
0.0
 47
0.0
 47
0.0
 47
0.0
 47
1.0
 47
0.0
 47
0.0
 47
0.0
 47
0.0
 47
1.0
171
     0
 49
0.0208333333333333
 49
0.0
 49
0.0
 49
0.0
 49
0.0
 49
0.0208333333333333
 49
0.0
 49
0.0
 49
0.0
 49
0.0
 49
1.0
 49
0.0
 49
0.0
 49
0.0
 49
0.0
 49
1.0
175
     0
142
0.0208333333333333
142
0.0
142
0.0
142
0.0
142
0.0
142
0.0208333333333333
142
0.0
142
0.0
142
0.0
142
0.0
142
1.0
142
0.0
142
0.0
142
0.0
142
0.0
142
1.0
179
     0
144
0.0208333333333333
144
0.0
144
0.0
144
0.0
144
0.0
144
0.0208333333333333
144
0.0
144
0.0
144
0.0
144
0.0
144
1.0
144
0.0
144
0.0
144
0.0
144
0.0
144
1.0
147
0.0208333333333333
147
0.0
147
0.0
147
0.0
147
0.0
147
0.0208333333333333
147
0.0
147
0.0
147
0.0
147
0.0
147
1.0
147
0.0
147
0.0
147
0.0
147
0.0
147
1.0
  0
MLEADERSTYLE
  5
67
102
{ACAD_REACTORS
330
66
102
}
330
66
100
AcDbMLeaderStyle
170
     2
171
     1
172
     0
 90
        2
 40
0.0
 41
0.0
173
     1
 91
-1056964608
340
5B
 92
       -2
290
     1
 42
0.09
291
     1
 43
0.36
  3
Standard
 44
0.18
300

342
55
174
     1
178
     6
175
     1
176
     0
 93
-1056964608
 45
0.18
292
     0
297
     0
 46
0.18
 94
-1056964608
 47
1.0
 49
1.0
140
1.0
293
     1
141
0.0
294
     1
177
     0
142
1.0
295
     0
296
     0
143
0.125
1001
ACAD_MLEADERVER
1070
     2
  0
MLINESTYLE
  5
60
102
{ACAD_REACTORS
330
5F
102
}
330
5F
100
AcDbMlineStyle
  2
STANDARD
 70
     0
  3

 62
   256
 51
90.0
 52
90.0
 71
     2
 49
0.5
 62
   256
  6
BYLAYER
 49
-0.5
 62
   256
  6
BYLAYER
  0
ACDBPLACEHOLDER
  5
F
102
{ACAD_REACTORS
330
E
102
}
330
E
  0
SCALE
  5
43
102
{ACAD_REACTORS
330
42
102
}
330
42
100
AcDbScale
 70
     0
300
1:1
140
1.0
141
1.0
290
     1
  0
SCALE
  5
44
102
{ACAD_REACTORS
330
42
102
}
330
42
100
AcDbScale
 70
     0
300
1/128" = 1'-0"
140
0.0078125
141
12.0
290
     0
  0
SCALE
  5
45
102
{ACAD_REACTORS
330
42
102
}
330
42
100
AcDbScale
 70
     0
300
1/64" = 1'-0"
140
0.015625
141
12.0
290
     0
  0
SCALE
  5
46
102
{ACAD_REACTORS
330
42
102
}
330
42
100
AcDbScale
 70
     0
300
1/32" = 1'-0"
140
0.03125
141
12.0
290
     0
  0
SCALE
  5
47
102
{ACAD_REACTORS
330
42
102
}
330
42
100
AcDbScale
 70
     0
300
1/16" = 1'-0"
140
0.0625
141
12.0
290
     0
  0
SCALE
  5
48
102
{ACAD_REACTORS
330
42
102
}
330
42
100
AcDbScale
 70
     0
300
3/32" = 1'-0"
140
0.09375
141
12.0
290
     0
  0
SCALE
  5
49
102
{ACAD_REACTORS
330
42
102
}
330
42
100
AcDbScale
 70
     0
300
1/8" = 1'-0"
140
0.125
141
12.0
290
     0
  0
SCALE
  5
4A
102
{ACAD_REACTORS
330
42
102
}
330
42
100
AcDbScale
 70
     0
300
3/16" = 1'-0"
140
0.1875
141
12.0
290
     0
  0
SCALE
  5
4B
102
{ACAD_REACTORS
330
42
102
}
330
42
100
AcDbScale
 70
     0
300
1/4" = 1'-0"
140
0.25
141
12.0
290
     0
  0
SCALE
  5
4C
102
{ACAD_REACTORS
330
42
102
}
330
42
100
AcDbScale
 70
     0
300
3/8" = 1'-0"
140
0.375
141
12.0
290
     0
  0
SCALE
  5
4D
102
{ACAD_REACTORS
330
42
102
}
330
42
100
AcDbScale
 70
     0
300
1/2" = 1'-0"
140
0.5
141
12.0
290
     0
  0
SCALE
  5
4E
102
{ACAD_REACTORS
330
42
102
}
330
42
100
AcDbScale
 70
     0
300
3/4" = 1'-0"
140
0.75
141
12.0
290
     0
  0
SCALE
  5
4F
102
{ACAD_REACTORS
330
42
102
}
330
42
100
AcDbScale
 70
     0
300
1" = 1'-0"
140
1.0
141
12.0
290
     0
  0
SCALE
  5
50
102
{ACAD_REACTORS
330
42
102
}
330
42
100
AcDbScale
 70
     0
300
1-1/2" = 1'-0"
140
1.5
141
12.0
290
     0
  0
SCALE
  5
51
102
{ACAD_REACTORS
330
42
102
}
330
42
100
AcDbScale
 70
     0
300
3" = 1'-0"
140
3.0
141
12.0
290
     0
  0
SCALE
  5
52
102
{ACAD_REACTORS
330
42
102
}
330
42
100
AcDbScale
 70
     0
300
6" = 1'-0"
140
6.0
141
12.0
290
     0
  0
SCALE
  5
53
102
{ACAD_REACTORS
330
42
102
}
330
42
100
AcDbScale
 70
     0
300
1'-0" = 1'-0"
140
12.0
141
12.0
290
     0
  0
TABLESTYLE
  5
65
102
{ACAD_XDICTIONARY
360
78F
102
}
102
{ACAD_REACTORS
330
64
102
}
330
64
100
AcDbTableStyle
  3
Standard
 70
     0
 71
     0
 40
0.06
 41
0.06
280
     0
281
     0
  7
Standard
140
0.18
170
     2
 62
     0
 63
     7
283
     0
274
    -2
284
     1
 64
     0
275
    -2
285
     1
 65
     0
276
    -2
286
     1
 66
     0
277
    -2
287
     1
 67
     0
278
    -2
288
     1
 68
     0
279
    -2
289
     1
 69
     0
  7
Standard
140
0.25
170
     5
 62
     0
 63
     7
283
     0
274
    -2
284
     1
 64
     0
275
    -2
285
     1
 65
     0
276
    -2
286
     1
 66
     0
277
    -2
287
     1
 67
     0
278
    -2
288
     1
 68
     0
279
    -2
289
     1
 69
     0
  7
Standard
140
0.18
170
     5
 62
     0
 63
     7
283
     0
274
    -2
284
     1
 64
     0
275
    -2
285
     1
 65
     0
276
    -2
286
     1
 66
     0
277
    -2
287
     1
 67
     0
278
    -2
288
     1
 68
     0
279
    -2
289
     1
 69
     0
  0
VISUALSTYLE
  5
2F
102
{ACAD_XDICTIONARY
360
7D5
102
}
102
{ACAD_REACTORS
330
29
102
}
330
29
100
AcDbVisualStyle
  2
2dWireframe
 70
     4
 71
     0
 72
     2
 73
     0
 90
        0
 40
-0.6
 41
-30.0
 62
     5
 63
     7
 74
     1
 91
        4
 64
     7
 65
   257
 75
     1
175
     1
 42
1.0
 92
        0
 66
   257
 43
1.0
 76
     1
 77
     6
 78
     2
 67
     7
 79
     5
170
     0
171
     0
290
     0
174
     0
 93
        1
 44
0.0
173
     0
291
     0
 45
0.0
1001
ACAD
1000
AcDbSavedByObjectVersion
1070
     0
  0
VISUALSTYLE
  5
2E
102
{ACAD_XDICTIONARY
360
7D3
102
}
102
{ACAD_REACTORS
330
29
102
}
330
29
100
AcDbVisualStyle
  2
Basic
 70
     7
 71
     1
 72
     0
 73
     1
 90
        0
 40
-0.6
 41
-30.0
 62
     5
 63
     7
 74
     0
 91
        4
 64
     7
 65
   257
 75
     1
175
     1
 42
1.0
 92
        8
 66
     7
 43
1.0
 76
     1
 77
     6
 78
     2
 67
     7
 79
     5
170
     0
171
     0
290
     0
174
     0
 93
        1
 44
0.0
173
     0
291
     1
 45
0.0
1001
ACAD
1000
AcDbSavedByObjectVersion
1070
     0
  0
VISUALSTYLE
  5
35
102
{ACAD_XDICTIONARY
360
7E1
102
}
102
{ACAD_REACTORS
330
29
102
}
330
29
100
AcDbVisualStyle
  2
Brighten
 70
    12
 71
     2
 72
     2
 73
     0
 90
        0
 40
-0.6
 41
-30.0
 62
     5
 63
     7
 74
     1
 91
        4
 64
     7
 65
   257
 75
     1
175
     1
 42
1.0
 92
        8
 66
     7
 43
1.0
 76
     1
 77
     6
 78
     2
 67
     7
 79
     5
170
     0
171
     0
290
     0
174
     0
 93
        1
 44
50.0
173
     0
291
     1
 45
0.0
1001
ACAD
1000
AcDbSavedByObjectVersion
1070
     0
  0
VISUALSTYLE
  5
39
102
{ACAD_XDICTIONARY
360
7E9
102
}
102
{ACAD_REACTORS
330
29
102
}
330
29
100
AcDbVisualStyle
  2
ColorChange
 70
    16
 71
     2
 72
     2
 73
     3
 90
        0
 40
-0.6
 41
-30.0
 62
     5
 63
     8
 74
     1
 91
        4
 64
     7
 65
   257
 75
     1
175
     1
 42
1.0
 92
        8
 66
     8
 43
1.0
 76
     1
 77
     6
 78
     2
 67
     7
 79
     5
170
     0
171
     0
290
     0
174
     0
 93
        1
 44
0.0
173
     0
291
     1
 45
0.0
1001
ACAD
1000
AcDbSavedByObjectVersion
1070
     0
  0
VISUALSTYLE
  5
32
102
{ACAD_XDICTIONARY
360
7DB
102
}
102
{ACAD_REACTORS
330
29
102
}
330
29
100
AcDbVisualStyle
  2
Conceptual
 70
     9
 71
     3
 72
     2
 73
     0
 90
        0
 40
-0.6
 41
-30.0
 62
     5
 63
     7
 74
     2
 91
        2
 64
     7
 65
   257
 75
     1
175
     1
 42
179.0
 92
        8
 66
     7
 43
1.0
 76
     1
 77
     6
 78
     2
 67
     7
 79
     3
170
     0
171
     0
290
     0
174
     0
 93
        1
 44
0.0
173
     0
291
     0
 45
0.0
1001
ACAD
1000
AcDbSavedByObjectVersion
1070
     0
  0
VISUALSTYLE
  5
34
102
{ACAD_XDICTIONARY
360
7DF
102
}
102
{ACAD_REACTORS
330
29
102
}
330
29
100
AcDbVisualStyle
  2
Dim
 70
    11
 71
     2
 72
     2
 73
     0
 90
        0
 40
-0.6
 41
-30.0
 62
     5
 63
     7
 74
     1
 91
        4
 64
     7
 65
   257
 75
     1
175
     1
 42
1.0
 92
        8
 66
     7
 43
1.0
 76
     1
 77
     6
 78
     2
 67
     7
 79
     5
170
     0
171
     0
290
     0
174
     0
 93
        1
 44
-50.0
173
     0
291
     1
 45
0.0
1001
ACAD
1000
AcDbSavedByObjectVersion
1070
     0
  0
VISUALSTYLE
  5
41
102
{ACAD_XDICTIONARY
360
7F9
102
}
102
{ACAD_REACTORS
330
29
102
}
330
29
100
AcDbVisualStyle
  2
EdgeColorOff
 70
    22
 71
     2
 72
     2
 73
     0
 90
        0
 40
-0.6
 41
-30.0
 62
     5
 63
     7
 74
     1
 91
        4
 64
     7
 65
   257
 75
     1
175
     1
 42
1.0
 92
        8
 66
     7
 43
1.0
 76
     1
 77
     6
 78
     2
 67
     7
 79
     5
170
     0
171
     0
290
     0
174
     0
 93
        1
 44
0.0
173
     0
291
     1
 45
0.0
1001
ACAD
1000
AcDbSavedByObjectVersion
1070
     0
  0
VISUALSTYLE
  5
38
102
{ACAD_XDICTIONARY
360
7E7
102
}
102
{ACAD_REACTORS
330
29
102
}
330
29
100
AcDbVisualStyle
  2
Facepattern
 70
    15
 71
     2
 72
     2
 73
     0
 90
        0
 40
-0.6
 41
-30.0
 62
     5
 63
     7
 74
     1
 91
        4
 64
     7
 65
   257
 75
     1
175
     1
 42
1.0
 92
        8
 66
     7
 43
1.0
 76
     1
 77
     6
 78
     2
 67
     7
 79
     5
170
     0
171
     0
290
     0
174
     0
 93
        1
 44
0.0
173
     0
291
     1
 45
0.0
1001
ACAD
1000
AcDbSavedByObjectVersion
1070
     0
  0
VISUALSTYLE
  5
2A
102
{ACAD_XDICTIONARY
360
7CB
102
}
102
{ACAD_REACTORS
330
29
102
}
330
29
100
AcDbVisualStyle
  2
Flat
 70
     0
 71
     2
 72
     1
 73
     1
 90
        2
 40
-0.6
 41
30.0
 62
     5
 63
     7
 74
     0
 91
        0
 64
     7
 65
   257
 75
     1
175
     1
 42
1.0
 92
        8
 66
     7
 43
1.0
 76
     1
 77
     6
 78
     2
 67
     7
 79
     5
170
     0
171
     0
290
     0
174
     0
 93
       13
 44
0.0
173
     0
291
     1
 45
0.0
1001
ACAD
1000
AcDbSavedByObjectVersion
1070
     0
  0
VISUALSTYLE
  5
2B
102
{ACAD_XDICTIONARY
360
7CD
102
}
102
{ACAD_REACTORS
330
29
102
}
330
29
100
AcDbVisualStyle
  2
FlatWithEdges
 70
     1
 71
     2
 72
     1
 73
     1
 90
        2
 40
-0.6
 41
30.0
 62
     5
 63
     7
 74
     1
 91
        0
 64
     7
 65
   257
 75
     1
175
     1
 42
1.0
 92
        0
 66
   257
 43
1.0
 76
     1
 77
     6
 78
     2
 67
     7
 79
     5
170
     0
171
     0
290
     0
174
     0
 93
       13
 44
0.0
173
     0
291
     1
 45
0.0
1001
ACAD
1000
AcDbSavedByObjectVersion
1070
     0
  0
VISUALSTYLE
  5
2C
102
{ACAD_XDICTIONARY
360
7CF
102
}
102
{ACAD_REACTORS
330
29
102
}
330
29
100
AcDbVisualStyle
  2
Gouraud
 70
     2
 71
     2
 72
     2
 73
     1
 90
        2
 40
-0.6
 41
30.0
 62
     5
 63
     7
 74
     0
 91
        0
 64
     7
 65
   257
 75
     1
175
     1
 42
1.0
 92
        0
 66
     7
 43
1.0
 76
     1
 77
     6
 78
     2
 67
     7
 79
     5
170
     0
171
     0
290
     0
174
     0
 93
       13
 44
0.0
173
     0
291
     1
 45
0.0
1001
ACAD
1000
AcDbSavedByObjectVersion
1070
     0
  0
VISUALSTYLE
  5
2D
102
{ACAD_XDICTIONARY
360
7D1
102
}
102
{ACAD_REACTORS
330
29
102
}
330
29
100
AcDbVisualStyle
  2
GouraudWithEdges
 70
     3
 71
     2
 72
     2
 73
     1
 90
        2
 40
-0.6
 41
30.0
 62
     5
 63
     7
 74
     1
 91
        0
 64
     7
 65
   257
 75
     1
175
     1
 42
1.0
 92
        0
 66
   257
 43
1.0
 76
     1
 77
     6
 78
     2
 67
     7
 79
     5
170
     0
171
     0
290
     0
174
     0
 93
       13
 44
0.0
173
     0
291
     1
 45
0.0
1001
ACAD
1000
AcDbSavedByObjectVersion
1070
     0
  0
VISUALSTYLE
  5
31
102
{ACAD_XDICTIONARY
360
7D9
102
}
102
{ACAD_REACTORS
330
29
102
}
330
29
100
AcDbVisualStyle
  2
Hidden
 70
     6
 71
     1
 72
     2
 73
     2
 90
        0
 40
-0.6
 41
-30.0
 62
     5
 63
     7
 74
     2
 91
        2
 64
     7
 65
   257
 75
     2
175
     1
 42
40.0
 92
        0
 66
   257
 43
1.0
 76
     1
 77
     6
 78
     2
 67
     7
 79
     3
170
     0
171
     0
290
     0
174
     0
 93
        1
 44
0.0
173
     0
291
     0
 45
0.0
1001
ACAD
1000
AcDbSavedByObjectVersion
1070
     0
  0
VISUALSTYLE
  5
3F
102
{ACAD_XDICTIONARY
360
7F5
102
}
102
{ACAD_REACTORS
330
29
102
}
330
29
100
AcDbVisualStyle
  2
JitterOff
 70
    20
 71
     2
 72
     2
 73
     0
 90
        0
 40
-0.6
 41
-30.0
 62
     5
 63
     7
 74
     1
 91
        4
 64
     7
 65
   257
 75
     1
175
     1
 42
1.0
 92
       10
 66
     7
 43
1.0
 76
     1
 77
     6
 78
     2
 67
     7
 79
     5
170
     0
171
     0
290
     0
174
     0
 93
        1
 44
0.0
173
     0
291
     1
 45
0.0
1001
ACAD
1000
AcDbSavedByObjectVersion
1070
     0
  0
VISUALSTYLE
  5
37
102
{ACAD_XDICTIONARY
360
7E5
102
}
102
{ACAD_REACTORS
330
29
102
}
330
29
100
AcDbVisualStyle
  2
Linepattern
 70
    14
 71
     2
 72
     2
 73
     0
 90
        0
 40
-0.6
 41
-30.0
 62
     5
 63
     7
 74
     1
 91
        4
 64
     7
 65
   257
 75
     7
175
     7
 42
1.0
 92
        8
 66
     7
 43
1.0
 76
     1
 77
     6
 78
     2
 67
     7
 79
     5
170
     0
171
     0
290
     0
174
     0
 93
        1
 44
0.0
173
     0
291
     1
 45
0.0
1001
ACAD
1000
AcDbSavedByObjectVersion
1070
     0
  0
VISUALSTYLE
  5
40
102
{ACAD_XDICTIONARY
360
7F7
102
}
102
{ACAD_REACTORS
330
29
102
}
330
29
100
AcDbVisualStyle
  2
OverhangOff
 70
    21
 71
     2
 72
     2
 73
     0
 90
        0
 40
-0.6
 41
-30.0
 62
     5
 63
     7
 74
     1
 91
        4
 64
     7
 65
   257
 75
     1
175
     1
 42
1.0
 92
        9
 66
     7
 43
1.0
 76
     1
 77
     6
 78
     2
 67
     7
 79
     5
170
     0
171
     0
290
     0
174
     0
 93
        1
 44
0.0
173
     0
291
     1
 45
0.0
1001
ACAD
1000
AcDbSavedByObjectVersion
1070
     0
  0
VISUALSTYLE
  5
33
102
{ACAD_XDICTIONARY
360
7DD
102
}
102
{ACAD_REACTORS
330
29
102
}
330
29
100
AcDbVisualStyle
  2
Realistic
 70
     8
 71
     2
 72
     3
 73
     0
 90
        2
 40
-0.6
 41
30.0
 62
     5
 63
     7
 74
     0
 91
        0
 64
     7
 65
   257
 75
     1
175
     1
 42
1.0
 92
        8
 66
   257
 43
1.0
 76
     1
 77
     6
 78
     2
 67
     7
 79
     3
170
     0
171
     0
290
     0
174
     0
 93
       13
 44
0.0
173
     0
291
     0
 45
0.0
1001
ACAD
1000
AcDbSavedByObjectVersion
1070
     0
  0
VISUALSTYLE
  5
3E
102
{ACAD_XDICTIONARY
360
7F3
102
}
102
{ACAD_REACTORS
330
29
102
}
330
29
100
AcDbVisualStyle
  2
Shaded
 70
    27
 71
     2
 72
     2
 73
     1
 90
        2
 40
-0.6
 41
30.0
 62
     5
 63
     7
 74
     0
 91
        4
 64
     7
 65
   257
 75
     1
175
     1
 42
1.0
 92
        8
 66
   257
 43
1.0
 76
     1
 77
     6
 78
     2
 67
     8
 79
     3
170
     0
171
     0
290
     0
174
     0
 93
        5
 44
0.0
173
     0
291
     0
 45
0.0
1001
ACAD
1000
AcDbSavedByObjectVersion
1070
     0
  0
VISUALSTYLE
  5
3D
102
{ACAD_XDICTIONARY
360
7F1
102
}
102
{ACAD_REACTORS
330
29
102
}
330
29
100
AcDbVisualStyle
  2
Shaded with edges
 70
    26
 71
     2
 72
     2
 73
     1
 90
        2
 40
-0.6
 41
30.0
 62
     5
 63
     7
 74
     1
 91
       10
 64
     7
 65
   257
 75
     2
175
     1
 42
1.0
 92
        8
 66
   257
 43
1.0
 76
     1
 77
     6
 78
     2
 67
     7
 79
     3
170
     0
171
     0
290
     0
174
     0
 93
        5
 44
0.0
173
     0
291
     0
 45
0.0
1001
ACAD
1000
AcDbSavedByObjectVersion
1070
     0
  0
VISUALSTYLE
  5
3A
102
{ACAD_XDICTIONARY
360
7EB
102
}
102
{ACAD_REACTORS
330
29
102
}
330
29
100
AcDbVisualStyle
  2
Shades of Gray
 70
    23
 71
     2
 72
     2
 73
     3
 90
        0
 40
-0.6
 41
-30.0
 62
     5
 63
     7
 74
     2
 91
        2
 64
     7
 65
     7
 75
     1
175
     1
 42
40.0
 92
        8
 66
     7
 43
1.0
 76
     1
 77
     6
 78
     2
 67
     7
 79
     3
170
     0
171
     0
290
     0
174
     0
 93
        1
 44
0.0
173
     0
291
     0
 45
0.0
1001
ACAD
1000
AcDbSavedByObjectVersion
1070
     0
  0
VISUALSTYLE
  5
3B
102
{ACAD_XDICTIONARY
360
7ED
102
}
102
{ACAD_REACTORS
330
29
102
}
330
29
100
AcDbVisualStyle
  2
Sketchy
 70
    24
 71
     1
 72
     2
 73
     2
 90
        0
 40
-0.6
 41
-30.0
 62
     5
 63
     7
 74
     2
 91
        2
 64
     7
 65
     7
 75
     1
175
     1
 42
40.0
 92
       11
 66
     7
 43
1.0
 76
     1
 77
     6
 78
     2
 67
     7
 79
     6
170
     0
171
     0
290
     0
174
     0
 93
        1
 44
0.0
173
     0
291
     0
 45
0.0
1001
ACAD
1000
AcDbSavedByObjectVersion
1070
     0
  0
VISUALSTYLE
  5
36
102
{ACAD_XDICTIONARY
360
7E3
102
}
102
{ACAD_REACTORS
330
29
102
}
330
29
100
AcDbVisualStyle
  2
Thicken
 70
    13
 71
     2
 72
     2
 73
     0
 90
        0
 40
-0.6
 41
-30.0
 62
     5
 63
     7
 74
     1
 91
        4
 64
     7
 65
   257
 75
     1
175
     1
 42
1.0
 92
       12
 66
     7
 43
1.0
 76
     1
 77
     6
 78
     2
 67
     7
 79
     5
170
     0
171
     0
290
     0
174
     0
 93
        1
 44
0.0
173
     0
291
     1
 45
0.0
1001
ACAD
1000
AcDbSavedByObjectVersion
1070
     0
  0
VISUALSTYLE
  5
30
102
{ACAD_XDICTIONARY
360
7D7
102
}
102
{ACAD_REACTORS
330
29
102
}
330
29
100
AcDbVisualStyle
  2
Wireframe
 70
     5
 71
     0
 72
     2
 73
     0
 90
        0
 40
-0.6
 41
-30.0
 62
     5
 63
     7
 74
     1
 91
        4
 64
     7
 65
   257
 75
     1
175
     1
 42
1.0
 92
        0
 66
   257
 43
1.0
 76
     1
 77
     6
 78
     2
 67
     7
 79
     3
170
     0
171
     0
290
     0
174
     0
 93
        1
 44
0.0
173
     0
291
     0
 45
0.0
1001
ACAD
1000
AcDbSavedByObjectVersion
1070
     0
  0
VISUALSTYLE
  5
3C
102
{ACAD_XDICTIONARY
360
7EF
102
}
102
{ACAD_REACTORS
330
29
102
}
330
29
100
AcDbVisualStyle
  2
X-Ray
 70
    25
 71
     2
 72
     2
 73
     1
 90
        1
 40
0.5
 41
-30.0
 62
     5
 63
     7
 74
     1
 91
        0
 64
     7
 65
   257
 75
     1
175
     1
 42
1.0
 92
        8
 66
     7
 43
1.0
 76
     1
 77
     6
 78
     2
 67
     7
 79
     3
170
     0
171
     0
290
     0
174
     0
 93
       13
 44
0.0
173
     0
291
     0
 45
0.0
1001
ACAD
1000
AcDbSavedByObjectVersion
1070
     0
  0
DICTIONARYVAR
  5
786
102
{ACAD_REACTORS
330
782
102
}
330
782
100
DictionaryVariables
280
     0
  1
1:1
  0
DICTIONARYVAR
  5
784
102
{ACAD_REACTORS
330
782
102
}
330
782
100
DictionaryVariables
280
     0
  1
STANDARD
  0
DICTIONARYVAR
  5
783
102
{ACAD_REACTORS
330
782
102
}
330
782
100
DictionaryVariables
280
     0
  1
STANDARD
  0
DICTIONARYVAR
  5
78D
102
{ACAD_REACTORS
330
782
102
}
330
782
100
DictionaryVariables
280
     0
  1
1
  0
DICTIONARYVAR
  5
78C
102
{ACAD_REACTORS
330
782
102
}
330
782
100
DictionaryVariables
280
     0
  1
1
  0
DICTIONARYVAR
  5
78B
102
{ACAD_REACTORS
330
782
102
}
330
782
100
DictionaryVariables
280
     0
  1
0
  0
DICTIONARYVAR
  5
788
102
{ACAD_REACTORS
330
782
102
}
330
782
100
DictionaryVariables
280
     0
  1
0
  0
DICTIONARYVAR
  5
789
102
{ACAD_REACTORS
330
782
102
}
330
782
100
DictionaryVariables
280
     0
  1
0
  0
DICTIONARYVAR
  5
787
102
{ACAD_REACTORS
330
782
102
}
330
782
100
DictionaryVariables
280
     0
  1
2
  0
DICTIONARYVAR
  5
785
102
{ACAD_REACTORS
330
782
102
}
330
782
100
DictionaryVariables
280
     0
  1
1
  0
DICTIONARYVAR
  5
78A
102
{ACAD_REACTORS
330
782
102
}
330
782
100
DictionaryVariables
280
     0
  1
127
  0
DICTIONARYVAR
  5
78E
102
{ACAD_REACTORS
330
782
102
}
330
782
100
DictionaryVariables
280
     0
  1
2
  0
DICTIONARY
  5
7FD
330
6B
100
AcDbDictionary
280
     1
281
     1
  3
ACAD_XREC_ROUNDTRIP
360
7FE
  0
DICTIONARY
  5
801
330
73
100
AcDbDictionary
280
     1
281
     1
  3
ACAD_XREC_ROUNDTRIP
360
802
  0
DICTIONARY
  5
7FF
330
6F
100
AcDbDictionary
280
     1
281
     1
  3
ACAD_XREC_ROUNDTRIP
360
800
  0
DICTIONARY
  5
1A
330
19
100
AcDbDictionary
280
     1
281
     1
  3
ACAD_XREC_ROUNDTRIP
360
7C9
  3
BUMPTILE
360
1C
  3
DIFFUSETILE
360
1B
  3
OPACITYTILE
360
1F
  3
REFLECTIONTILE
360
1E
  3
REFRACTIONTILE
360
20
  3
SPECULARTILE
360
1D
  0
DICTIONARY
  5
12
330
11
100
AcDbDictionary
280
     1
281
     1
  3
ACAD_XREC_ROUNDTRIP
360
7C8
  3
BUMPTILE
360
14
  3
DIFFUSETILE
360
13
  3
OPACITYTILE
360
17
  3
REFLECTIONTILE
360
16
  3
REFRACTIONTILE
360
18
  3
SPECULARTILE
360
15
  0
DICTIONARY
  5
22
330
21
100
AcDbDictionary
280
     1
281
     1
  3
ACAD_XREC_ROUNDTRIP
360
7CA
  3
BUMPTILE
360
24
  3
DIFFUSETILE
360
23
  3
OPACITYTILE
360
27
  3
REFLECTIONTILE
360
26
  3
REFRACTIONTILE
360
28
  3
SPECULARTILE
360
25
  0
DICTIONARY
  5
78F
330
65
100
AcDbDictionary
280
     1
281
     1
  3
ACAD_ROUNDTRIP_2008_TABLESTYLE_CELLSTYLEMAP
360
790
  3
ACAD_XREC_ROUNDTRIP
360
7FB
  0
DICTIONARY
  5
7D5
330
2F
100
AcDbDictionary
280
     1
281
     1
  3
ACAD_XREC_ROUNDTRIP
360
7D6
  0
DICTIONARY
  5
7D3
330
2E
100
AcDbDictionary
280
     1
281
     1
  3
ACAD_XREC_ROUNDTRIP
360
7D4
  0
DICTIONARY
  5
7E1
330
35
100
AcDbDictionary
280
     1
281
     1
  3
ACAD_XREC_ROUNDTRIP
360
7E2
  0
DICTIONARY
  5
7E9
330
39
100
AcDbDictionary
280
     1
281
     1
  3
ACAD_XREC_ROUNDTRIP
360
7EA
  0
DICTIONARY
  5
7DB
330
32
100
AcDbDictionary
280
     1
281
     1
  3
ACAD_XREC_ROUNDTRIP
360
7DC
  0
DICTIONARY
  5
7DF
330
34
100
AcDbDictionary
280
     1
281
     1
  3
ACAD_XREC_ROUNDTRIP
360
7E0
  0
DICTIONARY
  5
7F9
330
41
100
AcDbDictionary
280
     1
281
     1
  3
ACAD_XREC_ROUNDTRIP
360
7FA
  0
DICTIONARY
  5
7E7
330
38
100
AcDbDictionary
280
     1
281
     1
  3
ACAD_XREC_ROUNDTRIP
360
7E8
  0
DICTIONARY
  5
7CB
330
2A
100
AcDbDictionary
280
     1
281
     1
  3
ACAD_XREC_ROUNDTRIP
360
7CC
  0
DICTIONARY
  5
7CD
330
2B
100
AcDbDictionary
280
     1
281
     1
  3
ACAD_XREC_ROUNDTRIP
360
7CE
  0
DICTIONARY
  5
7CF
330
2C
100
AcDbDictionary
280
     1
281
     1
  3
ACAD_XREC_ROUNDTRIP
360
7D0
  0
DICTIONARY
  5
7D1
330
2D
100
AcDbDictionary
280
     1
281
     1
  3
ACAD_XREC_ROUNDTRIP
360
7D2
  0
DICTIONARY
  5
7D9
330
31
100
AcDbDictionary
280
     1
281
     1
  3
ACAD_XREC_ROUNDTRIP
360
7DA
  0
DICTIONARY
  5
7F5
330
3F
100
AcDbDictionary
280
     1
281
     1
  3
ACAD_XREC_ROUNDTRIP
360
7F6
  0
DICTIONARY
  5
7E5
330
37
100
AcDbDictionary
280
     1
281
     1
  3
ACAD_XREC_ROUNDTRIP
360
7E6
  0
DICTIONARY
  5
7F7
330
40
100
AcDbDictionary
280
     1
281
     1
  3
ACAD_XREC_ROUNDTRIP
360
7F8
  0
DICTIONARY
  5
7DD
330
33
100
AcDbDictionary
280
     1
281
     1
  3
ACAD_XREC_ROUNDTRIP
360
7DE
  0
DICTIONARY
  5
7F3
330
3E
100
AcDbDictionary
280
     1
281
     1
  3
ACAD_XREC_ROUNDTRIP
360
7F4
  0
DICTIONARY
  5
7F1
330
3D
100
AcDbDictionary
280
     1
281
     1
  3
ACAD_XREC_ROUNDTRIP
360
7F2
  0
DICTIONARY
  5
7EB
330
3A
100
AcDbDictionary
280
     1
281
     1
  3
ACAD_XREC_ROUNDTRIP
360
7EC
  0
DICTIONARY
  5
7ED
330
3B
100
AcDbDictionary
280
     1
281
     1
  3
ACAD_XREC_ROUNDTRIP
360
7EE
  0
DICTIONARY
  5
7E3
330
36
100
AcDbDictionary
280
     1
281
     1
  3
ACAD_XREC_ROUNDTRIP
360
7E4
  0
DICTIONARY
  5
7D7
330
30
100
AcDbDictionary
280
     1
281
     1
  3
ACAD_XREC_ROUNDTRIP
360
7D8
  0
DICTIONARY
  5
7EF
330
3C
100
AcDbDictionary
280
     1
281
     1
  3
ACAD_XREC_ROUNDTRIP
360
7F0
  0
XRECORD
  5
7FE
102
{ACAD_REACTORS
330
7FD
102
}
330
7FD
100
AcDbXrecord
280
     1
102
SHADEPLOT
 70
     0
102
SHADEPLOTRESLEVEL
 70
     2
102
SHADEPLOTCUSTOMDPI
 70
   300
  0
XRECORD
  5
802
102
{ACAD_REACTORS
330
801
102
}
330
801
100
AcDbXrecord
280
     1
102
SHADEPLOT
 70
     0
102
SHADEPLOTRESLEVEL
 70
     2
102
SHADEPLOTCUSTOMDPI
 70
   300
  0
XRECORD
  5
800
102
{ACAD_REACTORS
330
7FF
102
}
330
7FF
100
AcDbXrecord
280
     1
102
SHADEPLOT
 70
     0
102
SHADEPLOTRESLEVEL
 70
     2
102
SHADEPLOTCUSTOMDPI
 70
   300
  0
XRECORD
  5
7C9
102
{ACAD_REACTORS
330
1A
102
}
330
1A
100
AcDbXrecord
280
     1
102
MATERIAL
148
0.0
149
0.0
149
0.0
 93
        0
 94
      127
282
     0
 72
     0
 77
     0
171
     0
175
     0
179
     0
273
     0
  0
XRECORD
  5
1C
102
{ACAD_REACTORS
330
1A
102
}
330
1A
100
AcDbXrecord
280
     1
270
     1
271
     1
  0
XRECORD
  5
1B
102
{ACAD_REACTORS
330
1A
102
}
330
1A
100
AcDbXrecord
280
     1
270
     1
271
     1
  0
XRECORD
  5
1F
102
{ACAD_REACTORS
330
1A
102
}
330
1A
100
AcDbXrecord
280
     1
270
     1
271
     1
  0
XRECORD
  5
1E
102
{ACAD_REACTORS
330
1A
102
}
330
1A
100
AcDbXrecord
280
     1
270
     1
271
     1
  0
XRECORD
  5
20
102
{ACAD_REACTORS
330
1A
102
}
330
1A
100
AcDbXrecord
280
     1
270
     1
271
     1
  0
XRECORD
  5
1D
102
{ACAD_REACTORS
330
1A
102
}
330
1A
100
AcDbXrecord
280
     1
270
     1
271
     1
  0
XRECORD
  5
7C8
102
{ACAD_REACTORS
330
12
102
}
330
12
100
AcDbXrecord
280
     1
102
MATERIAL
148
0.0
149
0.0
149
0.0
 93
        0
 94
      127
282
     0
 72
     0
 77
     0
171
     0
175
     0
179
     0
273
     0
  0
XRECORD
  5
14
102
{ACAD_REACTORS
330
12
102
}
330
12
100
AcDbXrecord
280
     1
270
     1
271
     1
  0
XRECORD
  5
13
102
{ACAD_REACTORS
330
12
102
}
330
12
100
AcDbXrecord
280
     1
270
     1
271
     1
  0
XRECORD
  5
17
102
{ACAD_REACTORS
330
12
102
}
330
12
100
AcDbXrecord
280
     1
270
     1
271
     1
  0
XRECORD
  5
16
102
{ACAD_REACTORS
330
12
102
}
330
12
100
AcDbXrecord
280
     1
270
     1
271
     1
  0
XRECORD
  5
18
102
{ACAD_REACTORS
330
12
102
}
330
12
100
AcDbXrecord
280
     1
270
     1
271
     1
  0
XRECORD
  5
15
102
{ACAD_REACTORS
330
12
102
}
330
12
100
AcDbXrecord
280
     1
270
     1
271
     1
  0
XRECORD
  5
7CA
102
{ACAD_REACTORS
330
22
102
}
330
22
100
AcDbXrecord
280
     1
102
MATERIAL
148
0.0
149
0.0
149
0.0
 93
        0
 94
      127
282
     0
 72
     0
 77
     0
171
     0
175
     0
179
     0
273
     0
  0
XRECORD
  5
24
102
{ACAD_REACTORS
330
22
102
}
330
22
100
AcDbXrecord
280
     1
270
     1
271
     1
  0
XRECORD
  5
23
102
{ACAD_REACTORS
330
22
102
}
330
22
100
AcDbXrecord
280
     1
270
     1
271
     1
  0
XRECORD
  5
27
102
{ACAD_REACTORS
330
22
102
}
330
22
100
AcDbXrecord
280
     1
270
     1
271
     1
  0
XRECORD
  5
26
102
{ACAD_REACTORS
330
22
102
}
330
22
100
AcDbXrecord
280
     1
270
     1
271
     1
  0
XRECORD
  5
28
102
{ACAD_REACTORS
330
22
102
}
330
22
100
AcDbXrecord
280
     1
270
     1
271
     1
  0
XRECORD
  5
25
102
{ACAD_REACTORS
330
22
102
}
330
22
100
AcDbXrecord
280
     1
270
     1
271
     1
  0
CELLSTYLEMAP
  5
790
102
{ACAD_REACTORS
330
78F
102
}
330
78F
100
AcDbCellStyleMap
 90
        3
300
CELLSTYLE
  1
TABLEFORMAT_BEGIN
 90
        5
170
     1
 91
        0
 92
    32768
 62
   257
 93
        1
300
CONTENTFORMAT
  1
CONTENTFORMAT_BEGIN
 90
        0
 91
        0
 92
      512
 93
        0
300

 40
0.0
140
1.0
 94
        5
 62
     0
340
55
144
0.25
309
CONTENTFORMAT_END
171
     0
 94
        0
309
TABLEFORMAT_END
  1
CELLSTYLE_BEGIN
 90
        1
 91
        1
300
_TITLE
309
CELLSTYLE_END
300
CELLSTYLE
  1
TABLEFORMAT_BEGIN
 90
        5
170
     1
 91
        0
 92
        0
 62
   257
 93
        1
300
CONTENTFORMAT
  1
CONTENTFORMAT_BEGIN
 90
        0
 91
        0
 92
      512
 93
        0
300

 40
0.0
140
1.0
 94
        5
 62
     0
340
55
144
0.18
309
CONTENTFORMAT_END
171
     0
 94
        0
309
TABLEFORMAT_END
  1
CELLSTYLE_BEGIN
 90
        2
 91
        1
300
_HEADER
309
CELLSTYLE_END
300
CELLSTYLE
  1
TABLEFORMAT_BEGIN
 90
        5
170
     1
 91
        0
 92
        0
 62
   257
 93
        1
300
CONTENTFORMAT
  1
CONTENTFORMAT_BEGIN
 90
        0
 91
        0
 92
      512
 93
        0
300

 40
0.0
140
1.0
 94
        2
 62
     0
340
55
144
0.18
309
CONTENTFORMAT_END
171
     0
 94
        0
309
TABLEFORMAT_END
  1
CELLSTYLE_BEGIN
 90
        3
 91
        2
300
_DATA
309
CELLSTYLE_END
  0
XRECORD
  5
7FB
102
{ACAD_REACTORS
330
78F
102
}
330
78F
100
AcDbXrecord
280
     1
102
ACAD_ROUNDTRIP_PRE2007_TABLESTYLE
 90
      512
 91
        0
  1

 92
      512
 93
        0
  2

 94
      512
 95
        0
  3

  0
XRECORD
  5
7D6
102
{ACAD_REACTORS
330
7D5
102
}
330
7D5
100
AcDbXrecord
280
     1
102
RTVSPropertyOp0
 70
     1
102
RTVSPropertyOp1
 70
     1
102
RTVSPropertyOp2
 70
     1
102
RTVSPropertyOp3
 70
     1
102
RTVSPropertyOp4
 70
     1
102
RTVSPropertyOp5
 70
     1
102
RTVSPropertyOp6
 70
     1
102
RTVSPropertyOp7
 70
     1
102
RTVSPropertyOp8
 70
     1
102
RTVSPropertyOp9
 70
     1
102
RTVSPropertyOp10
 70
     1
102
RTVSPropertyOp11
 70
     1
102
RTVSPropertyOp12
 70
     1
102
RTVSPropertyOp13
 70
     1
102
RTVSPropertyOp14
 70
     1
102
RTVSPropertyOp15
 70
     1
102
RTVSPropertyOp16
 70
     1
102
RTVSPropertyOp17
 70
     1
102
RTVSPropertyOp18
 70
     1
102
RTVSPropertyOp19
 70
     1
102
RTVSPropertyOp20
 70
     1
102
RTVSPropertyOp21
 70
     1
102
RTVSPropertyOp22
 70
     1
102
RTVSPropertyOp23
 70
     1
102
RTVSPropertyOp24
 70
     1
102
RTVSPropertyOp25
 70
     1
102
RTVSPropertyOp26
 70
     1
102
RTVSPropertyOp27
 70
     1
102
RTVSPropertyOp28
 70
     1
102
RTVSPropertyOp29
 70
     1
102
RTVSPropertyOp30
 70
     1
102
RTVSPropertyOp31
 70
     1
102
RTVSPropertyOp32
 70
     1
  0
XRECORD
  5
7D4
102
{ACAD_REACTORS
330
7D3
102
}
330
7D3
100
AcDbXrecord
280
     1
102
RTVSPropertyOp0
 70
     1
102
RTVSPropertyOp1
 70
     1
102
RTVSPropertyOp2
 70
     1
102
RTVSPropertyOp3
 70
     1
102
RTVSPropertyOp4
 70
     1
102
RTVSPropertyOp5
 70
     1
102
RTVSPropertyOp6
 70
     1
102
RTVSPropertyOp7
 70
     1
102
RTVSPropertyOp8
 70
     1
102
RTVSPropertyOp9
 70
     1
102
RTVSPropertyOp10
 70
     1
102
RTVSPropertyOp11
 70
     1
102
RTVSPropertyOp12
 70
     1
102
RTVSPropertyOp13
 70
     1
102
RTVSPropertyOp14
 70
     1
102
RTVSPropertyOp15
 70
     1
102
RTVSPropertyOp16
 70
     1
102
RTVSPropertyOp17
 70
     1
102
RTVSPropertyOp18
 70
     1
102
RTVSPropertyOp19
 70
     1
102
RTVSPropertyOp20
 70
     1
102
RTVSPropertyOp21
 70
     1
102
RTVSPropertyOp22
 70
     1
102
RTVSPropertyOp23
 70
     1
102
RTVSPropertyOp24
 70
     1
102
RTVSPropertyOp25
 70
     1
102
RTVSPropertyOp26
 70
     1
102
RTVSPropertyOp27
 70
     1
102
RTVSPropertyOp28
 70
     1
102
RTVSPropertyOp29
 70
     1
102
RTVSPropertyOp30
 70
     1
102
RTVSPropertyOp31
 70
     1
102
RTVSPropertyOp32
 70
     1
  0
XRECORD
  5
7E2
102
{ACAD_REACTORS
330
7E1
102
}
330
7E1
100
AcDbXrecord
280
     1
102
RTVSPropertyOp0
 70
     1
102
RTVSPropertyOp1
 70
     1
102
RTVSPropertyOp2
 70
     1
102
RTVSPropertyOp3
 70
     1
102
RTVSPropertyOp4
 70
     1
102
RTVSPropertyOp5
 70
     1
102
RTVSPropertyOp6
 70
     1
102
RTVSPropertyOp7
 70
     1
102
RTVSPropertyOp8
 70
     1
102
RTVSPropertyOp9
 70
     1
102
RTVSPropertyOp10
 70
     1
102
RTVSPropertyOp11
 70
     1
102
RTVSPropertyOp12
 70
     1
102
RTVSPropertyOp13
 70
     1
102
RTVSPropertyOp14
 70
     1
102
RTVSPropertyOp15
 70
     1
102
RTVSPropertyOp16
 70
     1
102
RTVSPropertyOp17
 70
     1
102
RTVSPropertyOp18
 70
     1
102
RTVSPropertyOp19
 70
     1
102
RTVSPropertyOp20
 70
     1
102
RTVSPropertyOp21
 70
     1
102
RTVSPropertyOp22
 70
     1
102
RTVSPropertyOp23
 70
     1
102
RTVSPropertyOp24
 70
     1
102
RTVSPropertyOp25
 70
     1
102
RTVSPropertyOp26
 70
     1
102
RTVSPropertyOp27
 70
     1
102
RTVSPropertyOp28
 70
     1
102
RTVSPropertyOp29
 70
     1
102
RTVSPropertyOp30
 70
     1
102
RTVSPropertyOp31
 70
     1
102
RTVSPropertyOp32
 70
     1
  0
XRECORD
  5
7EA
102
{ACAD_REACTORS
330
7E9
102
}
330
7E9
100
AcDbXrecord
280
     1
102
RTVSPropertyOp0
 70
     1
102
RTVSPropertyOp1
 70
     1
102
RTVSPropertyOp2
 70
     1
102
RTVSPropertyOp3
 70
     1
102
RTVSPropertyOp4
 70
     1
102
RTVSPropertyOp5
 70
     1
102
RTVSPropertyOp6
 70
     1
102
RTVSPropertyOp7
 70
     1
102
RTVSPropertyOp8
 70
     1
102
RTVSPropertyOp9
 70
     1
102
RTVSPropertyOp10
 70
     1
102
RTVSPropertyOp11
 70
     1
102
RTVSPropertyOp12
 70
     1
102
RTVSPropertyOp13
 70
     1
102
RTVSPropertyOp14
 70
     1
102
RTVSPropertyOp15
 70
     1
102
RTVSPropertyOp16
 70
     1
102
RTVSPropertyOp17
 70
     1
102
RTVSPropertyOp18
 70
     1
102
RTVSPropertyOp19
 70
     1
102
RTVSPropertyOp20
 70
     1
102
RTVSPropertyOp21
 70
     1
102
RTVSPropertyOp22
 70
     1
102
RTVSPropertyOp23
 70
     1
102
RTVSPropertyOp24
 70
     1
102
RTVSPropertyOp25
 70
     1
102
RTVSPropertyOp26
 70
     1
102
RTVSPropertyOp27
 70
     1
102
RTVSPropertyOp28
 70
     1
102
RTVSPropertyOp29
 70
     1
102
RTVSPropertyOp30
 70
     1
102
RTVSPropertyOp31
 70
     1
102
RTVSPropertyOp32
 70
     1
  0
XRECORD
  5
7DC
102
{ACAD_REACTORS
330
7DB
102
}
330
7DB
100
AcDbXrecord
280
     1
102
RTVSPropertyOp0
 70
     1
102
RTVSPropertyOp1
 70
     1
102
RTVSPropertyOp2
 70
     1
102
RTVSPropertyOp3
 70
     1
102
RTVSPropertyOp4
 70
     1
102
RTVSPropertyOp5
 70
     1
102
RTVSPropertyOp6
 70
     1
102
RTVSPropertyOp7
 70
     1
102
RTVSPropertyOp8
 70
     1
102
RTVSPropertyOp9
 70
     1
102
RTVSPropertyOp10
 70
     1
102
RTVSPropertyOp11
 70
     1
102
RTVSPropertyOp12
 70
     1
102
RTVSPropertyOp13
 70
     1
102
RTVSPropertyOp14
 70
     1
102
RTVSPropertyOp15
 70
     1
102
RTVSPropertyOp16
 70
     1
102
RTVSPropertyOp17
 70
     1
102
RTVSPropertyOp18
 70
     1
102
RTVSPropertyOp19
 70
     1
102
RTVSPropertyOp20
 70
     1
102
RTVSPropertyOp21
 70
     1
102
RTVSPropertyOp22
 70
     1
102
RTVSPropertyOp23
 70
     1
102
RTVSPropertyOp24
 70
     1
102
RTVSPropertyOp25
 70
     1
102
RTVSPropertyOp26
 70
     1
102
RTVSPropertyOp27
 70
     1
102
RTVSPropertyOp28
 70
     1
102
RTVSPropertyOp29
 70
     1
102
RTVSPropertyOp30
 70
     1
102
RTVSPropertyOp31
 70
     1
102
RTVSPropertyOp32
 70
     1
  0
XRECORD
  5
7E0
102
{ACAD_REACTORS
330
7DF
102
}
330
7DF
100
AcDbXrecord
280
     1
102
RTVSPropertyOp0
 70
     1
102
RTVSPropertyOp1
 70
     1
102
RTVSPropertyOp2
 70
     1
102
RTVSPropertyOp3
 70
     1
102
RTVSPropertyOp4
 70
     1
102
RTVSPropertyOp5
 70
     1
102
RTVSPropertyOp6
 70
     1
102
RTVSPropertyOp7
 70
     1
102
RTVSPropertyOp8
 70
     1
102
RTVSPropertyOp9
 70
     1
102
RTVSPropertyOp10
 70
     1
102
RTVSPropertyOp11
 70
     1
102
RTVSPropertyOp12
 70
     1
102
RTVSPropertyOp13
 70
     1
102
RTVSPropertyOp14
 70
     1
102
RTVSPropertyOp15
 70
     1
102
RTVSPropertyOp16
 70
     1
102
RTVSPropertyOp17
 70
     1
102
RTVSPropertyOp18
 70
     1
102
RTVSPropertyOp19
 70
     1
102
RTVSPropertyOp20
 70
     1
102
RTVSPropertyOp21
 70
     1
102
RTVSPropertyOp22
 70
     1
102
RTVSPropertyOp23
 70
     1
102
RTVSPropertyOp24
 70
     1
102
RTVSPropertyOp25
 70
     1
102
RTVSPropertyOp26
 70
     1
102
RTVSPropertyOp27
 70
     1
102
RTVSPropertyOp28
 70
     1
102
RTVSPropertyOp29
 70
     1
102
RTVSPropertyOp30
 70
     1
102
RTVSPropertyOp31
 70
     1
102
RTVSPropertyOp32
 70
     1
  0
XRECORD
  5
7FA
102
{ACAD_REACTORS
330
7F9
102
}
330
7F9
100
AcDbXrecord
280
     1
102
RTVSPropertyOp0
 70
     0
102
RTVSPropertyOp1
 70
     0
102
RTVSPropertyOp2
 70
     0
102
RTVSPropertyOp3
 70
     0
102
RTVSPropertyOp4
 70
     0
102
RTVSPropertyOp5
 70
     0
102
RTVSPropertyOp6
 70
     0
102
RTVSPropertyOp7
 70
     0
102
RTVSPropertyOp8
 70
     0
102
RTVSPropertyOp9
 70
     0
102
RTVSPropertyOp10
 70
     0
102
RTVSPropertyOp11
 70
     0
102
RTVSPropertyOp12
 70
     0
102
RTVSPropertyOp13
 70
     0
102
RTVSPropertyOp14
 70
     2
102
RTVSPropertyOp15
 70
     0
102
RTVSPropertyOp16
 70
     0
102
RTVSPropertyOp17
 70
     0
102
RTVSPropertyOp18
 70
     0
102
RTVSPropertyOp19
 70
     0
102
RTVSPropertyOp20
 70
     0
102
RTVSPropertyOp21
 70
     0
102
RTVSPropertyOp22
 70
     0
102
RTVSPropertyOp23
 70
     0
102
RTVSPropertyOp24
 70
     0
102
RTVSPropertyOp25
 70
     0
102
RTVSPropertyOp26
 70
     0
102
RTVSPropertyOp27
 70
     0
102
RTVSPropertyOp28
 70
     0
102
RTVSPropertyOp29
 70
     0
102
RTVSPropertyOp30
 70
     0
102
RTVSPropertyOp31
 70
     0
102
RTVSPropertyOp32
 70
     0
  0
XRECORD
  5
7E8
102
{ACAD_REACTORS
330
7E7
102
}
330
7E7
100
AcDbXrecord
280
     1
102
RTVSPropertyOp0
 70
     1
102
RTVSPropertyOp1
 70
     1
102
RTVSPropertyOp2
 70
     1
102
RTVSPropertyOp3
 70
     1
102
RTVSPropertyOp4
 70
     1
102
RTVSPropertyOp5
 70
     1
102
RTVSPropertyOp6
 70
     1
102
RTVSPropertyOp7
 70
     1
102
RTVSPropertyOp8
 70
     1
102
RTVSPropertyOp9
 70
     1
102
RTVSPropertyOp10
 70
     1
102
RTVSPropertyOp11
 70
     1
102
RTVSPropertyOp12
 70
     1
102
RTVSPropertyOp13
 70
     1
102
RTVSPropertyOp14
 70
     1
102
RTVSPropertyOp15
 70
     1
102
RTVSPropertyOp16
 70
     1
102
RTVSPropertyOp17
 70
     1
102
RTVSPropertyOp18
 70
     1
102
RTVSPropertyOp19
 70
     1
102
RTVSPropertyOp20
 70
     1
102
RTVSPropertyOp21
 70
     1
102
RTVSPropertyOp22
 70
     1
102
RTVSPropertyOp23
 70
     1
102
RTVSPropertyOp24
 70
     1
102
RTVSPropertyOp25
 70
     1
102
RTVSPropertyOp26
 70
     1
102
RTVSPropertyOp27
 70
     1
102
RTVSPropertyOp28
 70
     1
102
RTVSPropertyOp29
 70
     1
102
RTVSPropertyOp30
 70
     1
102
RTVSPropertyOp31
 70
     1
102
RTVSPropertyOp32
 70
     1
  0
XRECORD
  5
7CC
102
{ACAD_REACTORS
330
7CB
102
}
330
7CB
100
AcDbXrecord
280
     1
102
RTVSPropertyOp0
 70
     1
102
RTVSPropertyOp1
 70
     1
102
RTVSPropertyOp2
 70
     1
102
RTVSPropertyOp3
 70
     1
102
RTVSPropertyOp4
 70
     1
102
RTVSPropertyOp5
 70
     1
102
RTVSPropertyOp6
 70
     1
102
RTVSPropertyOp7
 70
     1
102
RTVSPropertyOp8
 70
     1
102
RTVSPropertyOp9
 70
     1
102
RTVSPropertyOp10
 70
     1
102
RTVSPropertyOp11
 70
     1
102
RTVSPropertyOp12
 70
     1
102
RTVSPropertyOp13
 70
     1
102
RTVSPropertyOp14
 70
     1
102
RTVSPropertyOp15
 70
     1
102
RTVSPropertyOp16
 70
     1
102
RTVSPropertyOp17
 70
     1
102
RTVSPropertyOp18
 70
     1
102
RTVSPropertyOp19
 70
     1
102
RTVSPropertyOp20
 70
     1
102
RTVSPropertyOp21
 70
     1
102
RTVSPropertyOp22
 70
     1
102
RTVSPropertyOp23
 70
     1
102
RTVSPropertyOp24
 70
     1
102
RTVSPropertyOp25
 70
     1
102
RTVSPropertyOp26
 70
     1
102
RTVSPropertyOp27
 70
     1
102
RTVSPropertyOp28
 70
     1
102
RTVSPropertyOp29
 70
     1
102
RTVSPropertyOp30
 70
     1
102
RTVSPropertyOp31
 70
     1
102
RTVSPropertyOp32
 70
     1
  0
XRECORD
  5
7CE
102
{ACAD_REACTORS
330
7CD
102
}
330
7CD
100
AcDbXrecord
280
     1
102
RTVSPropertyOp0
 70
     1
102
RTVSPropertyOp1
 70
     1
102
RTVSPropertyOp2
 70
     1
102
RTVSPropertyOp3
 70
     1
102
RTVSPropertyOp4
 70
     1
102
RTVSPropertyOp5
 70
     1
102
RTVSPropertyOp6
 70
     1
102
RTVSPropertyOp7
 70
     1
102
RTVSPropertyOp8
 70
     1
102
RTVSPropertyOp9
 70
     1
102
RTVSPropertyOp10
 70
     1
102
RTVSPropertyOp11
 70
     1
102
RTVSPropertyOp12
 70
     1
102
RTVSPropertyOp13
 70
     1
102
RTVSPropertyOp14
 70
     1
102
RTVSPropertyOp15
 70
     1
102
RTVSPropertyOp16
 70
     1
102
RTVSPropertyOp17
 70
     1
102
RTVSPropertyOp18
 70
     1
102
RTVSPropertyOp19
 70
     1
102
RTVSPropertyOp20
 70
     1
102
RTVSPropertyOp21
 70
     1
102
RTVSPropertyOp22
 70
     1
102
RTVSPropertyOp23
 70
     1
102
RTVSPropertyOp24
 70
     1
102
RTVSPropertyOp25
 70
     1
102
RTVSPropertyOp26
 70
     1
102
RTVSPropertyOp27
 70
     1
102
RTVSPropertyOp28
 70
     1
102
RTVSPropertyOp29
 70
     1
102
RTVSPropertyOp30
 70
     1
102
RTVSPropertyOp31
 70
     1
102
RTVSPropertyOp32
 70
     1
  0
XRECORD
  5
7D0
102
{ACAD_REACTORS
330
7CF
102
}
330
7CF
100
AcDbXrecord
280
     1
102
RTVSPropertyOp0
 70
     1
102
RTVSPropertyOp1
 70
     1
102
RTVSPropertyOp2
 70
     1
102
RTVSPropertyOp3
 70
     1
102
RTVSPropertyOp4
 70
     1
102
RTVSPropertyOp5
 70
     1
102
RTVSPropertyOp6
 70
     1
102
RTVSPropertyOp7
 70
     1
102
RTVSPropertyOp8
 70
     1
102
RTVSPropertyOp9
 70
     1
102
RTVSPropertyOp10
 70
     1
102
RTVSPropertyOp11
 70
     1
102
RTVSPropertyOp12
 70
     1
102
RTVSPropertyOp13
 70
     1
102
RTVSPropertyOp14
 70
     1
102
RTVSPropertyOp15
 70
     1
102
RTVSPropertyOp16
 70
     1
102
RTVSPropertyOp17
 70
     1
102
RTVSPropertyOp18
 70
     1
102
RTVSPropertyOp19
 70
     1
102
RTVSPropertyOp20
 70
     1
102
RTVSPropertyOp21
 70
     1
102
RTVSPropertyOp22
 70
     1
102
RTVSPropertyOp23
 70
     1
102
RTVSPropertyOp24
 70
     1
102
RTVSPropertyOp25
 70
     1
102
RTVSPropertyOp26
 70
     1
102
RTVSPropertyOp27
 70
     1
102
RTVSPropertyOp28
 70
     1
102
RTVSPropertyOp29
 70
     1
102
RTVSPropertyOp30
 70
     1
102
RTVSPropertyOp31
 70
     1
102
RTVSPropertyOp32
 70
     1
  0
XRECORD
  5
7D2
102
{ACAD_REACTORS
330
7D1
102
}
330
7D1
100
AcDbXrecord
280
     1
102
RTVSPropertyOp0
 70
     1
102
RTVSPropertyOp1
 70
     1
102
RTVSPropertyOp2
 70
     1
102
RTVSPropertyOp3
 70
     1
102
RTVSPropertyOp4
 70
     1
102
RTVSPropertyOp5
 70
     1
102
RTVSPropertyOp6
 70
     1
102
RTVSPropertyOp7
 70
     1
102
RTVSPropertyOp8
 70
     1
102
RTVSPropertyOp9
 70
     1
102
RTVSPropertyOp10
 70
     1
102
RTVSPropertyOp11
 70
     1
102
RTVSPropertyOp12
 70
     1
102
RTVSPropertyOp13
 70
     1
102
RTVSPropertyOp14
 70
     1
102
RTVSPropertyOp15
 70
     1
102
RTVSPropertyOp16
 70
     1
102
RTVSPropertyOp17
 70
     1
102
RTVSPropertyOp18
 70
     1
102
RTVSPropertyOp19
 70
     1
102
RTVSPropertyOp20
 70
     1
102
RTVSPropertyOp21
 70
     1
102
RTVSPropertyOp22
 70
     1
102
RTVSPropertyOp23
 70
     1
102
RTVSPropertyOp24
 70
     1
102
RTVSPropertyOp25
 70
     1
102
RTVSPropertyOp26
 70
     1
102
RTVSPropertyOp27
 70
     1
102
RTVSPropertyOp28
 70
     1
102
RTVSPropertyOp29
 70
     1
102
RTVSPropertyOp30
 70
     1
102
RTVSPropertyOp31
 70
     1
102
RTVSPropertyOp32
 70
     1
  0
XRECORD
  5
7DA
102
{ACAD_REACTORS
330
7D9
102
}
330
7D9
100
AcDbXrecord
280
     1
102
RTVSPropertyOp0
 70
     1
102
RTVSPropertyOp1
 70
     1
102
RTVSPropertyOp2
 70
     1
102
RTVSPropertyOp3
 70
     1
102
RTVSPropertyOp4
 70
     1
102
RTVSPropertyOp5
 70
     1
102
RTVSPropertyOp6
 70
     1
102
RTVSPropertyOp7
 70
     1
102
RTVSPropertyOp8
 70
     1
102
RTVSPropertyOp9
 70
     1
102
RTVSPropertyOp10
 70
     1
102
RTVSPropertyOp11
 70
     1
102
RTVSPropertyOp12
 70
     1
102
RTVSPropertyOp13
 70
     1
102
RTVSPropertyOp14
 70
     1
102
RTVSPropertyOp15
 70
     1
102
RTVSPropertyOp16
 70
     1
102
RTVSPropertyOp17
 70
     1
102
RTVSPropertyOp18
 70
     1
102
RTVSPropertyOp19
 70
     1
102
RTVSPropertyOp20
 70
     1
102
RTVSPropertyOp21
 70
     1
102
RTVSPropertyOp22
 70
     1
102
RTVSPropertyOp23
 70
     1
102
RTVSPropertyOp24
 70
     1
102
RTVSPropertyOp25
 70
     1
102
RTVSPropertyOp26
 70
     1
102
RTVSPropertyOp27
 70
     1
102
RTVSPropertyOp28
 70
     1
102
RTVSPropertyOp29
 70
     1
102
RTVSPropertyOp30
 70
     1
102
RTVSPropertyOp31
 70
     1
102
RTVSPropertyOp32
 70
     1
  0
XRECORD
  5
7F6
102
{ACAD_REACTORS
330
7F5
102
}
330
7F5
100
AcDbXrecord
280
     1
102
RTVSPropertyOp0
 70
     0
102
RTVSPropertyOp1
 70
     0
102
RTVSPropertyOp2
 70
     0
102
RTVSPropertyOp3
 70
     0
102
RTVSPropertyOp4
 70
     0
102
RTVSPropertyOp5
 70
     0
102
RTVSPropertyOp6
 70
     0
102
RTVSPropertyOp7
 70
     0
102
RTVSPropertyOp8
 70
     0
102
RTVSPropertyOp9
 70
     0
102
RTVSPropertyOp10
 70
     0
102
RTVSPropertyOp11
 70
     0
102
RTVSPropertyOp12
 70
     0
102
RTVSPropertyOp13
 70
     0
102
RTVSPropertyOp14
 70
     2
102
RTVSPropertyOp15
 70
     0
102
RTVSPropertyOp16
 70
     0
102
RTVSPropertyOp17
 70
     0
102
RTVSPropertyOp18
 70
     0
102
RTVSPropertyOp19
 70
     0
102
RTVSPropertyOp20
 70
     0
102
RTVSPropertyOp21
 70
     0
102
RTVSPropertyOp22
 70
     0
102
RTVSPropertyOp23
 70
     0
102
RTVSPropertyOp24
 70
     0
102
RTVSPropertyOp25
 70
     0
102
RTVSPropertyOp26
 70
     0
102
RTVSPropertyOp27
 70
     0
102
RTVSPropertyOp28
 70
     0
102
RTVSPropertyOp29
 70
     0
102
RTVSPropertyOp30
 70
     0
102
RTVSPropertyOp31
 70
     0
102
RTVSPropertyOp32
 70
     0
  0
XRECORD
  5
7E6
102
{ACAD_REACTORS
330
7E5
102
}
330
7E5
100
AcDbXrecord
280
     1
102
RTVSPropertyOp0
 70
     1
102
RTVSPropertyOp1
 70
     1
102
RTVSPropertyOp2
 70
     1
102
RTVSPropertyOp3
 70
     1
102
RTVSPropertyOp4
 70
     1
102
RTVSPropertyOp5
 70
     1
102
RTVSPropertyOp6
 70
     1
102
RTVSPropertyOp7
 70
     1
102
RTVSPropertyOp8
 70
     1
102
RTVSPropertyOp9
 70
     1
102
RTVSPropertyOp10
 70
     1
102
RTVSPropertyOp11
 70
     1
102
RTVSPropertyOp12
 70
     1
102
RTVSPropertyOp13
 70
     1
102
RTVSPropertyOp14
 70
     1
102
RTVSPropertyOp15
 70
     1
102
RTVSPropertyOp16
 70
     1
102
RTVSPropertyOp17
 70
     1
102
RTVSPropertyOp18
 70
     1
102
RTVSPropertyOp19
 70
     1
102
RTVSPropertyOp20
 70
     1
102
RTVSPropertyOp21
 70
     1
102
RTVSPropertyOp22
 70
     1
102
RTVSPropertyOp23
 70
     1
102
RTVSPropertyOp24
 70
     1
102
RTVSPropertyOp25
 70
     1
102
RTVSPropertyOp26
 70
     1
102
RTVSPropertyOp27
 70
     1
102
RTVSPropertyOp28
 70
     1
102
RTVSPropertyOp29
 70
     1
102
RTVSPropertyOp30
 70
     1
102
RTVSPropertyOp31
 70
     1
102
RTVSPropertyOp32
 70
     1
  0
XRECORD
  5
7F8
102
{ACAD_REACTORS
330
7F7
102
}
330
7F7
100
AcDbXrecord
280
     1
102
RTVSPropertyOp0
 70
     0
102
RTVSPropertyOp1
 70
     0
102
RTVSPropertyOp2
 70
     0
102
RTVSPropertyOp3
 70
     0
102
RTVSPropertyOp4
 70
     0
102
RTVSPropertyOp5
 70
     0
102
RTVSPropertyOp6
 70
     0
102
RTVSPropertyOp7
 70
     0
102
RTVSPropertyOp8
 70
     0
102
RTVSPropertyOp9
 70
     0
102
RTVSPropertyOp10
 70
     0
102
RTVSPropertyOp11
 70
     0
102
RTVSPropertyOp12
 70
     0
102
RTVSPropertyOp13
 70
     0
102
RTVSPropertyOp14
 70
     2
102
RTVSPropertyOp15
 70
     0
102
RTVSPropertyOp16
 70
     0
102
RTVSPropertyOp17
 70
     0
102
RTVSPropertyOp18
 70
     0
102
RTVSPropertyOp19
 70
     0
102
RTVSPropertyOp20
 70
     0
102
RTVSPropertyOp21
 70
     0
102
RTVSPropertyOp22
 70
     0
102
RTVSPropertyOp23
 70
     0
102
RTVSPropertyOp24
 70
     0
102
RTVSPropertyOp25
 70
     0
102
RTVSPropertyOp26
 70
     0
102
RTVSPropertyOp27
 70
     0
102
RTVSPropertyOp28
 70
     0
102
RTVSPropertyOp29
 70
     0
102
RTVSPropertyOp30
 70
     0
102
RTVSPropertyOp31
 70
     0
102
RTVSPropertyOp32
 70
     0
  0
XRECORD
  5
7DE
102
{ACAD_REACTORS
330
7DD
102
}
330
7DD
100
AcDbXrecord
280
     1
102
RTVSPropertyOp0
 70
     1
102
RTVSPropertyOp1
 70
     1
102
RTVSPropertyOp2
 70
     1
102
RTVSPropertyOp3
 70
     1
102
RTVSPropertyOp4
 70
     1
102
RTVSPropertyOp5
 70
     1
102
RTVSPropertyOp6
 70
     1
102
RTVSPropertyOp7
 70
     1
102
RTVSPropertyOp8
 70
     1
102
RTVSPropertyOp9
 70
     1
102
RTVSPropertyOp10
 70
     1
102
RTVSPropertyOp11
 70
     1
102
RTVSPropertyOp12
 70
     1
102
RTVSPropertyOp13
 70
     1
102
RTVSPropertyOp14
 70
     1
102
RTVSPropertyOp15
 70
     1
102
RTVSPropertyOp16
 70
     1
102
RTVSPropertyOp17
 70
     1
102
RTVSPropertyOp18
 70
     1
102
RTVSPropertyOp19
 70
     1
102
RTVSPropertyOp20
 70
     1
102
RTVSPropertyOp21
 70
     1
102
RTVSPropertyOp22
 70
     1
102
RTVSPropertyOp23
 70
     1
102
RTVSPropertyOp24
 70
     1
102
RTVSPropertyOp25
 70
     1
102
RTVSPropertyOp26
 70
     1
102
RTVSPropertyOp27
 70
     1
102
RTVSPropertyOp28
 70
     1
102
RTVSPropertyOp29
 70
     1
102
RTVSPropertyOp30
 70
     1
102
RTVSPropertyOp31
 70
     1
102
RTVSPropertyOp32
 70
     1
  0
XRECORD
  5
7F4
102
{ACAD_REACTORS
330
7F3
102
}
330
7F3
100
AcDbXrecord
280
     1
102
RTVSPropertyOp0
 70
     1
102
RTVSPropertyOp1
 70
     1
102
RTVSPropertyOp2
 70
     1
102
RTVSPropertyOp3
 70
     1
102
RTVSPropertyOp4
 70
     1
102
RTVSPropertyOp5
 70
     1
102
RTVSPropertyOp6
 70
     1
102
RTVSPropertyOp7
 70
     1
102
RTVSPropertyOp8
 70
     1
102
RTVSPropertyOp9
 70
     1
102
RTVSPropertyOp10
 70
     1
102
RTVSPropertyOp11
 70
     1
102
RTVSPropertyOp12
 70
     1
102
RTVSPropertyOp13
 70
     1
102
RTVSPropertyOp14
 70
     1
102
RTVSPropertyOp15
 70
     1
102
RTVSPropertyOp16
 70
     1
102
RTVSPropertyOp17
 70
     1
102
RTVSPropertyOp18
 70
     1
102
RTVSPropertyOp19
 70
     1
102
RTVSPropertyOp20
 70
     1
102
RTVSPropertyOp21
 70
     1
102
RTVSPropertyOp22
 70
     1
102
RTVSPropertyOp23
 70
     1
102
RTVSPropertyOp24
 70
     1
102
RTVSPropertyOp25
 70
     1
102
RTVSPropertyOp26
 70
     1
102
RTVSPropertyOp27
 70
     1
102
RTVSPropertyOp28
 70
     1
102
RTVSPropertyOp29
 70
     1
102
RTVSPropertyOp30
 70
     1
102
RTVSPropertyOp31
 70
     1
102
RTVSPropertyOp32
 70
     1
  0
XRECORD
  5
7F2
102
{ACAD_REACTORS
330
7F1
102
}
330
7F1
100
AcDbXrecord
280
     1
102
RTVSPropertyOp0
 70
     1
102
RTVSPropertyOp1
 70
     1
102
RTVSPropertyOp2
 70
     1
102
RTVSPropertyOp3
 70
     1
102
RTVSPropertyOp4
 70
     1
102
RTVSPropertyOp5
 70
     1
102
RTVSPropertyOp6
 70
     1
102
RTVSPropertyOp7
 70
     1
102
RTVSPropertyOp8
 70
     1
102
RTVSPropertyOp9
 70
     1
102
RTVSPropertyOp10
 70
     1
102
RTVSPropertyOp11
 70
     1
102
RTVSPropertyOp12
 70
     1
102
RTVSPropertyOp13
 70
     1
102
RTVSPropertyOp14
 70
     1
102
RTVSPropertyOp15
 70
     1
102
RTVSPropertyOp16
 70
     1
102
RTVSPropertyOp17
 70
     1
102
RTVSPropertyOp18
 70
     1
102
RTVSPropertyOp19
 70
     1
102
RTVSPropertyOp20
 70
     1
102
RTVSPropertyOp21
 70
     1
102
RTVSPropertyOp22
 70
     1
102
RTVSPropertyOp23
 70
     1
102
RTVSPropertyOp24
 70
     1
102
RTVSPropertyOp25
 70
     1
102
RTVSPropertyOp26
 70
     1
102
RTVSPropertyOp27
 70
     1
102
RTVSPropertyOp28
 70
     1
102
RTVSPropertyOp29
 70
     1
102
RTVSPropertyOp30
 70
     1
102
RTVSPropertyOp31
 70
     1
102
RTVSPropertyOp32
 70
     1
  0
XRECORD
  5
7EC
102
{ACAD_REACTORS
330
7EB
102
}
330
7EB
100
AcDbXrecord
280
     1
102
RTVSPropertyOp0
 70
     1
102
RTVSPropertyOp1
 70
     1
102
RTVSPropertyOp2
 70
     1
102
RTVSPropertyOp3
 70
     1
102
RTVSPropertyOp4
 70
     1
102
RTVSPropertyOp5
 70
     1
102
RTVSPropertyOp6
 70
     1
102
RTVSPropertyOp7
 70
     1
102
RTVSPropertyOp8
 70
     1
102
RTVSPropertyOp9
 70
     1
102
RTVSPropertyOp10
 70
     1
102
RTVSPropertyOp11
 70
     1
102
RTVSPropertyOp12
 70
     1
102
RTVSPropertyOp13
 70
     1
102
RTVSPropertyOp14
 70
     1
102
RTVSPropertyOp15
 70
     1
102
RTVSPropertyOp16
 70
     1
102
RTVSPropertyOp17
 70
     1
102
RTVSPropertyOp18
 70
     1
102
RTVSPropertyOp19
 70
     1
102
RTVSPropertyOp20
 70
     1
102
RTVSPropertyOp21
 70
     1
102
RTVSPropertyOp22
 70
     1
102
RTVSPropertyOp23
 70
     1
102
RTVSPropertyOp24
 70
     1
102
RTVSPropertyOp25
 70
     1
102
RTVSPropertyOp26
 70
     1
102
RTVSPropertyOp27
 70
     1
102
RTVSPropertyOp28
 70
     1
102
RTVSPropertyOp29
 70
     1
102
RTVSPropertyOp30
 70
     1
102
RTVSPropertyOp31
 70
     1
102
RTVSPropertyOp32
 70
     1
  0
XRECORD
  5
7EE
102
{ACAD_REACTORS
330
7ED
102
}
330
7ED
100
AcDbXrecord
280
     1
102
RTVSPropertyOp0
 70
     1
102
RTVSPropertyOp1
 70
     1
102
RTVSPropertyOp2
 70
     1
102
RTVSPropertyOp3
 70
     1
102
RTVSPropertyOp4
 70
     1
102
RTVSPropertyOp5
 70
     1
102
RTVSPropertyOp6
 70
     1
102
RTVSPropertyOp7
 70
     1
102
RTVSPropertyOp8
 70
     1
102
RTVSPropertyOp9
 70
     1
102
RTVSPropertyOp10
 70
     1
102
RTVSPropertyOp11
 70
     1
102
RTVSPropertyOp12
 70
     1
102
RTVSPropertyOp13
 70
     1
102
RTVSPropertyOp14
 70
     1
102
RTVSPropertyOp15
 70
     1
102
RTVSPropertyOp16
 70
     1
102
RTVSPropertyOp17
 70
     1
102
RTVSPropertyOp18
 70
     1
102
RTVSPropertyOp19
 70
     1
102
RTVSPropertyOp20
 70
     1
102
RTVSPropertyOp21
 70
     1
102
RTVSPropertyOp22
 70
     1
102
RTVSPropertyOp23
 70
     1
102
RTVSPropertyOp24
 70
     1
102
RTVSPropertyOp25
 70
     1
102
RTVSPropertyOp26
 70
     1
102
RTVSPropertyOp27
 70
     1
102
RTVSPropertyOp28
 70
     1
102
RTVSPropertyOp29
 70
     1
102
RTVSPropertyOp30
 70
     1
102
RTVSPropertyOp31
 70
     1
102
RTVSPropertyOp32
 70
     1
  0
XRECORD
  5
7E4
102
{ACAD_REACTORS
330
7E3
102
}
330
7E3
100
AcDbXrecord
280
     1
102
RTVSPropertyOp0
 70
     1
102
RTVSPropertyOp1
 70
     1
102
RTVSPropertyOp2
 70
     1
102
RTVSPropertyOp3
 70
     1
102
RTVSPropertyOp4
 70
     1
102
RTVSPropertyOp5
 70
     1
102
RTVSPropertyOp6
 70
     1
102
RTVSPropertyOp7
 70
     1
102
RTVSPropertyOp8
 70
     1
102
RTVSPropertyOp9
 70
     1
102
RTVSPropertyOp10
 70
     1
102
RTVSPropertyOp11
 70
     1
102
RTVSPropertyOp12
 70
     1
102
RTVSPropertyOp13
 70
     1
102
RTVSPropertyOp14
 70
     1
102
RTVSPropertyOp15
 70
     1
102
RTVSPropertyOp16
 70
     1
102
RTVSPropertyOp17
 70
     1
102
RTVSPropertyOp18
 70
     1
102
RTVSPropertyOp19
 70
     1
102
RTVSPropertyOp20
 70
     1
102
RTVSPropertyOp21
 70
     1
102
RTVSPropertyOp22
 70
     1
102
RTVSPropertyOp23
 70
     1
102
RTVSPropertyOp24
 70
     1
102
RTVSPropertyOp25
 70
     1
102
RTVSPropertyOp26
 70
     1
102
RTVSPropertyOp27
 70
     1
102
RTVSPropertyOp28
 70
     1
102
RTVSPropertyOp29
 70
     1
102
RTVSPropertyOp30
 70
     1
102
RTVSPropertyOp31
 70
     1
102
RTVSPropertyOp32
 70
     1
  0
XRECORD
  5
7D8
102
{ACAD_REACTORS
330
7D7
102
}
330
7D7
100
AcDbXrecord
280
     1
102
RTVSPropertyOp0
 70
     1
102
RTVSPropertyOp1
 70
     1
102
RTVSPropertyOp2
 70
     1
102
RTVSPropertyOp3
 70
     1
102
RTVSPropertyOp4
 70
     1
102
RTVSPropertyOp5
 70
     1
102
RTVSPropertyOp6
 70
     1
102
RTVSPropertyOp7
 70
     1
102
RTVSPropertyOp8
 70
     1
102
RTVSPropertyOp9
 70
     1
102
RTVSPropertyOp10
 70
     1
102
RTVSPropertyOp11
 70
     1
102
RTVSPropertyOp12
 70
     1
102
RTVSPropertyOp13
 70
     1
102
RTVSPropertyOp14
 70
     1
102
RTVSPropertyOp15
 70
     1
102
RTVSPropertyOp16
 70
     1
102
RTVSPropertyOp17
 70
     1
102
RTVSPropertyOp18
 70
     1
102
RTVSPropertyOp19
 70
     1
102
RTVSPropertyOp20
 70
     1
102
RTVSPropertyOp21
 70
     1
102
RTVSPropertyOp22
 70
     1
102
RTVSPropertyOp23
 70
     1
102
RTVSPropertyOp24
 70
     1
102
RTVSPropertyOp25
 70
     1
102
RTVSPropertyOp26
 70
     1
102
RTVSPropertyOp27
 70
     1
102
RTVSPropertyOp28
 70
     1
102
RTVSPropertyOp29
 70
     1
102
RTVSPropertyOp30
 70
     1
102
RTVSPropertyOp31
 70
     1
102
RTVSPropertyOp32
 70
     1
  0
XRECORD
  5
7F0
102
{ACAD_REACTORS
330
7EF
102
}
330
7EF
100
AcDbXrecord
280
     1
102
RTVSPropertyOp0
 70
     1
102
RTVSPropertyOp1
 70
     1
102
RTVSPropertyOp2
 70
     1
102
RTVSPropertyOp3
 70
     1
102
RTVSPropertyOp4
 70
     1
102
RTVSPropertyOp5
 70
     1
102
RTVSPropertyOp6
 70
     1
102
RTVSPropertyOp7
 70
     1
102
RTVSPropertyOp8
 70
     1
102
RTVSPropertyOp9
 70
     1
102
RTVSPropertyOp10
 70
     1
102
RTVSPropertyOp11
 70
     1
102
RTVSPropertyOp12
 70
     1
102
RTVSPropertyOp13
 70
     1
102
RTVSPropertyOp14
 70
     1
102
RTVSPropertyOp15
 70
     1
102
RTVSPropertyOp16
 70
     1
102
RTVSPropertyOp17
 70
     1
102
RTVSPropertyOp18
 70
     1
102
RTVSPropertyOp19
 70
     1
102
RTVSPropertyOp20
 70
     1
102
RTVSPropertyOp21
 70
     1
102
RTVSPropertyOp22
 70
     1
102
RTVSPropertyOp23
 70
     1
102
RTVSPropertyOp24
 70
     1
102
RTVSPropertyOp25
 70
     1
102
RTVSPropertyOp26
 70
     1
102
RTVSPropertyOp27
 70
     1
102
RTVSPropertyOp28
 70
     1
102
RTVSPropertyOp29
 70
     1
102
RTVSPropertyOp30
 70
     1
102
RTVSPropertyOp31
 70
     1
102
RTVSPropertyOp32
 70
     1
  0
ENDSEC
  0
EOF
