  0
SECTION
  2
HEADER
  9
$ACADVER
  1
AC1015
  9
$ACADMAINTVER
 70
    18
  9
$DWGCODEPAGE
  3
ANSI_1252
  9
$INSBASE
 10
0.0
 20
0.0
 30
0.0
  9
$EXTMIN
 10
0.0
 20
0.0
 30
0.0
  9
$EXTMAX
 10
279.4
 20
215.9
 30
0.0
  9
$LIMMIN
 10
0.0
 20
0.0
  9
$LIMMAX
 10
279.4
 20
215.9
  9
$ORTHOMODE
 70
     0
  9
$REGENMODE
 70
     1
  9
$FILLMODE
 70
     1
  9
$QTEXTMODE
 70
     0
  9
$MIRRTEXT
 70
     0
  9
$LTSCALE
 40
0.5
  9
$ATTMODE
 70
     1
  9
$TEXTSIZE
 40
0.2
  9
$TRACEWID
 40
0.05
  9
$TEXTSTYLE
  7
Standard
  9
$CLAYER
  8
0
  9
$CELTYPE
  6
ByLayer
  9
$CECOLOR
 62
   256
  9
$CELTSCALE
 40
1.0
  9
$DISPSILH
 70
     0
  9
$DIMSCALE
 40
1.0
  9
$DIMASZ
 40
1.799999999999999
  9
$DIMEXO
 40
0.0625
  9
$DIMDLI
 40
0.38
  9
$DIMRND
 40
0.0
  9
$DIMDLE
 40
0.0
  9
$DIMEXE
 40
0.18
  9
$DIMTP
 40
0.0
  9
$DIMTM
 40
0.0
  9
$DIMTXT
 40
0.3048000037670135
  9
$DIMCEN
 40
0.09
  9
$DIMTSZ
 40
0.0
  9
$DIMTOL
 70
     0
  9
$DIMLIM
 70
     0
  9
$DIMTIH
 70
     1
  9
$DIMTOH
 70
     1
  9
$DIMSE1
 70
     0
  9
$DIMSE2
 70
     0
  9
$DIMTAD
 70
     0
  9
$DIMZIN
 70
     0
  9
$DIMBLK
  1

  9
$DIMASO
 70
     1
  9
$DIMSHO
 70
     1
  9
$DIMPOST
  1

  9
$DIMAPOST
  1

  9
$DIMALT
 70
     0
  9
$DIMALTD
 70
     2
  9
$DIMALTF
 40
25.4
  9
$DIMLFAC
 40
1.0
  9
$DIMTOFL
 70
     0
  9
$DIMTVP
 40
0.0
  9
$DIMTIX
 70
     0
  9
$DIMSOXD
 70
     0
  9
$DIMSAH
 70
     0
  9
$DIMBLK1
  1

  9
$DIMBLK2
  1

  9
$DIMSTYLE
  2
Standard
  9
$DIMCLRD
 70
     0
  9
$DIMCLRE
 70
     0
  9
$DIMCLRT
 70
     0
  9
$DIMTFAC
 40
1.0
  9
$DIMGAP
 40
0.09
  9
$DIMJUST
 70
     0
  9
$DIMSD1
 70
     0
  9
$DIMSD2
 70
     0
  9
$DIMTOLJ
 70
     1
  9
$DIMTZIN
 70
     0
  9
$DIMALTZ
 70
     0
  9
$DIMALTTZ
 70
     0
  9
$DIMUPT
 70
     0
  9
$DIMDEC
 70
     4
  9
$DIMTDEC
 70
     4
  9
$DIMALTU
 70
     2
  9
$DIMALTTD
 70
     2
  9
$DIMTXSTY
  7
Standard
  9
$DIMAUNIT
 70
     0
  9
$DIMADEC
 70
     0
  9
$DIMALTRND
 40
0.0
  9
$DIMAZIN
 70
     0
  9
$DIMDSEP
 70
    46
  9
$DIMATFIT
 70
     3
  9
$DIMFRAC
 70
     0
  9
$DIMLDRBLK
  1

  9
$DIMLUNIT
 70
     2
  9
$DIMLWD
 70
    -2
  9
$DIMLWE
 70
    -2
  9
$DIMTMOVE
 70
     0
  9
$LUNITS
 70
     2
  9
$LUPREC
 70
     4
  9
$SKETCHINC
 40
0.1
  9
$FILLETRAD
 40
0.0
  9
$AUNITS
 70
     0
  9
$AUPREC
 70
     0
  9
$MENU
  1
.
  9
$ELEVATION
 40
0.0
  9
$PELEVATION
 40
0.0
  9
$THICKNESS
 40
0.0
  9
$LIMCHECK
 70
     0
  9
$CHAMFERA
 40
0.0
  9
$CHAMFERB
 40
0.0
  9
$CHAMFERC
 40
0.0
  9
$CHAMFERD
 40
0.0
  9
$SKPOLY
 70
     0
  9
$TDCREATE
 40
2456518.352352824
  9
$TDUCREATE
 40
2456518.519019491
  9
$TDUPDATE
 40
2456518.352352824
  9
$TDUUPDATE
 40
2456518.519019491
  9
$TDINDWG
 40
0.0000197106
  9
$TDUSRTIMER
 40
0.0000197106
  9
$USRTIMER
 70
     1
  9
$ANGBASE
 50
0.0
  9
$ANGDIR
 70
     0
  9
$PDMODE
 70
     0
  9
$PDSIZE
 40
0.0
  9
$PLINEWID
 40
0.0
  9
$SPLFRAME
 70
     0
  9
$SPLINETYPE
 70
     6
  9
$SPLINESEGS
 70
     8
  9
$HANDSEED
  5
8FD
  9
$SURFTAB1
 70
     6
  9
$SURFTAB2
 70
     6
  9
$SURFTYPE
 70
     6
  9
$SURFU
 70
     6
  9
$SURFV
 70
     6
  9
$UCSBASE
  2

  9
$UCSNAME
  2

  9
$UCSORG
 10
0.0
 20
0.0
 30
0.0
  9
$UCSXDIR
 10
1.0
 20
0.0
 30
0.0
  9
$UCSYDIR
 10
0.0
 20
1.0
 30
0.0
  9
$UCSORTHOREF
  2

  9
$UCSORTHOVIEW
 70
     0
  9
$UCSORGTOP
 10
0.0
 20
0.0
 30
0.0
  9
$UCSORGBOTTOM
 10
0.0
 20
0.0
 30
0.0
  9
$UCSORGLEFT
 10
0.0
 20
0.0
 30
0.0
  9
$UCSORGRIGHT
 10
0.0
 20
0.0
 30
0.0
  9
$UCSORGFRONT
 10
0.0
 20
0.0
 30
0.0
  9
$UCSORGBACK
 10
0.0
 20
0.0
 30
0.0
  9
$PUCSBASE
  2

  9
$PUCSNAME
  2

  9
$PUCSORG
 10
0.0
 20
0.0
 30
0.0
  9
$PUCSXDIR
 10
1.0
 20
0.0
 30
0.0
  9
$PUCSYDIR
 10
0.0
 20
1.0
 30
0.0
  9
$PUCSORTHOREF
  2

  9
$PUCSORTHOVIEW
 70
     0
  9
$PUCSORGTOP
 10
0.0
 20
0.0
 30
0.0
  9
$PUCSORGBOTTOM
 10
0.0
 20
0.0
 30
0.0
  9
$PUCSORGLEFT
 10
0.0
 20
0.0
 30
0.0
  9
$PUCSORGRIGHT
 10
0.0
 20
0.0
 30
0.0
  9
$PUCSORGFRONT
 10
0.0
 20
0.0
 30
0.0
  9
$PUCSORGBACK
 10
0.0
 20
0.0
 30
0.0
  9
$USERI1
 70
     0
  9
$USERI2
 70
     0
  9
$USERI3
 70
     0
  9
$USERI4
 70
     0
  9
$USERI5
 70
     0
  9
$USERR1
 40
0.0
  9
$USERR2
 40
0.0
  9
$USERR3
 40
0.0
  9
$USERR4
 40
0.0
  9
$USERR5
 40
0.0
  9
$WORLDVIEW
 70
     1
  9
$SHADEDGE
 70
     3
  9
$SHADEDIF
 70
    70
  9
$TILEMODE
 70
     1
  9
$MAXACTVP
 70
    64
  9
$PINSBASE
 10
0.0
 20
0.0
 30
0.0
  9
$PLIMCHECK
 70
     0
  9
$PEXTMIN
 10
0.0
 20
0.0
 30
0.0
  9
$PEXTMAX
 10
279.4
 20
215.9
 30
0.0
  9
$PLIMMIN
 10
0.0
 20
0.0
  9
$PLIMMAX
 10
279.4
 20
215.9
  9
$UNITMODE
 70
     0
  9
$VISRETAIN
 70
     1
  9
$PLINEGEN
 70
     0
  9
$PSLTSCALE
 70
     1
  9
$TREEDEPTH
 70
  3020
  9
$CMLSTYLE
  2
Standard
  9
$CMLJUST
 70
     0
  9
$CMLSCALE
 40
1.0
  9
$PROXYGRAPHICS
 70
     1
  9
$MEASUREMENT
 70
     1
  9
$CELWEIGHT
370
    -1
  9
$ENDCAPS
280
     0
  9
$JOINSTYLE
280
     0
  9
$LWDISPLAY
290
     0
  9
$INSUNITS
 70
     4
  9
$HYPERLINKBASE
  1

  9
$STYLESHEET
  1

  9
$XEDIT
290
     1
  9
$CEPSNTYPE
380
     0
  9
$PSTYLEMODE
290
     1
  9
$FINGERPRINTGUID
  2
{1FA595E2-38FE-4ECB-8276-92EC747ED77F}
  9
$VERSIONGUID
  2
{FB14B294-AAE7-4A35-8095-77D4650A524F}
  9
$EXTNAMES
290
     1
  9
$PSVPSCALE
 40
0.0
  9
$OLESTARTUP
290
     0
  0
ENDSEC
  0
SECTION
  2
CLASSES
  0
CLASS
  1
ACDBDICTIONARYWDFLT
  2
AcDbDictionaryWithDefault
  3
ObjectDBX Classes
 90
        0
280
     0
281
     0
  0
CLASS
  1
MATERIAL
  2
AcDbMaterial
  3
ObjectDBX Classes
 90
     1153
280
     0
281
     0
  0
CLASS
  1
VISUALSTYLE
  2
AcDbVisualStyle
  3
ObjectDBX Classes
 90
     4095
280
     0
281
     0
  0
CLASS
  1
SCALE
  2
AcDbScale
  3
ObjectDBX Classes
 90
     1153
280
     0
281
     0
  0
CLASS
  1
TABLESTYLE
  2
AcDbTableStyle
  3
ObjectDBX Classes
 90
     4095
280
     0
281
     0
  0
CLASS
  1
MLEADERSTYLE
  2
AcDbMLeaderStyle
  3
ACDB_MLEADERSTYLE_CLASS
 90
     4095
280
     0
281
     0
  0
CLASS
  1
DICTIONARYVAR
  2
AcDbDictionaryVar
  3
ObjectDBX Classes
 90
        0
280
     0
281
     0
  0
CLASS
  1
CELLSTYLEMAP
  2
AcDbCellStyleMap
  3
ObjectDBX Classes
 90
     1152
280
     0
281
     0
  0
CLASS
  1
ACDBPLACEHOLDER
  2
AcDbPlaceHolder
  3
ObjectDBX Classes
 90
        0
280
     0
281
     0
  0
CLASS
  1
LAYOUT
  2
AcDbLayout
  3
ObjectDBX Classes
 90
        0
280
     0
281
     0
  0
ENDSEC
  0
SECTION
  2
TABLES
  0
TABLE
  2
VPORT
  5
8
330
0
100
AcDbSymbolTable
 70
     1
  0
VPORT
  5
57
330
8
100
AcDbSymbolTableRecord
100
AcDbViewportTableRecord
  2
*Active
 70
     0
 10
0.0
 20
0.0
 11
1.0
 21
1.0
 12
139.7
 22
107.95
 13
0.0
 23
0.0
 14
1.0
 24
1.0
 15
0.0
 25
0.0
 16
0.0
 26
0.0
 36
1.0
 17
0.0
 27
0.0
 37
0.0
 40
215.9
 41
1.294117647058823
 42
50.0
 43
0.0
 44
0.0
 50
0.0
 51
0.0
 71
     0
 72
   100
 73
     1
 74
     1
 75
     0
 76
     0
 77
     0
 78
     0
281
     0
 65
     1
110
0.0
120
0.0
130
0.0
111
1.0
121
0.0
131
0.0
112
0.0
122
1.0
132
0.0
 79
     0
146
0.0
  0
ENDTAB
  0
TABLE
  2
LTYPE
  5
5
330
0
100
AcDbSymbolTable
 70
    59
  0
LTYPE
  5
5B
330
5
100
AcDbSymbolTableRecord
100
AcDbLinetypeTableRecord
  2
ByBlock
 70
     0
  3

 72
    65
 73
     0
 40
0.0
  0
LTYPE
  5
5C
330
5
100
AcDbSymbolTableRecord
100
AcDbLinetypeTableRecord
  2
ByLayer
 70
     0
  3

 72
    65
 73
     0
 40
0.0
  0
LTYPE
  5
5D
330
5
100
AcDbSymbolTableRecord
100
AcDbLinetypeTableRecord
  2
Continuous
 70
     0
  3
Solid line
 72
    65
 73
     0
 40
0.0
  0
LTYPE
  5
74
330
5
100
AcDbSymbolTableRecord
100
AcDbLinetypeTableRecord
  2
BY_STANDARD
 70
     0
  3
By Standard ____________    ____    ____   _
 72
    65
 73
     6
 40
1.240299999999999
 49
0.6614
 74
     0
 49
-0.0827
 74
     0
 49
0.1654
 74
     0
 49
-0.0827
 74
     0
 49
0.1654
 74
     0
 49
-0.0827
 74
     0
  0
LTYPE
  5
75
330
5
100
AcDbSymbolTableRecord
100
AcDbLinetypeTableRecord
  2
CHAIN
 70
     0
  3
Chain ____ _ ____ _ ____ _ ____ _ ____ _ ____
 72
    65
 73
     4
 40
0.7087
 49
0.4724000000000001
 74
     0
 49
-0.0591
 74
     0
 49
0.1181
 74
     0
 49
-0.0591
 74
     0
  0
LTYPE
  5
76
330
5
100
AcDbSymbolTableRecord
100
AcDbLinetypeTableRecord
  2
DASH_DOT
 70
     0
  3
Dash dot __ . __ . __ . __ . __ . __ . __ . __
 72
    65
 73
     4
 40
0.37
 49
0.24
 74
     0
 49
-0.06
 74
     0
 49
0.01
 74
     0
 49
-0.06
 74
     0
  0
LTYPE
  5
77
330
5
100
AcDbSymbolTableRecord
100
AcDbLinetypeTableRecord
  2
DOUBLE_DASH_DOT
 70
     0
  3
Double-Dash Dot __ __ . __ __ . __ __ . __ _
 72
    65
 73
     6
 40
0.4398
 49
0.24
 74
     0
 49
-0.06
 74
     0
 49
0.0098
 74
     0
 49
-0.06
 74
     0
 49
0.01
 74
     0
 49
-0.06
 74
     0
  0
LTYPE
  5
78
330
5
100
AcDbSymbolTableRecord
100
AcDbLinetypeTableRecord
  2
DASH_TRIPLE_DOT
 70
     0
  3
Dash Triple-Dot _ . . . _ . . . _ . . . _
 72
    65
 73
     8
 40
0.51
 49
0.24
 74
     0
 49
-0.06
 74
     0
 49
0.01
 74
     0
 49
-0.06
 74
     0
 49
0.01
 74
     0
 49
-0.06
 74
     0
 49
0.01
 74
     0
 49
-0.06
 74
     0
  0
LTYPE
  5
79
330
5
100
AcDbSymbolTableRecord
100
AcDbLinetypeTableRecord
  2
DASHED
 70
     0
  3
Dashed __ __ __ __ __ __ __ __ __ __ __ __ __ _
 72
    65
 73
     2
 40
0.2067
 49
0.1654
 74
     0
 49
-0.0413
 74
     0
  0
LTYPE
  5
7A
330
5
100
AcDbSymbolTableRecord
100
AcDbLinetypeTableRecord
  2
DASH_DOUBLE_DOT
 70
     0
  3
Dash Double-Dot __ . . __ . . __ . . __ . .
 72
    65
 73
     6
 40
0.4398
 49
0.24
 74
     0
 49
-0.06
 74
     0
 49
0.0098
 74
     0
 49
-0.06
 74
     0
 49
0.01
 74
     0
 49
-0.06
 74
     0
  0
LTYPE
  5
7B
330
5
100
AcDbSymbolTableRecord
100
AcDbLinetypeTableRecord
  2
DASHED_SPACE
 70
     0
  3
Dashed Space __ __ __ __ __ __ __ __ __ __ __ _
 72
    65
 73
     2
 40
0.2067
 49
0.1654
 74
     0
 49
-0.0413
 74
     0
  0
LTYPE
  5
7C
330
5
100
AcDbSymbolTableRecord
100
AcDbLinetypeTableRecord
  2
DOTTED
 70
     0
  3
Dotted . . . . . . . . . . . . . . . . . . . . 
 72
    65
 73
     2
 40
0.0482
 49
0.0069
 74
     0
 49
-0.0413
 74
     0
  0
LTYPE
  5
7D
330
5
100
AcDbSymbolTableRecord
100
AcDbLinetypeTableRecord
  2
DOUBLE_DASH_CHAIN
 70
     0
  3
Double-Dash Chain ______  __  __  ______  __  _
 72
    65
 73
     6
 40
1.240299999999999
 49
0.6614
 74
     0
 49
-0.0827
 74
     0
 49
0.1654
 74
     0
 49
-0.0827
 74
     0
 49
0.1654
 74
     0
 49
-0.0827
 74
     0
  0
LTYPE
  5
7F
330
5
100
AcDbSymbolTableRecord
100
AcDbLinetypeTableRecord
  2
DOUBLE_DASH_DOUBLE_DOT
 70
     0
  3
Double-Dash Double-dot _ _ . . _ _ . . _
 72
    65
 73
     8
 40
0.7400000000000001
 49
0.24
 74
     0
 49
-0.06
 74
     0
 49
0.24
 74
     0
 49
-0.06
 74
     0
 49
0.01
 74
     0
 49
-0.06
 74
     0
 49
0.01
 74
     0
 49
-0.06
 74
     0
  0
LTYPE
  5
80
330
5
100
AcDbSymbolTableRecord
100
AcDbLinetypeTableRecord
  2
DOUBLE_DASH_TRIPLE_DOT
 70
     0
  3
Double Dash Triple Dot __ __ . . . __ __ . .
 72
    65
 73
    10
 40
0.8100000000000001
 49
0.24
 74
     0
 49
-0.06
 74
     0
 49
0.24
 74
     0
 49
-0.06
 74
     0
 49
0.01
 74
     0
 49
-0.06
 74
     0
 49
0.01
 74
     0
 49
-0.06
 74
     0
 49
0.01
 74
     0
 49
-0.06
 74
     0
  0
LTYPE
  5
81
330
5
100
AcDbSymbolTableRecord
100
AcDbLinetypeTableRecord
  2
LONG_DASH_DOTTED
 70
     0
  3
Long Dash Dotted ____ . ____ . ____ . ____ . _
 72
    65
 73
     4
 40
0.3543
 49
0.2362
 74
     0
 49
-0.0295
 74
     0
 49
0.0591
 74
     0
 49
-0.0295
 74
     0
  0
LTYPE
  5
82
330
5
100
AcDbSymbolTableRecord
100
AcDbLinetypeTableRecord
  2
LONG_DASH_DOUBLE_DOT
 70
     0
  3
Long Dash Double Dot ________  .  .  ________  
 72
    65
 73
     6
 40
0.6799999999999999
 49
0.48
 74
     0
 49
-0.06
 74
     0
 49
0.01
 74
     0
 49
-0.06
 74
     0
 49
0.01
 74
     0
 49
-0.06
 74
     0
  0
LTYPE
  5
83
330
5
100
AcDbSymbolTableRecord
100
AcDbLinetypeTableRecord
  2
LONG_DASH_TRIPLE_DOT
 70
     0
  3
Long Dash Triple Dot ____ ... ____ ... ____
 72
    65
 73
     8
 40
0.3689
 49
0.2362
 74
     0
 49
-0.0295
 74
     0
 49
0.0049
 74
     0
 49
-0.0295
 74
     0
 49
0.0049
 74
     0
 49
-0.0295
 74
     0
 49
0.0049
 74
     0
 49
-0.0295
 74
     0
  0
LTYPE
  5
84
330
5
100
AcDbSymbolTableRecord
100
AcDbLinetypeTableRecord
  2
BORDER
 70
     0
  3
Border __ __ . __ __ . __ __ . __ __ . __ __ .
 72
    65
 73
     6
 40
1.75
 49
0.5
 74
     0
 49
-0.25
 74
     0
 49
0.5
 74
     0
 49
-0.25
 74
     0
 49
0.0
 74
     0
 49
-0.25
 74
     0
  0
LTYPE
  5
85
330
5
100
AcDbSymbolTableRecord
100
AcDbLinetypeTableRecord
  2
BORDER2
 70
     0
  3
Border (.5x) __.__.__.__.__.__.__.__.__.__.__.
 72
    65
 73
     6
 40
0.875
 49
0.25
 74
     0
 49
-0.125
 74
     0
 49
0.25
 74
     0
 49
-0.125
 74
     0
 49
0.0
 74
     0
 49
-0.125
 74
     0
  0
LTYPE
  5
86
330
5
100
AcDbSymbolTableRecord
100
AcDbLinetypeTableRecord
  2
BORDERX2
 70
     0
  3
Border (2x) ____  ____  .  ____  ____  .  ___
 72
    65
 73
     6
 40
3.5
 49
1.0
 74
     0
 49
-0.5
 74
     0
 49
1.0
 74
     0
 49
-0.5
 74
     0
 49
0.0
 74
     0
 49
-0.5
 74
     0
  0
LTYPE
  5
87
330
5
100
AcDbSymbolTableRecord
100
AcDbLinetypeTableRecord
  2
CENTER
 70
     0
  3
Center ____ _ ____ _ ____ _ ____ _ ____ _ ____
 72
    65
 73
     4
 40
2.0
 49
1.25
 74
     0
 49
-0.25
 74
     0
 49
0.25
 74
     0
 49
-0.25
 74
     0
  0
LTYPE
  5
88
330
5
100
AcDbSymbolTableRecord
100
AcDbLinetypeTableRecord
  2
CENTER2
 70
     0
  3
Center (.5x) ___ _ ___ _ ___ _ ___ _ ___ _ ___
 72
    65
 73
     4
 40
1.125
 49
0.75
 74
     0
 49
-0.125
 74
     0
 49
0.125
 74
     0
 49
-0.125
 74
     0
  0
LTYPE
  5
89
330
5
100
AcDbSymbolTableRecord
100
AcDbLinetypeTableRecord
  2
CENTERX2
 70
     0
  3
Center (2x) ________  __  ________  __  _____
 72
    65
 73
     4
 40
4.0
 49
2.5
 74
     0
 49
-0.5
 74
     0
 49
0.5
 74
     0
 49
-0.5
 74
     0
  0
LTYPE
  5
8A
330
5
100
AcDbSymbolTableRecord
100
AcDbLinetypeTableRecord
  2
DASHDOT2
 70
     0
  3
Dash dot (.5x) _._._._._._._._._._._._._._._.
 72
    65
 73
     4
 40
0.5
 49
0.25
 74
     0
 49
-0.125
 74
     0
 49
0.0
 74
     0
 49
-0.125
 74
     0
  0
LTYPE
  5
8B
330
5
100
AcDbSymbolTableRecord
100
AcDbLinetypeTableRecord
  2
DASHDOTX2
 70
     0
  3
Dash dot (2x) ____  .  ____  .  ____  .  ___
 72
    65
 73
     4
 40
2.0
 49
1.0
 74
     0
 49
-0.5
 74
     0
 49
0.0
 74
     0
 49
-0.5
 74
     0
  0
LTYPE
  5
8D
330
5
100
AcDbSymbolTableRecord
100
AcDbLinetypeTableRecord
  2
DASHED2
 70
     0
  3
Dashed (.5x) _ _ _ _ _ _ _ _ _ _ _ _ _ _ _ _ _
 72
    65
 73
     2
 40
0.375
 49
0.25
 74
     0
 49
-0.125
 74
     0
  0
LTYPE
  5
8E
330
5
100
AcDbSymbolTableRecord
100
AcDbLinetypeTableRecord
  2
DASHEDX2
 70
     0
  3
Dashed (2x) ____  ____  ____  ____  ____  ___
 72
    65
 73
     2
 40
1.5
 49
1.0
 74
     0
 49
-0.5
 74
     0
  0
LTYPE
  5
8F
330
5
100
AcDbSymbolTableRecord
100
AcDbLinetypeTableRecord
  2
DIVIDE
 70
     0
  3
Divide ____ . . ____ . . ____ . . ____ . . ____
 72
    65
 73
     6
 40
1.25
 49
0.5
 74
     0
 49
-0.25
 74
     0
 49
0.0
 74
     0
 49
-0.25
 74
     0
 49
0.0
 74
     0
 49
-0.25
 74
     0
  0
LTYPE
  5
90
330
5
100
AcDbSymbolTableRecord
100
AcDbLinetypeTableRecord
  2
DIVIDE2
 70
     0
  3
Divide (.5x) __..__..__..__..__..__..__..__.._
 72
    65
 73
     6
 40
0.625
 49
0.25
 74
     0
 49
-0.125
 74
     0
 49
0.0
 74
     0
 49
-0.125
 74
     0
 49
0.0
 74
     0
 49
-0.125
 74
     0
  0
LTYPE
  5
91
330
5
100
AcDbSymbolTableRecord
100
AcDbLinetypeTableRecord
  2
DIVIDEX2
 70
     0
  3
Divide (2x) ________  .  .  ________  .  .  _
 72
    65
 73
     6
 40
2.5
 49
1.0
 74
     0
 49
-0.5
 74
     0
 49
0.0
 74
     0
 49
-0.5
 74
     0
 49
0.0
 74
     0
 49
-0.5
 74
     0
  0
LTYPE
  5
92
330
5
100
AcDbSymbolTableRecord
100
AcDbLinetypeTableRecord
  2
DOT
 70
     0
  3
Dot . . . . . . . . . . . . . . . . . . . . . .
 72
    65
 73
     2
 40
0.25
 49
0.0
 74
     0
 49
-0.25
 74
     0
  0
LTYPE
  5
93
330
5
100
AcDbSymbolTableRecord
100
AcDbLinetypeTableRecord
  2
DOT2
 70
     0
  3
Dot (.5x) .....................................
 72
    65
 73
     2
 40
0.125
 49
0.0
 74
     0
 49
-0.125
 74
     0
  0
LTYPE
  5
94
330
5
100
AcDbSymbolTableRecord
100
AcDbLinetypeTableRecord
  2
DOTX2
 70
     0
  3
Dot (2x) .  .  .  .  .  .  .  .  .  .  .  .  . 
 72
    65
 73
     2
 40
0.5
 49
0.0
 74
     0
 49
-0.5
 74
     0
  0
LTYPE
  5
95
330
5
100
AcDbSymbolTableRecord
100
AcDbLinetypeTableRecord
  2
HIDDEN
 70
     0
  3
Hidden __ __ __ __ __ __ __ __ __ __ __ __ __ _
 72
    65
 73
     2
 40
0.375
 49
0.25
 74
     0
 49
-0.125
 74
     0
  0
LTYPE
  5
96
330
5
100
AcDbSymbolTableRecord
100
AcDbLinetypeTableRecord
  2
HIDDEN2
 70
     0
  3
Hidden (.5x) _ _ _ _ _ _ _ _ _ _ _ _ _ _ _ _ _
 72
    65
 73
     2
 40
0.1875
 49
0.125
 74
     0
 49
-0.0625
 74
     0
  0
LTYPE
  5
97
330
5
100
AcDbSymbolTableRecord
100
AcDbLinetypeTableRecord
  2
HIDDENX2
 70
     0
  3
Hidden (2x) ____ ____ ____ ____ ____ ____ ____
 72
    65
 73
     2
 40
0.75
 49
0.5
 74
     0
 49
-0.25
 74
     0
  0
LTYPE
  5
98
330
5
100
AcDbSymbolTableRecord
100
AcDbLinetypeTableRecord
  2
PHANTOM
 70
     0
  3
Phantom ______  __  __  ______  __  __  ______
 72
    65
 73
     6
 40
2.5
 49
1.25
 74
     0
 49
-0.25
 74
     0
 49
0.25
 74
     0
 49
-0.25
 74
     0
 49
0.25
 74
     0
 49
-0.25
 74
     0
  0
LTYPE
  5
99
330
5
100
AcDbSymbolTableRecord
100
AcDbLinetypeTableRecord
  2
PHANTOM2
 70
     0
  3
Phantom (.5x) ___ _ _ ___ _ _ ___ _ _ ___ _ _
 72
    65
 73
     6
 40
1.25
 49
0.625
 74
     0
 49
-0.125
 74
     0
 49
0.125
 74
     0
 49
-0.125
 74
     0
 49
0.125
 74
     0
 49
-0.125
 74
     0
  0
LTYPE
  5
9A
330
5
100
AcDbSymbolTableRecord
100
AcDbLinetypeTableRecord
  2
PHANTOMX2
 70
     0
  3
Phantom (2x) ____________    ____    ____   _
 72
    65
 73
     6
 40
5.0
 49
2.5
 74
     0
 49
-0.5
 74
     0
 49
0.5
 74
     0
 49
-0.5
 74
     0
 49
0.5
 74
     0
 49
-0.5
 74
     0
  0
LTYPE
  5
9B
330
5
100
AcDbSymbolTableRecord
100
AcDbLinetypeTableRecord
  2
ACAD_ISO02W100
 70
     0
  3
ISO dash __ __ __ __ __ __ __ __ __ __ __ __ __
 72
    65
 73
     2
 40
0.59
 49
0.47
 74
     0
 49
-0.12
 74
     0
  0
LTYPE
  5
9C
330
5
100
AcDbSymbolTableRecord
100
AcDbLinetypeTableRecord
  2
ACAD_ISO03W100
 70
     0
  3
ISO dash space __    __    __    __    __    __
 72
    65
 73
     2
 40
1.179999999999999
 49
0.47
 74
     0
 49
-0.71
 74
     0
  0
LTYPE
  5
9D
330
5
100
AcDbSymbolTableRecord
100
AcDbLinetypeTableRecord
  2
ACAD_ISO04W100
 70
     0
  3
ISO long-dash dot ____ . ____ . ____ . ____ . _
 72
    65
 73
     4
 40
1.179999999999999
 49
0.9399999999999998
 74
     0
 49
-0.12
 74
     0
 49
0.0
 74
     0
 49
-0.12
 74
     0
  0
LTYPE
  5
9E
330
5
100
AcDbSymbolTableRecord
100
AcDbLinetypeTableRecord
  2
ACAD_ISO05W100
 70
     0
  3
ISO long-dash double-dot ____ .. ____ .. ____ .
 72
    65
 73
     6
 40
1.299999999999999
 49
0.9399999999999998
 74
     0
 49
-0.12
 74
     0
 49
0.0
 74
     0
 49
-0.12
 74
     0
 49
0.0
 74
     0
 49
-0.12
 74
     0
  0
LTYPE
  5
9F
330
5
100
AcDbSymbolTableRecord
100
AcDbLinetypeTableRecord
  2
ACAD_ISO06W100
 70
     0
  3
ISO long-dash triple-dot ____ ... ____ ... ____
 72
    65
 73
     8
 40
1.419999999999999
 49
0.9399999999999998
 74
     0
 49
-0.12
 74
     0
 49
0.0
 74
     0
 49
-0.12
 74
     0
 49
0.0
 74
     0
 49
-0.12
 74
     0
 49
0.0
 74
     0
 49
-0.12
 74
     0
  0
LTYPE
  5
A0
330
5
100
AcDbSymbolTableRecord
100
AcDbLinetypeTableRecord
  2
ACAD_ISO07W100
 70
     0
  3
ISO dot . . . . . . . . . . . . . . . . . . . .
 72
    65
 73
     2
 40
0.12
 49
0.0
 74
     0
 49
-0.12
 74
     0
  0
LTYPE
  5
A1
330
5
100
AcDbSymbolTableRecord
100
AcDbLinetypeTableRecord
  2
ACAD_ISO08W100
 70
     0
  3
ISO long-dash short-dash ____ __ ____ __ ____ _
 72
    65
 73
     4
 40
0.95
 49
0.47
 74
     0
 49
-0.12
 74
     0
 49
0.24
 74
     0
 49
-0.12
 74
     0
  0
LTYPE
  5
A2
330
5
100
AcDbSymbolTableRecord
100
AcDbLinetypeTableRecord
  2
ACAD_ISO09W100
 70
     0
  3
ISO long-dash double-short-dash ____ __ __ ____
 72
    65
 73
     6
 40
1.31
 49
0.47
 74
     0
 49
-0.12
 74
     0
 49
0.24
 74
     0
 49
-0.12
 74
     0
 49
0.24
 74
     0
 49
-0.12
 74
     0
  0
LTYPE
  5
A3
330
5
100
AcDbSymbolTableRecord
100
AcDbLinetypeTableRecord
  2
ACAD_ISO10W100
 70
     0
  3
ISO dash dot __ . __ . __ . __ . __ . __ . __ .
 72
    65
 73
     4
 40
0.71
 49
0.47
 74
     0
 49
-0.12
 74
     0
 49
0.0
 74
     0
 49
-0.12
 74
     0
  0
LTYPE
  5
A4
330
5
100
AcDbSymbolTableRecord
100
AcDbLinetypeTableRecord
  2
ACAD_ISO11W100
 70
     0
  3
ISO double-dash dot __ __ . __ __ . __ __ . __ 
 72
    65
 73
     6
 40
1.299999999999999
 49
0.47
 74
     0
 49
-0.12
 74
     0
 49
0.47
 74
     0
 49
-0.12
 74
     0
 49
0.0
 74
     0
 49
-0.12
 74
     0
  0
LTYPE
  5
A5
330
5
100
AcDbSymbolTableRecord
100
AcDbLinetypeTableRecord
  2
ACAD_ISO12W100
 70
     0
  3
ISO dash double-dot __ . . __ . . __ . . __ . .
 72
    65
 73
     6
 40
0.8299999999999998
 49
0.47
 74
     0
 49
-0.12
 74
     0
 49
0.0
 74
     0
 49
-0.12
 74
     0
 49
0.0
 74
     0
 49
-0.12
 74
     0
  0
LTYPE
  5
A6
330
5
100
AcDbSymbolTableRecord
100
AcDbLinetypeTableRecord
  2
ACAD_ISO13W100
 70
     0
  3
ISO double-dash double-dot __ __ . . __ __ . . 
 72
    65
 73
     8
 40
1.419999999999999
 49
0.47
 74
     0
 49
-0.12
 74
     0
 49
0.47
 74
     0
 49
-0.12
 74
     0
 49
0.0
 74
     0
 49
-0.12
 74
     0
 49
0.0
 74
     0
 49
-0.12
 74
     0
  0
LTYPE
  5
A7
330
5
100
AcDbSymbolTableRecord
100
AcDbLinetypeTableRecord
  2
ACAD_ISO14W100
 70
     0
  3
ISO dash triple-dot __ . . . __ . . . __ . . . 
 72
    65
 73
     8
 40
0.95
 49
0.47
 74
     0
 49
-0.12
 74
     0
 49
0.0
 74
     0
 49
-0.12
 74
     0
 49
0.0
 74
     0
 49
-0.12
 74
     0
 49
0.0
 74
     0
 49
-0.12
 74
     0
  0
LTYPE
  5
A8
330
5
100
AcDbSymbolTableRecord
100
AcDbLinetypeTableRecord
  2
ACAD_ISO15W100
 70
     0
  3
ISO double-dash triple-dot __ __ . . . __ __ . 
 72
    65
 73
    10
 40
1.539999999999999
 49
0.47
 74
     0
 49
-0.12
 74
     0
 49
0.47
 74
     0
 49
-0.12
 74
     0
 49
0.0
 74
     0
 49
-0.12
 74
     0
 49
0.0
 74
     0
 49
-0.12
 74
     0
 49
0.0
 74
     0
 49
-0.12
 74
     0
  0
LTYPE
  5
AB
330
5
100
AcDbSymbolTableRecord
100
AcDbLinetypeTableRecord
  2
FENCELINE1
 70
     0
  3
Fenceline circle ----0-----0----0-----0----0---
 72
    65
 73
     4
 40
1.45
 49
0.25
 74
     0
 49
-0.1
 74
     4
 75
   133
340
AA
 46
0.1
 50
0.0
 44
-0.1
 45
0.0
 49
-0.1
 74
     0
 49
1.0
 74
     0
  0
LTYPE
  5
AC
330
5
100
AcDbSymbolTableRecord
100
AcDbLinetypeTableRecord
  2
FENCELINE2
 70
     0
  3
Fenceline square ----[]-----[]----[]-----[]----
 72
    65
 73
     4
 40
1.45
 49
0.25
 74
     0
 49
-0.1
 74
     4
 75
   132
340
AA
 46
0.1
 50
0.0
 44
-0.1
 45
0.0
 49
-0.1
 74
     0
 49
1.0
 74
     0
  0
LTYPE
  5
AD
330
5
100
AcDbSymbolTableRecord
100
AcDbLinetypeTableRecord
  2
TRACKS
 70
     0
  3
Tracks -|-|-|-|-|-|-|-|-|-|-|-|-|-|-|-|-|-|-|-|
 72
    65
 73
     2
 40
0.3
 49
0.15
 74
     4
 75
   130
340
AA
 46
0.25
 50
0.0
 44
0.0
 45
0.0
 49
0.15
 74
     0
  0
LTYPE
  5
AE
330
5
100
AcDbSymbolTableRecord
100
AcDbLinetypeTableRecord
  2
BATTING
 70
     0
  3
Batting SSSSSSSSSSSSSSSSSSSSSSSSSSSSSSSSSSSSSSS
 72
    65
 73
     4
 40
0.4001000000000001
 49
0.0001
 74
     0
 49
-0.1
 74
     4
 75
   134
340
AA
 46
0.1
 50
0.0
 44
-0.1
 45
0.0
 49
-0.2
 74
     4
 75
   134
340
AA
 46
0.1
 50
180.0
 44
0.1
 45
0.0
 49
-0.1
 74
     0
  0
LTYPE
  5
AF
330
5
100
AcDbSymbolTableRecord
100
AcDbLinetypeTableRecord
  2
HOT_WATER_SUPPLY
 70
     0
  3
Hot water supply ---- HW ---- HW ---- HW ----
 72
    65
 73
     3
 40
0.9
 49
0.5
 74
     0
 49
-0.2
 74
     2
 75
     0
340
55
 46
0.1
 50
0.0
 44
-0.1
 45
-0.05
  9
HW
 49
-0.2
 74
     0
  0
LTYPE
  5
B0
330
5
100
AcDbSymbolTableRecord
100
AcDbLinetypeTableRecord
  2
GAS_LINE
 70
     0
  3
Gas line ----GAS----GAS----GAS----GAS----GAS---
 72
    65
 73
     3
 40
0.95
 49
0.5
 74
     0
 49
-0.2
 74
     2
 75
     0
340
55
 46
0.1
 50
0.0
 44
-0.1
 45
-0.05
  9
GAS
 49
-0.25
 74
     0
  0
LTYPE
  5
B1
330
5
100
AcDbSymbolTableRecord
100
AcDbLinetypeTableRecord
  2
ZIGZAG
 70
     0
  3
Zig zag /\/\/\/\/\/\/\/\/\/\/\/\/\/\/\/\/\/\/\/
 72
    65
 73
     4
 40
0.8001000000000001
 49
0.0001
 74
     0
 49
-0.2
 74
     4
 75
   131
340
AA
 46
0.2
 50
0.0
 44
-0.2
 45
0.0
 49
-0.4
 74
     4
 75
   131
340
AA
 46
0.2
 50
180.0
 44
0.2
 45
0.0
 49
-0.2
 74
     0
  0
ENDTAB
  0
TABLE
  2
LAYER
  5
2
330
0
100
AcDbSymbolTable
 70
    27
  0
LAYER
  5
54
330
2
100
AcDbSymbolTableRecord
100
AcDbLayerTableRecord
  2
0
 70
     0
 62
     7
  6
Continuous
370
    -3
390
F
  0
LAYER
  5
B5
330
2
100
AcDbSymbolTableRecord
100
AcDbLayerTableRecord
  2
Border {c3}
 70
     0
 62
     7
  6
Continuous
370
    70
390
F
  0
LAYER
  5
BA
330
2
100
AcDbSymbolTableRecord
100
AcDbLayerTableRecord
  2
Dimension {c3}
 70
     0
 62
     7
  6
Continuous
370
    25
390
F
  0
LAYER
  5
BB
330
2
100
AcDbSymbolTableRecord
100
AcDbLayerTableRecord
  2
Hatch {c3}
 70
     0
 62
     7
  6
Continuous
370
    18
390
F
  0
LAYER
  5
C3
330
2
100
AcDbSymbolTableRecord
100
AcDbLayerTableRecord
  2
Symbol {c3}
 70
     0
 62
     7
  6
Continuous
370
    25
390
F
  0
LAYER
  5
C4
330
2
100
AcDbSymbolTableRecord
100
AcDbLayerTableRecord
  2
Title {c3}
 70
     0
 62
     7
  6
Continuous
370
    50
390
F
  0
LAYER
  5
C6
330
2
100
AcDbSymbolTableRecord
100
AcDbLayerTableRecord
  2
Visible {c3}
 70
     0
 62
     7
  6
Continuous
370
    50
390
F
  0
LAYER
  5
C7
330
2
100
AcDbSymbolTableRecord
100
AcDbLayerTableRecord
  2
Visible Narrow {c3}
 70
     0
 62
     7
  6
Continuous
370
    35
390
F
  0
LAYER
  5
3BF
330
2
100
AcDbSymbolTableRecord
100
AcDbLayerTableRecord
  2
Defpoints
 70
     0
 62
     7
  6
Continuous
290
     0
370
    -3
390
F
  0
ENDTAB
  0
TABLE
  2
STYLE
  5
3
330
0
100
AcDbSymbolTable
 70
    12
  0
STYLE
  5
55
330
3
100
AcDbSymbolTableRecord
100
AcDbTextStyleTableRecord
  2
Standard
 70
     0
 40
0.0
 41
1.0
 50
0.0
 71
     0
 42
0.2
  3
TAHOMA.TTF
  4

1001
ACAD
1000
Tahoma
1071
      256
  0
STYLE
  5
5A
330
3
100
AcDbSymbolTableRecord
100
AcDbTextStyleTableRecord
  2
Annotative
 70
     0
 40
0.0
 41
1.0
 50
0.0
 71
     0
 42
0.2
  3
txt
  4

1001
AcadAnnotative
1000
AnnotativeData
1002
{
1070
     1
1070
     1
1002
}
  0
STYLE
  5
AA
330
3
100
AcDbSymbolTableRecord
100
AcDbTextStyleTableRecord
  2

 70
     1
 40
0.0
 41
1.0
 50
0.0
 71
     0
 42
0.2
  3
ltypeshp.shx
  4

  0
STYLE
  5
CB
330
3
100
AcDbSymbolTableRecord
100
AcDbTextStyleTableRecord
  2
Dim Text {c3}
 70
     0
 40
0.0
 41
1.0
 50
0.0
 71
     0
 42
0.2
  3
TAHOMA.TTF
  4

1001
ACAD
1000
Tahoma
1071
      256
  0
STYLE
  5
CC
330
3
100
AcDbSymbolTableRecord
100
AcDbTextStyleTableRecord
  2
Heading Text {c3}
 70
     0
 40
0.0
 41
1.0
 50
0.0
 71
     0
 42
0.2
  3
TAHOMA.TTF
  4

1001
ACAD
1000
Tahoma
1071
      256
  0
STYLE
  5
CD
330
3
100
AcDbSymbolTableRecord
100
AcDbTextStyleTableRecord
  2
Label Text {c3}
 70
     0
 40
0.0
 41
1.0
 50
0.0
 71
     0
 42
0.2
  3
TAHOMA.TTF
  4

1001
ACAD
1000
Tahoma
1071
      256
  0
STYLE
  5
CE
330
3
100
AcDbSymbolTableRecord
100
AcDbTextStyleTableRecord
  2
Note Text {c3}
 70
     0
 40
0.0
 41
1.0
 50
0.0
 71
     0
 42
0.2
  3
TAHOMA.TTF
  4

1001
ACAD
1000
Tahoma
1071
      256
  0
STYLE
  5
CF
330
3
100
AcDbSymbolTableRecord
100
AcDbTextStyleTableRecord
  2
ODim Text {c3}
 70
     0
 40
0.0
 41
1.0
 50
0.0
 71
     0
 42
0.2
  3
TAHOMA.TTF
  4

1001
ACAD
1000
Tahoma
1071
      256
  0
STYLE
  5
120
330
3
100
AcDbSymbolTableRecord
100
AcDbTextStyleTableRecord
  2
Note Text (ANSI)
 70
     0
 40
0.0
 41
1.0
 50
0.0
 71
     0
 42
0.2
  3
TAHOMA.TTF
  4

1001
ACAD
1000
Tahoma
1071
      256
  0
STYLE
  5
18B
330
3
100
AcDbSymbolTableRecord
100
AcDbTextStyleTableRecord
  2
Text Style9
 70
     0
 40
0.0
 41
1.0
 50
0.0
 71
     0
 42
0.2
  3
ARIAL.TTF
  4

1001
ACAD
1000
Arial
1071
      256
  0
STYLE
  5
190
330
3
100
AcDbSymbolTableRecord
100
AcDbTextStyleTableRecord
  2
Text Style39
 70
     0
 40
0.0
 41
1.0
 50
0.0
 71
     0
 42
0.2
  3
TAHOMA.TTF
  4

1001
ACAD
1000
Tahoma
1071
      256
  0
STYLE
  5
197
330
3
100
AcDbSymbolTableRecord
100
AcDbTextStyleTableRecord
  2
Text Style76
 70
     0
 40
0.0
 41
1.0
 50
0.0
 71
     0
 42
0.2
  3
TAHOMA.TTF
  4

1001
ACAD
1000
Tahoma
1071
      256
  0
ENDTAB
  0
TABLE
  2
VIEW
  5
6
330
0
100
AcDbSymbolTable
 70
     0
  0
ENDTAB
  0
TABLE
  2
UCS
  5
7
330
0
100
AcDbSymbolTable
 70
     0
  0
ENDTAB
  0
TABLE
  2
APPID
  5
9
330
0
100
AcDbSymbolTable
 70
     4
  0
APPID
  5
56
330
9
100
AcDbSymbolTableRecord
100
AcDbRegAppTableRecord
  2
ACAD
 70
     0
  0
APPID
  5
5E
330
9
100
AcDbSymbolTableRecord
100
AcDbRegAppTableRecord
  2
AcadAnnotative
 70
     0
  0
APPID
  5
18F
330
9
100
AcDbSymbolTableRecord
100
AcDbRegAppTableRecord
  2
AcadAnnoPO
 70
     0
  0
APPID
  5
8F6
330
9
100
AcDbSymbolTableRecord
100
AcDbRegAppTableRecord
  2
ACAD_MLEADERVER
 70
     0
  0
ENDTAB
  0
TABLE
  2
DIMSTYLE
  5
A
330
0
100
AcDbSymbolTable
 70
     9
100
AcDbDimStyleTable
 71
     2
340
D2
340
58
  0
DIMSTYLE
105
58
330
A
100
AcDbSymbolTableRecord
100
AcDbDimStyleTableRecord
  2
Standard
 70
     0
340
55
  0
DIMSTYLE
105
59
330
A
100
AcDbSymbolTableRecord
100
AcDbDimStyleTableRecord
  2
Annotative
 70
     0
340
55
1001
AcadAnnotative
1000
AnnotativeData
1002
{
1070
     1
1070
     1
1002
}
  0
DIMSTYLE
105
D0
330
A
100
AcDbSymbolTableRecord
100
AcDbDimStyleTableRecord
  2
mm[in] {c3 - mm[in]}
 70
     0
 40
0.5
 41
2.5
 42
1.600199999999999
 43
5.999999999999999
 44
3.174999999999999
 45
0.00000001
 46
10.0
 73
     0
 78
     4
 79
     1
140
4.57200002670288
143
0.03937
147
0.8
170
     1
171
     3
176
   176
177
   176
178
   176
179
     1
271
     2
272
     2
274
     3
284
     4
285
     4
286
     4
340
CB
371
    -1
372
    -1
  0
DIMSTYLE
105
D1
330
A
100
AcDbSymbolTableRecord
100
AcDbDimStyleTableRecord
  2
mm[in] {c3 - mm[in]}$7
 70
     0
 40
0.5
 41
2.5
 42
1.600199999999999
 43
5.999999999999999
 44
3.174999999999999
 45
0.00000001
 46
10.0
 73
     0
 78
     4
 79
     1
140
4.57200002670288
143
0.03937
147
0.8
170
     1
171
     3
176
   176
177
   176
178
   176
179
     1
271
     2
272
     2
274
     3
284
     4
285
     4
286
     4
340
CB
371
    -1
372
    -1
  0
DIMSTYLE
105
D2
102
{ACAD_REACTORS
330
3BE
330
4E9
330
633
330
756
102
}
330
A
100
AcDbSymbolTableRecord
100
AcDbDimStyleTableRecord
  2
OD mm[in] {c3 - mm[in]}
 70
     0
  3
 mm\X
  4
 in
 40
0.5
 41
2.5
 42
1.600199999999999
 43
5.999999999999999
 44
3.174999999999999
 45
0.00000001
 46
10.0
 73
     0
 78
     4
 79
     1
140
4.57200002670288
143
0.03937
146
1.74978126712069
147
0.8
170
     1
171
     6
176
   176
177
   176
178
   176
179
     1
271
     1
272
     2
273
     7
274
     6
284
     4
286
     4
340
CB
371
    -1
372
    -1
  0
DIMSTYLE
105
D3
330
A
100
AcDbSymbolTableRecord
100
AcDbDimStyleTableRecord
  2
OD mm[in] {c3 - mm[in]}$7
 70
     0
  3
 mm\X
  4
 in
 40
0.5
 41
2.5
 42
1.600199999999999
 43
5.999999999999999
 44
3.174999999999999
 45
0.00000001
 46
10.0
 73
     0
 78
     4
 79
     1
140
4.57200002670288
143
0.03937
146
1.74978126712069
147
0.8
170
     1
171
     6
176
   176
177
   176
178
   176
179
     1
271
     1
272
     2
273
     7
274
     6
284
     4
286
     4
340
CB
371
    -1
372
    -1
  0
DIMSTYLE
105
D4
330
A
100
AcDbSymbolTableRecord
100
AcDbDimStyleTableRecord
  2
Alternate {c3}
 70
     0
 40
0.5
 41
2.489200115203857
340
55
342
D5
  0
DIMSTYLE
105
E6
330
A
100
AcDbSymbolTableRecord
100
AcDbDimStyleTableRecord
  2
Datum {c3}
 70
     0
 40
0.5
 41
2.489200115203857
340
55
342
D5
  0
DIMSTYLE
105
F5
330
A
100
AcDbSymbolTableRecord
100
AcDbDimStyleTableRecord
  2
Large {c3}
 70
     0
 40
0.5
 41
4.978400230407714
340
55
342
D5
  0
ENDTAB
  0
TABLE
  2
BLOCK_RECORD
  5
1
330
0
100
AcDbSymbolTable
 70
    11
  0
BLOCK_RECORD
  5
6C
330
1
100
AcDbSymbolTableRecord
100
AcDbBlockTableRecord
  2
*Model_Space
340
6F
  0
BLOCK_RECORD
  5
68
330
1
100
AcDbSymbolTableRecord
100
AcDbBlockTableRecord
  2
*Paper_Space
340
6B
  0
BLOCK_RECORD
  5
70
330
1
100
AcDbSymbolTableRecord
100
AcDbBlockTableRecord
  2
*Paper_Space0
340
73
  0
BLOCK_RECORD
  5
D5
330
1
100
AcDbSymbolTableRecord
100
AcDbBlockTableRecord
  2
_Closed
340
0
  0
BLOCK_RECORD
  5
DC
330
1
100
AcDbSymbolTableRecord
100
AcDbBlockTableRecord
  2
DatumFilled45
340
0
  0
BLOCK_RECORD
  5
E7
330
1
100
AcDbSymbolTableRecord
100
AcDbBlockTableRecord
  2
Filled-1
340
0
  0
BLOCK_RECORD
  5
F6
330
1
100
AcDbSymbolTableRecord
100
AcDbBlockTableRecord
  2
Borders c3 - Border
340
0
102
{BLKREFS
331
136
102
}
  0
BLOCK_RECORD
  5
137
330
1
100
AcDbSymbolTableRecord
100
AcDbBlockTableRecord
  2
Title Blocks c3-mm[in] (C)
340
0
102
{BLKREFS
331
199
102
}
  0
BLOCK_RECORD
  5
3C0
330
1
100
AcDbSymbolTableRecord
100
AcDbBlockTableRecord
  2
*D6
340
0
  0
BLOCK_RECORD
  5
4EA
330
1
100
AcDbSymbolTableRecord
100
AcDbBlockTableRecord
  2
*D7
340
0
  0
BLOCK_RECORD
  5
60C
330
1
100
AcDbSymbolTableRecord
100
AcDbBlockTableRecord
  2
Revision History
340
0
102
{BLKREFS
331
632
102
}
  0
BLOCK_RECORD
  5
634
330
1
100
AcDbSymbolTableRecord
100
AcDbBlockTableRecord
  2
*D9
340
0
  0
BLOCK_RECORD
  5
757
330
1
100
AcDbSymbolTableRecord
100
AcDbBlockTableRecord
  2
*D10
340
0
  0
ENDTAB
  0
ENDSEC
  0
SECTION
  2
BLOCKS
  0
BLOCK
  5
6D
330
6C
100
AcDbEntity
  8
0
100
AcDbBlockBegin
  2
*Model_Space
 70
     0
 10
0.0
 20
0.0
 30
0.0
  3
*Model_Space
  1

  0
ENDBLK
  5
6E
330
6C
100
AcDbEntity
  8
0
100
AcDbBlockEnd
  0
BLOCK
  5
69
330
68
100
AcDbEntity
 67
     1
  8
0
100
AcDbBlockBegin
  2
*Paper_Space
 70
     0
 10
0.0
 20
0.0
 30
0.0
  3
*Paper_Space
  1

  0
ENDBLK
  5
6A
330
68
100
AcDbEntity
 67
     1
  8
0
100
AcDbBlockEnd
  0
BLOCK
  5
71
330
70
100
AcDbEntity
 67
     1
  8
0
100
AcDbBlockBegin
  2
*Paper_Space0
 70
     0
 10
0.0
 20
0.0
 30
0.0
  3
*Paper_Space0
  1

  0
ENDBLK
  5
72
330
70
100
AcDbEntity
 67
     1
  8
0
100
AcDbBlockEnd
  0
BLOCK
  5
DA
330
D5
100
AcDbEntity
  8
0
100
AcDbBlockBegin
  2
_Closed
 70
     0
 10
0.0
 20
0.0
 30
0.0
  3
_Closed
  1

  0
LINE
  5
D6
330
D5
100
AcDbEntity
  8
0
  6
ByBlock
 62
     0
370
    -2
100
AcDbLine
 10
-1.0
 20
0.1666666666666666
 30
0.0
 11
0.0
 21
0.0
 31
0.0
  0
LINE
  5
D7
330
D5
100
AcDbEntity
  8
0
  6
ByBlock
 62
     0
370
    -2
100
AcDbLine
 10
0.0
 20
0.0
 30
0.0
 11
-1.0
 21
-0.1666666666666666
 31
0.0
  0
LINE
  5
D8
330
D5
100
AcDbEntity
  8
0
  6
ByBlock
 62
     0
370
    -2
100
AcDbLine
 10
-1.0
 20
0.1666666666666666
 30
0.0
 11
-1.0
 21
-0.1666666666666666
 31
0.0
  0
LINE
  5
D9
330
D5
100
AcDbEntity
  8
0
  6
ByBlock
 62
     0
370
    -2
100
AcDbLine
 10
0.0
 20
0.0
 30
0.0
 11
-1.0
 21
0.0
 31
0.0
  0
ENDBLK
  5
DB
330
D5
100
AcDbEntity
  8
0
100
AcDbBlockEnd
  0
BLOCK
  5
DD
330
DC
100
AcDbEntity
  8
0
100
AcDbBlockBegin
  2
DatumFilled45
 70
     0
 10
0.0
 20
0.0
 30
0.0
  3
DatumFilled45
  1

  0
POLYLINE
  5
DF
330
DC
100
AcDbEntity
  8
0
 62
     0
100
AcDb2dPolyline
 66
     1
 10
0.0
 20
0.0
 30
0.0
 70
   128
  0
VERTEX
  5
E0
330
DF
100
AcDbEntity
  8
0
 62
     0
100
AcDbVertex
100
AcDb2dVertex
 10
0.0
 20
1.0
 30
0.0
  0
VERTEX
  5
E1
330
DF
100
AcDbEntity
  8
0
 62
     0
100
AcDbVertex
100
AcDb2dVertex
 10
0.0
 20
-1.0
 30
0.0
  0
VERTEX
  5
E3
330
DF
100
AcDbEntity
  8
0
 62
     0
100
AcDbVertex
100
AcDb2dVertex
 10
-1.0
 20
0.0
 30
0.0
  0
VERTEX
  5
E4
330
DF
100
AcDbEntity
  8
0
 62
     0
100
AcDbVertex
100
AcDb2dVertex
 10
0.0
 20
1.0
 30
0.0
  0
SEQEND
  5
E2
330
DF
100
AcDbEntity
  8
0
 62
     0
  0
SOLID
  5
E5
330
DC
100
AcDbEntity
  8
0
 62
     0
100
AcDbTrace
 10
0.0
 20
1.0
 30
0.0
 11
0.0
 21
-1.0
 31
0.0
 12
-1.0
 22
0.0
 32
0.0
 13
0.0
 23
1.0
 33
0.0
  0
ENDBLK
  5
DE
330
DC
100
AcDbEntity
  8
0
100
AcDbBlockEnd
  0
BLOCK
  5
E8
330
E7
100
AcDbEntity
  8
0
100
AcDbBlockBegin
  2
Filled-1
 70
     0
 10
0.0
 20
0.0
 30
0.0
  3
Filled-1
  1

  0
LINE
  5
EA
330
E7
100
AcDbEntity
  8
0
 62
     0
100
AcDbLine
 10
-1.0
 20
0.0
 30
0.0
 11
0.0
 21
0.0
 31
0.0
  0
POLYLINE
  5
EB
330
E7
100
AcDbEntity
  8
0
 62
     0
100
AcDb2dPolyline
 66
     1
 10
0.0
 20
0.0
 30
0.0
 70
   128
  0
VERTEX
  5
EC
330
EB
100
AcDbEntity
  8
0
 62
     0
100
AcDbVertex
100
AcDb2dVertex
 10
-1.0
 20
-0.0994897959183674
 30
0.0
  0
VERTEX
  5
ED
330
EB
100
AcDbEntity
  8
0
 62
     0
100
AcDbVertex
100
AcDb2dVertex
 10
0.0
 20
0.0
 30
0.0
  0
VERTEX
  5
EF
330
EB
100
AcDbEntity
  8
0
 62
     0
100
AcDbVertex
100
AcDb2dVertex
 10
-1.0
 20
0.0994897959183674
 30
0.0
  0
VERTEX
  5
F0
330
EB
100
AcDbEntity
  8
0
 62
     0
100
AcDbVertex
100
AcDb2dVertex
 10
-1.0
 20
-0.0994897959183674
 30
0.0
  0
SEQEND
  5
EE
330
EB
100
AcDbEntity
  8
0
 62
     0
  0
SOLID
  5
F1
330
E7
100
AcDbEntity
  8
0
 62
     0
100
AcDbTrace
 10
-1.0
 20
-0.0994897959183674
 30
0.0
 11
0.0
 21
0.0
 31
0.0
 12
-1.0
 22
0.0994897959183674
 32
0.0
 13
-1.0
 23
-0.0994897959183674
 33
0.0
  0
LINE
  5
F2
330
E7
100
AcDbEntity
  8
0
 62
     0
100
AcDbLine
 10
-1.0
 20
-0.0994897959183674
 30
0.0
 11
0.0
 21
0.0
 31
0.0
  0
LINE
  5
F3
330
E7
100
AcDbEntity
  8
0
 62
     0
100
AcDbLine
 10
0.0
 20
0.0
 30
0.0
 11
-1.0
 21
0.0994897959183674
 31
0.0
  0
LINE
  5
F4
330
E7
100
AcDbEntity
  8
0
 62
     0
100
AcDbLine
 10
-1.0
 20
0.0994897959183674
 30
0.0
 11
-1.0
 21
-0.0994897959183674
 31
0.0
  0
ENDBLK
  5
E9
330
E7
100
AcDbEntity
  8
0
100
AcDbBlockEnd
  0
BLOCK
  5
F7
330
F6
100
AcDbEntity
  8
0
100
AcDbBlockBegin
  2
Borders c3 - Border
 70
     0
 10
0.0
 20
0.0
 30
0.0
  3
Borders c3 - Border
  1

  0
POLYLINE
  5
F9
330
F6
100
AcDbEntity
  8
Border {c3}
100
AcDb2dPolyline
 66
     1
 10
0.0
 20
0.0
 30
0.0
 70
   128
  0
VERTEX
  5
FA
330
F9
100
AcDbEntity
  8
Border {c3}
100
AcDbVertex
100
AcDb2dVertex
 10
19.0499997138977
 20
12.69999980926513
 30
0.0
  0
VERTEX
  5
FB
330
F9
100
AcDbEntity
  8
Border {c3}
100
AcDbVertex
100
AcDb2dVertex
 10
19.0499997138977
 20
419.099998474121
 30
0.0
  0
VERTEX
  5
FD
330
F9
100
AcDbEntity
  8
Border {c3}
100
AcDbVertex
100
AcDb2dVertex
 10
539.7499847412109
 20
419.099998474121
 30
0.0
  0
VERTEX
  5
FE
330
F9
100
AcDbEntity
  8
Border {c3}
100
AcDbVertex
100
AcDb2dVertex
 10
539.7499847412109
 20
12.69999980926513
 30
0.0
  0
VERTEX
  5
FF
330
F9
100
AcDbEntity
  8
Border {c3}
100
AcDbVertex
100
AcDb2dVertex
 10
19.0499997138977
 20
12.69999980926513
 30
0.0
  0
SEQEND
  5
FC
330
F9
100
AcDbEntity
  8
Border {c3}
  0
POLYLINE
  5
100
330
F6
100
AcDbEntity
  8
Border {c3}
100
AcDb2dPolyline
 66
     1
 10
0.0
 20
0.0
 30
0.0
 70
   128
  0
VERTEX
  5
101
330
100
100
AcDbEntity
  8
Border {c3}
100
AcDbVertex
100
AcDb2dVertex
 10
279.4000053405762
 20
6.349999904632568
 30
0.0
  0
VERTEX
  5
102
330
100
100
AcDbEntity
  8
Border {c3}
100
AcDbVertex
100
AcDb2dVertex
 10
279.4000053405762
 20
12.69999980926513
 30
0.0
  0
VERTEX
  5
104
330
100
100
AcDbEntity
  8
Border {c3}
100
AcDbVertex
100
AcDb2dVertex
 10
277.2002983093262
 20
8.889999985694885
 30
0.0
  0
VERTEX
  5
105
330
100
100
AcDbEntity
  8
Border {c3}
100
AcDbVertex
100
AcDb2dVertex
 10
281.5997123718262
 20
8.889999985694885
 30
0.0
  0
VERTEX
  5
106
330
100
100
AcDbEntity
  8
Border {c3}
100
AcDbVertex
100
AcDb2dVertex
 10
279.4000053405762
 20
12.69999980926513
 30
0.0
  0
SEQEND
  5
103
330
100
100
AcDbEntity
  8
Border {c3}
  0
POLYLINE
  5
107
330
F6
100
AcDbEntity
  8
Border {c3}
100
AcDb2dPolyline
 66
     1
 10
0.0
 20
0.0
 30
0.0
 70
   128
  0
VERTEX
  5
108
330
107
100
AcDbEntity
  8
Border {c3}
100
AcDbVertex
100
AcDb2dVertex
 10
279.4000053405762
 20
425.4499816894531
 30
0.0
  0
VERTEX
  5
109
330
107
100
AcDbEntity
  8
Border {c3}
100
AcDbVertex
100
AcDb2dVertex
 10
279.4000053405762
 20
419.099998474121
 30
0.0
  0
VERTEX
  5
10B
330
107
100
AcDbEntity
  8
Border {c3}
100
AcDbVertex
100
AcDb2dVertex
 10
277.2002983093262
 20
422.9100036621093
 30
0.0
  0
VERTEX
  5
10C
330
107
100
AcDbEntity
  8
Border {c3}
100
AcDbVertex
100
AcDb2dVertex
 10
281.5997123718262
 20
422.9100036621093
 30
0.0
  0
VERTEX
  5
10D
330
107
100
AcDbEntity
  8
Border {c3}
100
AcDbVertex
100
AcDb2dVertex
 10
279.4000053405762
 20
419.099998474121
 30
0.0
  0
SEQEND
  5
10A
330
107
100
AcDbEntity
  8
Border {c3}
  0
POLYLINE
  5
10E
330
F6
100
AcDbEntity
  8
Border {c3}
100
AcDb2dPolyline
 66
     1
 10
0.0
 20
0.0
 30
0.0
 70
   128
  0
VERTEX
  5
10F
330
10E
100
AcDbEntity
  8
Border {c3}
100
AcDbVertex
100
AcDb2dVertex
 10
12.69999980926513
 20
215.9000015258789
 30
0.0
  0
VERTEX
  5
110
330
10E
100
AcDbEntity
  8
Border {c3}
100
AcDbVertex
100
AcDb2dVertex
 10
19.0499997138977
 20
215.9000015258789
 30
0.0
  0
VERTEX
  5
112
330
10E
100
AcDbEntity
  8
Border {c3}
100
AcDbVertex
100
AcDb2dVertex
 10
15.2400004863739
 20
218.0997085571289
 30
0.0
  0
VERTEX
  5
113
330
10E
100
AcDbEntity
  8
Border {c3}
100
AcDbVertex
100
AcDb2dVertex
 10
15.2400004863739
 20
213.7002944946289
 30
0.0
  0
VERTEX
  5
114
330
10E
100
AcDbEntity
  8
Border {c3}
100
AcDbVertex
100
AcDb2dVertex
 10
19.0499997138977
 20
215.9000015258789
 30
0.0
  0
SEQEND
  5
111
330
10E
100
AcDbEntity
  8
Border {c3}
  0
POLYLINE
  5
115
330
F6
100
AcDbEntity
  8
Border {c3}
100
AcDb2dPolyline
 66
     1
 10
0.0
 20
0.0
 30
0.0
 70
   128
  0
VERTEX
  5
116
330
115
100
AcDbEntity
  8
Border {c3}
100
AcDbVertex
100
AcDb2dVertex
 10
546.1000061035156
 20
215.9000015258789
 30
0.0
  0
VERTEX
  5
117
330
115
100
AcDbEntity
  8
Border {c3}
100
AcDbVertex
100
AcDb2dVertex
 10
539.7499847412109
 20
215.9000015258789
 30
0.0
  0
VERTEX
  5
119
330
115
100
AcDbEntity
  8
Border {c3}
100
AcDbVertex
100
AcDb2dVertex
 10
543.5599899291992
 20
218.0997085571289
 30
0.0
  0
VERTEX
  5
11A
330
115
100
AcDbEntity
  8
Border {c3}
100
AcDbVertex
100
AcDb2dVertex
 10
543.5599899291992
 20
213.7002944946289
 30
0.0
  0
VERTEX
  5
11B
330
115
100
AcDbEntity
  8
Border {c3}
100
AcDbVertex
100
AcDb2dVertex
 10
539.7499847412109
 20
215.9000015258789
 30
0.0
  0
SEQEND
  5
118
330
115
100
AcDbEntity
  8
Border {c3}
  0
LINE
  5
11C
330
F6
100
AcDbEntity
  8
Border {c3}
100
AcDbLine
 10
139.7000026702881
 20
12.69999980926513
 30
0.0
 11
139.7000026702881
 21
8.636000156402587
 31
0.0
  0
LINE
  5
11D
330
F6
100
AcDbEntity
  8
Border {c3}
100
AcDbLine
 10
139.7000026702881
 20
419.099998474121
 30
0.0
 11
139.7000026702881
 21
423.1639862060546
 31
0.0
  0
LINE
  5
11E
330
F6
100
AcDbEntity
  8
Border {c3}
100
AcDbLine
 10
419.099998474121
 20
12.69999980926513
 30
0.0
 11
419.099998474121
 21
8.636000156402587
 31
0.0
  0
LINE
  5
11F
330
F6
100
AcDbEntity
  8
Border {c3}
100
AcDbLine
 10
419.099998474121
 20
419.099998474121
 30
0.0
 11
419.099998474121
 21
423.1639862060546
 31
0.0
  0
MTEXT
  5
121
330
F6
100
AcDbEntity
  8
Border {c3}
100
AcDbMText
 10
488.2623644919561
 20
420.1159999999999
 30
0.0
 40
3.048000037670135
 41
0.0
 71
     7
 72
     1
  1
1
  7
Note Text (ANSI)
 73
     1
 44
1.0
1001
ACAD
1000
MTEXTBEGIN
1070
    73
1070
     1
1070
    44
1040
1.0
1070
    74
1070
     0
1000
MTEXTEND
  0
MTEXT
  5
123
330
F6
100
AcDbEntity
  8
Border {c3}
100
AcDbMText
 10
488.2623644919561
 20
8.635999962329863
 30
0.0
 40
3.048000037670135
 41
0.0
 71
     7
 72
     1
  1
1
  7
Note Text (ANSI)
 73
     1
 44
1.0
1001
ACAD
1000
MTEXTBEGIN
1070
    73
1070
     1
1070
    44
1040
1.0
1070
    74
1070
     0
1000
MTEXTEND
  0
MTEXT
  5
124
330
F6
100
AcDbEntity
  8
Border {c3}
100
AcDbMText
 10
348.3258390835278
 20
420.1159999999999
 30
0.0
 40
3.048000037670135
 41
0.0
 71
     7
 72
     1
  1
2
  7
Note Text (ANSI)
 73
     1
 44
1.0
1001
ACAD
1000
MTEXTBEGIN
1070
    73
1070
     1
1070
    44
1040
1.0
1070
    74
1070
     0
1000
MTEXTEND
  0
MTEXT
  5
125
330
F6
100
AcDbEntity
  8
Border {c3}
100
AcDbMText
 10
348.3258390835278
 20
8.635999962329863
 30
0.0
 40
3.048000037670135
 41
0.0
 71
     7
 72
     1
  1
2
  7
Note Text (ANSI)
 73
     1
 44
1.0
1001
ACAD
1000
MTEXTBEGIN
1070
    73
1070
     1
1070
    44
1040
1.0
1070
    74
1070
     0
1000
MTEXTEND
  0
MTEXT
  5
126
330
F6
100
AcDbEntity
  8
Border {c3}
100
AcDbMText
 10
208.6014550208033
 20
420.0517795808464
 30
0.0
 40
3.048000037670135
 41
0.0
 71
     7
 72
     1
  1
3
  7
Note Text (ANSI)
 73
     1
 44
1.0
1001
ACAD
1000
MTEXTBEGIN
1070
    73
1070
     1
1070
    44
1040
1.0
1070
    74
1070
     0
1000
MTEXTEND
  0
MTEXT
  5
127
330
F6
100
AcDbEntity
  8
Border {c3}
100
AcDbMText
 10
208.6014550208033
 20
8.571779543176292
 30
0.0
 40
3.048000037670135
 41
0.0
 71
     7
 72
     1
  1
3
  7
Note Text (ANSI)
 73
     1
 44
1.0
1001
ACAD
1000
MTEXTBEGIN
1070
    73
1070
     1
1070
    44
1040
1.0
1070
    74
1070
     0
1000
MTEXTEND
  0
MTEXT
  5
128
330
F6
100
AcDbEntity
  8
Border {c3}
100
AcDbMText
 10
68.78684992599783
 20
420.1159999999999
 30
0.0
 40
3.048000037670135
 41
0.0
 71
     7
 72
     1
  1
4
  7
Note Text (ANSI)
 73
     1
 44
1.0
1001
ACAD
1000
MTEXTBEGIN
1070
    73
1070
     1
1070
    44
1040
1.0
1070
    74
1070
     0
1000
MTEXTEND
  0
MTEXT
  5
129
330
F6
100
AcDbEntity
  8
Border {c3}
100
AcDbMText
 10
68.78684992599783
 20
8.635999962329863
 30
0.0
 40
3.048000037670135
 41
0.0
 71
     7
 72
     1
  1
4
  7
Note Text (ANSI)
 73
     1
 44
1.0
1001
ACAD
1000
MTEXTBEGIN
1070
    73
1070
     1
1070
    44
1040
1.0
1070
    74
1070
     0
1000
MTEXTEND
  0
LINE
  5
12A
330
F6
100
AcDbEntity
  8
Border {c3}
100
AcDbLine
 10
19.0499997138977
 20
107.9500007629394
 30
0.0
 11
14.98600006103515
 21
107.9500007629394
 31
0.0
  0
LINE
  5
12B
330
F6
100
AcDbEntity
  8
Border {c3}
100
AcDbLine
 10
539.7499847412109
 20
107.9500007629394
 30
0.0
 11
543.8140106201172
 21
107.9500007629394
 31
0.0
  0
LINE
  5
12C
330
F6
100
AcDbEntity
  8
Border {c3}
100
AcDbLine
 10
19.0499997138977
 20
323.849983215332
 30
0.0
 11
14.98600006103515
 21
323.849983215332
 31
0.0
  0
LINE
  5
12D
330
F6
100
AcDbEntity
  8
Border {c3}
100
AcDbLine
 10
539.7499847412109
 20
323.849983215332
 30
0.0
 11
543.8140106201172
 21
323.849983215332
 31
0.0
  0
MTEXT
  5
12E
330
F6
100
AcDbEntity
  8
Border {c3}
100
AcDbMText
 10
15.21349436009943
 20
52.45099998116494
 30
0.0
 40
3.048000037670135
 41
0.0
 71
     7
 72
     1
  1
A
  7
Note Text (ANSI)
 73
     1
 44
1.0
1001
ACAD
1000
MTEXTBEGIN
1070
    73
1070
     1
1070
    44
1040
1.0
1070
    74
1070
     0
1000
MTEXTEND
  0
MTEXT
  5
12F
330
F6
100
AcDbEntity
  8
Border {c3}
100
AcDbMText
 10
540.9934943977695
 20
52.45099998116494
 30
0.0
 40
3.048000037670135
 41
0.0
 71
     7
 72
     1
  1
A
  7
Note Text (ANSI)
 73
     1
 44
1.0
1001
ACAD
1000
MTEXTBEGIN
1070
    73
1070
     1
1070
    44
1040
1.0
1070
    74
1070
     0
1000
MTEXTEND
  0
MTEXT
  5
130
330
F6
100
AcDbEntity
  8
Border {c3}
100
AcDbMText
 10
15.57979267448747
 20
160.4009999811649
 30
0.0
 40
3.048000037670135
 41
0.0
 71
     7
 72
     1
  1
B
  7
Note Text (ANSI)
 73
     1
 44
1.0
1001
ACAD
1000
MTEXTBEGIN
1070
    73
1070
     1
1070
    44
1040
1.0
1070
    74
1070
     0
1000
MTEXTEND
  0
MTEXT
  5
131
330
F6
100
AcDbEntity
  8
Border {c3}
100
AcDbMText
 10
541.3597927121576
 20
160.4009999811649
 30
0.0
 40
3.048000037670135
 41
0.0
 71
     7
 72
     1
  1
B
  7
Note Text (ANSI)
 73
     1
 44
1.0
1001
ACAD
1000
MTEXTBEGIN
1070
    73
1070
     1
1070
    44
1040
1.0
1070
    74
1070
     0
1000
MTEXTEND
  0
MTEXT
  5
132
330
F6
100
AcDbEntity
  8
Border {c3}
100
AcDbMText
 10
15.38563907886036
 20
268.2966596232727
 30
0.0
 40
3.048000037670135
 41
0.0
 71
     7
 72
     1
  1
C
  7
Note Text (ANSI)
 73
     1
 44
1.0
1001
ACAD
1000
MTEXTBEGIN
1070
    73
1070
     1
1070
    44
1040
1.0
1070
    74
1070
     0
1000
MTEXTEND
  0
MTEXT
  5
133
330
F6
100
AcDbEntity
  8
Border {c3}
100
AcDbMText
 10
541.1656391165304
 20
268.2966596232727
 30
0.0
 40
3.048000037670135
 41
0.0
 71
     7
 72
     1
  1
C
  7
Note Text (ANSI)
 73
     1
 44
1.0
1001
ACAD
1000
MTEXTBEGIN
1070
    73
1070
     1
1070
    44
1040
1.0
1070
    74
1070
     0
1000
MTEXTEND
  0
MTEXT
  5
134
330
F6
100
AcDbEntity
  8
Border {c3}
100
AcDbMText
 10
15.39330643028581
 20
376.3009999811649
 30
0.0
 40
3.048000037670135
 41
0.0
 71
     7
 72
     1
  1
D
  7
Note Text (ANSI)
 73
     1
 44
1.0
1001
ACAD
1000
MTEXTBEGIN
1070
    73
1070
     1
1070
    44
1040
1.0
1070
    74
1070
     0
1000
MTEXTEND
  0
MTEXT
  5
135
330
F6
100
AcDbEntity
  8
Border {c3}
100
AcDbMText
 10
541.1733064679559
 20
376.3009999811649
 30
0.0
 40
3.048000037670135
 41
0.0
 71
     7
 72
     1
  1
D
  7
Note Text (ANSI)
 73
     1
 44
1.0
1001
ACAD
1000
MTEXTBEGIN
1070
    73
1070
     1
1070
    44
1040
1.0
1070
    74
1070
     0
1000
MTEXTEND
  0
ENDBLK
  5
F8
330
F6
100
AcDbEntity
  8
0
100
AcDbBlockEnd
  0
BLOCK
  5
138
330
137
100
AcDbEntity
  8
0
100
AcDbBlockBegin
  2
Title Blocks c3-mm[in] (C)
 70
     2
 10
0.0
 20
0.0
 30
0.0
  3
Title Blocks c3-mm[in] (C)
  1

  0
HATCH
  5
148
330
137
100
AcDbEntity
  8
Hatch {c3}
 62
   176
100
AcDbHatch
 10
0.0
 20
0.0
 30
0.0
210
0.0
220
0.0
230
1.0
  2
SOLID
 70
     1
 71
     0
 91
        1
 92
        1
 93
       14
 72
     2
 10
176.3337794481173
 20
324.4779838690845
 40
2.000000000000368
 50
0.0
 51
90.0
 73
     1
 72
     1
 10
176.3337794481173
 20
326.4779838690845
 11
167.3337794481153
 21
326.4779838690845
 72
     1
 10
167.3337794481153
 20
326.4779838690845
 11
167.3337794481153
 21
324.4779838690847
 72
     1
 10
167.3337794481153
 20
324.4779838690847
 11
176.3337794481171
 21
324.4779838690838
 72
     1
 10
176.3337794481171
 20
324.4779838690838
 11
176.3337794481171
 21
322.4779838690833
 72
     1
 10
176.3337794481171
 20
322.4779838690833
 11
167.3337794481153
 21
322.4779838690833
 72
     1
 10
167.3337794481153
 20
322.4779838690833
 11
167.3337794481153
 21
320.4779838690835
 72
     1
 10
167.3337794481153
 20
320.4779838690836
 11
176.3337794481171
 21
320.4779838690836
 72
     1
 10
176.3337794481171
 20
320.4779838690836
 11
176.3337794481171
 21
318.4779838690831
 72
     1
 10
176.3337794481171
 20
318.4779838690831
 11
167.3337794481153
 21
318.4779838690831
 72
     1
 10
167.3337794481153
 20
318.4779838690831
 11
167.3337794481153
 21
316.4779838690834
 72
     1
 10
167.3337794481153
 20
316.4779838690834
 11
176.3337794481173
 21
316.4779838690834
 72
     2
 10
176.3337794481173
 20
318.4779838690833
 40
2.000000000000368
 50
270.0
 51
360.0
 73
     1
 72
     1
 10
178.3337794481173
 20
318.4779838690833
 11
178.3337794481172
 21
324.4779838690845
 97
        0
 75
     0
 76
     1
 98
        1
 10
0.0
 20
0.0
  0
LINE
  5
149
330
137
100
AcDbEntity
  8
Title {c3}
100
AcDbLine
 10
60.3837794481153
 20
328.4779838690837
 30
0.0
 11
60.3837794481153
 21
301.4904838690836
 31
0.0
  0
LINE
  5
14A
330
137
100
AcDbEntity
  8
Title {c3}
100
AcDbLine
 10
60.3837794481153
 20
301.4904838690836
 30
0.0
 11
98.48377944811531
 21
301.4904838690836
 31
0.0
  0
LINE
  5
14B
330
137
100
AcDbEntity
  8
Title {c3}
100
AcDbLine
 10
98.48377944811531
 20
301.4904838690836
 30
0.0
 11
98.48377944811531
 21
328.4779838690837
 31
0.0
  0
LINE
  5
14C
330
137
100
AcDbEntity
  8
Title {c3}
100
AcDbLine
 10
98.48377944811531
 20
328.4779838690837
 30
0.0
 11
60.3837794481153
 21
328.4779838690837
 31
0.0
  0
LINE
  5
14D
330
137
100
AcDbEntity
  8
Title {c3}
100
AcDbLine
 10
60.3837794481153
 20
301.4904838690836
 30
0.0
 11
60.3837794481153
 21
274.5029838690836
 31
0.0
  0
LINE
  5
14E
330
137
100
AcDbEntity
  8
Title {c3}
100
AcDbLine
 10
60.3837794481153
 20
274.5029838690836
 30
0.0
 11
98.48377944811531
 21
274.5029838690836
 31
0.0
  0
LINE
  5
14F
330
137
100
AcDbEntity
  8
Title {c3}
100
AcDbLine
 10
98.48377944811531
 20
274.5029838690836
 30
0.0
 11
98.48377944811531
 21
301.4904838690836
 31
0.0
  0
LINE
  5
150
330
137
100
AcDbEntity
  8
Title {c3}
100
AcDbLine
 10
98.48377944811531
 20
274.5029838690836
 30
0.0
 11
136.5837794481153
 21
274.5029838690836
 31
0.0
  0
LINE
  5
151
330
137
100
AcDbEntity
  8
Title {c3}
100
AcDbLine
 10
136.5837794481153
 20
274.5029838690836
 30
0.0
 11
136.5837794481153
 21
285.2979838690836
 31
0.0
  0
LINE
  5
152
330
137
100
AcDbEntity
  8
Title {c3}
100
AcDbLine
 10
136.5837794481153
 20
285.2979838690836
 30
0.0
 11
98.48377944811531
 21
285.2979838690836
 31
0.0
  0
LINE
  5
153
330
137
100
AcDbEntity
  8
Title {c3}
100
AcDbLine
 10
136.5837794481153
 20
285.2979838690836
 30
0.0
 11
136.5837794481153
 21
296.0929838690836
 31
0.0
  0
LINE
  5
154
330
137
100
AcDbEntity
  8
Title {c3}
100
AcDbLine
 10
136.5837794481153
 20
296.0929838690836
 30
0.0
 11
98.48377944811531
 21
296.0929838690836
 31
0.0
  0
LINE
  5
155
330
137
100
AcDbEntity
  8
Title {c3}
100
AcDbLine
 10
136.5837794481153
 20
296.0929838690836
 30
0.0
 11
136.5837794481153
 21
306.8879838690837
 31
0.0
  0
LINE
  5
156
330
137
100
AcDbEntity
  8
Title {c3}
100
AcDbLine
 10
136.5837794481153
 20
306.8879838690837
 30
0.0
 11
98.48377944811531
 21
306.8879838690837
 31
0.0
  0
LINE
  5
157
330
137
100
AcDbEntity
  8
Title {c3}
100
AcDbLine
 10
136.5837794481153
 20
306.8879838690837
 30
0.0
 11
136.5837794481153
 21
317.6829838690836
 31
0.0
  0
LINE
  5
158
330
137
100
AcDbEntity
  8
Title {c3}
100
AcDbLine
 10
136.5837794481153
 20
317.6829838690836
 30
0.0
 11
98.48377944811531
 21
317.6829838690836
 31
0.0
  0
LINE
  5
159
330
137
100
AcDbEntity
  8
Title {c3}
100
AcDbLine
 10
136.5837794481153
 20
317.6829838690836
 30
0.0
 11
136.5837794481153
 21
328.4779838690837
 31
0.0
  0
LINE
  5
15A
330
137
100
AcDbEntity
  8
Title {c3}
100
AcDbLine
 10
136.5837794481153
 20
328.4779838690837
 30
0.0
 11
98.48377944811531
 21
328.4779838690837
 31
0.0
  0
LINE
  5
15B
330
137
100
AcDbEntity
  8
Title {c3}
100
AcDbLine
 10
136.5837794481153
 20
328.4779838690837
 30
0.0
 11
263.5837794481153
 21
328.4779838690837
 31
0.0
  0
LINE
  5
15C
330
137
100
AcDbEntity
  8
Title {c3}
100
AcDbLine
 10
263.5837794481153
 20
328.4779838690837
 30
0.0
 11
263.5837794481153
 21
308.1579838690836
 31
0.0
  0
LINE
  5
15D
330
137
100
AcDbEntity
  8
Title {c3}
100
AcDbLine
 10
263.5837794481153
 20
308.1579838690836
 30
0.0
 11
136.5837794481153
 21
308.1579838690836
 31
0.0
  0
LINE
  5
15E
330
137
100
AcDbEntity
  8
Title {c3}
100
AcDbLine
 10
263.5837794481153
 20
308.1579838690836
 30
0.0
 11
263.5837794481153
 21
285.2979838690836
 31
0.0
  0
LINE
  5
15F
330
137
100
AcDbEntity
  8
Title {c3}
100
AcDbLine
 10
263.5837794481153
 20
285.2979838690836
 30
0.0
 11
263.5837794481153
 21
274.5029838690836
 31
0.0
  0
LINE
  5
160
330
137
100
AcDbEntity
  8
Title {c3}
100
AcDbLine
 10
155.6337794481153
 20
285.2979838690836
 30
0.0
 11
155.6337794481153
 21
274.5029838690836
 31
0.0
  0
LINE
  5
161
330
137
100
AcDbEntity
  8
Title {c3}
100
AcDbLine
 10
174.6837794481153
 20
285.2979838690836
 30
0.0
 11
174.6837794481153
 21
274.5029838690836
 31
0.0
  0
LINE
  5
162
330
137
100
AcDbEntity
  8
Title {c3}
100
AcDbLine
 10
193.7337794481153
 20
285.2979838690836
 30
0.0
 11
193.7337794481153
 21
274.5029838690836
 31
0.0
  0
LINE
  5
163
330
137
100
AcDbEntity
  8
Title {c3}
100
AcDbLine
 10
155.6337794481153
 20
285.2979838690836
 30
0.0
 11
136.5837794481153
 21
285.2979838690836
 31
0.0
  0
LINE
  5
164
330
137
100
AcDbEntity
  8
Title {c3}
100
AcDbLine
 10
155.6337794481153
 20
285.2979838690836
 30
0.0
 11
174.6837794481153
 21
285.2979838690836
 31
0.0
  0
LINE
  5
165
330
137
100
AcDbEntity
  8
Title {c3}
100
AcDbLine
 10
174.6837794481153
 20
285.2979838690836
 30
0.0
 11
193.7337794481153
 21
285.2979838690836
 31
0.0
  0
LINE
  5
166
330
137
100
AcDbEntity
  8
Title {c3}
100
AcDbLine
 10
193.7337794481153
 20
285.2979838690836
 30
0.0
 11
263.5837794481153
 21
285.2979838690836
 31
0.0
  0
LINE
  5
167
330
137
100
AcDbEntity
  8
Title {c3}
100
AcDbLine
 10
136.5837794481153
 20
274.5029838690836
 30
0.0
 11
155.6337794481153
 21
274.5029838690836
 31
0.0
  0
LINE
  5
168
330
137
100
AcDbEntity
  8
Title {c3}
100
AcDbLine
 10
155.6337794481153
 20
274.5029838690836
 30
0.0
 11
174.6837794481153
 21
274.5029838690836
 31
0.0
  0
LINE
  5
169
330
137
100
AcDbEntity
  8
Title {c3}
100
AcDbLine
 10
174.6837794481153
 20
274.5029838690836
 30
0.0
 11
193.7337794481153
 21
274.5029838690836
 31
0.0
  0
LINE
  5
16A
330
137
100
AcDbEntity
  8
Title {c3}
100
AcDbLine
 10
193.7337794481153
 20
274.5029838690836
 30
0.0
 11
263.5837794481153
 21
274.5029838690836
 31
0.0
  0
LINE
  5
16B
330
137
100
AcDbEntity
  8
Title {c3}
 62
   176
100
AcDbLine
 10
167.3337794481153
 20
326.4779838690845
 30
0.0
 11
176.3337794481173
 21
326.4779838690845
 31
0.0
  0
ARC
  5
16C
330
137
100
AcDbEntity
  8
Title {c3}
 62
   176
100
AcDbCircle
 10
176.3337794481173
 20
324.4779838690845
 30
0.0
 40
2.000000000000368
100
AcDbArc
 50
0.0
 51
90.0
  0
LINE
  5
16D
330
137
100
AcDbEntity
  8
Title {c3}
 62
   176
100
AcDbLine
 10
178.3337794481172
 20
324.4779838690845
 30
0.0
 11
178.3337794481173
 21
318.4779838690833
 31
0.0
  0
ARC
  5
16E
330
137
100
AcDbEntity
  8
Title {c3}
 62
   176
100
AcDbCircle
 10
176.3337794481173
 20
318.4779838690833
 30
0.0
 40
2.000000000000368
100
AcDbArc
 50
270.0
 51
0.0
  0
LINE
  5
16F
330
137
100
AcDbEntity
  8
Title {c3}
 62
   176
100
AcDbLine
 10
176.3337794481173
 20
316.4779838690834
 30
0.0
 11
167.3337794481153
 21
316.4779838690834
 31
0.0
  0
LINE
  5
170
330
137
100
AcDbEntity
  8
Title {c3}
 62
   176
100
AcDbLine
 10
167.3337794481153
 20
316.4779838690834
 30
0.0
 11
167.3337794481153
 21
318.4779838690831
 31
0.0
  0
LINE
  5
171
330
137
100
AcDbEntity
  8
Title {c3}
 62
   176
100
AcDbLine
 10
167.3337794481153
 20
318.4779838690831
 30
0.0
 11
176.3337794481171
 21
318.4779838690831
 31
0.0
  0
LINE
  5
172
330
137
100
AcDbEntity
  8
Title {c3}
 62
   176
100
AcDbLine
 10
176.3337794481171
 20
318.4779838690831
 30
0.0
 11
176.3337794481171
 21
320.4779838690836
 31
0.0
  0
LINE
  5
173
330
137
100
AcDbEntity
  8
Title {c3}
 62
   176
100
AcDbLine
 10
176.3337794481171
 20
320.4779838690836
 30
0.0
 11
167.3337794481153
 21
320.4779838690836
 31
0.0
  0
LINE
  5
174
330
137
100
AcDbEntity
  8
Title {c3}
 62
   176
100
AcDbLine
 10
167.3337794481153
 20
320.4779838690836
 30
0.0
 11
167.3337794481153
 21
322.4779838690833
 31
0.0
  0
LINE
  5
175
330
137
100
AcDbEntity
  8
Title {c3}
 62
   176
100
AcDbLine
 10
167.3337794481153
 20
322.4779838690833
 30
0.0
 11
176.3337794481171
 21
322.4779838690833
 31
0.0
  0
LINE
  5
176
330
137
100
AcDbEntity
  8
Title {c3}
 62
   176
100
AcDbLine
 10
176.3337794481171
 20
322.4779838690833
 30
0.0
 11
176.3337794481171
 21
324.4779838690838
 31
0.0
  0
LINE
  5
177
330
137
100
AcDbEntity
  8
Title {c3}
 62
   176
100
AcDbLine
 10
176.3337794481171
 20
324.4779838690838
 30
0.0
 11
167.3337794481153
 21
324.4779838690847
 31
0.0
  0
LINE
  5
178
330
137
100
AcDbEntity
  8
Title {c3}
 62
   176
100
AcDbLine
 10
167.3337794481153
 20
324.4779838690847
 30
0.0
 11
167.3337794481153
 21
326.4779838690845
 31
0.0
  0
MTEXT
  5
179
330
137
100
AcDbEntity
  8
Title {c3}
100
AcDbMText
 10
79.4337794481153
 20
314.6513306008023
 30
0.0
 40
2.031999975442886
 41
38.10000000000001
 71
     5
 72
     1
  1
\fTahoma|b0|i0;\H2.0320;\LTOLERANCE\P\l\fTahoma|b0|i0;\H2.0320;XXX. +/- 1.00\PXX.X +/- 0.30\PX.XX +/- 0.10\PANGLES +/- 0.5 DEG\P \PUNLESS OTHERWISE\PSPECIFIED
  7
Note Text {c3}
 73
     2
 44
0.9878842830657958
1001
ACAD
1000
MTEXTBEGIN
1070
    73
1070
     2
1070
    44
1040
0.9878842830657958
1070
    74
1070
     0
1000
MTEXTEND
  0
MTEXT
  5
17A
330
137
100
AcDbEntity
  8
Title {c3}
100
AcDbMText
 10
79.43377944811527
 20
288.0903200531681
 30
0.0
 40
2.031999975442886
 41
35.0
 71
     5
 72
     1
  1
\fArial|b0|i0;\H2.0320;This drawing is the property of c3controls.  This drawing may not be copied, used or disclosed, for any purpose except as authorized in writing by c3controls.
  7
Note Text {c3}
 73
     2
 44
0.9442214369773864
1001
ACAD
1000
MTEXTBEGIN
1070
    73
1070
     2
1070
    44
1040
0.9442214369773864
1070
    74
1070
     0
1000
MTEXTEND
  0
MTEXT
  5
17B
330
137
100
AcDbEntity
  8
Title {c3}
100
AcDbMText
 10
99.7537794481153
 20
327.2079838690836
 30
0.0
 40
2.285999953746795
 41
8.184169228729167
 71
     1
 72
     1
  1
\fArial|b0|i0;\H2.2860;\LUnits\l\fArial|b0|i0;\H2.2860;:
  7
Note Text {c3}
 73
     1
 44
1.0
1001
ACAD
1000
MTEXTBEGIN
1070
    73
1070
     1
1070
    44
1040
1.0
1070
    74
1070
     0
1000
MTEXTEND
  0
MTEXT
  5
17C
330
137
100
AcDbEntity
  8
Title {c3}
100
AcDbMText
 10
200.0837794481153
 20
310.0629838690837
 30
0.0
 40
2.540000081062316
 41
120.3571049358808
 71
     5
 72
     1
  1
\fArial|b0|i0;\H2.5400;P.O. BOX 496         BEAVER, PA 15009         www.c3controls.com
  7
Note Text {c3}
 73
     1
 44
1.0
1001
ACAD
1000
MTEXTBEGIN
1070
    73
1070
     1
1070
    44
1040
1.0
1070
    74
1070
     0
1000
MTEXTEND
  0
MTEXT
  5
17D
330
137
100
AcDbEntity
  8
Title {c3}
100
AcDbMText
 10
99.7537794481153
 20
316.4129838690836
 30
0.0
 40
2.285999953746795
 41
14.73006471991539
 71
     1
 72
     1
  1
\fArial|b0|i0;\H2.2860;\LDrawn By\l\fArial|b0|i0;\H2.2860;:
  7
Note Text {c3}
 73
     1
 44
1.0
1001
ACAD
1000
MTEXTBEGIN
1070
    73
1070
     1
1070
    44
1040
1.0
1070
    74
1070
     0
1000
MTEXTEND
  0
MTEXT
  5
17E
330
137
100
AcDbEntity
  8
Title {c3}
100
AcDbMText
 10
99.7537794481153
 20
305.6179838690836
 30
0.0
 40
2.285999953746795
 41
17.74960502982139
 71
     1
 72
     1
  1
\fArial|b0|i0;\H2.2860;\LModeled By\l\fArial|b0|i0;\H2.2860;:
  7
Note Text {c3}
 73
     1
 44
1.0
1001
ACAD
1000
MTEXTBEGIN
1070
    73
1070
     1
1070
    44
1040
1.0
1070
    74
1070
     0
1000
MTEXTEND
  0
MTEXT
  5
17F
330
137
100
AcDbEntity
  8
Title {c3}
100
AcDbMText
 10
99.7537794481153
 20
294.8229838690837
 30
0.0
 40
2.285999953746795
 41
19.17138561606407
 71
     1
 72
     1
  1
\fArial|b0|i0;\H2.2860;\LApproved By\l\fArial|b0|i0;\H2.2860;:
  7
Note Text {c3}
 73
     1
 44
1.0
1001
ACAD
1000
MTEXTBEGIN
1070
    73
1070
     1
1070
    44
1040
1.0
1070
    74
1070
     0
1000
MTEXTEND
  0
MTEXT
  5
180
330
137
100
AcDbEntity
  8
Title {c3}
100
AcDbMText
 10
99.7537794481153
 20
284.0279838690836
 30
0.0
 40
2.285999953746795
 41
17.52857730945621
 71
     1
 72
     1
  1
\fArial|b0|i0;\H2.2860;\LCreated On\l\fArial|b0|i0;\H2.2860;:
  7
Note Text {c3}
 73
     1
 44
1.0
1001
ACAD
1000
MTEXTBEGIN
1070
    73
1070
     1
1070
    44
1040
1.0
1070
    74
1070
     0
1000
MTEXTEND
  0
MTEXT
  5
181
330
137
100
AcDbEntity
  8
Title {c3}
100
AcDbMText
 10
137.8537794481153
 20
284.0279838690836
 30
0.0
 40
2.285999953746795
 41
9.229376763105392
 71
     1
 72
     1
  1
\fArial|b0|i0;\H2.2860;\LRev #\l\fArial|b0|i0;\H2.2860;:
  7
Note Text {c3}
 73
     1
 44
1.0
1001
ACAD
1000
MTEXTBEGIN
1070
    73
1070
     1
1070
    44
1040
1.0
1070
    74
1070
     0
1000
MTEXTEND
  0
MTEXT
  5
182
330
137
100
AcDbEntity
  8
Title {c3}
100
AcDbMText
 10
175.9537794481152
 20
284.0279838690836
 30
0.0
 40
2.285999953746795
 41
8.875673860311508
 71
     1
 72
     1
  1
\fArial|b0|i0;\H2.2860;\LScale\l\fArial|b0|i0;\H2.2860;:
  7
Note Text {c3}
 73
     1
 44
1.0
1001
ACAD
1000
MTEXTBEGIN
1070
    73
1070
     1
1070
    44
1040
1.0
1070
    74
1070
     0
1000
MTEXTEND
  0
MTEXT
  5
183
330
137
100
AcDbEntity
  8
Title {c3}
100
AcDbMText
 10
156.9037794481153
 20
284.0279838690836
 30
0.0
 40
2.285999953746795
 41
7.100190967321395
 71
     1
 72
     1
  1
\fArial|b0|i0;\H2.2860;\LSize\l\fArial|b0|i0;\H2.2860;:
  7
Note Text {c3}
 73
     1
 44
1.0
1001
ACAD
1000
MTEXTBEGIN
1070
    73
1070
     1
1070
    44
1040
1.0
1070
    74
1070
     0
1000
MTEXTEND
  0
MTEXT
  5
184
330
137
100
AcDbEntity
  8
Title {c3}
100
AcDbMText
 10
195.0037794481153
 20
284.0279838690836
 30
0.0
 40
2.285999953746795
 41
20.03026046634982
 71
     1
 72
     1
  1
\fArial|b0|i0;\H2.2860;\LPart Number\l\fArial|b0|i0;\H2.2860;:
  7
Note Text {c3}
 73
     1
 44
1.0
1001
ACAD
1000
MTEXTBEGIN
1070
    73
1070
     1
1070
    44
1040
1.0
1070
    74
1070
     0
1000
MTEXTEND
  0
MTEXT
  5
185
330
137
100
AcDbEntity
  8
Title {c3}
100
AcDbMText
 10
137.8537794481153
 20
306.8879838690837
 30
0.0
 40
2.285999953746795
 41
16.85924991965294
 71
     1
 72
     1
  1
\fArial|b0|i0;\H2.2860;\LDescription\l\fArial|b0|i0;\H2.2860;:
  7
Note Text {c3}
 73
     1
 44
1.0
1001
ACAD
1000
MTEXTBEGIN
1070
    73
1070
     1
1070
    44
1040
1.0
1070
    74
1070
     0
1000
MTEXTEND
  0
MTEXT
  5
186
330
137
100
AcDbEntity
  8
Title {c3}
100
AcDbMText
 10
117.5337794481153
 20
321.4929838690836
 30
0.0
 40
3.174999952316284
 41
35.98968715240871
 71
     5
 72
     1
  1
\fArial|b0|i0;\H3.1750;mm [in]
  7
Note Text {c3}
 73
     1
 44
1.0
1001
ACAD
1000
MTEXTBEGIN
1070
    73
1070
     1
1070
    44
1040
1.0
1070
    74
1070
     0
1000
MTEXTEND
  0
MTEXT
  5
187
330
137
100
AcDbEntity
  8
Title {c3}
100
AcDbMText
 10
165.1587794481153
 20
278.3129838690836
 30
0.0
 40
3.174999952316284
 41
17.46372461297259
 71
     5
 72
     1
  1
\fArial|b0|i0;\H3.1750;C
  7
Note Text {c3}
 73
     1
 44
1.0
1001
ACAD
1000
MTEXTBEGIN
1070
    73
1070
     1
1070
    44
1040
1.0
1070
    74
1070
     0
1000
MTEXTEND
  0
MTEXT
  5
188
330
137
100
AcDbEntity
  8
Title {c3}
 62
   176
100
AcDbMText
 10
157.8337794481153
 20
316.4779838690834
 30
0.0
 40
8.500000238418579
 41
0.0
 71
     7
 72
     1
  1
\fEurostile ExtendedTwo|b0|i0;\H8.5000;c
  7
Note Text {c3}
 73
     1
 44
1.0
1001
ACAD
1000
MTEXTBEGIN
1070
    73
1070
     1
1070
    44
1040
1.0
1070
    74
1070
     0
1000
MTEXTEND
  0
MTEXT
  5
189
330
137
100
AcDbEntity
  8
Title {c3}
 62
     7
100
AcDbMText
 10
242.3337794481173
 20
316.4779838690833
 30
0.0
 40
8.500000238418579
 41
66.51529325837067
 71
     9
 72
     5
  1
\fEurostile ExtendedTwo|b0|i0;\H8.5000;controls
  7
Note Text {c3}
 73
     1
 44
1.0
1001
ACAD
1000
MTEXTBEGIN
1070
    73
1070
     1
1070
    44
1040
1.0
1070
    74
1070
     0
1000
MTEXTEND
  0
MTEXT
  5
18A
330
137
100
AcDbEntity
  8
Title {c3}
100
AcDbMText
 10
242.3337794481173
 20
324.4779838690838
 30
0.0
 40
3.048000037670135
 41
0.0
 71
     1
 72
     1
  1
\fArial|b0|i0;\H3.0480;®
  7
Note Text {c3}
 73
     1
 44
1.0
1001
ACAD
1000
MTEXTBEGIN
1070
    73
1070
     1
1070
    44
1040
1.0
1070
    74
1070
     0
1000
MTEXTEND
  0
ATTDEF
  5
18C
102
{ACAD_XDICTIONARY
360
890
102
}
330
137
100
AcDbEntity
  8
Title {c3}
100
AcDbText
 10
106.2989143371735
 20
309.1364729784833
 30
0.0
 40
3.174999952316284
  1
D. Hehman
  7
Text Style9
100
AcDbAttributeDefinition
  3
AUTHOR
  2
AUTHOR_001
 70
     0
  0
ATTDEF
  5
191
102
{ACAD_XDICTIONARY
360
893
102
}
330
137
100
AcDbEntity
  8
Title {c3}
100
AcDbText
 10
106.6462376371502
 20
298.2771024294321
 30
0.0
 40
3.174999952316284
  1
D. Hehman
  7
Text Style39
100
AcDbAttributeDefinition
  3
AUTHOR
  2
AUTHOR_001
 70
     0
  0
ATTDEF
  5
192
102
{ACAD_XDICTIONARY
360
896
102
}
330
137
100
AcDbEntity
  8
Title {c3}
100
AcDbText
 10
117.5337794481153
 20
287.5204838929255
 30
0.0
 40
3.174999952316284
  1

  7
Text Style39
 72
     1
 11
117.5337794481153
 21
289.1079838690836
 31
0.0
100
AcDbAttributeDefinition
  3
CHECKED BY
  2
CHECKED_BY
 70
     0
 74
     2
  0
ATTDEF
  5
193
102
{ACAD_XDICTIONARY
360
899
102
}
330
137
100
AcDbEntity
  8
Title {c3}
100
AcDbText
 10
107.626031107996
 20
276.999484896198
 30
0.0
 40
3.174999952316284
  1
9/19/2011
  7
Text Style39
100
AcDbAttributeDefinition
  3
CREATION DATE
  2
CREATION_DATE_001
 70
     0
  0
ATTDEF
  5
194
102
{ACAD_XDICTIONARY
360
89C
102
}
330
137
100
AcDbEntity
  8
Title {c3}
100
AcDbText
 10
144.8528526704697
 20
276.720153134107
 30
0.0
 40
3.174999952316284
  1
1
  7
Text Style39
100
AcDbAttributeDefinition
  3
Rev #
  2
Rev_#_001
 70
     0
  0
ATTDEF
  5
195
102
{ACAD_XDICTIONARY
360
89F
102
}
330
137
100
AcDbEntity
  8
Title {c3}
100
AcDbText
 10
179.7490666205334
 20
276.6934993400143
 30
0.0
 40
3.174999952316284
  1
2 : 1
  7
Text Style39
100
AcDbAttributeDefinition
  3
Scale
  2
Scale_001
 70
     0
  0
ATTDEF
  5
196
102
{ACAD_XDICTIONARY
360
8A2
102
}
330
137
100
AcDbEntity
  8
Title {c3}
100
AcDbText
 10
215.3308162500274
 20
276.7254838929255
 30
0.0
 40
3.174999952316284
  1
22P90101G01
  7
Text Style39
100
AcDbAttributeDefinition
  3
PART NUMBER
  2
PART_NUMBER_001
 70
     0
  0
ATTDEF
  5
198
102
{ACAD_XDICTIONARY
360
8A5
102
}
330
137
100
AcDbEntity
  8
Title {c3}
100
AcDbText
 10
158.1699399640577
 20
295.2643706591767
 30
0.0
 40
3.810000121593475
  1
OD 22mm IEC Bracket Subassembly
  7
Text Style76
100
AcDbAttributeDefinition
  3
DESCRIPTION
  2
DESCRIPTION_001
 70
     0
  0
ENDBLK
  5
139
330
137
100
AcDbEntity
  8
0
100
AcDbBlockEnd
  0
BLOCK
  5
3C1
330
3C0
100
AcDbEntity
  8
0
100
AcDbBlockBegin
  2
*D6
 70
     1
 10
0.0
 20
0.0
 30
0.0
  3
*D6
  1

  0
LINE
  5
4DF
330
3C0
100
AcDbEntity
  8
Dimension {c3}
 62
   176
100
AcDbLine
 10
116.4617665813112
 20
117.6813770434381
 30
0.0
 11
98.27484294918328
 21
117.6813770434381
 31
0.0
  0
LINE
  5
4E0
330
3C0
100
AcDbEntity
  8
Dimension {c3}
 62
   176
100
AcDbLine
 10
116.4617665813112
 20
84.4813770434381
 30
0.0
 11
98.27484294918326
 21
84.4813770434381
 31
0.0
  0
LINE
  5
4E1
330
3C0
100
AcDbEntity
  8
Dimension {c3}
 62
   176
100
AcDbLine
 10
99.86234294918327
 20
116.4313770434381
 30
0.0
 11
99.86234294918327
 21
108.6825073742809
 31
0.0
  0
LINE
  5
4E2
330
3C0
100
AcDbEntity
  8
Dimension {c3}
 62
   176
100
AcDbLine
 10
99.86234294918325
 20
85.7313770434381
 30
0.0
 11
99.86234294918325
 21
93.48024671259528
 31
0.0
  0
SOLID
  5
4E3
330
3C0
100
AcDbEntity
  8
Dimension {c3}
 62
   176
100
AcDbTrace
 10
99.65400961584995
 20
116.4313770434381
 30
0.0
 11
100.0706762825166
 21
116.4313770434381
 31
0.0
 12
99.86234294918327
 22
117.6813770434381
 32
0.0
 13
99.86234294918327
 23
117.6813770434381
 33
0.0
  0
SOLID
  5
4E4
330
3C0
100
AcDbEntity
  8
Dimension {c3}
 62
   176
100
AcDbTrace
 10
99.65400961584993
 20
85.7313770434381
 30
0.0
 11
100.0706762825166
 21
85.7313770434381
 31
0.0
 12
99.86234294918325
 22
84.4813770434381
 32
0.0
 13
99.86234294918325
 23
84.4813770434381
 33
0.0
  0
MTEXT
  5
4E5
330
3C0
100
AcDbEntity
  8
Dimension {c3}
 62
   176
100
AcDbMText
 10
96.43820458130001
 20
101.0813770434381
 30
0.0
 40
2.28600001335144
 41
0.0
 71
     2
 72
     1
  1
\A1; 33.2 mm\P[1 5/16 in]
  7
Dim Text {c3}
 11
0.0000000000000001
 21
1.0
 31
0.0
 73
     1
 44
1.0
1001
ACAD
1000
MTEXTBEGIN
1070
    73
1070
     1
1070
    44
1040
1.0
1070
    74
1070
     0
1000
MTEXTEND
  0
POINT
  5
4E6
330
3C0
100
AcDbEntity
  8
Defpoints
 62
     0
100
AcDbPoint
 10
117.2618665813112
 20
117.6813770434381
 30
0.0
  0
POINT
  5
4E7
330
3C0
100
AcDbEntity
  8
Defpoints
 62
     0
100
AcDbPoint
 10
117.2618665813112
 20
84.4813770434381
 30
0.0
  0
POINT
  5
4E8
330
3C0
100
AcDbEntity
  8
Defpoints
 62
     0
100
AcDbPoint
 10
99.86234294918325
 20
84.4813770434381
 30
0.0
  0
ENDBLK
  5
3C2
330
3C0
100
AcDbEntity
  8
0
100
AcDbBlockEnd
  0
BLOCK
  5
4EB
330
4EA
100
AcDbEntity
  8
0
100
AcDbBlockBegin
  2
*D7
 70
     1
 10
0.0
 20
0.0
 30
0.0
  3
*D7
  1

  0
LINE
  5
602
330
4EA
100
AcDbEntity
  8
Dimension {c3}
 62
   176
100
AcDbLine
 10
187.7101835756097
 20
114.2032905938757
 30
0.0
 11
187.7101835756097
 21
143.672538135084
 31
0.0
  0
LINE
  5
603
330
4EA
100
AcDbEntity
  8
Dimension {c3}
 62
   176
100
AcDbLine
 10
196.51018357561
 20
118.4814770434381
 30
0.0
 11
196.51018357561
 21
143.672538135084
 31
0.0
  0
LINE
  5
604
330
4EA
100
AcDbEntity
  8
Dimension {c3}
 62
   176
100
AcDbLine
 10
195.26018357561
 20
142.0850381350839
 30
0.0
 11
188.9601835756097
 21
142.0850381350839
 31
0.0
  0
LINE
  5
605
330
4EA
100
AcDbEntity
  8
Dimension {c3}
 62
   176
100
AcDbLine
 10
187.7101835756097
 20
142.0850381350839
 30
0.0
 11
183.1760313961858
 21
142.0850381350839
 31
0.0
  0
SOLID
  5
606
330
4EA
100
AcDbEntity
  8
Dimension {c3}
 62
   176
100
AcDbTrace
 10
195.26018357561
 20
142.2933714684173
 30
0.0
 11
195.26018357561
 21
141.8767048017506
 31
0.0
 12
196.51018357561
 22
142.0850381350839
 32
0.0
 13
196.51018357561
 23
142.0850381350839
 33
0.0
  0
SOLID
  5
607
330
4EA
100
AcDbEntity
  8
Dimension {c3}
 62
   176
100
AcDbTrace
 10
188.9601835756097
 20
142.2933714684173
 30
0.0
 11
188.9601835756097
 21
141.8767048017506
 31
0.0
 12
187.7101835756097
 22
142.0850381350839
 32
0.0
 13
187.7101835756097
 23
142.0850381350839
 33
0.0
  0
MTEXT
  5
608
330
4EA
100
AcDbEntity
  8
Dimension {c3}
 62
   176
100
AcDbMText
 10
176.0661838083063
 20
145.5114793908248
 30
0.0
 40
2.28600001335144
 41
0.0
 71
     2
 72
     1
  1
\A1; 8.8 mm\P[11/32 in]
  7
Dim Text {c3}
 73
     1
 44
1.0
1001
ACAD
1000
MTEXTBEGIN
1070
    73
1070
     1
1070
    44
1040
1.0
1070
    74
1070
     0
1000
MTEXTEND
  0
POINT
  5
609
330
4EA
100
AcDbEntity
  8
Defpoints
 62
     0
100
AcDbPoint
 10
187.7101835756097
 20
113.4031905938757
 30
0.0
  0
POINT
  5
60A
330
4EA
100
AcDbEntity
  8
Defpoints
 62
     0
100
AcDbPoint
 10
196.51018357561
 20
117.6813770434381
 30
0.0
  0
POINT
  5
60B
330
4EA
100
AcDbEntity
  8
Defpoints
 62
     0
100
AcDbPoint
 10
196.51018357561
 20
142.0850381350839
 30
0.0
  0
ENDBLK
  5
4EC
330
4EA
100
AcDbEntity
  8
0
100
AcDbBlockEnd
  0
BLOCK
  5
60D
330
60C
100
AcDbEntity
  8
0
100
AcDbBlockBegin
  2
Revision History
 70
     0
 10
0.0
 20
0.0
 30
0.0
  3
Revision History
  1

  0
MTEXT
  5
60F
330
60C
100
AcDbEntity
  8
Symbol {c3}
100
AcDbMText
 10
341.9758390835278
 20
87.04688977956779
 30
0.0
 40
3.048000037670135
 41
0.0
 71
     7
 72
     1
  1
2
  7
Note Text (ANSI)
 73
     1
 44
1.0
1001
ACAD
1000
MTEXTBEGIN
1070
    73
1070
     1
1070
    44
1040
1.0
1070
    74
1070
     0
1000
MTEXTEND
  0
MTEXT
  5
610
330
60C
100
AcDbEntity
  8
Symbol {c3}
100
AcDbMText
 10
357.7162694896629
 20
86.6800923696161
 30
0.0
 40
3.048000037670135
 41
0.0
 71
     7
 72
     1
  1
08/09/2013
  7
Note Text (ANSI)
 73
     1
 44
1.0
1001
ACAD
1000
MTEXTBEGIN
1070
    73
1070
     1
1070
    44
1040
1.0
1070
    74
1070
     0
1000
MTEXTEND
  0
MTEXT
  5
611
330
60C
100
AcDbEntity
  8
Symbol {c3}
100
AcDbMText
 10
413.8757333493329
 20
86.56894162803896
 30
0.0
 40
3.048000037670135
 41
0.0
 71
     7
 72
     1
  1
Updated for New Latching Device
  7
Note Text (ANSI)
 73
     1
 44
1.0
1001
ACAD
1000
MTEXTBEGIN
1070
    73
1070
     1
1070
    44
1040
1.0
1070
    74
1070
     0
1000
MTEXTEND
  0
MTEXT
  5
612
330
60C
100
AcDbEntity
  8
Symbol {c3}
100
AcDbMText
 10
513.1138851590176
 20
87.04318475717686
 30
0.0
 40
3.048000037670135
 41
0.0
 71
     7
 72
     1
  1
W. Price
  7
Note Text (ANSI)
 73
     1
 44
1.0
1001
ACAD
1000
MTEXTBEGIN
1070
    73
1070
     1
1070
    44
1040
1.0
1070
    74
1070
     0
1000
MTEXTEND
  0
LINE
  5
613
330
60C
100
AcDbEntity
  8
Symbol {c3}
100
AcDbLine
 10
336.55
 20
91.01700003147133
 30
0.0
 11
539.75
 21
91.01700003147133
 31
0.0
  0
MTEXT
  5
614
330
60C
100
AcDbEntity
  8
Symbol {c3}
100
AcDbMText
 10
341.9758390835278
 20
82.21888974189765
 30
0.0
 40
3.048000037670135
 41
0.0
 71
     7
 72
     1
  1
2
  7
Note Text (ANSI)
 73
     1
 44
1.0
1001
ACAD
1000
MTEXTBEGIN
1070
    73
1070
     1
1070
    44
1040
1.0
1070
    74
1070
     0
1000
MTEXTEND
  0
MTEXT
  5
615
330
60C
100
AcDbEntity
  8
Symbol {c3}
100
AcDbMText
 10
357.7162694896629
 20
81.85209233194596
 30
0.0
 40
3.048000037670135
 41
0.0
 71
     7
 72
     1
  1
09/07/2012
  7
Note Text (ANSI)
 73
     1
 44
1.0
1001
ACAD
1000
MTEXTBEGIN
1070
    73
1070
     1
1070
    44
1040
1.0
1070
    74
1070
     0
1000
MTEXTEND
  0
MTEXT
  5
616
330
60C
100
AcDbEntity
  8
Symbol {c3}
100
AcDbMText
 10
428.757106100982
 20
81.75082165628678
 30
0.0
 40
3.048000037670135
 41
0.0
 71
     7
 72
     1
  1
Drawing Updated
  7
Note Text (ANSI)
 73
     1
 44
1.0
1001
ACAD
1000
MTEXTBEGIN
1070
    73
1070
     1
1070
    44
1040
1.0
1070
    74
1070
     0
1000
MTEXTEND
  0
MTEXT
  5
617
330
60C
100
AcDbEntity
  8
Symbol {c3}
100
AcDbMText
 10
513.1138851590176
 20
82.21518471950671
 30
0.0
 40
3.048000037670135
 41
0.0
 71
     7
 72
     1
  1
W. Price
  7
Note Text (ANSI)
 73
     1
 44
1.0
1001
ACAD
1000
MTEXTBEGIN
1070
    73
1070
     1
1070
    44
1040
1.0
1070
    74
1070
     0
1000
MTEXTEND
  0
LINE
  5
618
330
60C
100
AcDbEntity
  8
Symbol {c3}
100
AcDbLine
 10
336.55
 20
86.18899999380118
 30
0.0
 11
539.75
 21
86.18899999380118
 31
0.0
  0
MTEXT
  5
619
330
60C
100
AcDbEntity
  8
Symbol {c3}
100
AcDbMText
 10
342.212364491956
 20
77.41805988550192
 30
0.0
 40
3.048000037670135
 41
0.0
 71
     7
 72
     1
  1
1
  7
Note Text (ANSI)
 73
     1
 44
1.0
1001
ACAD
1000
MTEXTBEGIN
1070
    73
1070
     1
1070
    44
1040
1.0
1070
    74
1070
     0
1000
MTEXTEND
  0
MTEXT
  5
61A
330
60C
100
AcDbEntity
  8
Symbol {c3}
100
AcDbMText
 10
357.7162694896629
 20
77.02409229427582
 30
0.0
 40
3.048000037670135
 41
0.0
 71
     7
 72
     1
  1
09/23/2011
  7
Note Text (ANSI)
 73
     1
 44
1.0
1001
ACAD
1000
MTEXTBEGIN
1070
    73
1070
     1
1070
    44
1040
1.0
1070
    74
1070
     0
1000
MTEXTEND
  0
MTEXT
  5
61B
330
60C
100
AcDbEntity
  8
Symbol {c3}
100
AcDbMText
 10
428.7743962163386
 20
76.92282161861664
 30
0.0
 40
3.048000037670135
 41
0.0
 71
     7
 72
     1
  1
Drawing released
  7
Note Text (ANSI)
 73
     1
 44
1.0
1001
ACAD
1000
MTEXTBEGIN
1070
    73
1070
     1
1070
    44
1040
1.0
1070
    74
1070
     0
1000
MTEXTEND
  0
MTEXT
  5
61C
330
60C
100
AcDbEntity
  8
Symbol {c3}
100
AcDbMText
 10
510.5788624162134
 20
77.32296425569808
 30
0.0
 40
3.048000037670135
 41
0.0
 71
     7
 72
     1
  1
D. Hehman
  7
Note Text (ANSI)
 73
     1
 44
1.0
1001
ACAD
1000
MTEXTBEGIN
1070
    73
1070
     1
1070
    44
1040
1.0
1070
    74
1070
     0
1000
MTEXTEND
  0
LINE
  5
61D
330
60C
100
AcDbEntity
  8
Symbol {c3}
100
AcDbLine
 10
336.55
 20
81.36099995613106
 30
0.0
 11
539.75
 21
81.36099995613106
 31
0.0
  0
LINE
  5
61E
330
60C
100
AcDbEntity
  8
Symbol {c3}
100
AcDbLine
 10
336.55
 20
76.53299991846091
 30
0.0
 11
539.75
 21
76.53299991846091
 31
0.0
  0
LINE
  5
61F
330
60C
100
AcDbEntity
  8
Symbol {c3}
100
AcDbLine
 10
336.55
 20
91.01700003147133
 30
0.0
 11
336.55
 21
76.53299991846091
 31
0.0
  0
LINE
  5
620
330
60C
100
AcDbEntity
  8
Symbol {c3}
100
AcDbLine
 10
349.2500000000001
 20
91.01700003147133
 30
0.0
 11
349.2500000000001
 21
76.53299991846091
 31
0.0
  0
LINE
  5
621
330
60C
100
AcDbEntity
  8
Symbol {c3}
100
AcDbLine
 10
387.3500000000001
 20
91.01700003147133
 30
0.0
 11
387.3500000000001
 21
76.53299991846091
 31
0.0
  0
LINE
  5
622
330
60C
100
AcDbEntity
  8
Symbol {c3}
100
AcDbLine
 10
501.65
 20
91.01700003147133
 30
0.0
 11
501.65
 21
76.53299991846091
 31
0.0
  0
LINE
  5
623
330
60C
100
AcDbEntity
  8
Symbol {c3}
100
AcDbLine
 10
539.75
 20
91.01700003147133
 30
0.0
 11
539.75
 21
76.53299991846091
 31
0.0
  0
LINE
  5
624
330
60C
100
AcDbEntity
  8
Symbol {c3}
100
AcDbLine
 10
336.55
 20
66.67500000000007
 30
0.0
 11
539.7499999999999
 21
66.67500000000007
 31
0.0
  0
LINE
  5
625
330
60C
100
AcDbEntity
  8
Symbol {c3}
100
AcDbLine
 10
336.55
 20
66.67500000000007
 30
0.0
 11
336.55
 21
71.70499988079078
 31
0.0
  0
LINE
  5
626
330
60C
100
AcDbEntity
  8
Symbol {c3}
100
AcDbLine
 10
539.7499999999999
 20
66.67500000000007
 30
0.0
 11
539.7499999999999
 21
71.70499988079078
 31
0.0
  0
MTEXT
  5
627
330
60C
100
AcDbEntity
  8
Symbol {c3}
100
AcDbMText
 10
422.7280389880347
 20
67.10541719436651
 30
0.0
 40
3.24999988079071
 41
0.0
 71
     7
 72
     1
  1
Revision History
  7
Heading Text {c3}
 73
     1
 44
1.0
1001
ACAD
1000
MTEXTBEGIN
1070
    73
1070
     1
1070
    44
1040
1.0
1070
    74
1070
     0
1000
MTEXTEND
  0
LINE
  5
628
330
60C
100
AcDbEntity
  8
Symbol {c3}
100
AcDbLine
 10
336.55
 20
71.70499988079078
 30
0.0
 11
539.7499999999999
 21
71.70499988079078
 31
0.0
  0
LINE
  5
629
330
60C
100
AcDbEntity
  8
Symbol {c3}
100
AcDbLine
 10
336.55
 20
71.70499988079078
 30
0.0
 11
336.55
 21
76.53299991846091
 31
0.0
  0
MTEXT
  5
62A
330
60C
100
AcDbEntity
  8
Symbol {c3}
100
AcDbMText
 10
339.7578930849489
 20
72.5690647100844
 30
0.0
 40
3.048000037670135
 41
0.0
 71
     7
 72
     1
  1
Rev
  7
Note Text (ANSI)
 73
     1
 44
1.0
1001
ACAD
1000
MTEXTBEGIN
1070
    73
1070
     1
1070
    44
1040
1.0
1070
    74
1070
     0
1000
MTEXTEND
  0
LINE
  5
62B
330
60C
100
AcDbEntity
  8
Symbol {c3}
100
AcDbLine
 10
349.2500000000001
 20
71.70499988079078
 30
0.0
 11
349.2500000000001
 21
76.53299991846091
 31
0.0
  0
MTEXT
  5
62C
330
60C
100
AcDbEntity
  8
Symbol {c3}
100
AcDbMText
 10
364.278567516273
 20
72.56288967121398
 30
0.0
 40
3.048000037670135
 41
0.0
 71
     7
 72
     1
  1
Date
  7
Note Text (ANSI)
 73
     1
 44
1.0
1001
ACAD
1000
MTEXTBEGIN
1070
    73
1070
     1
1070
    44
1040
1.0
1070
    74
1070
     0
1000
MTEXTEND
  0
LINE
  5
62D
330
60C
100
AcDbEntity
  8
Symbol {c3}
100
AcDbLine
 10
387.3500000000001
 20
71.70499988079078
 30
0.0
 11
387.3500000000001
 21
76.53299991846091
 31
0.0
  0
MTEXT
  5
62E
330
60C
100
AcDbEntity
  8
Symbol {c3}
100
AcDbMText
 10
434.4986582154688
 20
72.16398204237228
 30
0.0
 40
3.048000037670135
 41
0.0
 71
     7
 72
     1
  1
Description
  7
Note Text (ANSI)
 73
     1
 44
1.0
1001
ACAD
1000
MTEXTBEGIN
1070
    73
1070
     1
1070
    44
1040
1.0
1070
    74
1070
     0
1000
MTEXTEND
  0
LINE
  5
62F
330
60C
100
AcDbEntity
  8
Symbol {c3}
100
AcDbLine
 10
501.65
 20
71.70499988079078
 30
0.0
 11
501.65
 21
76.53299991846091
 31
0.0
  0
MTEXT
  5
630
330
60C
100
AcDbEntity
  8
Symbol {c3}
100
AcDbMText
 10
508.9750858455999
 20
72.10593665510422
 30
0.0
 40
3.048000037670135
 41
0.0
 71
     7
 72
     1
  1
Approved By
  7
Note Text (ANSI)
 73
     1
 44
1.0
1001
ACAD
1000
MTEXTBEGIN
1070
    73
1070
     1
1070
    44
1040
1.0
1070
    74
1070
     0
1000
MTEXTEND
  0
LINE
  5
631
330
60C
100
AcDbEntity
  8
Symbol {c3}
100
AcDbLine
 10
539.75
 20
71.70499988079078
 30
0.0
 11
539.75
 21
76.53299991846091
 31
0.0
  0
ENDBLK
  5
60E
330
60C
100
AcDbEntity
  8
0
100
AcDbBlockEnd
  0
BLOCK
  5
635
330
634
100
AcDbEntity
  8
0
100
AcDbBlockBegin
  2
*D9
 70
     1
 10
0.0
 20
0.0
 30
0.0
  3
*D9
  1

  0
LINE
  5
74C
330
634
100
AcDbEntity
  8
Dimension {c3}
 62
   176
100
AcDbLine
 10
117.2618665813112
 20
83.68127704343811
 30
0.0
 11
117.2618665813112
 21
74.89387704343811
 31
0.0
  0
LINE
  5
74D
330
634
100
AcDbEntity
  8
Dimension {c3}
 62
   176
100
AcDbLine
 10
148.5118665813112
 20
83.68127704343811
 30
0.0
 11
148.5118665813112
 21
74.89387704343811
 31
0.0
  0
LINE
  5
74E
330
634
100
AcDbEntity
  8
Dimension {c3}
 62
   176
100
AcDbLine
 10
118.5118665813112
 20
76.48137704343811
 30
0.0
 11
124.4275267088543
 21
76.48137704343811
 31
0.0
  0
LINE
  5
74F
330
634
100
AcDbEntity
  8
Dimension {c3}
 62
   176
100
AcDbLine
 10
147.2618665813112
 20
76.48137704343811
 30
0.0
 11
141.3462064537682
 21
76.48137704343811
 31
0.0
  0
SOLID
  5
750
330
634
100
AcDbEntity
  8
Dimension {c3}
 62
   176
100
AcDbTrace
 10
118.5118665813112
 20
76.68971037677144
 30
0.0
 11
118.5118665813112
 21
76.27304371010478
 31
0.0
 12
117.2618665813112
 22
76.48137704343811
 32
0.0
 13
117.2618665813112
 23
76.48137704343811
 33
0.0
  0
SOLID
  5
751
330
634
100
AcDbEntity
  8
Dimension {c3}
 62
   176
100
AcDbTrace
 10
147.2618665813112
 20
76.68971037677144
 30
0.0
 11
147.2618665813112
 21
76.27304371010478
 31
0.0
 12
148.5118665813112
 22
76.48137704343811
 32
0.0
 13
148.5118665813112
 23
76.48137704343811
 33
0.0
  0
MTEXT
  5
752
330
634
100
AcDbEntity
  8
Dimension {c3}
 62
   176
100
AcDbMText
 10
132.8868665813112
 20
79.90551541132138
 30
0.0
 40
2.28600001335144
 41
0.0
 71
     2
 72
     1
  1
\A1; 31.3 mm\P[1 15/64 in]
  7
Dim Text {c3}
 73
     1
 44
1.0
1001
ACAD
1000
MTEXTBEGIN
1070
    73
1070
     1
1070
    44
1040
1.0
1070
    74
1070
     0
1000
MTEXTEND
  0
POINT
  5
753
330
634
100
AcDbEntity
  8
Defpoints
 62
     0
100
AcDbPoint
 10
117.2618665813112
 20
84.4813770434381
 30
0.0
  0
POINT
  5
754
330
634
100
AcDbEntity
  8
Defpoints
 62
     0
100
AcDbPoint
 10
148.5118665813112
 20
84.4813770434381
 30
0.0
  0
POINT
  5
755
330
634
100
AcDbEntity
  8
Defpoints
 62
     0
100
AcDbPoint
 10
148.5118665813112
 20
76.48137704343811
 30
0.0
  0
ENDBLK
  5
636
330
634
100
AcDbEntity
  8
0
100
AcDbBlockEnd
  0
BLOCK
  5
758
330
757
100
AcDbEntity
  8
0
100
AcDbBlockBegin
  2
*D10
 70
     1
 10
0.0
 20
0.0
 30
0.0
  3
*D10
  1

  0
LINE
  5
876
330
757
100
AcDbEntity
  8
Dimension {c3}
 62
   176
100
AcDbLine
 10
116.4617665813112
 20
84.4813770434381
 30
0.0
 11
86.67436658131125
 21
84.48137704343812
 31
0.0
  0
LINE
  5
877
330
757
100
AcDbEntity
  8
Dimension {c3}
 62
   176
100
AcDbLine
 10
133.8490739336129
 20
128.8329648157682
 30
0.0
 11
86.67436658131126
 21
128.8329648157682
 31
0.0
  0
LINE
  5
878
330
757
100
AcDbEntity
  8
Dimension {c3}
 62
   176
100
AcDbLine
 10
88.26186658131124
 20
85.73137704343812
 30
0.0
 11
88.26186658131126
 21
99.68165846675278
 31
0.0
  0
LINE
  5
879
330
757
100
AcDbEntity
  8
Dimension {c3}
 62
   176
100
AcDbLine
 10
88.26186658131126
 20
127.5829648157682
 30
0.0
 11
88.26186658131126
 21
113.6326833924535
 31
0.0
  0
SOLID
  5
87A
330
757
100
AcDbEntity
  8
Dimension {c3}
 62
   176
100
AcDbTrace
 10
88.0535332479779
 20
85.73137704343812
 30
0.0
 11
88.47019991464456
 21
85.73137704343812
 31
0.0
 12
88.26186658131124
 22
84.48137704343812
 32
0.0
 13
88.26186658131124
 23
84.48137704343812
 33
0.0
  0
SOLID
  5
87B
330
757
100
AcDbEntity
  8
Dimension {c3}
 62
   176
100
AcDbTrace
 10
88.05353324797792
 20
127.5829648157682
 30
0.0
 11
88.47019991464458
 21
127.5829648157682
 31
0.0
 12
88.26186658131126
 22
128.8329648157682
 32
0.0
 13
88.26186658131126
 23
128.8329648157682
 33
0.0
  0
MTEXT
  5
87C
330
757
100
AcDbEntity
  8
Dimension {c3}
 62
   176
100
AcDbMText
 10
84.86152472129026
 20
106.6571709296032
 30
0.0
 40
2.28600001335144
 41
0.0
 71
     2
 72
     1
  1
\A1; 44.4 mm\P[1 3/4 in]
  7
Dim Text {c3}
 11
0.0000000000000001
 21
1.0
 31
0.0
 73
     1
 44
1.0
1001
ACAD
1000
MTEXTBEGIN
1070
    73
1070
     1
1070
    44
1040
1.0
1070
    74
1070
     0
1000
MTEXTEND
  0
POINT
  5
87D
330
757
100
AcDbEntity
  8
Defpoints
 62
     0
100
AcDbPoint
 10
117.2618665813112
 20
84.4813770434381
 30
0.0
  0
POINT
  5
87E
330
757
100
AcDbEntity
  8
Defpoints
 62
     0
100
AcDbPoint
 10
134.6491739336129
 20
128.8329648157682
 30
0.0
  0
POINT
  5
87F
330
757
100
AcDbEntity
  8
Defpoints
 62
     0
100
AcDbPoint
 10
88.26186658131126
 20
128.8329648157682
 30
0.0
  0
ENDBLK
  5
759
330
757
100
AcDbEntity
  8
0
100
AcDbBlockEnd
  0
ENDSEC
  0
SECTION
  2
ENTITIES
  0
INSERT
  5
136
330
6C
100
AcDbEntity
  8
0
100
AcDbBlockReference
  2
Borders c3 - Border
 10
0.0
 20
0.0
 30
0.0
 41
0.5
 42
0.5
 43
0.5
  0
INSERT
  5
199
330
6C
100
AcDbEntity
  8
0
100
AcDbBlockReference
 66
     1
  2
Title Blocks c3-mm[in] (C)
 10
138.0831102759423
 20
-130.9014919345418
 30
0.0
 41
0.5
 42
0.5
 43
0.5
  0
ATTRIB
  5
19C
102
{ACAD_XDICTIONARY
360
8A8
102
}
330
199
100
AcDbEntity
  8
Title {c3}
100
AcDbText
 10
191.2325674445291
 20
23.66674455469986
 30
0.0
 40
1.587499976158142
  1
D. Hehman
  7
Text Style9
100
AcDbAttribute
  2
AUTHOR_001
 70
     0
  0
ATTRIB
  5
19D
102
{ACAD_XDICTIONARY
360
8AB
102
}
330
199
100
AcDbEntity
  8
Title {c3}
100
AcDbText
 10
191.4062290945174
 20
18.23705928017425
 30
0.0
 40
1.587499976158142
  1
D. Hehman
  7
Text Style39
100
AcDbAttribute
  2
AUTHOR_001
 70
     0
  0
ATTRIB
  5
19E
102
{ACAD_XDICTIONARY
360
8AE
102
}
330
199
100
AcDbEntity
  8
Title {c3}
100
AcDbText
 10
196.85
 20
12.85875001192094
 30
0.0
 40
1.587499976158142
  1

  7
Text Style39
 72
     1
 11
196.85
 21
13.65250000000001
 31
0.0
100
AcDbAttribute
  2
CHECKED_BY
 70
     0
 74
     2
  0
ATTRIB
  5
19F
102
{ACAD_XDICTIONARY
360
8B1
102
}
330
199
100
AcDbEntity
  8
Title {c3}
100
AcDbText
 10
191.8961258299403
 20
7.598250513557175
 30
0.0
 40
1.587499976158142
  1
9/19/2011
  7
Text Style39
100
AcDbAttribute
  2
CREATION_DATE_001
 70
     0
  0
ATTRIB
  5
1A0
102
{ACAD_XDICTIONARY
360
8B4
102
}
330
199
100
AcDbEntity
  8
Title {c3}
100
AcDbText
 10
210.5095366111772
 20
7.458584632511699
 30
0.0
 40
1.587499976158142
  1
1
  7
Text Style39
100
AcDbAttribute
  2
Rev_#_001
 70
     0
  0
ATTRIB
  5
1A1
102
{ACAD_XDICTIONARY
360
8B7
102
}
330
199
100
AcDbEntity
  8
Title {c3}
100
AcDbText
 10
227.957643586209
 20
7.445257735465374
 30
0.0
 40
1.587499976158142
  1
2 : 1
  7
Text Style39
100
AcDbAttribute
  2
Scale_001
 70
     0
  0
ATTRIB
  5
1A2
102
{ACAD_XDICTIONARY
360
8BA
102
}
330
199
100
AcDbEntity
  8
Title {c3}
100
AcDbText
 10
245.7485184009561
 20
7.461250011920964
 30
0.0
 40
1.587499976158142
  1
22P90101G01
  7
Text Style39
100
AcDbAttribute
  2
PART_NUMBER_001
 70
     0
  0
ATTRIB
  5
1A3
102
{ACAD_XDICTIONARY
360
8BD
102
}
330
199
100
AcDbEntity
  8
Title {c3}
100
AcDbText
 10
217.1680802579711
 20
16.73069339504655
 30
0.0
 40
1.905000060796737
  1
OD 22mm IEC Bracket Subassembly
  7
Text Style76
100
AcDbAttribute
  2
DESCRIPTION_001
 70
     0
  0
SEQEND
  5
19B
330
199
100
AcDbEntity
  8
0
  0
LINE
  5
1A4
330
6C
100
AcDbEntity
  8
Visible {c3}
100
AcDbLine
 10
141.8868665813112
 20
87.83137704343809
 30
0.0
 11
141.8868665813112
 21
88.5813770434381
 31
0.0
  0
LINE
  5
1A5
330
6C
100
AcDbEntity
  8
Visible {c3}
100
AcDbLine
 10
141.8868665813112
 20
88.5813770434381
 30
0.0
 11
146.9606525079713
 21
88.5813770434381
 31
0.0
  0
LINE
  5
1A6
330
6C
100
AcDbEntity
  8
Visible {c3}
100
AcDbLine
 10
147.1368665813112
 20
87.83137704343809
 30
0.0
 11
141.8868665813112
 21
87.83137704343809
 31
0.0
  0
LINE
  5
1A7
330
6C
100
AcDbEntity
  8
Visible {c3}
100
AcDbLine
 10
141.8868665813112
 20
88.5813770434381
 30
0.0
 11
141.8868665813112
 21
88.6966741578608
 31
0.0
  0
LINE
  5
1A8
330
6C
100
AcDbEntity
  8
Visible {c3}
100
AcDbLine
 10
139.6118665813112
 20
88.5813770434381
 30
0.0
 11
139.6118665813112
 21
88.6966741578608
 31
0.0
  0
ELLIPSE
  5
1A9
330
6C
100
AcDbEntity
  8
Visible {c3}
100
AcDbEllipse
 10
146.9606525079713
 20
88.46645482169465
 30
0.0
 11
0.1762140733399406
 21
-0.0000000000000001
 31
0.0
210
0.0
220
0.0
230
1.0
 40
0.6521739130434784
 41
0.0
 42
1.570796326794896
  0
LINE
  5
1AA
330
6C
100
AcDbEntity
  8
Visible {c3}
100
AcDbLine
 10
146.9606525079713
 20
88.6966741578608
 30
0.0
 11
141.8868665813112
 21
88.6966741578608
 31
0.0
  0
LINE
  5
1AB
330
6C
100
AcDbEntity
  8
Visible {c3}
100
AcDbLine
 10
134.5647559164508
 20
88.75956349300043
 30
0.0
 11
147.1368665813112
 21
88.75956349300043
 31
0.0
  0
LINE
  5
1AC
330
6C
100
AcDbEntity
  8
Visible {c3}
100
AcDbLine
 10
134.5018665813112
 20
88.6966741578608
 30
0.0
 11
134.5647559164508
 21
88.75956349300043
 31
0.0
  0
LINE
  5
1AD
330
6C
100
AcDbEntity
  8
Visible {c3}
100
AcDbLine
 10
141.8868665813112
 20
88.6966741578608
 30
0.0
 11
134.5018665813112
 21
88.6966741578608
 31
0.0
  0
LINE
  5
1AE
330
6C
100
AcDbEntity
  8
Visible {c3}
100
AcDbLine
 10
147.1368665813112
 20
88.6966741578608
 30
0.0
 11
146.9606525079713
 21
88.6966741578608
 31
0.0
  0
LINE
  5
1AF
330
6C
100
AcDbEntity
  8
Visible {c3}
100
AcDbLine
 10
147.1368665813112
 20
88.75956349300043
 30
0.0
 11
147.1368665813112
 21
86.25170569294953
 31
0.0
  0
LINE
  5
1B0
330
6C
100
AcDbEntity
  8
Visible {c3}
100
AcDbLine
 10
147.1368665813112
 20
86.25170569294953
 30
0.0
 11
118.6368665813112
 21
86.25170569294953
 31
0.0
  0
LINE
  5
1B1
330
6C
100
AcDbEntity
  8
Visible {c3}
100
AcDbLine
 10
118.6368665813112
 20
86.25170569294953
 30
0.0
 11
118.6368665813112
 21
88.75956349300043
 31
0.0
  0
LINE
  5
1B2
330
6C
100
AcDbEntity
  8
Visible {c3}
100
AcDbLine
 10
128.6368665813112
 20
86.28137704343812
 30
0.0
 11
126.6868665813112
 21
86.28137704343812
 31
0.0
  0
LINE
  5
1B3
330
6C
100
AcDbEntity
  8
Visible {c3}
100
AcDbLine
 10
139.0868665813112
 20
86.28137704343812
 30
0.0
 11
137.1368665813112
 21
86.28137704343812
 31
0.0
  0
LINE
  5
1B4
330
6C
100
AcDbEntity
  8
Visible {c3}
100
AcDbLine
 10
118.6368665813112
 20
117.6813770434381
 30
0.0
 11
118.6368665813112
 21
116.2813770434381
 31
0.0
  0
LINE
  5
1B5
330
6C
100
AcDbEntity
  8
Visible {c3}
100
AcDbLine
 10
147.1368665813112
 20
117.6813770434381
 30
0.0
 11
147.1368665813112
 21
116.2813770434381
 31
0.0
  0
LINE
  5
1B6
330
6C
100
AcDbEntity
  8
Visible {c3}
100
AcDbLine
 10
139.0868665813112
 20
86.28137704343812
 30
0.0
 11
147.1368665813112
 21
86.28137704343812
 31
0.0
  0
LINE
  5
1B7
330
6C
100
AcDbEntity
  8
Visible {c3}
100
AcDbLine
 10
128.6368665813112
 20
86.28137704343812
 30
0.0
 11
137.1368665813112
 21
86.28137704343812
 31
0.0
  0
LINE
  5
1B8
330
6C
100
AcDbEntity
  8
Visible {c3}
100
AcDbLine
 10
118.6368665813112
 20
86.28137704343812
 30
0.0
 11
126.6868665813112
 21
86.28137704343812
 31
0.0
  0
ARC
  5
1B9
330
6C
100
AcDbEntity
  8
Visible {c3}
100
AcDbCircle
 10
132.8868665813112
 20
101.0813770434381
 30
0.0
 40
9.899999999999996
100
AcDbArc
 50
14.86731221565247
 51
92.53624462977935
  0
ARC
  5
1BA
330
6C
100
AcDbEntity
  8
Visible {c3}
100
AcDbCircle
 10
132.8868665813112
 20
101.0813770434381
 30
0.0
 40
9.899999999999998
100
AcDbArc
 50
280.23149872891
 51
0.7813776136145378
  0
ARC
  5
1BB
330
6C
100
AcDbEntity
  8
Visible {c3}
100
AcDbCircle
 10
132.8868665813112
 20
101.0813770434381
 30
0.0
 40
9.899999999999998
100
AcDbArc
 50
194.8673122156535
 51
273.9699236210382
  0
ARC
  5
1BC
330
6C
100
AcDbEntity
  8
Visible {c3}
100
AcDbCircle
 10
132.8868665813112
 20
101.0813770434381
 30
0.0
 40
9.9
100
AcDbArc
 50
103.1267761135793
 51
180.7813776136145
  0
LINE
  5
1BD
330
6C
100
AcDbEntity
  8
Visible {c3}
100
AcDbLine
 10
141.4666655647612
 20
103.4471854472594
 30
0.0
 11
142.4554405068008
 21
103.6215331473894
 31
0.0
  0
ARC
  5
1BE
330
6C
100
AcDbEntity
  8
Visible {c3}
100
AcDbCircle
 10
132.8868665813112
 20
101.0813770434381
 30
0.0
 40
8.900000000000003
100
AcDbArc
 50
15.41575249341033
 51
21.93146810861768
  0
LINE
  5
1BF
330
6C
100
AcDbEntity
  8
Visible {c3}
100
AcDbLine
 10
142.1470786284204
 20
104.5825872402948
 30
0.0
 11
141.1427848027488
 21
104.4055031422699
 31
0.0
  0
ARC
  5
1C0
330
6C
100
AcDbEntity
  8
Visible {c3}
100
AcDbCircle
 10
132.8868665813112
 20
101.0813770434381
 30
0.0
 40
8.900000000000014
100
AcDbArc
 50
359.7349367316843
 51
15.41575249341057
  0
ARC
  5
1C1
330
6C
100
AcDbEntity
  8
Visible {c3}
100
AcDbCircle
 10
132.8868665813112
 20
101.0813770434382
 30
0.0
 40
9.061311667930585
100
AcDbArc
 50
273.4094291113547
 51
280.2529257030262
  0
LINE
  5
1C2
330
6C
100
AcDbEntity
  8
Visible {c3}
100
AcDbLine
 10
133.4257486954556
 20
92.03610340410428
 30
0.0
 11
133.5722714104585
 21
91.20513179434766
 31
0.0
  0
ARC
  5
1C3
330
6C
100
AcDbEntity
  8
Visible {c3}
100
AcDbCircle
 10
132.8868665813112
 20
101.0813770434381
 30
0.0
 40
8.900000000000025
100
AcDbArc
 50
179.7349367316843
 51
195.4157524934105
  0
ARC
  5
1C4
330
6C
100
AcDbEntity
  8
Visible {c3}
100
AcDbCircle
 10
132.8868665813112
 20
101.081377043438
 30
0.0
 40
9.061311667930528
100
AcDbArc
 50
91.84091724318108
 51
103.4165101992263
  0
LINE
  5
1C5
330
6C
100
AcDbEntity
  8
Visible {c3}
100
AcDbLine
 10
141.7867713426967
 20
101.0402037721553
 30
0.0
 11
142.7859459724893
 21
101.2163852178271
 31
0.0
  0
LINE
  5
1C6
330
6C
100
AcDbEntity
  8
Visible {c3}
100
AcDbLine
 10
123.9869618199257
 20
101.1225503147209
 30
0.0
 11
122.9877871901331
 21
100.946368869049
 31
0.0
  0
LINE
  5
1C7
330
6C
100
AcDbEntity
  8
Visible {c3}
100
AcDbLine
 10
132.5957761190976
 20
110.1380119309766
 30
0.0
 11
132.4487780713976
 21
110.9716792864174
 31
0.0
  0
LINE
  5
1C8
330
6C
100
AcDbEntity
  8
Visible {c3}
100
AcDbLine
 10
134.4997238188123
 20
92.16475993408479
 30
0.0
 11
134.6453618181011
 21
91.33880579647319
 31
0.0
  0
ARC
  5
1C9
330
6C
100
AcDbEntity
  8
Visible {c3}
100
AcDbCircle
 10
132.8868665813112
 20
101.0813770434381
 30
0.0
 40
9.061311667930427
100
AcDbArc
 50
280.2529257030263
 51
286.5905708886455
  0
LINE
  5
1CA
330
6C
100
AcDbEntity
  8
Visible {c3}
100
AcDbLine
 10
135.6206715367239
 20
91.56632000389487
 30
0.0
 11
135.474148821721
 21
92.39729161365149
 31
0.0
  0
LINE
  5
1CB
330
6C
100
AcDbEntity
  8
Visible {c3}
100
AcDbLine
 10
124.3070675978613
 20
98.7155686396168
 30
0.0
 11
123.3182926558216
 21
98.54122093948676
 31
0.0
  0
ARC
  5
1CC
330
6C
100
AcDbEntity
  8
Visible {c3}
100
AcDbCircle
 10
132.8868665813112
 20
101.0813770434381
 30
0.0
 40
8.900000000000003
100
AcDbArc
 50
195.4157524934104
 51
201.9314681086178
  0
LINE
  5
1CD
330
6C
100
AcDbEntity
  8
Visible {c3}
100
AcDbLine
 10
123.626654534202
 20
97.58016684658143
 30
0.0
 11
124.6309483598736
 21
97.75725094460625
 31
0.0
  0
LINE
  5
1CE
330
6C
100
AcDbEntity
  8
Visible {c3}
100
AcDbLine
 10
130.7843866875969
 20
109.8953969798745
 30
0.0
 11
130.6385127048597
 21
110.7226894461271
 31
0.0
  0
ARC
  5
1CF
330
6C
100
AcDbEntity
  8
Visible {c3}
100
AcDbCircle
 10
132.8868665813112
 20
101.0813770434381
 30
0.0
 40
9.061311667930429
100
AcDbArc
 50
103.4165101992262
 51
109.7851049851892
  0
LINE
  5
1D0
330
6C
100
AcDbEntity
  8
Visible {c3}
100
AcDbLine
 10
129.6720722435973
 20
110.4448751806837
 30
0.0
 11
129.8196731946142
 21
109.6077885906233
 31
0.0
  0
ELLIPSE
  5
1D1
330
6C
100
AcDbEntity
  8
Visible {c3}
100
AcDbEllipse
 10
129.8260517151893
 20
123.2851173196939
 30
0.0
 11
0.3827760695609539
 21
0.4561747560583556
 31
0.0
210
0.0
220
0.0
230
1.0
 40
0.9996954598818874
 41
5.497939437029735
 42
7.068431177329454
  0
ELLIPSE
  5
1D2
330
6C
100
AcDbEntity
  8
Visible {c3}
100
AcDbEllipse
 10
129.6318714978411
 20
125.504607360146
 30
0.0
 11
0.4561747560583576
 21
-0.3827760695609515
 31
0.0
210
0.0
220
0.0
230
1.0
 40
0.9996954598818874
 41
5.49793943702973
 42
7.068431177329447
  0
ELLIPSE
  5
1D3
330
6C
100
AcDbEntity
  8
Visible {c3}
100
AcDbEllipse
 10
131.8513615382932
 20
125.6987875774943
 30
0.0
 11
-0.3827760695609539
 21
-0.4561747560583556
 31
0.0
210
0.0
220
0.0
230
1.0
 40
0.9996954598818874
 41
5.497939437029735
 42
7.068431177329454
  0
ELLIPSE
  5
1D4
330
6C
100
AcDbEntity
  8
Visible {c3}
100
AcDbEllipse
 10
132.0455417556414
 20
123.4792975370422
 30
0.0
 11
-0.4561747560583576
 21
0.3827760695609515
 31
0.0
210
0.0
220
0.0
230
1.0
 40
0.9996954598818874
 41
5.49793943702973
 42
7.068431177329447
  0
LINE
  5
1D5
330
6C
100
AcDbEntity
  8
Visible {c3}
100
AcDbLine
 10
129.7743395702267
 20
123.8782706194628
 30
0.0
 11
127.9266193921553
 21
123.7166160505134
 31
0.0
  0
LINE
  5
1D6
330
6C
100
AcDbEntity
  8
Visible {c3}
100
AcDbLine
 10
127.9266193921553
 20
123.7166160505134
 30
0.0
 11
127.8362247880675
 21
124.7498311031235
 31
0.0
  0
LINE
  5
1D7
330
6C
100
AcDbEntity
  8
Visible {c3}
100
AcDbLine
 10
127.8362247880675
 20
124.7498311031235
 30
0.0
 11
129.683944966139
 21
124.9114856720729
 31
0.0
  0
LINE
  5
1D8
330
6C
100
AcDbEntity
  8
Visible {c3}
100
AcDbLine
 10
130.2250247976099
 20
125.5563195051087
 30
0.0
 11
130.1396315035648
 21
126.5323693223498
 31
0.0
  0
LINE
  5
1D9
330
6C
100
AcDbEntity
  8
Visible {c3}
100
AcDbLine
 10
130.1396315035648
 20
126.5323693223498
 30
0.0
 11
131.1728465561748
 21
126.6227639264375
 31
0.0
  0
LINE
  5
1DA
330
6C
100
AcDbEntity
  8
Visible {c3}
100
AcDbLine
 10
131.1728465561748
 20
126.6227639264375
 30
0.0
 11
131.25823985022
 21
125.6467141091964
 31
0.0
  0
LINE
  5
1DB
330
6C
100
AcDbEntity
  8
Visible {c3}
100
AcDbLine
 10
131.9030736832558
 20
125.1056342777254
 30
0.0
 11
133.7507938613272
 21
125.2672888466748
 31
0.0
  0
LINE
  5
1DC
330
6C
100
AcDbEntity
  8
Visible {c3}
100
AcDbLine
 10
133.7507938613272
 20
125.2672888466748
 30
0.0
 11
133.8411884654149
 21
124.2340737940647
 31
0.0
  0
LINE
  5
1DD
330
6C
100
AcDbEntity
  8
Visible {c3}
100
AcDbLine
 10
133.8411884654149
 20
124.2340737940647
 30
0.0
 11
131.9934682873435
 21
124.0724192251153
 31
0.0
  0
LINE
  5
1DE
330
6C
100
AcDbEntity
  8
Visible {c3}
100
AcDbLine
 10
131.4523884558726
 20
123.4275853920796
 30
0.0
 11
131.5377817499177
 21
122.4515355748384
 31
0.0
  0
LINE
  5
1DF
330
6C
100
AcDbEntity
  8
Visible {c3}
100
AcDbLine
 10
131.5377817499177
 20
122.4515355748384
 30
0.0
 11
130.5045666973076
 21
122.3611409707507
 31
0.0
  0
LINE
  5
1E0
330
6C
100
AcDbEntity
  8
Visible {c3}
100
AcDbLine
 10
130.5045666973076
 20
122.3611409707507
 30
0.0
 11
130.4191734032625
 21
123.3371907879918
 31
0.0
  0
LINE
  5
1E1
330
6C
100
AcDbEntity
  8
Visible {c3}
100
AcDbLine
 10
143.2574899927505
 20
97.08137704343812
 30
0.0
 11
143.1252792982972
 21
97.08137704343812
 31
0.0
  0
ARC
  5
1E2
330
6C
100
AcDbEntity
  8
Visible {c3}
100
AcDbCircle
 10
134.9977969046036
 20
122.8481860234012
 30
0.0
 40
1.999999999999984
100
AcDbArc
 50
274.9999999999996
 51
321.9487422415457
  0
SPLINE
  5
1E3
330
6C
100
AcDbEntity
  8
Visible {c3}
100
AcDbSpline
210
0.0
220
0.0
230
1.0
 70
     8
 71
     3
 72
    20
 73
    16
 74
     0
 42
0.0000000001
 43
0.0000000001
 40
-0.0783397028446919
 40
-0.0783397028446919
 40
-0.0783397028446919
 40
-0.0783397028446919
 40
-0.0585746649688671
 40
-0.0585746649688671
 40
-0.0388092787219603
 40
-0.0388092787219603
 40
-0.0190431476392822
 40
-0.0190431476392822
 40
-0.0088039123129608
 40
-0.0088039123129608
 40
-0.0036393695670303
 40
-0.0036393695670303
 40
0.0
 40
0.0
 40
0.0013369609828215
 40
0.0013369609828215
 40
0.0013369609828215
 40
0.0013369609828215
 10
136.5727162192723
 20
121.6154536305912
 30
0.0
 10
136.5727162192724
 20
121.6154536305913
 30
0.0
 10
136.5626509112454
 20
121.6234716140489
 30
0.0
 10
136.523518836846
 20
121.6546363389746
 30
0.0
 10
136.4948258382996
 20
121.6774852128459
 30
0.0
 10
136.4224052662199
 20
121.735131688608
 30
0.0
 10
136.3793694010629
 20
121.7693783081728
 30
0.0
 10
136.3073475751041
 20
121.8266588323499
 30
0.0
 10
136.2817719332664
 20
121.8469945050658
 30
0.0
 10
136.2423812667981
 20
121.8783048560249
 30
0.0
 10
136.2290453791014
 20
121.8889034851979
 30
0.0
 10
136.2061804469272
 20
121.9070722464035
 30
0.0
 10
136.1966976167764
 20
121.9146065456307
 30
0.0
 10
136.1837140229493
 20
121.9249210175418
 30
0.0
 10
136.1802246726256
 20
121.9276929158645
 30
0.0
 10
136.1767351090732
 20
121.9304648582818
 30
0.0
  0
ARC
  5
1E4
330
6C
100
AcDbEntity
  8
Visible {c3}
100
AcDbCircle
 10
132.8868665813112
 20
101.0813770434381
 30
0.0
 40
14.00000000000001
100
AcDbArc
 50
242.204995444567
 51
297.7950045554329
  0
ARC
  5
1E5
330
6C
100
AcDbEntity
  8
Visible {c3}
100
AcDbCircle
 10
127.141327054187
 20
114.1175348315398
 30
0.0
 40
1.587499999999999
100
AcDbArc
 50
335.7722160040629
 51
5.000000000000142
  0
LINE
  5
1E6
330
6C
100
AcDbEntity
  8
Visible {c3}
100
AcDbLine
 10
128.1987455034567
 20
120.2457064279842
 30
0.0
 11
128.7227861374077
 21
114.2558945731517
 31
0.0
  0
LINE
  5
1E7
330
6C
100
AcDbEntity
  8
Visible {c3}
100
AcDbLine
 10
128.1987455034567
 20
120.2457064279842
 30
0.0
 11
128.6586974848459
 21
120.7938558542256
 31
0.0
  0
LINE
  5
1E8
330
6C
100
AcDbEntity
  8
Visible {c3}
100
AcDbLine
 10
127.2025508053649
 20
120.1585506852365
 30
0.0
 11
128.1987455034567
 21
120.2457064279842
 31
0.0
  0
ARC
  5
1E9
330
6C
100
AcDbEntity
  8
Visible {c3}
100
AcDbCircle
 10
127.0282393198696
 20
122.15094008142
 30
0.0
 40
1.999999999999999
100
AcDbArc
 50
185.0
 51
275.0000000000001
  0
LINE
  5
1EA
330
6C
100
AcDbEntity
  8
Visible {c3}
100
AcDbLine
 10
124.6872269526955
 20
125.9614073882916
 30
0.0
 11
125.0358499236861
 21
121.9766285959247
 31
0.0
  0
ARC
  5
1EB
330
6C
100
AcDbEntity
  8
Visible {c3}
100
AcDbCircle
 10
126.6796163488789
 20
126.135718873787
 30
0.0
 40
2.0
100
AcDbArc
 50
95.00000000000008
 51
185.0
  0
LINE
  5
1EC
330
6C
100
AcDbEntity
  8
Visible {c3}
100
AcDbLine
 10
134.4748624481176
 20
128.8253542119517
 30
0.0
 11
126.5053048633836
 21
128.1281082699704
 31
0.0
  0
ARC
  5
1ED
330
6C
100
AcDbEntity
  8
Visible {c3}
100
AcDbCircle
 10
134.6491739336129
 20
126.8329648157682
 30
0.0
 40
2.000000000000034
100
AcDbArc
 50
48.05125775846025
 51
95.0
  0
SPLINE
  5
1EE
330
6C
100
AcDbEntity
  8
Visible {c3}
100
AcDbSpline
210
0.0
220
0.0
230
1.0
 70
     8
 71
     3
 72
    20
 73
    16
 74
     0
 42
0.0000000001
 43
0.0000000001
 40
-0.0796765316125099
 40
-0.0796765316125099
 40
-0.0796765316125099
 40
-0.0796765316125099
 40
-0.0783395728481856
 40
-0.0783395728481856
 40
-0.0747002093203562
 40
-0.0747002093203562
 40
-0.0695356751444622
 40
-0.0695356751444622
 40
-0.0592964568090956
 40
-0.0592964568090956
 40
-0.0395303585262213
 40
-0.0395303585262213
 40
-0.0197650050778566
 40
-0.0197650050778566
 40
0.0
 40
0.0
 40
0.0
 40
0.0
 10
135.6508408097661
 20
127.9414642050707
 30
0.0
 10
135.6537960162579
 20
127.9447999918061
 30
0.0
 10
135.6567510204188
 20
127.9481356980883
 30
0.0
 10
135.6677462750296
 20
127.9605480474039
 30
0.0
 10
135.6757767223532
 20
127.9696145598694
 30
0.0
 10
135.6951393125556
 20
127.9914777505722
 30
0.0
 10
135.7064321655115
 20
128.0042311153487
 30
0.0
 10
135.7397874138592
 20
128.0419059091727
 30
0.0
 10
135.761443251721
 20
128.0663738009231
 30
0.0
 10
135.8224242456718
 20
128.1352905640599
 30
0.0
 10
135.8588594362574
 20
128.1764900000802
 30
0.0
 10
135.9201695716541
 20
128.2458363967118
 30
0.0
 10
135.9444589937702
 20
128.2733206317574
 30
0.0
 10
135.9775848663395
 20
128.3108071078923
 30
0.0
 10
135.9861049515047
 20
128.3204511025618
 30
0.0
 10
135.9861049515048
 20
128.3204511025616
 30
0.0
  0
LINE
  5
1EF
330
6C
100
AcDbEntity
  8
Visible {c3}
100
AcDbLine
 10
134.1759136920071
 20
120.7686408844701
 30
0.0
 11
135.1721083900988
 21
120.8557966272178
 31
0.0
  0
LINE
  5
1F0
330
6C
100
AcDbEntity
  8
Visible {c3}
100
AcDbLine
 10
134.1759136920071
 20
120.7686408844701
 30
0.0
 11
133.6277642657657
 21
121.2285928658593
 31
0.0
  0
LINE
  5
1F1
330
6C
100
AcDbEntity
  8
Visible {c3}
100
AcDbLine
 10
134.699793713353
 20
114.780664840115
 30
0.0
 11
134.1759136920071
 21
120.7686408844701
 31
0.0
  0
ARC
  5
1F2
330
6C
100
AcDbEntity
  8
Visible {c3}
100
AcDbCircle
 10
136.2812527965736
 20
114.9190245817269
 30
0.0
 40
1.587499999999993
100
AcDbArc
 50
185.0000000000001
 51
246.2399365045407
  0
LINE
  5
1F3
330
6C
100
AcDbEntity
  8
Visible {c3}
100
AcDbLine
 10
138.0602786324262
 20
126.5190276891062
 30
0.0
 11
135.9861049515048
 21
128.3204511025616
 31
0.0
  0
ARC
  5
1F4
330
6C
100
AcDbEntity
  8
Visible {c3}
100
AcDbCircle
 10
136.7488358814481
 20
125.0090217583539
 30
0.0
 40
1.999999999999988
100
AcDbArc
 50
320.974371120772
 51
49.02562887922805
  0
LINE
  5
1F5
330
6C
100
AcDbEntity
  8
Visible {c3}
100
AcDbLine
 10
136.5727162192723
 20
121.6154536305912
 30
0.0
 11
138.3025646483844
 21
123.7496858544764
 31
0.0
  0
LINE
  5
1F6
330
6C
100
AcDbEntity
  8
Visible {c3}
100
AcDbLine
 10
142.5878652412431
 20
99.10637704343812
 30
0.0
 11
141.7550163795156
 21
99.10637704343812
 31
0.0
  0
SPLINE
  5
1F7
330
6C
100
AcDbEntity
  8
Visible {c3}
100
AcDbSpline
210
0.0
220
0.0
230
1.0
 70
    28
 71
     2
 72
     6
 73
     3
 74
     0
 42
0.0000000001
 43
0.0000000001
 40
19.07150266997758
 40
19.07150266997758
 40
19.07150266997758
 40
19.21186090934329
 40
19.21186090934329
 40
19.21186090934329
 10
141.7550163795193
 20
99.10637704343811
 30
0.0
 41
1.798687245056225
 10
141.7375477304932
 20
99.10637704343812
 30
0.0
 41
1.801464412859723
 10
141.7201445206263
 20
99.10637704343812
 30
0.0
 41
1.804239198612875
  0
ARC
  5
1F8
330
6C
100
AcDbEntity
  8
Visible {c3}
100
AcDbCircle
 10
132.8868665813112
 20
101.0813770434381
 30
0.0
 40
9.051376920288138
100
AcDbArc
 50
21.72906376909731
 51
79.97914209073202
  0
ARC
  5
1F9
330
6C
100
AcDbEntity
  8
Visible {c3}
100
AcDbCircle
 10
132.8868665813112
 20
101.0813770434381
 30
0.0
 40
9.051376920288134
100
AcDbArc
 50
201.7290637690972
 51
263.0515623635218
  0
SPLINE
  5
1FA
330
6C
100
AcDbEntity
  8
Visible {c3}
100
AcDbSpline
210
0.0
220
0.0
230
1.0
 70
    28
 71
     2
 72
     6
 73
     3
 74
     0
 42
0.0000000001
 43
0.0000000001
 40
11.27343796393504
 40
11.27343796393504
 40
11.27343796393504
 40
11.29786999623862
 40
11.29786999623862
 40
11.29786999623862
 10
133.9818665813112
 20
92.08647047675427
 30
0.0
 41
1.872158129837467
 10
133.9818665813112
 20
92.09147730774704
 30
0.0
 41
1.873074746206946
 10
133.9818665813112
 20
92.09647864929145
 30
0.0
 41
1.873991239203601
  0
ARC
  5
1FB
330
6C
100
AcDbEntity
  8
Visible {c3}
100
AcDbCircle
 10
132.8868665813112
 20
101.0813770434382
 30
0.0
 40
9.085411704672027
100
AcDbArc
 50
80.01706642926551
 51
91.8627069905826
  0
ARC
  5
1FC
330
6C
100
AcDbEntity
  8
Visible {c3}
100
AcDbCircle
 10
132.8868665813111
 20
101.0813770434381
 30
0.0
 40
9.085411704672166
100
AcDbArc
 50
347.4447204546393
 51
359.946622501702
  0
ARC
  5
1FD
330
6C
100
AcDbEntity
  8
Visible {c3}
100
AcDbCircle
 10
132.8868665813112
 20
101.081377043438
 30
0.0
 40
9.085411704672056
100
AcDbArc
 50
263.0777194824241
 51
273.4269885165712
  0
ARC
  5
1FE
330
6C
100
AcDbEntity
  8
Visible {c3}
100
AcDbCircle
 10
132.8868665813111
 20
101.0813770434381
 30
0.0
 40
9.085411704671951
100
AcDbArc
 50
167.4447204546392
 51
179.946622501702
  0
SPLINE
  5
1FF
330
6C
100
AcDbEntity
  8
Visible {c3}
100
AcDbSpline
210
0.0
220
0.0
230
1.0
 70
    28
 71
     2
 72
     6
 73
     3
 74
     0
 42
0.0000000001
 43
0.0000000001
 40
374.2916883825966
 40
374.2916883825966
 40
374.2916883825966
 40
374.3751767156504
 40
374.3751767156504
 40
374.3751767156504
 10
131.7918665813112
 20
92.09647864929145
 30
0.0
 41
1.8739912392036
 10
131.7918665813112
 20
92.07936799325578
 30
0.0
 41
1.870859429635107
 10
131.7918665813112
 20
92.06219299811522
 30
0.0
 41
1.867726179438443
  0
ARC
  5
200
330
6C
100
AcDbEntity
  8
Visible {c3}
100
AcDbCircle
 10
132.8868665813112
 20
101.0813770434381
 30
0.0
 40
9.051376920288142
100
AcDbArc
 50
276.9484376364784
 51
347.3967354413519
  0
SPLINE
  5
201
330
6C
100
AcDbEntity
  8
Visible {c3}
100
AcDbSpline
210
0.0
220
0.0
230
1.0
 70
    28
 71
     2
 72
     6
 73
     3
 74
     0
 42
0.0000000001
 43
0.0000000001
 40
15.60620516398277
 40
15.60620516398277
 40
15.60620516398277
 40
15.7215615927953
 40
15.7215615927953
 40
15.7215615927953
 10
134.4618665813112
 20
110.0292304644263
 30
0.0
 41
1.828655590263327
 10
134.4618665813112
 20
110.0119180246605
 30
0.0
 41
1.83158503718792
 10
134.4618665813112
 20
109.9946704388796
 30
0.0
 41
1.83451251583578
  0
SPLINE
  5
202
330
6C
100
AcDbEntity
  8
Visible {c3}
100
AcDbSpline
210
0.0
220
0.0
230
1.0
 70
    28
 71
     2
 72
     6
 73
     3
 74
     0
 42
0.0000000001
 43
0.0000000001
 40
358.8679052340049
 40
358.8679052340049
 40
358.8679052340049
 40
358.9016620762043
 40
358.9016620762043
 40
358.9016620762043
 10
131.3118665813112
 20
109.9946704388796
 30
0.0
 41
1.834512515835779
 10
131.3118665813112
 20
109.9997119134869
 30
0.0
 41
1.833655845464
 10
131.3118665813112
 20
110.0047589215924
 30
0.0
 41
1.832799006543221
  0
ARC
  5
203
330
6C
100
AcDbEntity
  8
Visible {c3}
100
AcDbCircle
 10
132.8868665813112
 20
101.0813770434381
 30
0.0
 40
9.051376920288147
100
AcDbArc
 50
100.0208579092683
 51
167.396735441352
  0
ARC
  5
204
330
6C
100
AcDbEntity
  8
Visible {c3}
100
AcDbCircle
 10
132.8868665813112
 20
101.0813770434381
 30
0.0
 40
9.038286618602002
100
AcDbArc
 50
201.7462930469047
 51
359.8936557940291
  0
ARC
  5
205
330
6C
100
AcDbEntity
  8
Visible {c3}
100
AcDbCircle
 10
132.8868665813112
 20
101.0813770434381
 30
0.0
 40
9.038286618602004
100
AcDbArc
 50
21.74629304690483
 51
179.8936557940291
  0
LINE
  5
206
330
6C
100
AcDbEntity
  8
Visible {c3}
100
AcDbLine
 10
123.1858679213793
 20
103.0563770434381
 30
0.0
 11
124.0187167831068
 21
103.0563770434381
 31
0.0
  0
SPLINE
  5
207
330
6C
100
AcDbEntity
  8
Visible {c3}
100
AcDbSpline
210
0.0
220
0.0
230
1.0
 70
    28
 71
     2
 72
     6
 73
     3
 74
     0
 42
0.0000000001
 43
0.0000000001
 40
19.07150266997753
 40
19.07150266997753
 40
19.07150266997753
 40
19.21186090934324
 40
19.21186090934324
 40
19.21186090934324
 10
124.0187167831031
 20
103.0563770434381
 30
0.0
 41
1.798687245056227
 10
124.0361854321292
 20
103.0563770434381
 30
0.0
 41
1.801464412859724
 10
124.0535886419961
 20
103.0563770434381
 30
0.0
 41
1.804239198612876
  0
ELLIPSE
  5
208
330
6C
100
AcDbEntity
  8
Visible {c3}
100
AcDbEllipse
 10
118.0618665813112
 20
113.4451168173022
 30
0.0
 11
-0.8000000000000001
 21
0.0
 31
0.0
210
0.0
220
0.0
230
1.0
 40
0.0524077792830443
 41
0.0
 42
1.570796326794896
  0
LINE
  5
209
330
6C
100
AcDbEntity
  8
Visible {c3}
100
AcDbLine
 10
117.2618665813112
 20
113.4451168173022
 30
0.0
 11
117.2618665813112
 21
85.3813770434381
 31
0.0
  0
LINE
  5
20A
330
6C
100
AcDbEntity
  8
Visible {c3}
100
AcDbLine
 10
118.0618665813112
 20
85.3813770434381
 30
0.0
 11
117.2618665813112
 21
85.3813770434381
 31
0.0
  0
LINE
  5
20B
330
6C
100
AcDbEntity
  8
Visible {c3}
100
AcDbLine
 10
148.5118665813112
 20
85.3813770434381
 30
0.0
 11
147.7118665813112
 21
85.3813770434381
 31
0.0
  0
ELLIPSE
  5
20C
330
6C
100
AcDbEntity
  8
Visible {c3}
100
AcDbEllipse
 10
147.7118665813112
 20
113.4451168173022
 30
0.0
 11
-0.8000000000000001
 21
0.0
 31
0.0
210
0.0
220
0.0
230
1.0
 40
0.0524077792830443
 41
1.570796326794896
 42
3.14159265358954
  0
LINE
  5
20D
330
6C
100
AcDbEntity
  8
Visible {c3}
100
AcDbLine
 10
148.5118665813112
 20
85.3813770434381
 30
0.0
 11
148.5118665813112
 21
113.4451168173022
 31
0.0
  0
LINE
  5
20E
330
6C
100
AcDbEntity
  8
Visible {c3}
100
AcDbLine
 10
118.0618665813112
 20
85.3813770434381
 30
0.0
 11
147.7118665813112
 21
85.3813770434381
 31
0.0
  0
LINE
  5
20F
330
6C
100
AcDbEntity
  8
Visible {c3}
100
AcDbLine
 10
147.7118665813112
 20
113.4031905938757
 30
0.0
 11
135.3294654131719
 21
113.4031905938757
 31
0.0
  0
LINE
  5
210
330
6C
100
AcDbEntity
  8
Visible {c3}
100
AcDbLine
 10
135.2967272974671
 20
113.4660799290154
 30
0.0
 11
147.1368665813112
 21
113.4660799290154
 31
0.0
  0
LINE
  5
211
330
6C
100
AcDbEntity
  8
Visible {c3}
100
AcDbLine
 10
135.3294654131719
 20
113.4031905938757
 30
0.0
 11
135.2967272974671
 21
113.4660799290154
 31
0.0
  0
LINE
  5
212
330
6C
100
AcDbEntity
  8
Visible {c3}
100
AcDbLine
 10
135.3294654131719
 20
113.4031905938757
 30
0.0
 11
134.9868698516035
 21
112.913913425503
 31
0.0
  0
LINE
  5
213
330
6C
100
AcDbEntity
  8
Visible {c3}
100
AcDbLine
 10
130.786863311019
 20
112.913913425503
 30
0.0
 11
130.4442677494505
 21
113.4031905938757
 31
0.0
  0
LINE
  5
214
330
6C
100
AcDbEntity
  8
Visible {c3}
100
AcDbLine
 10
130.4770058651553
 20
113.4660799290154
 30
0.0
 11
130.8923862957481
 21
112.8728551950247
 31
0.0
  0
LINE
  5
215
330
6C
100
AcDbEntity
  8
Visible {c3}
100
AcDbLine
 10
134.8813468668743
 20
112.8728551950247
 30
0.0
 11
135.2967272974671
 21
113.4660799290154
 31
0.0
  0
SPLINE
  5
216
330
6C
100
AcDbEntity
  8
Visible {c3}
100
AcDbSpline
210
0.0
220
0.0
230
1.0
 70
     8
 71
     3
 72
    18
 73
    14
 74
     0
 42
0.0000000001
 43
0.0000000001
 40
0.0
 40
0.0
 40
0.0
 40
0.0
 40
0.0235341367998468
 40
0.0235341367998468
 40
0.046956151026653
 40
0.046956151026653
 40
0.0703071180370449
 40
0.0703071180370449
 40
0.0936684493215102
 40
0.0936684493215102
 40
0.1057361845692185
 40
0.1057361845692185
 40
0.1178130489033905
 40
0.1178130489033905
 40
0.1178130489033905
 40
0.1178130489033905
 10
135.3458785419246
 20
111.9857391283443
 30
0.0
 10
135.2693530846037
 20
112.0029961685432
 30
0.0
 10
135.1969284906163
 20
112.0350257133293
 30
0.0
 10
135.0688187063324
 20
112.1249318272974
 30
0.0
 10
135.0142947054557
 20
112.1818164887152
 30
0.0
 10
134.9303174128217
 20
112.3131553860509
 30
0.0
 10
134.9016112596273
 20
112.3862709380276
 30
0.0
 10
134.8738375081859
 20
112.5394625120875
 30
0.0
 10
134.8750542828485
 20
112.6180404823978
 30
0.0
 10
134.8996324451443
 20
112.7335427349858
 30
0.0
 10
134.911940721024
 20
112.7719421395446
 30
0.0
 10
134.9440528052985
 20
112.8457347792336
 30
0.0
 10
134.9637810598324
 20
112.8809392135571
 30
0.0
 10
134.9868698516035
 20
112.913913425503
 30
0.0
  0
SPLINE
  5
217
330
6C
100
AcDbEntity
  8
Visible {c3}
100
AcDbSpline
210
0.0
220
0.0
230
1.0
 70
     8
 71
     3
 72
    14
 73
    10
 74
     0
 42
0.0000000001
 43
0.0000000001
 40
0.0
 40
0.0
 40
0.0
 40
0.0
 40
0.0234425493572662
 40
0.0234425493572662
 40
0.0468398521139195
 40
0.0468398521139195
 40
0.0647584163804204
 40
0.0647584163804204
 40
0.0826836836223435
 40
0.0826836836223435
 40
0.0826836836223435
 40
0.0826836836223435
 10
134.5647559164508
 20
89.52623652395107
 30
0.0
 10
134.5647559164508
 20
89.60437835514197
 30
0.0
 10
134.5800139799287
 20
89.68176724589042
 30
0.0
 10
134.6393343874223
 20
89.82618702656838
 30
0.0
 10
134.6827681181223
 20
89.8918411358983
 30
0.0
 10
134.7795484236704
 20
89.9898146752819
 30
0.0
 10
134.8276420777311
 20
90.02578292014137
 30
0.0
 10
134.9328962106059
 20
90.08231648569841
 30
0.0
 10
134.9894644528724
 20
90.10255631667858
 30
0.0
 10
135.0480870158443
 20
90.11410853507488
 30
0.0
  0
SPLINE
  5
218
330
6C
100
AcDbEntity
  8
Visible {c3}
100
AcDbSpline
210
0.0
220
0.0
230
1.0
 70
     8
 71
     3
 72
    14
 73
    10
 74
     0
 42
0.0000000001
 43
0.0000000001
 40
0.0
 40
0.0
 40
0.0
 40
0.0
 40
0.0234431283123797
 40
0.0234431283123797
 40
0.0468410951376132
 40
0.0468410951376132
 40
0.0647586759967166
 40
0.0647586759967166
 40
0.0826836893876265
 40
0.0826836893876265
 40
0.0826836893876265
 40
0.0826836893876265
 10
130.7256461467781
 20
90.11410853507488
 30
0.0
 10
130.8023154359745
 20
90.0990000115272
 30
0.0
 10
130.8752957545741
 20
90.06906617441131
 30
0.0
 10
131.0055239854512
 20
89.98293902910937
 30
0.0
 10
131.0615424766949
 20
89.92762865297587
 30
0.0
 10
131.138952677032
 20
89.81373129013306
 30
0.0
 10
131.1649415793508
 20
89.75959358646301
 30
0.0
 10
131.2000566211683
 20
89.64539890827829
 30
0.0
 10
131.2089772461715
 20
89.58598564450852
 30
0.0
 10
131.2089772461715
 20
89.52623652395107
 30
0.0
  0
SPLINE
  5
219
330
6C
100
AcDbEntity
  8
Visible {c3}
100
AcDbSpline
210
0.0
220
0.0
230
1.0
 70
     8
 71
     3
 72
    18
 73
    14
 74
     0
 42
0.0000000001
 43
0.0000000001
 40
0.0
 40
0.0
 40
0.0
 40
0.0
 40
0.023532968524784
 40
0.023532968524784
 40
0.0469534826187115
 40
0.0469534826187115
 40
0.0703027837493208
 40
0.0703027837493208
 40
0.093662483178473
 40
0.093662483178473
 40
0.1057334946862708
 40
0.1057334946862708
 40
0.1178130021762188
 40
0.1178130021762188
 40
0.1178130021762188
 40
0.1178130021762188
 10
130.786863311019
 20
112.913913425503
 30
0.0
 10
130.8318564984297
 20
112.8496564945855
 30
0.0
 10
130.8638769134105
 20
112.7772322326377
 30
0.0
 10
130.898145350972
 20
112.6245295233002
 30
0.0
 10
130.9002023242259
 20
112.5457659987655
 30
0.0
 10
130.8739519728257
 20
112.3921114419269
 30
0.0
 10
130.845992868121
 20
112.3187130780708
 30
0.0
 10
130.7634691951866
 20
112.1867075364284
 30
0.0
 10
130.7097020301521
 20
112.1293996862428
 30
0.0
 10
130.6138007803126
 20
112.0604859547547
 30
0.0
 10
130.5788486317419
 20
112.0403553147977
 30
0.0
 10
130.5054222304557
 20
112.0073662267304
 30
0.0
 10
130.4671312207291
 20
111.9945962837191
 30
0.0
 10
130.4278546206979
 20
111.9857391283443
 30
0.0
  0
SPLINE
  5
21A
330
6C
100
AcDbEntity
  8
Visible {c3}
100
AcDbSpline
210
0.0
220
0.0
230
1.0
 70
     8
 71
     3
 72
    14
 73
    10
 74
     0
 42
0.0000000001
 43
0.0000000001
 40
0.0
 40
0.0
 40
0.0
 40
0.0
 40
0.0234434836673481
 40
0.0234434836673481
 40
0.0468414737088465
 40
0.0468414737088465
 40
0.0648917890666088
 40
0.0648917890666088
 40
0.0829496637884751
 40
0.0829496637884751
 40
0.0829496637884751
 40
0.0829496637884751
 10
134.9877924510141
 20
90.16643588776041
 30
0.0
 10
134.9110560872807
 20
90.15166554594959
 30
0.0
 10
134.8379432862998
 20
90.12205355467996
 30
0.0
 10
134.7073354822809
 20
90.03650086267752
 30
0.0
 10
134.6510735901869
 20
89.98143805133242
 30
0.0
 10
134.5729117800659
 20
89.86751816843733
 30
0.0
 10
134.5465481839018
 20
89.81306179617716
 30
0.0
 10
134.5109197889328
 20
89.69809910470788
 30
0.0
 10
134.5018665813112
 20
89.6382504876591
 30
0.0
 10
134.5018665813112
 20
89.57805849239464
 30
0.0
  0
SPLINE
  5
21B
330
6C
100
AcDbEntity
  8
Visible {c3}
100
AcDbSpline
210
0.0
220
0.0
230
1.0
 70
     8
 71
     3
 72
    14
 73
    10
 74
     0
 42
0.0000000001
 43
0.0000000001
 40
0.0
 40
0.0
 40
0.0
 40
0.0
 40
0.0234428986710901
 40
0.0234428986710901
 40
0.0468402171441582
 40
0.0468402171441582
 40
0.0648915324326669
 40
0.0648915324326669
 40
0.0829496580577234
 40
0.0829496580577234
 40
0.0829496580577234
 40
0.0829496580577234
 10
131.2718665813112
 20
89.57805849239464
 30
0.0
 10
131.2718665813112
 20
89.65620148796494
 30
0.0
 10
131.2566083177522
 20
89.73359154693847
 30
0.0
 10
131.1972871791811
 20
89.87801230901736
 30
0.0
 10
131.1538533381317
 20
89.94366634981174
 30
0.0
 10
131.0567616920851
 20
90.04195431139287
 30
0.0
 10
131.0082676838697
 20
90.07813824312441
 30
0.0
 10
130.902107978525
 20
90.13485617645265
 30
0.0
 10
130.845048553627
 20
90.15505871287434
 30
0.0
 10
130.7859407116083
 20
90.16643588776041
 30
0.0
  0
SPLINE
  5
21C
330
6C
100
AcDbEntity
  8
Visible {c3}
100
AcDbSpline
210
0.0
220
0.0
230
1.0
 70
     8
 71
     3
 72
    18
 73
    14
 74
     0
 42
0.0000000001
 43
0.0000000001
 40
0.0
 40
0.0
 40
0.0
 40
0.0
 40
0.0235364780271996
 40
0.0235364780271996
 40
0.0469593777904524
 40
0.0469593777904524
 40
0.0703096696408083
 40
0.0703096696408083
 40
0.0936695434321893
 40
0.0936695434321893
 40
0.1059782443367464
 40
0.1059782443367464
 40
0.1182965345921231
 40
0.1182965345921231
 40
0.1182965345921231
 40
0.1182965345921231
 10
130.5286878823185
 20
111.9436430669486
 30
0.0
 10
130.6053568437076
 20
111.9602877625609
 30
0.0
 10
130.6780432652943
 20
111.9917387687399
 30
0.0
 10
130.8068776523979
 20
112.080622128951
 30
0.0
 10
130.8618574904042
 20
112.137070283308
 30
0.0
 10
130.9468826963964
 20
112.2677337249739
 30
0.0
 10
130.9761716993602
 20
112.3406148833009
 30
0.0
 10
131.0051672305132
 20
112.4935722917052
 30
0.0
 10
131.0045783209364
 20
112.5721521100082
 30
0.0
 10
130.9807640262537
 20
112.6886289324142
 30
0.0
 10
130.9684432731296
 20
112.7278733365976
 30
0.0
 10
130.935989914524
 20
112.8032701315302
 30
0.0
 10
130.9159366305578
 20
112.839221831308
 30
0.0
 10
130.8923862957481
 20
112.8728551950247
 30
0.0
  0
SPLINE
  5
21D
330
6C
100
AcDbEntity
  8
Visible {c3}
100
AcDbSpline
210
0.0
220
0.0
230
1.0
 70
     8
 71
     3
 72
    18
 73
    14
 74
     0
 42
0.0000000001
 43
0.0000000001
 40
0.0
 40
0.0
 40
0.0
 40
0.0
 40
0.0235352904713698
 40
0.0235352904713698
 40
0.0469566631286332
 40
0.0469566631286332
 40
0.0703052568369758
 40
0.0703052568369758
 40
0.0936634638452612
 40
0.0936634638452612
 40
0.1059755169259516
 40
0.1059755169259516
 40
0.1182964874922297
 40
0.1182964874922297
 40
0.1182964874922297
 40
0.1182964874922297
 10
134.8813468668743
 20
112.8728551950247
 30
0.0
 10
134.8363492400841
 20
112.8085919240161
 30
0.0
 10
134.804325487796
 20
112.7361604557709
 30
0.0
 10
134.770055969027
 20
112.5834472612452
 30
0.0
 10
134.7679994170335
 20
112.5046809907174
 30
0.0
 10
134.7942525757556
 20
112.3510266938103
 30
0.0
 10
134.8222119721705
 20
112.2776314079084
 30
0.0
 10
134.9047347975182
 20
112.1456344253259
 30
0.0
 10
134.95849965865
 20
112.0883319353385
 30
0.0
 10
135.0550507306978
 20
112.0189547182866
 30
0.0
 10
135.0907460132207
 20
111.9984926190494
 30
0.0
 10
135.1657742829764
 20
111.9651465849136
 30
0.0
 10
135.2049124621673
 20
111.9523558306257
 30
0.0
 10
135.2450452803038
 20
111.9436430669486
 30
0.0
  0
ARC
  5
21E
330
6C
100
AcDbEntity
  8
Visible {c3}
100
AcDbCircle
 10
132.8868665813112
 20
101.0813770434381
 30
0.0
 40
11.17818644956234
100
AcDbArc
 50
281.1479233328748
 51
77.29196039368277
  0
ARC
  5
21F
330
6C
100
AcDbEntity
  8
Visible {c3}
100
AcDbCircle
 10
132.8868665813112
 20
101.0813770434381
 30
0.0
 40
11.17818644956233
100
AcDbArc
 50
102.7080396063172
 51
258.8520766671252
  0
ARC
  5
220
330
6C
100
AcDbEntity
  8
Visible {c3}
100
AcDbCircle
 10
132.8868665813112
 20
101.0813770434381
 30
0.0
 40
11.11529711442269
100
AcDbArc
 50
280.8951382593008
 51
77.75126155572774
  0
ARC
  5
221
330
6C
100
AcDbEntity
  8
Visible {c3}
100
AcDbCircle
 10
132.8868665813112
 20
101.0813770434381
 30
0.0
 40
11.11529711442269
100
AcDbArc
 50
102.2487384442722
 51
259.1048617406991
  0
LINE
  5
222
330
6C
100
AcDbEntity
  8
Visible {c3}
100
AcDbLine
 10
134.5647559164508
 20
89.52623652395107
 30
0.0
 11
134.5647559164508
 21
88.75956349300043
 31
0.0
  0
LINE
  5
223
330
6C
100
AcDbEntity
  8
Visible {c3}
100
AcDbLine
 10
131.2089772461715
 20
88.75956349300043
 30
0.0
 11
131.2089772461715
 21
89.52623652395107
 31
0.0
  0
LINE
  5
224
330
6C
100
AcDbEntity
  8
Visible {c3}
100
AcDbLine
 10
131.2718665813112
 20
89.57805849239464
 30
0.0
 11
131.2718665813112
 21
88.6966741578608
 31
0.0
  0
LINE
  5
225
330
6C
100
AcDbEntity
  8
Visible {c3}
100
AcDbLine
 10
134.5018665813112
 20
88.6966741578608
 30
0.0
 11
134.5018665813112
 21
89.57805849239464
 31
0.0
  0
LINE
  5
226
330
6C
100
AcDbEntity
  8
Visible {c3}
100
AcDbLine
 10
118.6368665813112
 20
88.75956349300043
 30
0.0
 11
131.2089772461715
 21
88.75956349300043
 31
0.0
  0
LINE
  5
227
330
6C
100
AcDbEntity
  8
Visible {c3}
100
AcDbLine
 10
131.2718665813112
 20
88.6966741578608
 30
0.0
 11
118.6368665813112
 21
88.6966741578608
 31
0.0
  0
LINE
  5
228
330
6C
100
AcDbEntity
  8
Visible {c3}
100
AcDbLine
 10
131.2089772461715
 20
88.75956349300043
 30
0.0
 11
131.2718665813112
 21
88.6966741578608
 31
0.0
  0
LINE
  5
229
330
6C
100
AcDbEntity
  8
Visible {c3}
100
AcDbLine
 10
130.4442677494505
 20
113.4031905938757
 30
0.0
 11
118.0618665813112
 21
113.4031905938757
 31
0.0
  0
LINE
  5
22A
330
6C
100
AcDbEntity
  8
Visible {c3}
100
AcDbLine
 10
118.6368665813112
 20
113.4660799290154
 30
0.0
 11
130.4770058651553
 21
113.4660799290154
 31
0.0
  0
LINE
  5
22B
330
6C
100
AcDbEntity
  8
Visible {c3}
100
AcDbLine
 10
130.4770058651553
 20
113.4660799290154
 30
0.0
 11
130.4442677494505
 21
113.4031905938757
 31
0.0
  0
LINE
  5
22C
330
6C
100
AcDbEntity
  8
Visible {c3}
100
AcDbLine
 10
117.2618665813112
 20
113.4451168173022
 30
0.0
 11
117.2618665813112
 21
113.4660799290154
 31
0.0
  0
LINE
  5
22D
330
6C
100
AcDbEntity
  8
Visible {c3}
100
AcDbLine
 10
117.2618665813112
 20
113.4660799290154
 30
0.0
 11
117.2618665813112
 21
116.2813770434381
 31
0.0
  0
LINE
  5
22E
330
6C
100
AcDbEntity
  8
Visible {c3}
100
AcDbLine
 10
117.2618665813112
 20
116.2813770434381
 30
0.0
 11
117.2618665813112
 21
117.6813770434381
 31
0.0
  0
LINE
  5
22F
330
6C
100
AcDbEntity
  8
Visible {c3}
100
AcDbLine
 10
117.2618665813112
 20
84.4813770434381
 30
0.0
 11
117.2618665813112
 21
85.3813770434381
 31
0.0
  0
LINE
  5
230
330
6C
100
AcDbEntity
  8
Visible {c3}
100
AcDbLine
 10
148.5118665813112
 20
84.4813770434381
 30
0.0
 11
148.5118665813112
 21
85.3813770434381
 31
0.0
  0
LINE
  5
231
330
6C
100
AcDbEntity
  8
Visible {c3}
100
AcDbLine
 10
148.5118665813112
 20
116.2813770434381
 30
0.0
 11
148.5118665813112
 21
117.6813770434381
 31
0.0
  0
LINE
  5
232
330
6C
100
AcDbEntity
  8
Visible {c3}
100
AcDbLine
 10
148.5118665813112
 20
113.4660799290154
 30
0.0
 11
148.5118665813112
 21
116.2813770434381
 31
0.0
  0
LINE
  5
233
330
6C
100
AcDbEntity
  8
Visible {c3}
100
AcDbLine
 10
148.5118665813112
 20
113.4451168173022
 30
0.0
 11
148.5118665813112
 21
113.4660799290154
 31
0.0
  0
LINE
  5
234
330
6C
100
AcDbEntity
  8
Visible {c3}
100
AcDbLine
 10
147.1368665813112
 20
116.2813770434381
 30
0.0
 11
148.5118665813112
 21
116.2813770434381
 31
0.0
  0
LINE
  5
235
330
6C
100
AcDbEntity
  8
Visible {c3}
100
AcDbLine
 10
147.1368665813112
 20
116.2813770434381
 30
0.0
 11
147.1368665813112
 21
113.4660799290154
 31
0.0
  0
LINE
  5
236
330
6C
100
AcDbEntity
  8
Visible {c3}
100
AcDbLine
 10
147.1368665813112
 20
113.4660799290154
 30
0.0
 11
148.5118665813112
 21
113.4660799290154
 31
0.0
  0
LINE
  5
237
330
6C
100
AcDbEntity
  8
Visible {c3}
100
AcDbLine
 10
118.6368665813112
 20
113.4660799290154
 30
0.0
 11
118.6368665813112
 21
116.2813770434381
 31
0.0
  0
LINE
  5
238
330
6C
100
AcDbEntity
  8
Visible {c3}
100
AcDbLine
 10
118.6368665813112
 20
116.2813770434381
 30
0.0
 11
117.2618665813112
 21
116.2813770434381
 31
0.0
  0
LINE
  5
239
330
6C
100
AcDbEntity
  8
Visible {c3}
100
AcDbLine
 10
118.6368665813112
 20
113.4660799290154
 30
0.0
 11
117.2618665813112
 21
113.4660799290154
 31
0.0
  0
LINE
  5
23A
330
6C
100
AcDbEntity
  8
Visible {c3}
100
AcDbLine
 10
135.4263520343153
 20
113.5813770434381
 30
0.0
 11
147.1368665813112
 21
113.5813770434381
 31
0.0
  0
LINE
  5
23B
330
6C
100
AcDbEntity
  8
Visible {c3}
100
AcDbLine
 10
118.6368665813112
 20
113.5813770434381
 30
0.0
 11
128.635546273799
 21
113.5813770434381
 31
0.0
  0
LINE
  5
23C
330
6C
100
AcDbEntity
  8
Visible {c3}
100
AcDbLine
 10
126.582106474852
 20
88.5813770434381
 30
0.0
 11
118.6368665813112
 21
88.5813770434381
 31
0.0
  0
LINE
  5
23D
330
6C
100
AcDbEntity
  8
Visible {c3}
100
AcDbLine
 10
141.8868665813112
 20
88.5813770434381
 30
0.0
 11
139.1916266877704
 21
88.5813770434381
 31
0.0
  0
LINE
  5
23E
330
6C
100
AcDbEntity
  8
Visible {c3}
100
AcDbLine
 10
139.5368665813112
 20
114.7813770434381
 30
0.0
 11
147.1368665813112
 21
114.7813770434381
 31
0.0
  0
LINE
  5
23F
330
6C
100
AcDbEntity
  8
Visible {c3}
100
AcDbLine
 10
139.5368665813112
 20
114.7813770434381
 30
0.0
 11
139.5368665813112
 21
117.6813770434381
 31
0.0
  0
LINE
  5
240
330
6C
100
AcDbEntity
  8
Visible {c3}
100
AcDbLine
 10
136.6868665813112
 20
117.6813770434381
 30
0.0
 11
139.5368665813112
 21
117.6813770434381
 31
0.0
  0
LINE
  5
241
330
6C
100
AcDbEntity
  8
Visible {c3}
100
AcDbLine
 10
126.2368665813112
 20
117.6813770434381
 30
0.0
 11
128.4230952541508
 21
117.6813770434381
 31
0.0
  0
LINE
  5
242
330
6C
100
AcDbEntity
  8
Visible {c3}
100
AcDbLine
 10
147.1368665813112
 20
117.6813770434381
 30
0.0
 11
148.5118665813112
 21
117.6813770434381
 31
0.0
  0
LINE
  5
243
330
6C
100
AcDbEntity
  8
Visible {c3}
100
AcDbLine
 10
117.2618665813112
 20
117.6813770434381
 30
0.0
 11
118.6368665813112
 21
117.6813770434381
 31
0.0
  0
LINE
  5
244
330
6C
100
AcDbEntity
  8
Visible {c3}
100
AcDbLine
 10
136.6868665813112
 20
117.6813770434381
 30
0.0
 11
136.6868665813112
 21
114.7813770434381
 31
0.0
  0
LINE
  5
245
330
6C
100
AcDbEntity
  8
Visible {c3}
100
AcDbLine
 10
136.6868665813112
 20
114.7813770434381
 30
0.0
 11
134.6997314036361
 21
114.7813770434381
 31
0.0
  0
LINE
  5
246
330
6C
100
AcDbEntity
  8
Visible {c3}
100
AcDbLine
 10
126.2368665813112
 20
114.7813770434381
 30
0.0
 11
126.2368665813112
 21
117.6813770434381
 31
0.0
  0
LINE
  5
247
330
6C
100
AcDbEntity
  8
Visible {c3}
100
AcDbLine
 10
126.2368665813112
 20
114.7813770434381
 30
0.0
 11
118.6368665813112
 21
114.7813770434381
 31
0.0
  0
LINE
  5
248
330
6C
100
AcDbEntity
  8
Visible {c3}
100
AcDbLine
 10
126.6868665813112
 20
87.38137704343811
 30
0.0
 11
118.6368665813112
 21
87.38137704343811
 31
0.0
  0
LINE
  5
249
330
6C
100
AcDbEntity
  8
Visible {c3}
100
AcDbLine
 10
126.6868665813112
 20
86.28137704343812
 30
0.0
 11
126.6868665813112
 21
87.38137704343811
 31
0.0
  0
LINE
  5
24A
330
6C
100
AcDbEntity
  8
Visible {c3}
100
AcDbLine
 10
128.6368665813112
 20
87.38137704343811
 30
0.0
 11
128.6368665813112
 21
86.28137704343812
 31
0.0
  0
LINE
  5
24B
330
6C
100
AcDbEntity
  8
Visible {c3}
100
AcDbLine
 10
137.1368665813112
 20
87.38137704343811
 30
0.0
 11
135.7695736423911
 21
87.38137704343811
 31
0.0
  0
LINE
  5
24C
330
6C
100
AcDbEntity
  8
Visible {c3}
100
AcDbLine
 10
130.0041595202313
 20
87.38137704343811
 30
0.0
 11
128.6368665813112
 21
87.38137704343811
 31
0.0
  0
LINE
  5
24D
330
6C
100
AcDbEntity
  8
Visible {c3}
100
AcDbLine
 10
137.1368665813112
 20
86.28137704343812
 30
0.0
 11
137.1368665813112
 21
87.38137704343811
 31
0.0
  0
LINE
  5
24E
330
6C
100
AcDbEntity
  8
Visible {c3}
100
AcDbLine
 10
139.0868665813112
 20
86.28137704343812
 30
0.0
 11
139.0868665813112
 21
87.38137704343811
 31
0.0
  0
LINE
  5
24F
330
6C
100
AcDbEntity
  8
Visible {c3}
100
AcDbLine
 10
139.0868665813112
 20
87.38137704343811
 30
0.0
 11
147.1368665813112
 21
87.38137704343811
 31
0.0
  0
LINE
  5
250
330
6C
100
AcDbEntity
  8
Visible {c3}
100
AcDbLine
 10
137.1368665813112
 20
85.3813770434381
 30
0.0
 11
137.1368665813112
 21
84.4813770434381
 31
0.0
  0
LINE
  5
251
330
6C
100
AcDbEntity
  8
Visible {c3}
100
AcDbLine
 10
139.0868665813112
 20
84.4813770434381
 30
0.0
 11
137.1368665813112
 21
84.4813770434381
 31
0.0
  0
LINE
  5
252
330
6C
100
AcDbEntity
  8
Visible {c3}
100
AcDbLine
 10
139.0868665813112
 20
84.4813770434381
 30
0.0
 11
139.0868665813112
 21
85.3813770434381
 31
0.0
  0
LINE
  5
253
330
6C
100
AcDbEntity
  8
Visible {c3}
100
AcDbLine
 10
126.6868665813112
 20
85.3813770434381
 30
0.0
 11
126.6868665813112
 21
84.4813770434381
 31
0.0
  0
LINE
  5
254
330
6C
100
AcDbEntity
  8
Visible {c3}
100
AcDbLine
 10
128.6368665813112
 20
84.4813770434381
 30
0.0
 11
126.6868665813112
 21
84.4813770434381
 31
0.0
  0
LINE
  5
255
330
6C
100
AcDbEntity
  8
Visible {c3}
100
AcDbLine
 10
128.6368665813112
 20
84.4813770434381
 30
0.0
 11
128.6368665813112
 21
85.3813770434381
 31
0.0
  0
LINE
  5
256
330
6C
100
AcDbEntity
  8
Visible {c3}
100
AcDbLine
 10
147.5868665813112
 20
85.3813770434381
 30
0.0
 11
147.5868665813112
 21
84.4813770434381
 31
0.0
  0
LINE
  5
257
330
6C
100
AcDbEntity
  8
Visible {c3}
100
AcDbLine
 10
148.5118665813112
 20
84.4813770434381
 30
0.0
 11
147.5868665813112
 21
84.4813770434381
 31
0.0
  0
LINE
  5
258
330
6C
100
AcDbEntity
  8
Visible {c3}
100
AcDbLine
 10
118.1868665813112
 20
84.4813770434381
 30
0.0
 11
118.1868665813112
 21
85.3813770434381
 31
0.0
  0
LINE
  5
259
330
6C
100
AcDbEntity
  8
Visible {c3}
100
AcDbLine
 10
118.1868665813112
 20
84.4813770434381
 30
0.0
 11
117.2618665813112
 21
84.4813770434381
 31
0.0
  0
LINE
  5
25A
330
6C
100
AcDbEntity
  8
Visible {c3}
100
AcDbLine
 10
134.4618665813112
 20
110.8552900264761
 30
0.0
 11
134.4618665813112
 21
110.0292304644208
 31
0.0
  0
LINE
  5
25B
330
6C
100
AcDbEntity
  8
Visible {c3}
100
AcDbLine
 10
131.7918665813112
 20
92.062192998116
 30
0.0
 11
131.7918665813112
 21
91.24212021174599
 31
0.0
  0
LINE
  5
25C
330
6C
100
AcDbEntity
  8
Visible {c3}
100
AcDbLine
 10
136.6868665813112
 20
116.2813770434381
 30
0.0
 11
134.5684984083472
 21
116.2813770434381
 31
0.0
  0
LINE
  5
25D
330
6C
100
AcDbEntity
  8
Visible {c3}
100
AcDbLine
 10
147.1368665813112
 20
116.2813770434381
 30
0.0
 11
139.5368665813112
 21
116.2813770434381
 31
0.0
  0
LINE
  5
25E
330
6C
100
AcDbEntity
  8
Visible {c3}
100
AcDbLine
 10
126.2368665813112
 20
116.2813770434381
 30
0.0
 11
118.6368665813112
 21
116.2813770434381
 31
0.0
  0
LINE
  5
25F
330
6C
100
AcDbEntity
  8
Visible {c3}
100
AcDbLine
 10
71.0357994630875
 20
128.5435604826606
 30
0.0
 11
71.0357994630875
 21
126.493268548715
 31
0.0
  0
LINE
  5
260
330
6C
100
AcDbEntity
  8
Visible {c3}
100
AcDbLine
 10
71.0357994630875
 20
126.493268548715
 30
0.0
 11
50.88325619926791
 21
138.0983463917948
 31
0.0
  0
LINE
  5
261
330
6C
100
AcDbEntity
  8
Visible {c3}
100
AcDbLine
 10
50.88325619926791
 20
138.0983463917948
 30
0.0
 11
50.88325619926791
 21
140.1486383257403
 31
0.0
  0
LINE
  5
262
330
6C
100
AcDbEntity
  8
Visible {c3}
100
AcDbLine
 10
52.64799065188718
 20
139.132395342068
 30
0.0
 11
50.88325619926791
 21
138.0983463917948
 31
0.0
  0
LINE
  5
263
330
6C
100
AcDbEntity
  8
Visible {c3}
100
AcDbLine
 10
53.28741925530181
 20
162.8071626039834
 30
0.0
 11
53.28741925530181
 21
161.8261060541724
 31
0.0
  0
LINE
  5
264
330
6C
100
AcDbEntity
  8
Visible {c3}
100
AcDbLine
 10
54.94912019108995
 20
163.7640725313956
 30
0.0
 11
53.28741925530181
 21
162.8071626039834
 31
0.0
  0
LINE
  5
265
330
6C
100
AcDbEntity
  8
Visible {c3}
100
AcDbLine
 10
57.1057958737086
 20
159.6272491996947
 30
0.0
 11
57.1057958737086
 21
158.1661333009471
 31
0.0
  0
LINE
  5
266
330
6C
100
AcDbEntity
  8
Visible {c3}
100
AcDbLine
 10
56.48082741752248
 20
167.0170107222641
 30
0.0
 11
53.28741925530181
 21
165.1780492660268
 31
0.0
  0
LINE
  5
267
330
6C
100
AcDbEntity
  8
Visible {c3}
100
AcDbLine
 10
53.28741925530181
 20
165.1780492660268
 30
0.0
 11
53.28741925530181
 21
164.0334832912472
 31
0.0
  0
LINE
  5
268
330
6C
100
AcDbEntity
  8
Visible {c3}
100
AcDbLine
 10
73.43996251912141
 20
153.572971422947
 30
0.0
 11
73.43996251912141
 21
152.4284054481675
 31
0.0
  0
LINE
  5
269
330
6C
100
AcDbEntity
  8
Visible {c3}
100
AcDbLine
 10
77.25833913752819
 20
155.771828277426
 30
0.0
 11
73.43996251912141
 21
153.572971422947
 31
0.0
  0
LINE
  5
26A
330
6C
100
AcDbEntity
  8
Visible {c3}
100
AcDbLine
 10
55.02205291383432
 20
158.9412749998989
 30
0.0
 11
59.21835914880304
 21
157.3802705924783
 31
0.0
  0
LINE
  5
26B
330
6C
100
AcDbEntity
  8
Visible {c3}
100
AcDbLine
 10
65.62387886543337
 20
154.3548680240516
 30
0.0
 11
70.98012605338023
 21
151.2782212734774
 31
0.0
  0
ELLIPSE
  5
26C
330
6C
100
AcDbEntity
  8
Visible {c3}
100
AcDbEllipse
 10
58.83308079909905
 20
168.7334597466487
 30
0.0
 11
-0.9980644231688302
 21
1.733166872290385
 31
0.0
210
0.0
220
0.0
230
1.0
 40
0.5780931159158107
 41
5.586987314804743
 42
6.283185307179572
  0
ELLIPSE
  5
26D
330
6C
100
AcDbEntity
  8
Visible {c3}
100
AcDbEllipse
 10
64.46840901032195
 20
166.0583214724993
 30
0.0
 11
-0.9980644231687925
 21
1.733166872290319
 31
0.0
210
0.0
220
0.0
230
0.9999999999999998
 40
0.5780931159158107
 41
4.767577183019716
 42
5.586987314804745
  0
ELLIPSE
  5
26E
330
6C
100
AcDbEntity
  8
Visible {c3}
100
AcDbEllipse
 10
64.71492267718666
 20
162.6586192481495
 30
0.0
 11
0.9980644231690144
 21
-1.733166872290677
 31
0.0
210
0.0
220
0.0
230
1.0
 40
0.5780931159158106
 41
0.0
 42
0.1232121394101933
  0
LINE
  5
26F
330
6C
100
AcDbEntity
  8
Visible Narrow {c3}
100
AcDbLine
 10
64.3451521768895
 20
167.7581725846742
 30
0.0
 11
63.43013909908329
 21
167.2312515972648
 31
0.0
  0
LINE
  5
270
330
6C
100
AcDbEntity
  8
Visible Narrow {c3}
100
AcDbLine
 10
57.79481088786038
 20
169.9063898714143
 30
0.0
 11
58.70982396566659
 21
170.4333108588237
 31
0.0
  0
LINE
  5
271
330
6C
100
AcDbEntity
  8
Visible {c3}
100
AcDbLine
 10
57.83501637593023
 20
170.466626618939
 30
0.0
 11
56.92000329812403
 21
169.9397056315296
 31
0.0
  0
LINE
  5
272
330
6C
100
AcDbEntity
  8
Visible {c3}
100
AcDbLine
 10
65.71298710035567
 20
160.9254523758588
 30
0.0
 11
64.79797402254947
 21
160.3985313884494
 31
0.0
  0
LINE
  5
273
330
6C
100
AcDbEntity
  8
Visible {c3}
100
AcDbLine
 10
58.70982396566659
 20
170.4333108588237
 30
0.0
 11
64.3451521768895
 21
167.7581725846742
 31
0.0
  0
LINE
  5
274
330
6C
100
AcDbEntity
  8
Visible {c3}
100
AcDbLine
 10
64.20847310346701
 20
160.2628302889497
 30
0.0
 11
64.50420259983833
 21
156.1843861223208
 31
0.0
  0
LINE
  5
275
330
6C
100
AcDbEntity
  8
Visible {c3}
100
AcDbLine
 10
65.4137619990521
 20
166.7300190293884
 30
0.0
 11
66.88042427419047
 21
164.4126758645619
 31
0.0
  0
ELLIPSE
  5
276
330
6C
100
AcDbEntity
  8
Visible {c3}
100
AcDbEllipse
 10
65.95309421183583
 20
163.7121887244624
 30
0.0
 11
0.9980644231688057
 21
-1.733166872290343
 31
0.0
210
0.0
220
0.0
230
1.0
 40
0.5780931159158107
 41
0.1062061552164248
 42
1.642990513623674
  0
LINE
  5
277
330
6C
100
AcDbEntity
  8
Visible {c3}
100
AcDbLine
 10
67.05174635906121
 20
162.0499505827442
 30
0.0
 11
65.828558804411
 21
161.0095020302052
 31
0.0
  0
LINE
  5
278
330
6C
100
AcDbEntity
  8
Visible Narrow {c3}
100
AcDbLine
 10
65.96541119638428
 20
163.8857548771524
 30
0.0
 11
64.49874892124589
 21
166.2030980419789
 31
0.0
  0
ELLIPSE
  5
279
330
6C
100
AcDbEntity
  8
Visible Narrow {c3}
100
AcDbEllipse
 10
65.03808113402962
 20
163.1852677370529
 30
0.0
 11
0.9980644231688041
 21
-1.733166872290339
 31
0.0
210
0.0
220
0.0
230
0.9999999999999998
 40
0.5780931159158106
 41
0.1062061552164315
 42
1.642990513623691
  0
LINE
  5
27A
330
6C
100
AcDbEntity
  8
Visible Narrow {c3}
100
AcDbLine
 10
64.91354572660481
 20
160.4825810427958
 30
0.0
 11
66.13673328125502
 21
161.5230295953347
 31
0.0
  0
LINE
  5
27B
330
6C
100
AcDbEntity
  8
Visible {c3}
100
AcDbLine
 10
65.828558804411
 20
161.0095020302052
 30
0.0
 11
64.91354572660481
 21
160.4825810427958
 31
0.0
  0
LINE
  5
27C
330
6C
100
AcDbEntity
  8
Visible Narrow {c3}
100
AcDbLine
 10
67.05174635906121
 20
162.0499505827442
 30
0.0
 11
66.13673328125502
 21
161.5230295953347
 31
0.0
  0
LINE
  5
27D
330
6C
100
AcDbEntity
  8
Visible Narrow {c3}
100
AcDbLine
 10
66.88042427419047
 20
164.4126758645619
 30
0.0
 11
65.96541119638428
 21
163.8857548771524
 31
0.0
  0
LINE
  5
27E
330
6C
100
AcDbEntity
  8
Visible {c3}
100
AcDbLine
 10
64.49874892124589
 20
166.2030980419789
 30
0.0
 11
65.4137619990521
 21
166.7300190293884
 31
0.0
  0
ELLIPSE
  5
27F
330
6C
100
AcDbEntity
  8
Visible {c3}
100
AcDbEllipse
 10
65.62246304175288
 20
155.6535383710443
 30
0.0
 11
-0.792213635890159
 21
1.375701204880509
 31
0.0
210
0.0
220
0.0
230
1.0
 40
0.5780931159158106
 41
0.8745983344202663
 42
2.359389475832326
  0
LINE
  5
280
330
6C
100
AcDbEntity
  8
Visible Narrow {c3}
100
AcDbLine
 10
59.2159340813755
 20
157.2498461083037
 30
0.0
 11
58.58760035989653
 21
156.8880127826663
 31
0.0
  0
LINE
  5
281
330
6C
100
AcDbEntity
  8
Visible Narrow {c3}
100
AcDbLine
 10
64.70886578762717
 20
153.8279470366421
 30
0.0
 11
65.62387886543337
 21
154.3548680240516
 31
0.0
  0
LINE
  5
282
330
6C
100
AcDbEntity
  8
Visible Narrow {c3}
100
AcDbLine
 10
64.50420259983833
 20
156.1843861223208
 30
0.0
 11
63.58918952203213
 21
155.6574651349114
 31
0.0
  0
ELLIPSE
  5
283
330
6C
100
AcDbEntity
  8
Visible {c3}
100
AcDbEllipse
 10
70.98154187706072
 20
149.9795509264846
 30
0.0
 11
-0.7922136358903249
 21
1.375701204880417
 31
0.0
210
0.0
220
0.0
230
0.9999999999999998
 40
0.5780931159158105
 41
4.146332998375774
 42
5.500982129421688
  0
LINE
  5
284
330
6C
100
AcDbEntity
  8
Visible Narrow {c3}
100
AcDbLine
 10
71.69273730868986
 20
149.3412663276909
 30
0.0
 11
72.03346698369003
 21
149.5374794979128
 31
0.0
  0
LINE
  5
285
330
6C
100
AcDbEntity
  8
Visible Narrow {c3}
100
AcDbLine
 10
70.98012605338023
 20
151.2782212734774
 30
0.0
 11
70.06511297557404
 21
150.7513002860679
 31
0.0
  0
ELLIPSE
  5
286
330
6C
100
AcDbEntity
  8
Visible {c3}
100
AcDbEllipse
 10
63.22226953097434
 20
145.7227889293423
 30
0.0
 11
-4.940418894685618
 21
8.579176017837248
 31
0.0
210
0.0
220
0.0
230
1.0
 40
0.5780931159158106
 41
0.1286717451274901
 42
0.8009694838792871
  0
ELLIPSE
  5
287
330
6C
100
AcDbEntity
  8
Visible {c3}
100
AcDbEllipse
 10
63.22226953097431
 20
145.7227889293423
 30
0.0
 11
4.940418894685607
 21
-8.579176017837227
 31
0.0
210
0.0
220
0.0
230
1.0
 40
0.5780931159158106
 41
4.354120845144597
 42
5.467983072895236
  0
ELLIPSE
  5
288
330
6C
100
AcDbEntity
  8
Visible {c3}
100
AcDbEllipse
 10
63.2222695309743
 20
145.7227889293423
 30
0.0
 11
4.940418894685624
 21
-8.57917601783726
 31
0.0
210
0.0
220
0.0
230
1.0
 40
0.5780931159158106
 41
5.728826315559134
 42
6.154513562052096
  0
ELLIPSE
  5
289
330
6C
100
AcDbEntity
  8
Visible {c3}
100
AcDbEllipse
 10
61.94947732483871
 20
144.9898366445156
 30
0.0
 11
-4.940418894685835
 21
8.579176017837626
 31
0.0
210
0.0
220
0.0
230
0.9999999999999998
 40
0.5780931159158108
 41
5.435965201813321
 42
5.543986671630692
  0
ELLIPSE
  5
28A
330
6C
100
AcDbEntity
  8
Visible {c3}
100
AcDbEllipse
 10
61.94947732483872
 20
144.9898366445159
 30
0.0
 11
4.940418894685606
 21
-8.579176017837228
 31
0.0
210
0.0
220
0.0
230
1.0
 40
0.5780931159158106
 41
5.678294192438116
 42
6.912737253941671
  0
ELLIPSE
  5
28B
330
6C
100
AcDbEntity
  8
Visible {c3}
100
AcDbEllipse
 10
61.94947732483872
 20
144.9898366445159
 30
0.0
 11
4.940418894686118
 21
-8.579176017836932
 31
0.0
210
0.0
220
0.0
230
1.0
 40
0.5780931159158106
 41
4.18840807449515
 42
5.569009090444645
  0
ELLIPSE
  5
28C
330
6C
100
AcDbEntity
  8
Visible {c3}
100
AcDbEllipse
 10
61.94947732483872
 20
144.9898366445159
 30
0.0
 11
-4.940418894685606
 21
8.57917601783723
 31
0.0
210
0.0
220
0.0
230
1.0
 40
0.5780931159158107
 41
5.728826315559127
 42
7.084154791058874
  0
LINE
  5
28D
330
6C
100
AcDbEntity
  8
Visible {c3}
100
AcDbLine
 10
56.2225633659672
 20
149.6432760831174
 30
0.0
 11
56.92908652228327
 21
149.3804530908955
 31
0.0
  0
LINE
  5
28E
330
6C
100
AcDbEntity
  8
Visible {c3}
100
AcDbLine
 10
68.24266033352976
 20
141.3321724829627
 30
0.0
 11
68.79310036635972
 21
141.1274116125315
 31
0.0
  0
LINE
  5
28F
330
6C
100
AcDbEntity
  8
Visible {c3}
100
AcDbLine
 10
55.65629431614767
 20
148.6475008060692
 30
0.0
 11
54.94977115983161
 21
148.9103237982911
 31
0.0
  0
LINE
  5
290
330
6C
100
AcDbEntity
  8
Visible {c3}
100
AcDbLine
 10
61.74364528506877
 20
152.5125932461109
 30
0.0
 11
61.63970196871884
 21
153.2540125705859
 31
0.0
  0
LINE
  5
291
330
6C
100
AcDbEntity
  8
Visible {c3}
100
AcDbLine
 10
56.92908652228327
 20
149.3804530908955
 30
0.0
 11
55.65629431614767
 21
148.6475008060692
 31
0.0
  0
LINE
  5
292
330
6C
100
AcDbEntity
  8
Visible {c3}
100
AcDbLine
 10
62.33181589595337
 20
152.8512981745646
 30
0.0
 11
61.74364528506877
 21
152.5125932461109
 31
0.0
  0
LINE
  5
293
330
6C
100
AcDbEntity
  8
Visible {c3}
100
AcDbLine
 10
54.94977115983161
 20
148.9103237982911
 30
0.0
 11
56.2225633659672
 21
149.6432760831174
 31
0.0
  0
ELLIPSE
  5
294
330
6C
100
AcDbEntity
  8
Visible {c3}
100
AcDbEllipse
 10
63.22226953097427
 20
145.7227889293423
 30
0.0
 11
4.441386683101629
 21
-7.712592581691724
 31
0.0
210
0.0
220
0.0
230
1.0
 40
0.5780931159158108
 41
3.924298298651676
 42
4.254593974583277
  0
ELLIPSE
  5
295
330
6C
100
AcDbEntity
  8
Visible {c3}
100
AcDbEllipse
 10
63.22226953097434
 20
145.7227889293421
 30
0.0
 11
4.521886401502801
 21
-7.852382601177355
 31
0.0
210
0.0
220
0.0
230
1.0
 40
0.5780931159158106
 41
5.559226615811503
 42
5.733883129308923
  0
ELLIPSE
  5
296
330
6C
100
AcDbEntity
  8
Visible {c3}
100
AcDbEllipse
 10
61.94947732483871
 20
144.9898366445159
 30
0.0
 11
4.441386683101211
 21
-7.712592581692067
 31
0.0
210
0.0
220
0.0
230
1.0
 40
0.5780931159158106
 41
0.7827056450621273
 42
1.05638750950287
  0
ELLIPSE
  5
297
330
6C
100
AcDbEntity
  8
Visible {c3}
100
AcDbEllipse
 10
61.94947732483871
 20
144.9898366445161
 30
0.0
 11
-4.521886401502503
 21
7.852382601177918
 31
0.0
210
0.0
220
0.0
230
1.0
 40
0.5780931159158108
 41
2.417633962222019
 42
2.537075510095728
  0
LINE
  5
298
330
6C
100
AcDbEntity
  8
Visible {c3}
100
AcDbLine
 10
62.33052452201045
 20
137.3754687001456
 30
0.0
 11
62.43413172738684
 21
136.636446828241
 31
0.0
  0
ELLIPSE
  5
299
330
6C
100
AcDbEntity
  8
Visible {c3}
100
AcDbEllipse
 10
61.94947732483875
 20
144.9898366445159
 30
0.0
 11
-4.441386683101216
 21
7.712592581692073
 31
0.0
210
0.0
220
0.0
230
1.0
 40
0.5780931159158107
 41
0.7827056450621273
 42
1.056387509502872
  0
ELLIPSE
  5
29A
330
6C
100
AcDbEntity
  8
Visible {c3}
100
AcDbEllipse
 10
61.94947732483874
 20
144.9898366445159
 30
0.0
 11
4.521886401502474
 21
-7.852382601177868
 31
0.0
210
0.0
220
0.0
230
1.0
 40
0.5780931159158108
 41
2.390258265765789
 42
2.592290475719494
  0
LINE
  5
29B
330
6C
100
AcDbEntity
  8
Visible {c3}
100
AcDbLine
 10
62.33052452201045
 20
137.3754687001456
 30
0.0
 11
63.60331672814604
 21
138.108420984972
 31
0.0
  0
LINE
  5
29C
330
6C
100
AcDbEntity
  8
Visible {c3}
100
AcDbLine
 10
64.48606892306274
 20
137.2438530446336
 30
0.0
 11
64.69820095741868
 21
137.3660117587713
 31
0.0
  0
LINE
  5
29D
330
6C
100
AcDbEntity
  8
Visible {c3}
100
AcDbLine
 10
56.81876834672421
 20
146.0411771367832
 30
0.0
 11
57.03090038108014
 21
146.163335850921
 31
0.0
  0
LINE
  5
29E
330
6C
100
AcDbEntity
  8
Visible {c3}
100
AcDbLine
 10
64.80180816279506
 20
136.6269898868666
 30
0.0
 11
64.58967612843913
 21
136.5048311727289
 31
0.0
  0
LINE
  5
29F
330
6C
100
AcDbEntity
  8
Visible {c3}
100
AcDbLine
 10
64.81209580352049
 20
136.9250416332358
 30
0.0
 11
64.70894732112833
 21
137.6607914709489
 31
0.0
  0
ELLIPSE
  5
2A0
330
6C
100
AcDbEntity
  8
Visible {c3}
100
AcDbEllipse
 10
63.604107192815
 20
145.9426746147902
 30
0.0
 11
-0.8312645602632533
 21
9.971215160676903
 31
0.0
210
0.0
220
0.0
230
1.0
 40
0.074807198327763
 41
3.670637061269319
 42
3.726034870956887
  0
LINE
  5
2A1
330
6C
100
AcDbEntity
  8
Visible {c3}
100
AcDbLine
 10
64.69820095741868
 20
137.3660117587713
 30
0.0
 11
64.80180816279506
 21
136.6269898868666
 31
0.0
  0
ELLIPSE
  5
2A2
330
6C
100
AcDbEntity
  8
Visible {c3}
100
AcDbEllipse
 10
63.604107192815
 20
145.9426746147902
 30
0.0
 11
0.9082039607722482
 21
-10.8941214813382
 31
0.0
210
0.0
220
0.0
230
1.0
 40
0.0748071983277631
 41
0.5388268823126757
 42
0.5894990311167643
  0
ELLIPSE
  5
2A3
330
6C
100
AcDbEntity
  8
Visible {c3}
100
AcDbEllipse
 10
64.16979261776416
 20
146.2684311858241
 30
0.0
 11
-5.513980829736381
 21
-11.28447482645548
 31
0.0
210
0.0
220
0.0
230
1.0
 40
0.5246515749367643
 41
4.915261840460836
 42
4.972368719579037
  0
LINE
  5
2A4
330
6C
100
AcDbEntity
  8
Visible {c3}
100
AcDbLine
 10
68.01631136725451
 20
143.4303391317283
 30
0.0
 11
68.37981339042221
 21
143.2951182425704
 31
0.0
  0
ELLIPSE
  5
2A5
330
6C
100
AcDbEntity
  8
Visible {c3}
100
AcDbEllipse
 10
61.35550762864212
 20
144.6477922449304
 30
0.0
 11
5.513980829736382
 21
11.28447482645548
 31
0.0
210
0.0
220
0.0
230
1.0
 40
0.5246515749367643
 41
4.858648028970062
 42
4.900157410000107
  0
LINE
  5
2A6
330
6C
100
AcDbEntity
  8
Visible {c3}
100
AcDbLine
 10
63.08993961456175
 20
137.043333409373
 30
0.0
 11
63.19292123145726
 21
136.3087738098412
 31
0.0
  0
ELLIPSE
  5
2A7
330
6C
100
AcDbEntity
  8
Visible {c3}
100
AcDbEllipse
 10
61.92119305359128
 20
144.9735488159643
 30
0.0
 11
12.7485267688594
 21
1.062799099984699
 31
0.0
210
0.0
220
0.0
230
0.9999999999999998
 40
0.6258357191453398
 41
4.751943406142453
 42
4.862556181454674
  0
ELLIPSE
  5
2A8
330
6C
100
AcDbEntity
  8
Visible {c3}
100
AcDbEllipse
 10
61.92119305359128
 20
144.9735488159643
 30
0.0
 11
-13.92849287574876
 21
-1.16116865586764
 31
0.0
210
0.0
220
0.0
230
0.9999999999999998
 40
0.6258357191453398
 41
1.609976781305592
 42
1.711181053231551
  0
LINE
  5
2A9
330
6C
100
AcDbEntity
  8
Visible {c3}
100
AcDbLine
 10
64.58967612843913
 20
136.5048311727289
 30
0.0
 11
64.48606892306274
 21
137.2438530446336
 31
0.0
  0
LINE
  5
2AA
330
6C
100
AcDbEntity
  8
Visible {c3}
100
AcDbLine
 10
55.88264328242292
 20
146.5493341573036
 30
0.0
 11
55.18347381583926
 21
146.8094216146432
 31
0.0
  0
ELLIPSE
  5
2AB
330
6C
100
AcDbEntity
  8
Visible {c3}
100
AcDbEllipse
 10
61.35550762864212
 20
144.6477922449304
 30
0.0
 11
-9.635053380741904
 21
4.708017027991934
 31
0.0
210
0.0
220
0.0
230
1.0
 40
0.0767063964842207
 41
1.004651173416545
 42
1.118371864023817
  0
ELLIPSE
  5
2AC
330
6C
100
AcDbEntity
  8
Visible {c3}
100
AcDbEllipse
 10
61.35550762864212
 20
144.6477922449304
 30
0.0
 11
10.71764364824099
 21
-5.237007705294394
 31
0.0
210
0.0
220
0.0
230
1.0
 40
0.0767063964842206
 41
4.136671738409075
 42
4.238666715457728
  0
LINE
  5
2AD
330
6C
100
AcDbEntity
  8
Visible {c3}
100
AcDbLine
 10
56.1086253722879
 20
146.3053466827892
 30
0.0
 11
56.81876834672421
 21
146.0411771367832
 31
0.0
  0
LINE
  5
2AE
330
6C
100
AcDbEntity
  8
Visible {c3}
100
AcDbLine
 10
60.46279953468471
 20
153.0518341029093
 30
0.0
 11
60.35965105229255
 21
153.7875839406224
 31
0.0
  0
ELLIPSE
  5
2AF
330
6C
100
AcDbEntity
  8
Visible {c3}
100
AcDbEllipse
 10
59.78515437704702
 20
164.3887913623159
 30
0.0
 11
0.2970566065016573
 21
-0.5159031492820829
 31
0.0
210
0.0
220
0.0
230
0.9999999999999998
 40
0.5782664249676546
 41
0.874804811238512
 42
2.445296551538241
  0
ELLIPSE
  5
2B0
330
6C
100
AcDbEntity
  8
Visible {c3}
100
AcDbEllipse
 10
59.64784822858778
 20
166.2823984157116
 30
0.0
 11
0.2971940989572328
 21
-0.5160299233851737
 31
0.0
210
0.0
220
0.0
230
1.0
 40
0.5779198554221967
 41
5.587085481438535
 42
7.1575772217383
  0
ELLIPSE
  5
2B1
330
6C
100
AcDbEntity
  8
Visible {c3}
100
AcDbEllipse
 10
61.2172646869677
 20
165.5373830628293
 30
0.0
 11
-0.2970566065016573
 21
0.5159031492820829
 31
0.0
210
0.0
220
0.0
230
0.9999999999999998
 40
0.5782664249676546
 41
0.874804811238512
 42
2.445296551538241
  0
ELLIPSE
  5
2B2
330
6C
100
AcDbEntity
  8
Visible {c3}
100
AcDbEllipse
 10
61.35457083542693
 20
163.6437760094336
 30
0.0
 11
-0.2971940989572328
 21
0.5160299233851737
 31
0.0
210
0.0
220
0.0
230
1.0
 40
0.5779198554221967
 41
5.587085481438535
 42
7.1575772217383
  0
ELLIPSE
  5
2B3
330
6C
100
AcDbEntity
  8
Visible Narrow {c3}
100
AcDbEllipse
 10
60.62348060487429
 20
164.8684943674462
 30
0.0
 11
0.2956640595227998
 21
-0.5167008192007679
 31
0.0
210
0.0
220
0.0
230
1.0
 40
0.5979732674251856
 41
0.8763636847656446
 42
2.4468554250654
  0
ELLIPSE
  5
2B4
330
6C
100
AcDbEntity
  8
Visible Narrow {c3}
100
AcDbEllipse
 10
60.62348060487427
 20
164.8684943674462
 30
0.0
 11
0.5937536411102944
 21
0.0430532963258303
 31
0.0
210
0.0
220
0.0
230
1.0
 40
0.5232862384607166
 41
5.47540867554874
 42
6.283185307179585
  0
ELLIPSE
  5
2B5
330
6C
100
AcDbEntity
  8
Visible Narrow {c3}
100
AcDbEllipse
 10
60.62348060487427
 20
164.8684943674462
 30
0.0
 11
0.2552949757484193
 21
0.5377931275257025
 31
0.0
210
0.0
220
0.0
230
1.0
 40
0.6260829513478028
 41
0.0
 42
0.7182238500155532
  0
LINE
  5
2B6
330
6C
100
AcDbEntity
  8
Visible Narrow {c3}
100
AcDbLine
 10
61.05011098377421
 20
164.6736873948517
 30
0.0
 11
61.08624240439255
 21
164.1753942470223
 31
0.0
  0
ELLIPSE
  5
2B7
330
6C
100
AcDbEntity
  8
Visible Narrow {c3}
100
AcDbEllipse
 10
62.22252184070736
 20
164.1094158805178
 30
0.0
 11
-0.2814320834080413
 21
0.5245883672793209
 31
0.0
210
0.0
220
0.0
230
0.9999999999999998
 40
0.5761232865155886
 41
5.992744039153535
 42
6.283185307179596
  0
LINE
  5
2B8
330
6C
100
AcDbEntity
  8
Visible Narrow {c3}
100
AcDbLine
 10
59.83595967165363
 20
165.7385360716987
 30
0.0
 11
60.59414460769602
 21
165.3786192283015
 31
0.0
  0
LINE
  5
2B9
330
6C
100
AcDbEntity
  8
Visible Narrow {c3}
100
AcDbLine
 10
60.7425182958297
 20
166.4996114062422
 30
0.0
 11
60.06727094913756
 21
166.0831460498577
 31
0.0
  0
LINE
  5
2BA
330
6C
100
AcDbEntity
  8
Visible Narrow {c3}
100
AcDbLine
 10
61.31774933287359
 20
164.1498850332927
 30
0.0
 11
62.15949752207198
 21
164.6014675718451
 31
0.0
  0
LINE
  5
2BB
330
6C
100
AcDbEntity
  8
Visible Narrow {c3}
100
AcDbLine
 10
60.20455474475241
 20
164.1898472674628
 30
0.0
 11
61.05011098377421
 21
164.6736873948517
 31
0.0
  0
LINE
  5
2BC
330
6C
100
AcDbEntity
  8
Visible Narrow {c3}
100
AcDbLine
 10
60.59414460769602
 20
165.3786192283015
 30
0.0
 11
59.74858836867423
 21
164.8947791009126
 31
0.0
  0
ARC
  5
2BD
330
6C
100
AcDbEntity
  8
Visible {c3}
100
AcDbCircle
 10
60.62348060487427
 20
164.8684943674462
 30
0.0
 40
0.5953125000000002
100
AcDbArc
 50
61.97751421988845
 51
64.60590993743095
  0
ARC
  5
2BE
330
6C
100
AcDbEntity
  8
Visible {c3}
100
AcDbCircle
 10
60.62348060487427
 20
164.8684943674462
 30
0.0
 40
0.5953125000000002
100
AcDbArc
 50
4.147279887574494
 51
19.9870469598626
  0
LINE
  5
2BF
330
6C
100
AcDbEntity
  8
Visible {c3}
100
AcDbLine
 10
61.21723424598457
 20
164.911547663772
 30
0.0
 11
61.26370944780463
 21
164.2706020763967
 31
0.0
  0
ARC
  5
2C0
330
6C
100
AcDbEntity
  8
Visible {c3}
100
AcDbCircle
 10
62.2225218407074
 20
164.1094158805177
 30
0.0
 40
0.5953125000000002
100
AcDbArc
 50
110.0759583071966
 51
118.2127459433137
  0
LINE
  5
2C1
330
6C
100
AcDbEntity
  8
Visible {c3}
100
AcDbLine
 10
60.02133969694043
 20
165.8133196081147
 30
0.0
 11
60.8787755806227
 21
165.4062874949719
 31
0.0
  0
LINE
  5
2C2
330
6C
100
AcDbEntity
  8
Visible {c3}
100
AcDbLine
 10
60.75927979855433
 20
166.2684513297196
 30
0.0
 11
59.95018978299831
 21
165.7694372079664
 31
0.0
  0
LINE
  5
2C3
330
6C
100
AcDbEntity
  8
Visible {c3}
100
AcDbLine
 10
61.94108975729932
 20
164.6340042477971
 30
0.0
 11
61.06261429556052
 21
164.1627181979325
 31
0.0
  0
LINE
  5
2C4
330
6C
100
AcDbEntity
  8
Visible {c3}
100
AcDbLine
 10
59.74858836867423
 20
164.8947791009126
 30
0.0
 11
58.44205290102454
 21
165.5150026096486
 31
0.0
  0
LINE
  5
2C5
330
6C
100
AcDbEntity
  8
Visible {c3}
100
AcDbLine
 10
58.44205290102454
 20
165.5150026096486
 30
0.0
 11
58.37813426349143
 21
166.3965129005885
 31
0.0
  0
LINE
  5
2C6
330
6C
100
AcDbEntity
  8
Visible {c3}
100
AcDbLine
 10
58.37813426349143
 20
166.3965129005885
 30
0.0
 11
59.68466973114112
 21
165.7762893918525
 31
0.0
  0
LINE
  5
2C7
330
6C
100
AcDbEntity
  8
Visible {c3}
100
AcDbLine
 10
60.06727094913756
 20
166.0831460498577
 30
0.0
 11
60.00688877185037
 21
166.915884554968
 31
0.0
  0
LINE
  5
2C8
330
6C
100
AcDbEntity
  8
Visible {c3}
100
AcDbLine
 10
60.00688877185037
 20
166.915884554968
 30
0.0
 11
60.73748214197511
 21
166.5690656627928
 31
0.0
  0
LINE
  5
2C9
330
6C
100
AcDbEntity
  8
Visible {c3}
100
AcDbLine
 10
60.73748214197511
 20
166.5690656627928
 30
0.0
 11
60.7978643192623
 21
165.7363271576824
 31
0.0
  0
LINE
  5
2CA
330
6C
100
AcDbEntity
  8
Visible {c3}
100
AcDbLine
 10
61.25383069534047
 20
165.0313953242326
 30
0.0
 11
62.56036616299017
 21
164.4111718154967
 31
0.0
  0
LINE
  5
2CB
330
6C
100
AcDbEntity
  8
Visible {c3}
100
AcDbLine
 10
62.56036616299017
 20
164.4111718154967
 30
0.0
 11
62.62428480052329
 21
163.5296615245568
 31
0.0
  0
LINE
  5
2CC
330
6C
100
AcDbEntity
  8
Visible {c3}
100
AcDbLine
 10
62.62428480052329
 20
163.5296615245568
 30
0.0
 11
61.31774933287359
 21
164.1498850332927
 31
0.0
  0
LINE
  5
2CD
330
6C
100
AcDbEntity
  8
Visible {c3}
100
AcDbLine
 10
60.93514811487715
 20
163.8430283752876
 30
0.0
 11
60.99553029216433
 21
163.0102898701772
 31
0.0
  0
LINE
  5
2CE
330
6C
100
AcDbEntity
  8
Visible {c3}
100
AcDbLine
 10
60.99553029216433
 20
163.0102898701772
 30
0.0
 11
60.26493692203961
 21
163.3571087623525
 31
0.0
  0
LINE
  5
2CF
330
6C
100
AcDbEntity
  8
Visible {c3}
100
AcDbLine
 10
60.26493692203961
 20
163.3571087623525
 30
0.0
 11
60.20455474475241
 21
164.1898472674628
 31
0.0
  0
LINE
  5
2D0
330
6C
100
AcDbEntity
  8
Visible {c3}
100
AcDbLine
 10
59.25507066347655
 20
165.9802237263531
 30
0.0
 11
58.44205290102454
 21
165.5150026096486
 31
0.0
  0
LINE
  5
2D1
330
6C
100
AcDbEntity
  8
Visible {c3}
100
AcDbLine
 10
60.94227838836619
 20
163.7446938409421
 30
0.0
 11
60.26493692203961
 21
163.3571087623525
 31
0.0
  0
ELLIPSE
  5
2D2
330
6C
100
AcDbEntity
  8
Visible Narrow {c3}
100
AcDbEllipse
 10
64.34967083561729
 20
154.920586086218
 30
0.0
 11
1.04471200589521
 21
-1.814171708427961
 31
0.0
210
0.0
220
0.0
230
0.9999999999999998
 40
0.5780931159158107
 41
4.016190988009647
 42
4.874049468626385
  0
LINE
  5
2D3
330
6C
100
AcDbEntity
  8
Visible Narrow {c3}
100
AcDbLine
 10
62.47337110168196
 20
161.1594446522501
 30
0.0
 11
62.874992722973
 21
155.6206283398934
 31
0.0
  0
LINE
  5
2D4
330
6C
100
AcDbEntity
  8
Visible Narrow {c3}
100
AcDbLine
 10
63.53420479881456
 20
160.6558578655825
 30
0.0
 11
62.47337110168196
 21
161.1594446522501
 31
0.0
  0
ELLIPSE
  5
2D5
330
6C
100
AcDbEntity
  8
Visible Narrow {c3}
100
AcDbEllipse
 10
63.44213047105125
 20
161.9256669633229
 30
0.0
 11
0.7455660531639678
 21
-1.294696368742819
 31
0.0
210
0.0
220
0.0
230
1.0
 40
0.5780931159158105
 41
5.58698731480475
 42
6.409067596244566
  0
LINE
  5
2D6
330
6C
100
AcDbEntity
  8
Visible Narrow {c3}
100
AcDbLine
 10
65.50100829097816
 20
161.7375246803844
 30
0.0
 11
64.2757656700318
 21
160.6953280796863
 31
0.0
  0
ELLIPSE
  5
2D7
330
6C
100
AcDbEntity
  8
Visible Narrow {c3}
100
AcDbEllipse
 10
64.68030200570024
 20
162.979236439636
 30
0.0
 11
0.7455660531639471
 21
-1.294696368742783
 31
0.0
210
0.0
220
0.0
230
1.0
 40
0.5780931159158106
 41
0.1062061552164204
 42
1.642990513623671
  0
LINE
  5
2D8
330
6C
100
AcDbEntity
  8
Visible Narrow {c3}
100
AcDbLine
 10
63.9039022448043
 20
165.8237452176696
 30
0.0
 11
65.37302864590539
 21
163.5025087056467
 31
0.0
  0
ELLIPSE
  5
2D9
330
6C
100
AcDbEntity
  8
Visible Narrow {c3}
100
AcDbEllipse
 10
63.19561680418636
 20
165.3253691876729
 30
0.0
 11
0.7455660531638792
 21
-1.294696368742843
 31
0.0
210
0.0
220
0.0
230
1.0
 40
0.5780931159158107
 41
1.623314379776619
 42
2.44539466121523
  0
LINE
  5
2DA
330
6C
100
AcDbEntity
  8
Visible Narrow {c3}
100
AcDbLine
 10
57.46821426520015
 20
169.2703165595627
 30
0.0
 11
63.10354247642306
 21
166.5951782854132
 31
0.0
  0
ELLIPSE
  5
2DB
330
6C
100
AcDbEntity
  8
Visible Narrow {c3}
100
AcDbEllipse
 10
57.56028859296344
 20
168.0005074618224
 30
0.0
 11
-0.745566053163954
 21
1.294696368742795
 31
0.0
210
0.0
220
0.0
230
0.9999999999999998
 40
0.5780931159158105
 41
5.586987314804741
 42
7.15778364159964
  0
LINE
  5
2DC
330
6C
100
AcDbEntity
  8
Visible Narrow {c3}
100
AcDbLine
 10
56.75438787775236
 20
165.1003953036108
 30
0.0
 11
56.50787421088745
 21
168.5000975279608
 31
0.0
  0
ELLIPSE
  5
2DD
330
6C
100
AcDbEntity
  8
Visible Narrow {c3}
100
AcDbEllipse
 10
57.80680225982835
 20
164.6008052374723
 30
0.0
 11
-0.745566053163873
 21
1.294696368742833
 31
0.0
210
0.0
220
0.0
230
1.0
 40
0.5780931159158108
 41
0.8745983344202814
 42
2.445394661215239
  0
LINE
  5
2DE
330
6C
100
AcDbEntity
  8
Visible Narrow {c3}
100
AcDbLine
 10
58.95971028472424
 20
162.8274093530644
 30
0.0
 11
57.89887658759164
 21
163.330996139732
 31
0.0
  0
LINE
  5
2DF
330
6C
100
AcDbEntity
  8
Visible Narrow {c3}
100
AcDbLine
 10
59.36144547627755
 20
157.2870267783658
 30
0.0
 11
58.95971028472424
 21
162.8274093530644
 31
0.0
  0
ELLIPSE
  5
2E0
330
6C
100
AcDbEntity
  8
Visible Narrow {c3}
100
AcDbEllipse
 10
57.88676736363325
 20
157.9870690320413
 30
0.0
 11
1.044712005895104
 21
-1.814171708428029
 31
0.0
210
0.0
220
0.0
230
0.9999999999999998
 40
0.5780931159158108
 41
0.3688766203203606
 42
0.8745983344200441
  0
ELLIPSE
  5
2E1
330
6C
100
AcDbEntity
  8
Visible Narrow {c3}
100
AcDbEllipse
 10
61.94947732483871
 20
144.9898366445159
 30
0.0
 11
-6.733952592176038
 21
11.69369760248516
 31
0.0
210
0.0
220
0.0
230
1.0
 40
0.5780931159158106
 41
2.167467872907824
 42
2.378723165888825
  0
ELLIPSE
  5
2E2
330
6C
100
AcDbEntity
  8
Visible Narrow {c3}
100
AcDbEllipse
 10
63.89198392714395
 20
160.8618891629994
 30
0.0
 11
-0.2169837775285352
 21
-0.4570884483618161
 31
0.0
210
0.0
220
0.0
230
1.0
 40
0.6260829513477999
 41
5.448066122920206
 42
6.283185307179572
  0
ELLIPSE
  5
2E3
330
6C
100
AcDbEntity
  8
Visible Narrow {c3}
100
AcDbEllipse
 10
63.79990959938083
 20
162.1316982607394
 30
0.0
 11
0.9980644231686351
 21
-1.733166872290053
 31
0.0
210
0.0
220
0.0
230
1.0
 40
0.5780931159158106
 41
0.0000000000000148
 42
0.1232121394102971
  0
SPLINE
  5
2E4
330
6C
100
AcDbEntity
  8
Visible {c3}
100
AcDbSpline
210
0.0
220
0.0
230
1.0
 70
     8
 71
     3
 72
    20
 73
    16
 74
     0
 42
0.0000000001
 43
0.0000000001
 40
-0.0783397028446919
 40
-0.0783397028446919
 40
-0.0783397028446919
 40
-0.0783397028446919
 40
-0.0585746649688671
 40
-0.0585746649688671
 40
-0.0388092787219603
 40
-0.0388092787219603
 40
-0.0190431476392822
 40
-0.0190431476392822
 40
-0.0088039123129608
 40
-0.0088039123129608
 40
-0.0036393695670303
 40
-0.0036393695670303
 40
0.0
 40
0.0
 40
0.0013369609828215
 40
0.0013369609828215
 40
0.0013369609828215
 40
0.0013369609828215
 10
64.91354572660481
 20
160.4825810427958
 30
0.0
 10
64.86695916286913
 20
160.4557536249599
 30
0.0
 10
64.81370083199607
 20
160.4398363718477
 30
0.0
 10
64.6998321960347
 20
160.4316112426481
 30
0.0
 10
64.64031054084822
 20
160.4393823642342
 30
0.0
 10
64.52278440722695
 20
160.4778109686159
 30
0.0
 10
64.46590358851914
 20
160.5081017486246
 30
0.0
 10
64.3872692989618
 20
160.5683027583948
 30
0.0
 10
64.36200043842744
 20
160.5912053436137
 30
0.0
 10
64.32692063899299
 20
160.6286813391442
 30
0.0
 10
64.31567824337131
 20
160.6417327855054
 30
0.0
 10
64.29747305651694
 20
160.6647239388772
 30
0.0
 10
64.29023278219545
 20
160.6744369224458
 30
0.0
 10
64.28074213666611
 20
160.6879779175351
 30
0.0
 10
64.27823316408306
 20
160.6916409508113
 30
0.0
 10
64.2757656700318
 20
160.6953280796863
 30
0.0
  0
ELLIPSE
  5
2E5
330
6C
100
AcDbEntity
  8
Visible Narrow {c3}
100
AcDbEllipse
 10
59.71922460460693
 20
157.4930580757827
 30
0.0
 11
-0.5046511690711667
 21
-0.0365924430923483
 31
0.0
210
0.0
220
0.0
230
1.0
 40
0.5232862384607424
 41
0.0
 42
0.745566402644152
  0
ELLIPSE
  5
2E6
330
6C
100
AcDbEntity
  8
Visible Narrow {c3}
100
AcDbEllipse
 10
58.24454649196268
 20
158.1931003294581
 30
0.0
 11
0.7922136358902234
 21
-1.375701204880428
 31
0.0
210
0.0
220
0.0
230
0.9999999999999998
 40
0.5780931159158107
 41
6.0481240072328
 42
6.283185307179585
  0
ELLIPSE
  5
2E7
330
6C
100
AcDbEntity
  8
Visible {c3}
100
AcDbEllipse
 10
59.31748941305365
 20
163.0334406504813
 30
0.0
 11
0.4828443487874949
 21
0.330320794005608
 31
0.0
210
0.0
220
0.0
230
0.9999999999999998
 40
0.0768944766095639
 41
2.351249860120752
 42
3.096816262755964
  0
ELLIPSE
  5
2E8
330
6C
100
AcDbEntity
  8
Visible Narrow {c3}
100
AcDbEllipse
 10
58.25665571592105
 20
163.5370274371489
 30
0.0
 11
-0.2169837775285391
 21
-0.4570884483618098
 31
0.0
210
0.0
220
0.0
230
0.9999999999999998
 40
0.6260829513478044
 41
5.448066122920234
 42
6.283185307179592
  0
ELLIPSE
  5
2E9
330
6C
100
AcDbEntity
  8
Visible Narrow {c3}
100
AcDbEllipse
 10
57.11216700608176
 20
165.3064266010277
 30
0.0
 11
-0.5046511690711633
 21
-0.0365924430923527
 31
0.0
210
0.0
220
0.0
230
0.9999999999999998
 40
0.5232862384607352
 41
0.0
 42
0.7455664026440721
  0
ELLIPSE
  5
2EA
330
6C
100
AcDbEntity
  8
Visible Narrow {c3}
100
AcDbEllipse
 10
56.86565333921685
 20
168.7061288253777
 30
0.0
 11
-0.5046511690711699
 21
-0.0365924430923492
 31
0.0
210
0.0
220
0.0
230
0.9999999999999998
 40
0.5232862384607299
 41
0.0
 42
0.7455664026440739
  0
ELLIPSE
  5
2EB
330
6C
100
AcDbEntity
  8
Visible Narrow {c3}
100
AcDbEllipse
 10
57.82599339352955
 20
169.4763478569796
 30
0.0
 11
0.216983777528565
 21
0.4570884483617947
 31
0.0
210
0.0
220
0.0
230
1.0
 40
0.6260829513478027
 41
0.7356771425357316
 42
2.306473469330574
  0
ELLIPSE
  5
2EC
330
6C
100
AcDbEntity
  8
Visible Narrow {c3}
100
AcDbEllipse
 10
57.91806772129285
 20
168.2065387592392
 30
0.0
 11
-0.9980644231688279
 21
1.733166872290381
 31
0.0
210
0.0
220
0.0
230
1.0
 40
0.5780931159158106
 41
5.586987314804743
 42
6.283185307179572
  0
ELLIPSE
  5
2ED
330
6C
100
AcDbEntity
  8
Visible Narrow {c3}
100
AcDbEllipse
 10
63.46132160475246
 20
166.8012095828301
 30
0.0
 11
0.2169837775285633
 21
0.4570884483617931
 31
0.0
210
0.0
220
0.0
230
1.0
 40
0.6260829513478016
 41
0.7356771425357307
 42
2.306473469330573
  0
LINE
  5
2EE
330
6C
100
AcDbEntity
  8
Visible Narrow {c3}
100
AcDbLine
 10
63.43013909908329
 20
167.2312515972648
 30
0.0
 11
57.79481088786038
 21
169.9063898714143
 31
0.0
  0
ELLIPSE
  5
2EF
330
6C
100
AcDbEntity
  8
Visible Narrow {c3}
100
AcDbEllipse
 10
63.55339593251574
 20
165.5314004850898
 30
0.0
 11
-0.9980644231688266
 21
1.733166872290379
 31
0.0
210
0.0
220
0.0
230
1.0
 40
0.5780931159158108
 41
4.767577183019724
 42
5.58698731480473
  0
SPLINE
  5
2F0
330
6C
100
AcDbEntity
  8
Visible {c3}
100
AcDbSpline
210
0.0
220
0.0
230
1.0
 70
     8
 71
     3
 72
    20
 73
    16
 74
     0
 42
0.0000000001
 43
0.0000000001
 40
-0.0796765316125099
 40
-0.0796765316125099
 40
-0.0796765316125099
 40
-0.0796765316125099
 40
-0.0783395728481856
 40
-0.0783395728481856
 40
-0.0747002093203562
 40
-0.0747002093203562
 40
-0.0695356751444622
 40
-0.0695356751444622
 40
-0.0592964568090956
 40
-0.0592964568090956
 40
-0.0395303585262213
 40
-0.0395303585262213
 40
-0.0197650050778566
 40
-0.0197650050778566
 40
0.0
 40
0.0
 40
0.0
 40
0.0
 10
63.9039022448043
 20
165.8237452176696
 30
0.0
 10
63.9059918913545
 20
165.8252690331074
 30
0.0
 10
63.90812302414234
 20
165.8268168378828
 30
0.0
 10
63.91620770152851
 20
165.8326657333507
 30
0.0
 10
63.92242098610397
 20
165.8371160997135
 30
0.0
 10
63.93814964320007
 20
165.8482790921654
 30
0.0
 10
63.94794739510231
 20
165.8551509163065
 30
0.0
 10
63.97875950945641
 20
165.8765311239399
 30
0.0
 10
64.00125665001849
 20
165.891853691411
 30
0.0
 10
64.072083892393
 20
165.9393206905176
 30
0.0
 10
64.12429732935096
 20
165.9733983827268
 30
0.0
 10
64.23396719785163
 20
166.0433165582417
 30
0.0
 10
64.29037505428273
 20
166.0784882425828
 30
0.0
 10
64.39999666420096
 20
166.1452846634679
 30
0.0
 10
64.45216235751002
 20
166.1762706241431
 30
0.0
 10
64.49874892124589
 20
166.2030980419789
 30
0.0
  0
ELLIPSE
  5
2F1
330
6C
100
AcDbEntity
  8
Visible Narrow {c3}
100
AcDbEllipse
 10
65.73080777423479
 20
163.7085400030635
 30
0.0
 11
0.4275406661131316
 21
0.2705934000597638
 31
0.0
210
0.0
220
0.0
230
1.0
 40
0.0588571901182919
 41
0.9531756583098163
 42
2.523971985115046
  0
ELLIPSE
  5
2F2
330
6C
100
AcDbEntity
  8
Visible Narrow {c3}
100
AcDbEllipse
 10
65.85878741930755
 20
161.9435559778013
 30
0.0
 11
0.3278298029425131
 21
-0.3854081338516786
 31
0.0
210
0.0
220
0.0
230
0.9999999999999998
 40
0.8113731536273334
 41
4.563863920072881
 42
6.134660246867754
  0
ELLIPSE
  5
2F3
330
6C
100
AcDbEntity
  8
Visible {c3}
100
AcDbEllipse
 10
62.83115023001136
 20
161.365475949667
 30
0.0
 11
0.4032263920775206
 21
-0.5894136494879531
 31
0.0
210
0.0
220
0.0
230
1.0
 40
0.576964904284122
 41
4.667612589577073
 42
5.502731773836428
  0
ELLIPSE
  5
2F4
330
6C
100
AcDbEntity
  8
Visible Narrow {c3}
100
AcDbEllipse
 10
63.2327718513024
 20
155.8266596373103
 30
0.0
 11
0.5046511690711646
 21
0.0365924430923591
 31
0.0
210
0.0
220
0.0
230
0.9999999999999998
 40
0.5232862384607293
 41
3.887159056233619
 42
5.4579553830285
  0
LINE
  5
2F5
330
6C
100
AcDbEntity
  8
Visible Narrow {c3}
100
AcDbLine
 10
63.58918952203213
 20
155.6574651349114
 30
0.0
 11
63.22962818408903
 21
160.6162225780244
 31
0.0
  0
ELLIPSE
  5
2F6
330
6C
100
AcDbEntity
  8
Visible Narrow {c3}
100
AcDbEllipse
 10
64.70931704617076
 20
153.4140282009472
 30
0.0
 11
0.2520177404896807
 21
0.4387469291229673
 31
0.0
210
0.0
220
0.0
230
1.0
 40
0.5788189771455312
 41
0.7828305799862854
 42
1.658098342044469
  0
ELLIPSE
  5
2F7
330
6C
100
AcDbEntity
  8
Visible Narrow {c3}
100
AcDbEllipse
 10
64.70744996394668
 20
155.1266173836349
 30
0.0
 11
-0.79221363589016
 21
1.375701204880511
 31
0.0
210
0.0
220
0.0
230
1.0
 40
0.5780931159158106
 41
0.8745983344202663
 42
2.359389475832319
  0
ELLIPSE
  5
2F8
330
6C
100
AcDbEntity
  8
Visible Narrow {c3}
100
AcDbEllipse
 10
70.0655642341176
 20
150.337381450373
 30
0.0
 11
0.2520177404896815
 21
0.4387469291229635
 31
0.0
210
0.0
220
0.0
230
1.0
 40
0.5788189771455179
 41
0.7828305799862783
 42
1.671536244331317
  0
LINE
  5
2F9
330
6C
100
AcDbEntity
  8
Visible Narrow {c3}
100
AcDbLine
 10
70.06511297557404
 20
150.7513002860679
 30
0.0
 11
64.70886578762717
 21
153.8279470366421
 31
0.0
  0
ELLIPSE
  5
2FA
330
6C
100
AcDbEntity
  8
Visible Narrow {c3}
100
AcDbEllipse
 10
70.06652879925453
 20
149.4526299390751
 30
0.0
 11
-0.7922136358902398
 21
1.375701204880459
 31
0.0
210
0.0
220
0.0
230
1.0
 40
0.5780931159158108
 41
4.617899896225388
 42
5.500982129421876
  0
SPLINE
  5
2FB
330
6C
100
AcDbEntity
  8
Visible {c3}
100
AcDbSpline
210
0.0
220
0.0
230
1.0
 70
     8
 71
     3
 72
    16
 73
    12
 74
     0
 42
0.0000000001
 43
0.0000000001
 40
0.7873318718203332
 40
0.7873318718203332
 40
0.7873318718203332
 40
0.7873318718203332
 40
0.9265714702953024
 40
0.9265714702953024
 40
1.065811068770271
 40
1.065811068770271
 40
1.205050667245241
 40
1.205050667245241
 40
1.34429026572021
 40
1.34429026572021
 40
1.48352986419518
 40
1.48352986419518
 40
1.48352986419518
 40
1.48352986419518
 10
64.79797402254947
 20
160.3985313884494
 30
0.0
 10
64.728032470572
 20
160.3582547273581
 30
0.0
 10
64.65321885774779
 20
160.3265525576086
 30
0.0
 10
64.49971421993175
 20
160.28163922461
 30
0.0
 10
64.42110564903512
 20
160.268377712084
 30
0.0
 10
64.26480673244586
 20
160.2584886304275
 30
0.0
 10
64.18711194729199
 20
160.2617914000584
 30
0.0
 10
64.03488280150161
 20
160.2820484031592
 30
0.0
 10
63.9603103726039
 20
160.2989756943704
 30
0.0
 10
63.81489080562513
 20
160.3439693828493
 30
0.0
 10
63.74401679694894
 20
160.3720379246252
 30
0.0
 10
63.67500014961542
 20
160.4048007146376
 30
0.0
  0
SPLINE
  5
2FC
330
6C
100
AcDbEntity
  8
Visible {c3}
100
AcDbSpline
210
0.0
220
0.0
230
1.0
 70
     8
 71
     3
 72
    10
 73
     6
 74
     0
 42
0.0000000001
 43
0.0000000001
 40
4.504691375022678
 40
4.504691375022678
 40
4.504691375022678
 40
4.504691375022678
 40
4.548314140695623
 40
4.548314140695623
 40
4.721579646173521
 40
4.721579646173521
 40
4.721579646173521
 40
4.721579646173521
 10
60.01896772409375
 20
135.1426659684594
 30
0.0
 10
60.15884195004057
 20
135.0280372932673
 30
0.0
 10
60.29946167007154
 20
134.9164820901032
 30
0.0
 10
61.00172516647849
 20
134.3776468334082
 30
0.0
 10
61.57262125838127
 20
133.9974331158153
 30
0.0
 10
62.14597475813571
 20
133.6733534895339
 30
0.0
  0
SPLINE
  5
2FD
330
6C
100
AcDbEntity
  8
Visible {c3}
100
AcDbSpline
210
0.0
220
0.0
230
1.0
 70
     8
 71
     3
 72
    16
 73
    12
 74
     0
 42
0.0000000001
 43
0.0000000001
 40
5.495853435359252
 40
5.495853435359252
 40
5.495853435359252
 40
5.495853435359252
 40
5.670773102243263
 40
5.670773102243263
 40
5.845692769127273
 40
5.845692769127273
 40
6.020612436011283
 40
6.020612436011283
 40
6.195532102895294
 40
6.195532102895294
 40
6.370451769779302
 40
6.370451769779302
 40
6.370451769779302
 40
6.370451769779302
 10
59.0367601278529
 20
156.8173991245776
 30
0.0
 10
59.05368552271254
 20
156.8271458112514
 30
0.0
 10
59.06942604519471
 20
156.839288873583
 30
0.0
 10
59.10292977198065
 20
156.8751351392961
 30
0.0
 10
59.12061371218303
 20
156.8990949010465
 30
0.0
 10
59.15516600284377
 20
156.9646093518766
 30
0.0
 10
59.17185558362636
 20
157.0061605721278
 30
0.0
 10
59.19902503829567
 20
157.107387774505
 30
0.0
 10
59.20944777237638
 20
157.1669809092299
 30
0.0
 10
59.22013094790694
 20
157.3013838201418
 30
0.0
 10
59.22039750124652
 20
157.3761451806708
 30
0.0
 10
59.21457343553576
 20
157.4564656326904
 30
0.0
  0
LINE
  5
2FE
330
6C
100
AcDbEntity
  8
Visible {c3}
100
AcDbLine
 10
59.21457343553576
 20
157.4564656326904
 30
0.0
 11
58.83399208342869
 21
162.70511284061
 31
0.0
  0
LINE
  5
2FF
330
6C
100
AcDbEntity
  8
Visible {c3}
100
AcDbLine
 10
58.83416062618678
 20
162.7027884453875
 30
0.0
 11
58.0396719383925
 21
163.079938988787
 31
0.0
  0
SPLINE
  5
300
330
6C
100
AcDbEntity
  8
Visible {c3}
100
AcDbSpline
210
0.0
220
0.0
230
1.0
 70
     8
 71
     3
 72
    16
 73
    12
 74
     0
 42
0.0000000001
 43
0.0000000001
 40
1.48352986419518
 40
1.48352986419518
 40
1.48352986419518
 40
1.48352986419518
 40
1.797689129554159
 40
1.797689129554159
 40
2.111848394913137
 40
2.111848394913137
 40
2.426007660272117
 40
2.426007660272117
 40
2.740166925631096
 40
2.740166925631096
 40
3.054326190990075
 40
3.054326190990075
 40
3.054326190990075
 40
3.054326190990075
 10
58.0396719383925
 20
163.079938988787
 30
0.0
 10
57.88395316685539
 20
163.1538600152346
 30
0.0
 10
57.73750674196726
 20
163.2515002356002
 30
0.0
 10
57.4642201794314
 20
163.4818229598663
 30
0.0
 10
57.33742991171478
 20
163.6147129162133
 30
0.0
 10
57.10832437795225
 20
163.9058071850787
 30
0.0
 10
57.00608687679076
 20
164.0640171778879
 30
0.0
 10
56.83237739915526
 20
164.3950903865871
 30
0.0
 10
56.76091733386964
 20
164.5678957868303
 30
0.0
 10
56.6548847022598
 20
164.9177680319175
 30
0.0
 10
56.62020839134254
 20
165.0947894809249
 30
0.0
 10
56.6075158370106
 20
165.2698341579353
 30
0.0
  0
LINE
  5
301
330
6C
100
AcDbEntity
  8
Visible {c3}
100
AcDbLine
 10
56.6075158370106
 20
165.2698341579353
 30
0.0
 11
56.36100217014568
 21
168.6695363822854
 31
0.0
  0
SPLINE
  5
302
330
6C
100
AcDbEntity
  8
Visible {c3}
100
AcDbSpline
210
0.0
220
0.0
230
1.0
 70
     8
 71
     3
 72
    16
 73
    12
 74
     0
 42
0.0000000001
 43
0.0000000001
 40
3.054326190990075
 40
3.054326190990075
 40
3.054326190990075
 40
3.054326190990075
 40
3.229245857874086
 40
3.229245857874086
 40
3.404165524758096
 40
3.404165524758096
 40
3.579085191642106
 40
3.579085191642106
 40
3.754004858526116
 40
3.754004858526116
 40
3.928924525410126
 40
3.928924525410126
 40
3.928924525410126
 40
3.928924525410126
 10
56.36100217014568
 20
168.6695363822854
 30
0.0
 10
56.35393512606817
 20
168.7669989115458
 30
0.0
 10
56.35369728328758
 20
168.8638847090589
 30
0.0
 10
56.36891029512883
 20
169.0552765914962
 30
0.0
 10
56.38435463439552
 20
169.1498260161598
 30
0.0
 10
56.43396944946293
 20
169.3346795212031
 30
0.0
 10
56.46819586876233
 20
169.4250619918152
 30
0.0
 10
56.55897255451148
 20
169.5971832781701
 30
0.0
 10
56.61569963799784
 20
169.6789218603509
 30
0.0
 10
56.75224468487278
 20
169.8250139671594
 30
0.0
 10
56.83213926298428
 20
169.8891080987985
 30
0.0
 10
56.92000329812403
 20
169.9397056315296
 30
0.0
  0
LINE
  5
303
330
6C
100
AcDbEntity
  8
Visible {c3}
100
AcDbLine
 10
63.67500014961542
 20
160.4048007146376
 30
0.0
 11
62.87840613784542
 21
160.7829506732505
 31
0.0
  0
ELLIPSE
  5
304
330
6C
100
AcDbEntity
  8
Visible {c3}
100
AcDbEllipse
 10
65.37664589728755
 20
154.50266507073
 30
0.0
 11
-0.1972643515662913
 21
0.3425550808965229
 31
0.0
210
0.0
220
0.0
230
1.0
 40
0.5780931159158105
 41
5.299428015284557
 42
6.283185307179598
  0
LINE
  5
305
330
6C
100
AcDbEntity
  8
Visible Narrow {c3}
100
AcDbLine
 10
65.22540668784616
 20
154.6682340111481
 30
0.0
 11
65.43225716247765
 21
154.7873512773191
 31
0.0
  0
LINE
  5
306
330
6C
100
AcDbEntity
  8
Visible {c3}
100
AcDbLine
 10
65.10352097544809
 20
154.8015349545913
 30
0.0
 11
65.17938154572125
 21
154.8452201516266
 31
0.0
  0
ELLIPSE
  5
307
330
6C
100
AcDbEntity
  8
Visible {c3}
100
AcDbEllipse
 10
63.71724427780446
 20
146.0078259289967
 30
0.0
 11
6.083495915194526
 21
-10.56416133384902
 31
0.0
210
0.0
220
0.0
230
1.0
 40
0.5780931159158106
 41
2.033625152015803
 42
2.157835361694891
  0
LINE
  5
308
330
6C
100
AcDbEntity
  8
Visible Narrow {c3}
100
AcDbLine
 10
65.99210498001093
 20
154.3108833752261
 30
0.0
 11
66.17247158570825
 21
154.406097901902
 31
0.0
  0
LINE
  5
309
330
6C
100
AcDbEntity
  8
Visible Narrow {c3}
100
AcDbLine
 10
65.15448635871257
 20
154.9923166062975
 30
0.0
 11
65.02118440392433
 21
154.9038258788866
 31
0.0
  0
ELLIPSE
  5
30A
330
6C
100
AcDbEntity
  8
Visible {c3}
100
AcDbEllipse
 10
66.12140733383874
 20
147.392291355891
 30
0.0
 11
-4.940418894685071
 21
8.579176017837486
 31
0.0
210
0.0
220
0.0
230
1.0
 40
0.5780931159158107
 41
2.46896103010367
 42
2.707492098639587
  0
ELLIPSE
  5
30B
330
6C
100
AcDbEntity
  8
Visible {c3}
100
AcDbEllipse
 10
66.1214073338386
 20
147.3922913558912
 30
0.0
 11
-4.940418894685511
 21
8.579176017837058
 31
0.0
210
0.0
220
0.0
230
1.0
 40
0.5780931159158107
 41
0.4341005549506241
 42
0.5864893889505698
  0
ELLIPSE
  5
30C
330
6C
100
AcDbEntity
  8
Visible {c3}
100
AcDbEllipse
 10
66.12140733383873
 20
147.3922913558911
 30
0.0
 11
-4.940418894685094
 21
8.579176017837527
 31
0.0
210
0.0
220
0.0
230
0.9999999999999998
 40
0.5780931159158107
 41
1.06008142491841
 42
2.171704831679171
  0
ELLIPSE
  5
30D
330
6C
100
AcDbEntity
  8
Visible {c3}
100
AcDbEllipse
 10
66.12140733383873
 20
147.3922913558911
 30
0.0
 11
-4.51692864241496
 21
7.843773313428698
 31
0.0
210
0.0
220
0.0
230
0.9999999999999998
 40
0.5780931159158106
 41
1.007300334868802
 42
2.236855083989365
  0
SPLINE
  5
30E
330
6C
100
AcDbEntity
  8
Visible {c3}
100
AcDbSpline
210
0.0
220
0.0
230
1.0
 70
    12
 71
     2
 72
     6
 73
     3
 74
     0
 42
0.0000000001
 43
0.0000000001
 40
11.21438166318488
 40
11.21438166318488
 40
11.21438166318488
 40
11.29786999623862
 40
11.29786999623862
 40
11.29786999623862
 10
64.13797281261094
 20
137.9847407808188
 30
0.0
 41
1.867726179438441
 10
65.51945683216962
 20
138.7943258861024
 30
0.0
 41
1.870859429635107
 10
66.8956892592381
 20
139.6008342001516
 30
0.0
 41
1.873991239203601
  0
LINE
  5
30F
330
6C
100
AcDbEntity
  8
Visible {c3}
100
AcDbLine
 10
66.89568925923811
 20
138.9023559159513
 30
0.0
 11
66.89568925923811
 21
139.6008342001516
 31
0.0
  0
ELLIPSE
  5
310
330
6C
100
AcDbEntity
  8
Visible {c3}
100
AcDbEllipse
 10
63.3636908872116
 20
145.8042280721008
 30
0.0
 11
-4.533913096136913
 21
7.873267293828654
 31
0.0
210
0.0
220
0.0
230
1.0
 40
0.5780931159158105
 41
2.23731161183711
 42
2.478944785393895
  0
ELLIPSE
  5
311
330
6C
100
AcDbEntity
  8
Visible {c3}
100
AcDbEllipse
 10
63.36369088721162
 20
145.8042280721008
 30
0.0
 11
-4.533913096137359
 21
7.873267293828341
 31
0.0
210
0.0
220
0.0
230
1.0
 40
0.5780931159158106
 41
0.5682009052454938
 42
1.006462838395173
  0
SPLINE
  5
312
330
6C
100
AcDbEntity
  8
Visible {c3}
100
AcDbSpline
210
0.0
220
0.0
230
1.0
 70
    12
 71
     2
 72
     6
 73
     3
 74
     0
 42
0.0000000001
 43
0.0000000001
 40
374.2916883825966
 40
374.2916883825966
 40
374.2916883825966
 40
374.3751767156504
 40
374.3751767156504
 40
374.3751767156504
 10
65.34712540843897
 20
140.4925928133565
 30
0.0
 41
1.8739912392036
 10
63.97089298137101
 20
139.6860844993076
 30
0.0
 41
1.870859429635107
 10
62.58940896181282
 20
138.8764993940242
 30
0.0
 41
1.867726179438443
  0
ELLIPSE
  5
313
330
6C
100
AcDbEntity
  8
Visible {c3}
100
AcDbEllipse
 10
66.12140733383873
 20
147.3922913558912
 30
0.0
 11
4.516928642415465
 21
-7.843773313428489
 31
0.0
210
0.0
220
0.0
230
1.0
 40
0.5780931159158106
 41
5.620993966831064
 42
5.92203760591822
  0
ELLIPSE
  5
314
330
6C
100
AcDbEntity
  8
Visible {c3}
100
AcDbEllipse
 10
66.12140733383876
 20
147.3922913558911
 30
0.0
 11
-4.51692864241544
 21
7.843773313428446
 31
0.0
210
0.0
220
0.0
230
1.0
 40
0.5780931159158106
 41
0.3611477012613671
 42
0.5673634087720148
  0
ELLIPSE
  5
315
330
6C
100
AcDbEntity
  8
Visible {c3}
100
AcDbEllipse
 10
67.18206750561839
 20
148.0030849265797
 30
0.0
 11
4.510396160215156
 21
-7.832429474812808
 31
0.0
210
0.0
220
0.0
230
1.0
 40
0.5780931159158106
 41
3.754945764193241
 42
5.765968360890303
  0
SPLINE
  5
316
330
6C
100
AcDbEntity
  8
Visible {c3}
100
AcDbSpline
210
0.0
220
0.0
230
1.0
 70
    12
 71
     2
 72
     6
 73
     3
 74
     0
 42
0.0000000001
 43
0.0000000001
 40
10.32838467879958
 40
10.32838467879958
 40
10.32838467879958
 40
10.38674340384185
 40
10.38674340384185
 40
10.38674340384185
 10
64.71411594984984
 20
137.6239240575379
 30
0.0
 41
1.802121311402514
 10
65.80640214742837
 20
138.2640185536895
 30
0.0
 41
1.80432813663445
 10
66.895689259296
 20
138.9023559159772
 30
0.0
 41
1.806534291764809
  0
LINE
  5
317
330
6C
100
AcDbEntity
  8
Visible {c3}
100
AcDbLine
 10
64.13797281261103
 20
137.8634653690773
 30
0.0
 11
64.137972812611
 21
137.9847407808194
 31
0.0
  0
ELLIPSE
  5
318
330
6C
100
AcDbEntity
  8
Visible {c3}
100
AcDbEllipse
 10
63.3636908872116
 20
145.8042280721008
 30
0.0
 11
4.957403348407542
 21
-8.608669998237152
 31
0.0
210
0.0
220
0.0
230
1.0
 40
0.5780931159158108
 41
5.705307871323658
 42
6.128446877639582
  0
ELLIPSE
  5
319
330
6C
100
AcDbEntity
  8
Visible {c3}
100
AcDbEllipse
 10
63.36369088721159
 20
145.8042280721008
 30
0.0
 11
-4.957403348407523
 21
8.608669998237122
 31
0.0
210
0.0
220
0.0
230
0.9999999999999998
 40
0.5780931159158105
 41
0.1547384295400018
 42
0.5871868455459844
  0
ELLIPSE
  5
31A
330
6C
100
AcDbEntity
  8
Visible {c3}
100
AcDbEllipse
 10
63.3636908872116
 20
145.8042280721008
 30
0.0
 11
-4.957403348407019
 21
8.608669998237434
 31
0.0
210
0.0
220
0.0
230
1.0
 40
0.5780931159158107
 41
1.213810699990442
 42
2.247676643546361
  0
LINE
  5
31B
330
6C
100
AcDbEntity
  8
Visible {c3}
100
AcDbLine
 10
56.47949078489839
 20
151.3832308245049
 30
0.0
 11
57.09296202832224
 21
151.0299562307614
 31
0.0
  0
SPLINE
  5
31C
330
6C
100
AcDbEntity
  8
Visible {c3}
100
AcDbSpline
210
0.0
220
0.0
230
1.0
 70
    12
 71
     2
 72
     6
 73
     3
 74
     0
 42
0.0000000001
 43
0.0000000001
 40
19.07150266997753
 40
19.07150266997753
 40
19.07150266997753
 40
19.21186090934324
 40
19.21186090934324
 40
19.21186090934324
 10
57.09296202831968
 20
151.029956230763
 30
0.0
 41
1.798687245056227
 10
58.48688880612033
 20
151.8184389580581
 30
0.0
 41
1.801464412859724
 10
59.8753366028426
 20
152.6038198430801
 30
0.0
 41
1.804239198612876
  0
LINE
  5
31D
330
6C
100
AcDbEntity
  8
Visible {c3}
100
AcDbLine
 10
59.26176539711828
 20
152.9571520012839
 30
0.0
 11
59.87533660284521
 21
152.6038198430786
 31
0.0
  0
SPLINE
  5
31E
330
6C
100
AcDbEntity
  8
Visible {c3}
100
AcDbSpline
210
0.0
220
0.0
230
1.0
 70
    12
 71
     2
 72
     6
 73
     3
 74
     0
 42
0.0000000001
 43
0.0000000001
 40
17.59218846774463
 40
17.59218846774463
 40
17.59218846774463
 40
17.71658287099233
 40
17.71658287099233
 40
17.71658287099233
 10
56.47949078489637
 20
151.3832308245063
 30
0.0
 41
1.741773780456103
 10
57.87311297260681
 20
152.1715980934843
 30
0.0
 41
1.74427070637467
 10
59.26176539711466
 20
152.9571520012844
 30
0.0
 41
1.746765855829857
  0
LINE
  5
31F
330
6C
100
AcDbEntity
  8
Visible {c3}
100
AcDbLine
 10
57.09296202832224
 20
147.8006450876334
 30
0.0
 11
57.05555915046599
 21
147.8221839724974
 31
0.0
  0
SPLINE
  5
320
330
6C
100
AcDbEntity
  8
Visible {c3}
100
AcDbSpline
210
0.0
220
0.0
230
1.0
 70
    12
 71
     2
 72
     6
 73
     3
 74
     0
 42
0.0000000001
 43
0.0000000001
 40
346.2108629557163
 40
346.2108629557163
 40
346.2108629557163
 40
346.351221195082
 40
346.351221195082
 40
346.351221195082
 10
59.87533660284268
 20
149.3745086999521
 30
0.0
 41
1.804239198612881
 10
58.48688880612041
 20
148.5891278149301
 30
0.0
 41
1.801464412859729
 10
57.09296202831978
 20
147.800645087635
 30
0.0
 41
1.798687245056232
  0
ELLIPSE
  5
321
330
6C
100
AcDbEntity
  8
Visible {c3}
100
AcDbEllipse
 10
51.04235522503473
 20
160.8901355776349
 30
0.0
 11
-0.7996646198002519
 21
-0.0382671685300838
 31
0.0
210
0.0
220
0.0
230
1.0
 40
0.6052807335070931
 41
5.468830122367926
 42
7.039626449162866
  0
ELLIPSE
  5
322
330
6C
100
AcDbEntity
  8
Visible {c3}
100
AcDbEllipse
 10
51.04235522503474
 20
137.9467058131831
 30
0.0
 11
-0.7999999999999997
 21
0.0000000000000008
 31
0.0
210
0.0
220
0.0
230
1.0
 40
0.5758617009853118
 41
0.0000000000000054
 42
0.7853981633976046
  0
LINE
  5
323
330
6C
100
AcDbEntity
  8
Visible Narrow {c3}
100
AcDbLine
 10
50.47666980008558
 20
137.6209492421492
 30
0.0
 11
50.47666980008558
 21
160.5301023431832
 31
0.0
  0
LINE
  5
324
330
6C
100
AcDbEntity
  8
Visible Narrow {c3}
100
AcDbLine
 10
71.44238586226983
 20
148.4567494292423
 30
0.0
 11
71.44238586226983
 21
125.5475963282083
 31
0.0
  0
ELLIPSE
  5
325
330
6C
100
AcDbEntity
  8
Visible {c3}
100
AcDbEllipse
 10
72.00807128721898
 20
125.8733528992422
 30
0.0
 11
0.8000000000000012
 21
0.0000000000000476
 31
0.0
210
0.0
220
0.0
230
1.0
 40
0.5758617009853117
 41
3.926990816987162
 42
5.497787143782046
  0
ELLIPSE
  5
326
330
6C
100
AcDbEntity
  8
Visible {c3}
100
AcDbEllipse
 10
72.00807128721898
 20
148.816782663694
 30
0.0
 11
-0.7996646198002519
 21
-0.038267168530084
 31
0.0
210
0.0
220
0.0
230
1.0
 40
0.6052807335070931
 41
0.7564411419832631
 42
2.327237468778118
  0
LINE
  5
327
330
6C
100
AcDbEntity
  8
Visible Narrow {c3}
100
AcDbLine
 10
72.57375671216831
 20
125.5475963282084
 30
0.0
 11
72.57375671216831
 21
148.4910260926602
 31
0.0
  0
LINE
  5
328
330
6C
100
AcDbEntity
  8
Visible {c3}
100
AcDbLine
 10
50.24235522503474
 20
137.9467058131831
 30
0.0
 11
50.24235522503474
 21
160.8658983164957
 31
0.0
  0
LINE
  5
329
330
6C
100
AcDbEntity
  8
Visible {c3}
100
AcDbLine
 10
50.47666980008558
 20
137.6209492421492
 30
0.0
 11
71.44238586226983
 21
125.5475963282083
 31
0.0
  0
LINE
  5
32A
330
6C
100
AcDbEntity
  8
Visible {c3}
100
AcDbLine
 10
71.44238586226983
 20
148.4567494292423
 30
0.0
 11
62.68670602890501
 21
153.4988101113651
 31
0.0
  0
LINE
  5
32B
330
6C
100
AcDbEntity
  8
Visible {c3}
100
AcDbLine
 10
63.51208482271059
 20
154.0521907834352
 30
0.0
 11
71.88432760051123
 21
149.2309368163504
 31
0.0
  0
LINE
  5
32C
330
6C
100
AcDbEntity
  8
Visible {c3}
100
AcDbLine
 10
62.68670602890501
 20
153.4988101113651
 30
0.0
 11
63.51208482271059
 21
154.0521907834352
 31
0.0
  0
LINE
  5
32D
330
6C
100
AcDbEntity
  8
Visible {c3}
100
AcDbLine
 10
62.68670602890501
 20
153.4988101113651
 30
0.0
 11
62.44445438411549
 21
153.2383064133458
 31
0.0
  0
LINE
  5
32E
330
6C
100
AcDbEntity
  8
Visible {c3}
100
AcDbLine
 10
59.47460127823991
 20
154.9485310745713
 30
0.0
 11
59.23234963345041
 21
155.4880416610604
 31
0.0
  0
LINE
  5
32F
330
6C
100
AcDbEntity
  8
Visible {c3}
100
AcDbLine
 10
60.10402711449227
 20
156.0147606923454
 30
0.0
 11
60.39774543373666
 21
155.3606303857552
 31
0.0
  0
SPLINE
  5
330
330
6C
100
AcDbEntity
  8
Visible {c3}
100
AcDbSpline
210
0.0
220
0.0
230
1.0
 70
     8
 71
     3
 72
    18
 73
    14
 74
     0
 42
0.0000000001
 43
0.0000000001
 40
0.0
 40
0.0
 40
0.0
 40
0.0
 40
0.0235341367998468
 40
0.0235341367998468
 40
0.046956151026653
 40
0.046956151026653
 40
0.0703071180370449
 40
0.0703071180370449
 40
0.0936684493215102
 40
0.0936684493215102
 40
0.1057361845692185
 40
0.1057361845692185
 40
0.1178130489033905
 40
0.1178130489033905
 40
0.1178130489033905
 40
0.1178130489033905
 10
62.6983118635465
 20
152.333293385438
 30
0.0
 10
62.64420019374149
 20
152.378562667253
 30
0.0
 10
62.59298827220835
 20
152.4342393137476
 30
0.0
 10
62.50240097500486
 20
152.5599075537833
 30
0.0
 10
62.46384668424751
 20
152.6286153846289
 30
0.0
 10
62.40446577116029
 20
152.7701863161421
 30
0.0
 10
62.38416745557471
 20
152.8416507479821
 30
0.0
 10
62.36452844759153
 20
152.9782014314478
 30
0.0
 10
62.36538883720665
 20
153.0419471597236
 30
0.0
 10
62.3827682224351
 20
153.1263675719001
 30
0.0
 10
62.39147148777433
 20
153.1527490175105
 30
0.0
 10
62.41417816032285
 20
153.2000020748452
 30
0.0
 10
62.42812814288477
 20
153.2207500982213
 30
0.0
 10
62.44445438411549
 20
153.2383064133458
 30
0.0
  0
SPLINE
  5
331
330
6C
100
AcDbEntity
  8
Visible {c3}
100
AcDbSpline
210
0.0
220
0.0
230
1.0
 70
     8
 71
     3
 72
    14
 73
    10
 74
     0
 42
0.0000000001
 43
0.0000000001
 40
0.0
 40
0.0
 40
0.0
 40
0.0
 40
0.0234425493572662
 40
0.0234425493572662
 40
0.0468398521139195
 40
0.0468398521139195
 40
0.0647584163804204
 40
0.0647584163804204
 40
0.0826836836223435
 40
0.0826836836223435
 40
0.0826836836223435
 40
0.0826836836223435
 10
62.14597475813572
 20
134.2896613908618
 30
0.0
 10
62.14597475813572
 20
134.3535460202819
 30
0.0
 10
62.1567638382887
 20
134.4106020673591
 30
0.0
 10
62.19870970069017
 20
134.5045170281509
 30
0.0
 10
62.22942198620036
 20
134.5405063274927
 30
0.0
 10
62.29785599653879
 20
134.5811957873276
 30
0.0
 10
62.33186334545707
 20
134.591017992704
 30
0.0
 10
62.40628925656076
 20
134.5943778149168
 30
0.0
 10
62.44628904426725
 20
134.5878904847542
 30
0.0
 10
62.48774145607523
 20
134.573464111316
 30
0.0
  0
SPLINE
  5
332
330
6C
100
AcDbEntity
  8
Visible {c3}
100
AcDbSpline
210
0.0
220
0.0
230
1.0
 70
     8
 71
     3
 72
    14
 73
    10
 74
     0
 42
0.0000000001
 43
0.0000000001
 40
0.0
 40
0.0
 40
0.0
 40
0.0
 40
0.0234431283123797
 40
0.0234431283123797
 40
0.0468410951376132
 40
0.0468410951376132
 40
0.0647586759967166
 40
0.0647586759967166
 40
0.0826836893876265
 40
0.0826836893876265
 40
0.0826836893876265
 40
0.0826836893876265
 10
59.43131420628019
 20
136.3335435063203
 30
0.0
 10
59.48552758057973
 20
136.289972170393
 30
0.0
 10
59.53713245875466
 20
136.2357825749984
 30
0.0
 10
59.62921772390979
 20
136.112341197558
 30
0.0
 10
59.66882877894005
 20
136.0443118690486
 30
0.0
 10
59.72356605653146
 20
135.9196743057482
 30
0.0
 10
59.74194298559668
 20
135.8648316121368
 30
0.0
 10
59.76677306978746
 20
135.7571733867969
 30
0.0
 10
59.7730809042197
 20
135.7049678035587
 30
0.0
 10
59.7730809042197
 20
135.6561200818351
 30
0.0
  0
SPLINE
  5
333
330
6C
100
AcDbEntity
  8
Visible {c3}
100
AcDbSpline
210
0.0
220
0.0
230
1.0
 70
     8
 71
     3
 72
    18
 73
    14
 74
     0
 42
0.0000000001
 43
0.0000000001
 40
0.0
 40
0.0
 40
0.0
 40
0.0
 40
0.023532968524784
 40
0.023532968524784
 40
0.0469534826187115
 40
0.0469534826187115
 40
0.0703027837493208
 40
0.0703027837493208
 40
0.093662483178473
 40
0.093662483178473
 40
0.1057334946862708
 40
0.1057334946862708
 40
0.1178130021762188
 40
0.1178130021762188
 40
0.1178130021762188
 40
0.1178130021762188
 10
59.47460127823991
 20
154.9485310745713
 30
0.0
 10
59.50641626616523
 20
154.877676972385
 30
0.0
 10
59.5290581187346
 20
154.8054281495266
 30
0.0
 10
59.55328956331496
 20
154.6666325276587
 30
0.0
 10
59.55474406305154
 20
154.6014020439406
 30
0.0
 10
59.53618226156791
 20
154.4864712333539
 30
0.0
 10
59.51641218903529
 20
154.4378494396124
 30
0.0
 10
59.45805914029502
 20
154.3635319744847
 30
0.0
 10
59.42004001329387
 20
154.3385738654794
 30
0.0
 10
59.35222758920811
 20
154.321284220321
 30
0.0
 10
59.32751268793669
 20
154.3190588385888
 30
0.0
 10
59.27559238166913
 20
154.3219876203711
 30
0.0
 10
59.24851654903299
 20
154.3271395252153
 30
0.0
 10
59.22074379880891
 20
154.3358916464894
 30
0.0
  0
SPLINE
  5
334
330
6C
100
AcDbEntity
  8
Visible {c3}
100
AcDbSpline
210
0.0
220
0.0
230
1.0
 70
     8
 71
     3
 72
    10
 73
     6
 74
     0
 42
0.0000000001
 43
0.0000000001
 40
0.0
 40
0.0
 40
0.0
 40
0.0
 40
0.0234434836673481
 40
0.0234434836673481
 40
0.0385664160576985
 40
0.0385664160576985
 40
0.0385664160576985
 40
0.0385664160576985
 10
63.2936348978388
 20
135.1294307329694
 30
0.0
 10
63.2393740946793
 20
135.1486020008932
 30
0.0
 10
63.18767553731419
 20
135.1541640217526
 30
0.0
 10
63.11163715627455
 20
135.1403645134085
 30
0.0
 10
63.08447266477593
 20
135.1292156735315
 30
0.0
 10
63.06056373069598
 20
135.1126620111272
 30
0.0
  0
SPLINE
  5
335
330
6C
100
AcDbEntity
  8
Visible Narrow {c3}
100
AcDbSpline
210
0.0
220
0.0
230
1.0
 70
     8
 71
     3
 72
    11
 73
     7
 74
     0
 42
0.0000000001
 43
0.0000000001
 40
0.0602809339725294
 40
0.0602809339725294
 40
0.0602809339725294
 40
0.0602809339725294
 40
0.1204194979218012
 40
0.1204194979218012
 40
0.1204194979218012
 40
0.1805573067511805
 40
0.1805573067511805
 40
0.1805573067511805
 40
0.1805573067511805
 10
62.48774145607523
 20
134.573464111316
 30
0.0
 10
62.62205679884633
 20
134.6661117264265
 30
0.0
 10
62.75637267603565
 20
134.7587663479246
 30
0.0
 10
62.89068909137163
 20
134.851428018761
 30
0.0
 10
63.02500382018583
 20
134.9440885261065
 30
0.0
 10
63.15931908775819
 20
135.0367560830442
 30
0.0
 10
63.2936348978388
 20
135.1294307329694
 30
0.0
  0
SPLINE
  5
336
330
6C
100
AcDbEntity
  8
Visible Narrow {c3}
100
AcDbSpline
210
0.0
220
0.0
230
1.0
 70
     8
 71
     3
 72
    11
 73
     7
 74
     0
 42
0.0000000001
 43
0.0000000001
 40
-0.1805580618710731
 40
-0.1805580618710731
 40
-0.1805580618710731
 40
-0.1805580618710731
 40
-0.1204194979218013
 40
-0.1204194979218013
 40
-0.1204194979218013
 40
-0.0602816890924219
 40
-0.0602816890924219
 40
-0.0602816890924219
 40
-0.0602816890924219
 10
59.7730809042197
 20
135.6561200818351
 30
0.0
 10
59.92191539329006
 20
135.7403373755323
 30
0.0
 10
60.07074957465622
 20
135.8245623766476
 30
0.0
 10
60.2195834452143
 20
135.9087951365248
 30
0.0
 10
60.36841544696461
 20
135.9930268387474
 30
0.0
 10
60.51724713860728
 20
136.0772662999285
 30
0.0
 10
60.66607851698499
 20
136.1615135719786
 30
0.0
  0
SPLINE
  5
337
330
6C
100
AcDbEntity
  8
Visible {c3}
100
AcDbSpline
210
0.0
220
0.0
230
1.0
 70
     8
 71
     3
 72
    14
 73
    10
 74
     0
 42
0.0000000001
 43
0.0000000001
 40
0.0
 40
0.0
 40
0.0
 40
0.0
 40
0.0234428986710901
 40
0.0234428986710901
 40
0.0468402171441582
 40
0.0468402171441582
 40
0.0648915324326669
 40
0.0648915324326669
 40
0.0829496580577234
 40
0.0829496580577234
 40
0.0829496580577234
 40
0.0829496580577234
 10
60.66607851698499
 20
136.1615135719786
 30
0.0
 10
60.66607851698499
 20
136.2253991533337
 30
0.0
 10
60.65528929535331
 20
136.29488227306
 30
0.0
 10
60.61334291600196
 20
136.4371083652286
 30
0.0
 10
60.58263055246296
 20
136.5084697114232
 30
0.0
 10
60.51397639114679
 20
136.6283600539357
 30
0.0
 10
60.47968594909078
 20
136.6776886755782
 30
0.0
 10
60.40461970155278
 20
136.7672860358915
 30
0.0
 10
60.3642725952768
 20
136.8070369147075
 30
0.0
 10
60.32247703936406
 20
136.840406751246
 30
0.0
  0
SPLINE
  5
338
330
6C
100
AcDbEntity
  8
Visible Narrow {c3}
100
AcDbSpline
210
0.0
220
0.0
230
1.0
 70
     8
 71
     3
 72
    11
 73
     7
 74
     0
 42
0.0000000001
 43
0.0000000001
 40
0.060281689092422
 40
0.060281689092422
 40
0.060281689092422
 40
0.060281689092422
 40
0.1204194979218013
 40
0.1204194979218013
 40
0.1204194979218013
 40
0.1805580618710731
 40
0.1805580618710731
 40
0.1805580618710731
 40
0.1805580618710731
 10
60.32247703936406
 20
136.840406751246
 30
0.0
 10
60.17395309605726
 20
136.7559140210883
 30
0.0
 10
60.0254280149122
 20
136.6714293515653
 30
0.0
 10
59.8769018056792
 20
136.5869526915072
 30
0.0
 10
59.72837373147807
 20
136.5024749707187
 30
0.0
 10
59.57984452846938
 20
136.4180052592036
 30
0.0
 10
59.43131420628019
 20
136.3335435063203
 30
0.0
  0
SPLINE
  5
339
330
6C
100
AcDbEntity
  8
Visible {c3}
100
AcDbSpline
210
0.0
220
0.0
230
1.0
 70
     8
 71
     3
 72
    16
 73
    12
 74
     0
 42
0.0000000001
 43
0.0000000001
 40
0.0307374131414969
 40
0.0307374131414969
 40
0.0307374131414969
 40
0.0307374131414969
 40
0.0469593777904524
 40
0.0469593777904524
 40
0.0703096696408083
 40
0.0703096696408083
 40
0.0936695434321893
 40
0.0936695434321893
 40
0.1059782443367464
 40
0.1059782443367464
 40
0.1182965345921231
 40
0.1182965345921231
 40
0.1182965345921231
 40
0.1182965345921231
 10
60.3318257691332
 20
154.7508204602561
 30
0.0
 10
60.36035668408937
 20
154.7635428569095
 30
0.0
 10
60.38541433491011
 20
154.7826384972368
 30
0.0
 10
60.43628020818537
 20
154.8437243669736
 30
0.0
 10
60.45699066079528
 20
154.8913817919509
 30
0.0
 10
60.47749359749769
 20
155.0046248254106
 30
0.0
 10
60.47707717554236
 20
155.0691073313904
 30
0.0
 10
60.46023792628306
 20
155.174029701381
 30
0.0
 10
60.45152583819966
 20
155.2111308090501
 30
0.0
 10
60.42857784825742
 20
155.2859861104919
 30
0.0
 10
60.41439803517983
 20
155.323543930557
 30
0.0
 10
60.39774543373667
 20
155.3606303857552
 30
0.0
  0
SPLINE
  5
33A
330
6C
100
AcDbEntity
  8
Visible Narrow {c3}
100
AcDbSpline
210
0.0
220
0.0
230
1.0
 70
     8
 71
     3
 72
    13
 73
     9
 74
     0
 42
0.0000000001
 43
0.0000000001
 40
-0.1807971628380731
 40
-0.1807971628380731
 40
-0.1807971628380731
 40
-0.1807971628380731
 40
-0.1205330471430112
 40
-0.1205330471430112
 40
-0.1205330471430112
 40
-0.0602665235715056
 40
-0.0602665235715056
 40
-0.0602641433550743
 40
-0.0602641433550743
 40
-0.0602641433550743
 40
-0.0602641433550743
 10
60.39774543373666
 20
155.3606303857552
 30
0.0
 10
60.2438705464519
 20
155.2920134934636
 30
0.0
 10
60.09000757429458
 20
155.2233645252341
 30
0.0
 10
59.93615637671263
 20
155.154683901057
 30
0.0
 10
59.78229903194558
 20
155.0860005327186
 30
0.0
 10
59.62845345407912
 20
155.0172855020363
 30
0.0
 10
59.47461342953285
 20
154.9485365048177
 30
0.0
 10
59.47460735388638
 20
154.9485337896945
 30
0.0
 10
59.47460127823991
 20
154.9485310745713
 30
0.0
  0
ELLIPSE
  5
33B
330
6C
100
AcDbEntity
  8
Visible {c3}
100
AcDbEllipse
 10
-126.2864694242252
 20
5106.912987260328
 30
0.0
 11
2854.027838999346
 21
5528.29007291571
 31
0.0
210
0.0
220
0.0
230
0.9999999999999998
 40
0.5482903336344657
 41
3.942212874192776
 42
3.94240619698052
  0
ELLIPSE
  5
33C
330
6C
100
AcDbEntity
  8
Visible {c3}
100
AcDbEllipse
 10
667.6976001017966
 20
-1503.770608515691
 30
0.0
 11
-339.8587708650196
 21
1743.164655171516
 31
0.0
210
0.0
220
0.0
230
1.0
 40
0.832036364176294
 41
0.1897842462288874
 42
0.1904629226582592
  0
ELLIPSE
  5
33D
330
6C
100
AcDbEntity
  8
Visible {c3}
100
AcDbEllipse
 10
60.9595278311777
 20
144.4197626452066
 30
0.0
 11
5.578275105427342
 21
-9.686831223333497
 31
0.0
210
0.0
220
0.0
230
1.0
 40
0.5780931159158107
 41
5.694288819123822
 42
8.419516373190859
  0
ELLIPSE
  5
33E
330
6C
100
AcDbEntity
  8
Visible {c3}
100
AcDbEllipse
 10
60.9595278311777
 20
144.4197626452066
 30
0.0
 11
-5.578275105427339
 21
9.686831223333488
 31
0.0
210
0.0
220
0.0
230
1.0
 40
0.5780931159158107
 41
5.721517984809349
 42
8.446745538876387
  0
ELLIPSE
  5
33F
330
6C
100
AcDbEntity
  8
Visible {c3}
100
AcDbEllipse
 10
61.80805596860145
 20
144.9083975017575
 30
0.0
 11
5.546891301428093
 21
-9.632332367190937
 31
0.0
210
0.0
220
0.0
230
1.0
 40
0.5780931159158107
 41
5.689876887289827
 42
6.244218387427006
  0
ELLIPSE
  5
340
330
6C
100
AcDbEntity
  8
Visible {c3}
100
AcDbEllipse
 10
61.80805596860143
 20
144.9083975017575
 30
0.0
 11
-5.546891301428109
 21
9.632332367190961
 31
0.0
210
0.0
220
0.0
230
0.9999999999999998
 40
0.5780931159158105
 41
0.0389669197525784
 42
2.167972163530424
  0
LINE
  5
341
330
6C
100
AcDbEntity
  8
Visible {c3}
100
AcDbLine
 10
62.14597475813572
 20
134.2896613908618
 30
0.0
 11
62.14597475813572
 21
133.6628700587138
 31
0.0
  0
LINE
  5
342
330
6C
100
AcDbEntity
  8
Visible {c3}
100
AcDbLine
 10
59.7730809042197
 20
135.0293287496871
 30
0.0
 11
59.7730809042197
 21
135.6561200818351
 31
0.0
  0
LINE
  5
343
330
6C
100
AcDbEntity
  8
Visible {c3}
100
AcDbLine
 10
60.66607851698499
 20
136.1615135719786
 30
0.0
 11
60.66607851698499
 21
135.4409403433991
 31
0.0
  0
LINE
  5
344
330
6C
100
AcDbEntity
  8
Visible {c3}
100
AcDbLine
 10
62.14597475813572
 20
133.6628700587138
 30
0.0
 11
71.0357994630875
 21
128.5435604826606
 31
0.0
  0
LINE
  5
345
330
6C
100
AcDbEntity
  8
Visible {c3}
100
AcDbLine
 10
50.88325619926791
 20
140.1486383257403
 30
0.0
 11
59.7730809042197
 21
135.0293287496871
 31
0.0
  0
LINE
  5
346
330
6C
100
AcDbEntity
  8
Visible {c3}
100
AcDbLine
 10
59.7730809042197
 20
135.0293287496871
 30
0.0
 11
60.66607851698499
 21
135.4409403433991
 31
0.0
  0
LINE
  5
347
330
6C
100
AcDbEntity
  8
Visible {c3}
100
AcDbLine
 10
59.23234963345041
 20
155.4880416610604
 30
0.0
 11
50.47666980008558
 21
160.5301023431832
 31
0.0
  0
LINE
  5
348
330
6C
100
AcDbEntity
  8
Visible {c3}
100
AcDbLine
 10
51.73178433669164
 20
160.8360146594302
 30
0.0
 11
60.10402711449227
 21
156.0147606923454
 31
0.0
  0
LINE
  5
349
330
6C
100
AcDbEntity
  8
Visible {c3}
100
AcDbLine
 10
60.10402711449227
 20
156.0147606923454
 30
0.0
 11
59.23234963345041
 21
155.4880416610604
 31
0.0
  0
LINE
  5
34A
330
6C
100
AcDbEntity
  8
Visible {c3}
100
AcDbLine
 10
74.41223434325306
 20
126.6063051840686
 30
0.0
 11
72.57375671216831
 21
125.5475963282084
 31
0.0
  0
LINE
  5
34B
330
6C
100
AcDbEntity
  8
Visible {c3}
100
AcDbLine
 10
74.41223434325306
 20
125.8705127717103
 30
0.0
 11
74.41223434325306
 21
126.6063051840686
 31
0.0
  0
LINE
  5
34C
330
6C
100
AcDbEntity
  8
Visible {c3}
100
AcDbLine
 10
78.23061096165985
 20
128.0693696261892
 30
0.0
 11
74.41223434325306
 21
125.8705127717103
 31
0.0
  0
LINE
  5
34D
330
6C
100
AcDbEntity
  8
Visible {c3}
100
AcDbLine
 10
78.23061096165985
 20
155.2119341709616
 30
0.0
 11
78.23061096165985
 21
128.0693696261892
 31
0.0
  0
LINE
  5
34E
330
6C
100
AcDbEntity
  8
Visible {c3}
100
AcDbLine
 10
74.41223434325306
 20
153.0130773164827
 30
0.0
 11
78.23061096165985
 21
155.2119341709616
 31
0.0
  0
LINE
  5
34F
330
6C
100
AcDbEntity
  8
Visible {c3}
100
AcDbLine
 10
74.41223434325306
 20
151.8685113417031
 30
0.0
 11
74.41223434325306
 21
153.0130773164827
 31
0.0
  0
LINE
  5
350
330
6C
100
AcDbEntity
  8
Visible {c3}
100
AcDbLine
 10
72.85659942464289
 20
148.6710427098861
 30
0.0
 11
74.41223434325306
 21
151.8685113417031
 31
0.0
  0
LINE
  5
351
330
6C
100
AcDbEntity
  8
Visible {c3}
100
AcDbLine
 10
72.57375671216831
 20
148.4910260926602
 30
0.0
 11
72.85659942464289
 21
148.6710427098861
 31
0.0
  0
LINE
  5
352
330
6C
100
AcDbEntity
  8
Visible {c3}
100
AcDbLine
 10
50.47666980008542
 20
161.2158921486687
 30
0.0
 11
50.75951251255999
 21
161.3959087658946
 31
0.0
  0
LINE
  5
353
330
6C
100
AcDbEntity
  8
Visible {c3}
100
AcDbLine
 10
50.75951251255999
 20
161.3959087658946
 30
0.0
 11
52.31514743117016
 21
164.5933773977116
 31
0.0
  0
LINE
  5
354
330
6C
100
AcDbEntity
  8
Visible {c3}
100
AcDbLine
 10
52.31514743117016
 20
164.5933773977116
 30
0.0
 11
52.31514743117016
 21
165.7379433724912
 31
0.0
  0
LINE
  5
355
330
6C
100
AcDbEntity
  8
Visible {c3}
100
AcDbLine
 10
52.31514743117016
 20
165.7379433724912
 30
0.0
 11
56.13352404957694
 21
167.9368002269701
 31
0.0
  0
LINE
  5
356
330
6C
100
AcDbEntity
  8
Visible {c3}
100
AcDbLine
 10
73.43996251912141
 20
152.4284054481675
 30
0.0
 11
74.41223434325306
 21
151.8685113417031
 31
0.0
  0
LINE
  5
357
330
6C
100
AcDbEntity
  8
Visible {c3}
100
AcDbLine
 10
73.43996251912141
 20
152.4284054481675
 30
0.0
 11
71.88432760051123
 21
149.2309368163504
 31
0.0
  0
LINE
  5
358
330
6C
100
AcDbEntity
  8
Visible {c3}
100
AcDbLine
 10
71.88432760051123
 20
149.2309368163504
 30
0.0
 11
72.85659942464289
 21
148.6710427098861
 31
0.0
  0
LINE
  5
359
330
6C
100
AcDbEntity
  8
Visible {c3}
100
AcDbLine
 10
51.73178433669164
 20
160.8360146594302
 30
0.0
 11
53.28741925530181
 21
164.0334832912472
 31
0.0
  0
LINE
  5
35A
330
6C
100
AcDbEntity
  8
Visible {c3}
100
AcDbLine
 10
53.28741925530181
 20
164.0334832912472
 30
0.0
 11
52.31514743117016
 21
164.5933773977116
 31
0.0
  0
LINE
  5
35B
330
6C
100
AcDbEntity
  8
Visible {c3}
100
AcDbLine
 10
51.73178433669164
 20
160.8360146594302
 30
0.0
 11
50.75951251255999
 21
161.3959087658946
 31
0.0
  0
LINE
  5
35C
330
6C
100
AcDbEntity
  8
Visible {c3}
100
AcDbLine
 10
65.02553575253561
 20
155.0665743217136
 30
0.0
 11
64.95646954721812
 21
154.9923044363265
 31
0.0
  0
LINE
  5
35D
330
6C
100
AcDbEntity
  8
Visible {c3}
100
AcDbLine
 10
65.02553575253561
 20
155.0665743217136
 30
0.0
 11
72.60106144227681
 21
150.7041192121626
 31
0.0
  0
LINE
  5
35E
330
6C
100
AcDbEntity
  8
Visible {c3}
100
AcDbLine
 10
53.28741925530181
 20
161.8261060541724
 30
0.0
 11
59.14220114209997
 21
158.4545613979438
 31
0.0
  0
LINE
  5
35F
330
6C
100
AcDbEntity
  8
Visible {c3}
100
AcDbLine
 10
68.06595098210284
 20
154.2967721857249
 30
0.0
 11
72.97390636531885
 21
151.470468650387
 31
0.0
  0
LINE
  5
360
330
6C
100
AcDbEntity
  8
Visible {c3}
100
AcDbLine
 10
68.06595098210284
 20
154.2967721857249
 30
0.0
 11
68.06595098210284
 21
156.6676588477683
 31
0.0
  0
LINE
  5
361
330
6C
100
AcDbEntity
  8
Visible {c3}
100
AcDbLine
 10
69.44480920541642
 20
156.3171245148839
 30
0.0
 11
69.727651917891
 21
155.253682113137
 31
0.0
  0
LINE
  5
362
330
6C
100
AcDbEntity
  8
Visible {c3}
100
AcDbLine
 10
70.82366742872998
 20
157.1111561567791
 30
0.0
 11
69.44480920541642
 21
156.3171245148839
 31
0.0
  0
LINE
  5
363
330
6C
100
AcDbEntity
  8
Visible {c3}
100
AcDbLine
 10
71.88432760050964
 20
158.8665157022472
 30
0.0
 11
71.88432760050964
 21
156.5003625860908
 31
0.0
  0
LINE
  5
364
330
6C
100
AcDbEntity
  8
Visible {c3}
100
AcDbLine
 10
68.06595098210284
 20
156.6676588477683
 30
0.0
 11
71.88432760050964
 21
158.8665157022472
 31
0.0
  0
LINE
  5
365
330
6C
100
AcDbEntity
  8
Visible {c3}
100
AcDbLine
 10
69.727651917891
 20
155.253682113137
 30
0.0
 11
68.06595098210284
 21
154.2967721857249
 31
0.0
  0
LINE
  5
366
330
6C
100
AcDbEntity
  8
Visible {c3}
100
AcDbLine
 10
66.05069665572088
 20
157.8281666320763
 30
0.0
 11
68.06595098210284
 21
156.6676588477683
 31
0.0
  0
LINE
  5
367
330
6C
100
AcDbEntity
  8
Visible {c3}
100
AcDbLine
 10
58.66143079232037
 20
162.0833618412055
 30
0.0
 11
58.88855945034982
 21
161.9525671458502
 31
0.0
  0
LINE
  5
368
330
6C
100
AcDbEntity
  8
Visible {c3}
100
AcDbLine
 10
73.43996251912141
 20
153.572971422947
 30
0.0
 11
74.41223434325306
 21
153.0130773164827
 31
0.0
  0
LINE
  5
369
330
6C
100
AcDbEntity
  8
Visible {c3}
100
AcDbLine
 10
52.31514743117016
 20
165.7379433724912
 30
0.0
 11
53.28741925530181
 21
165.1780492660268
 31
0.0
  0
LINE
  5
36A
330
6C
100
AcDbEntity
  8
Visible {c3}
100
AcDbLine
 10
66.05069665572088
 20
157.8281666320763
 30
0.0
 11
66.05069665572088
 21
155.4572799700329
 31
0.0
  0
LINE
  5
36B
330
6C
100
AcDbEntity
  8
Visible {c3}
100
AcDbLine
 10
69.86907327412767
 20
160.0270234865552
 30
0.0
 11
66.05069665572088
 21
157.8281666320763
 31
0.0
  0
LINE
  5
36C
330
6C
100
AcDbEntity
  8
Visible {c3}
100
AcDbLine
 10
66.05069665572088
 20
155.4572799700329
 30
0.0
 11
64.4918335331141
 21
156.3549695394203
 31
0.0
  0
LINE
  5
36D
330
6C
100
AcDbEntity
  8
Visible {c3}
100
AcDbLine
 10
58.66143079232037
 20
159.7124751791622
 30
0.0
 11
58.66143079232037
 21
162.0833618412055
 31
0.0
  0
LINE
  5
36E
330
6C
100
AcDbEntity
  8
Visible {c3}
100
AcDbLine
 10
58.66143079232037
 20
162.0833618412055
 30
0.0
 11
58.87035178506104
 21
162.2036714394567
 31
0.0
  0
LINE
  5
36F
330
6C
100
AcDbEntity
  8
Visible {c3}
100
AcDbLine
 10
58.66143079232037
 20
159.7124751791622
 30
0.0
 11
53.28741925530181
 21
162.8071626039834
 31
0.0
  0
LINE
  5
370
330
6C
100
AcDbEntity
  8
Visible {c3}
100
AcDbLine
 10
62.58940896181222
 20
138.8764993940245
 30
0.0
 11
62.58940896181222
 21
138.1780550198688
 31
0.0
  0
LINE
  5
371
330
6C
100
AcDbEntity
  8
Visible {c3}
100
AcDbLine
 10
64.95651106583204
 20
160.4898267998633
 30
0.0
 11
67.8146276389102
 21
158.8439469284767
 31
0.0
  0
LINE
  5
372
330
6C
100
AcDbEntity
  8
Visible {c3}
100
AcDbLine
 10
70.82366742872998
 20
157.1111561567791
 30
0.0
 11
75.20389350231072
 21
154.5887517193474
 31
0.0
  0
LINE
  5
373
330
6C
100
AcDbEntity
  8
Visible {c3}
100
AcDbLine
 10
66.43576941559664
 20
158.0499152865815
 30
0.0
 11
64.27886897299623
 21
159.291991644313
 31
0.0
  0
LINE
  5
374
330
6C
100
AcDbEntity
  8
Visible {c3}
100
AcDbLine
 10
64.34701469967866
 20
158.3521850140008
 30
0.0
 11
66.05069665572088
 21
157.3710998248566
 31
0.0
  0
LINE
  5
375
330
6C
100
AcDbEntity
  8
Visible {c3}
100
AcDbLine
 10
69.727651917891
 20
155.253682113137
 30
0.0
 11
73.43996251912141
 21
153.1159046157273
 31
0.0
  0
LINE
  5
376
330
6C
100
AcDbEntity
  8
Visible {c3}
100
AcDbLine
 10
73.82503527899714
 20
153.7947200774523
 30
0.0
 11
69.44480920541642
 21
156.3171245148839
 31
0.0
  0
LINE
  5
377
330
6C
100
AcDbEntity
  8
Visible {c3}
100
AcDbLine
 10
54.94912019108995
 20
163.7640725313956
 30
0.0
 11
58.66143079232037
 21
161.6262950339859
 31
0.0
  0
LINE
  5
378
330
6C
100
AcDbEntity
  8
Visible {c3}
100
AcDbLine
 10
58.85499998927475
 20
162.4153900631994
 30
0.0
 11
54.66627747861537
 21
164.8275149331424
 31
0.0
  0
LINE
  5
379
330
6C
100
AcDbEntity
  8
Visible {c3}
100
AcDbLine
 10
54.66627747861537
 20
164.8275149331424
 30
0.0
 11
54.94912019108995
 21
163.7640725313956
 31
0.0
  0
LINE
  5
37A
330
6C
100
AcDbEntity
  8
Visible {c3}
100
AcDbLine
 10
56.04513570192893
 20
165.6215465750376
 30
0.0
 11
56.60540772739135
 21
165.2989073734404
 31
0.0
  0
LINE
  5
37B
330
6C
100
AcDbEntity
  8
Visible {c3}
100
AcDbLine
 10
56.04513570192893
 20
165.6215465750376
 30
0.0
 11
54.66627747861537
 21
164.8275149331424
 31
0.0
  0
LINE
  5
37C
330
6C
100
AcDbEntity
  8
Visible {c3}
100
AcDbLine
 10
56.42636081597611
 20
167.7681667485605
 30
0.0
 11
56.13352404957694
 21
167.9368002269701
 31
0.0
  0
LINE
  5
37D
330
6C
100
AcDbEntity
  8
Visible {c3}
100
AcDbLine
 10
71.88432760050964
 20
158.8665157022472
 30
0.0
 11
69.86907327412767
 21
160.0270234865552
 31
0.0
  0
LINE
  5
37E
330
6C
100
AcDbEntity
  8
Visible {c3}
100
AcDbLine
 10
78.23061096165985
 20
155.2119341709616
 30
0.0
 11
77.25833913752819
 21
155.771828277426
 31
0.0
  0
LINE
  5
37F
330
6C
100
AcDbEntity
  8
Visible {c3}
100
AcDbLine
 10
74.41223434325306
 20
125.8705127717103
 30
0.0
 11
73.77337225961446
 21
126.2384089778894
 31
0.0
  0
LINE
  5
380
330
6C
100
AcDbEntity
  8
Visible {c3}
100
AcDbLine
 10
190.9101835756058
 20
128.8329648157682
 30
0.0
 11
190.9101835756062
 21
128.3204511025616
 31
0.0
  0
LINE
  5
381
330
6C
100
AcDbEntity
  8
Visible {c3}
100
AcDbLine
 10
190.9101835756064
 20
121.6154536305912
 30
0.0
 11
190.910183575606
 21
120.8557966272177
 31
0.0
  0
LINE
  5
382
330
6C
100
AcDbEntity
  8
Visible {c3}
100
AcDbLine
 10
190.9101835756058
 20
128.8329648157682
 30
0.0
 11
189.6161596712234
 21
128.8329648157682
 31
0.0
  0
LINE
  5
383
330
6C
100
AcDbEntity
  8
Visible {c3}
100
AcDbLine
 10
190.9101835756062
 20
128.3204511025616
 30
0.0
 11
190.9101835756068
 21
126.5190276891062
 31
0.0
  0
LINE
  5
384
330
6C
100
AcDbEntity
  8
Visible {c3}
100
AcDbLine
 10
190.9101835756069
 20
123.7496858544764
 30
0.0
 11
190.9101835756068
 21
126.5190276891062
 31
0.0
  0
LINE
  5
385
330
6C
100
AcDbEntity
  8
Visible {c3}
100
AcDbLine
 10
190.9101835756069
 20
123.7496858544764
 30
0.0
 11
190.9101835756064
 21
121.6154536305912
 31
0.0
  0
LINE
  5
386
330
6C
100
AcDbEntity
  8
Visible {c3}
100
AcDbLine
 10
190.9101835756064
 20
121.6154536305912
 30
0.0
 11
189.6161596712239
 21
121.6154536305912
 31
0.0
  0
LINE
  5
387
330
6C
100
AcDbEntity
  8
Visible {c3}
100
AcDbLine
 10
189.6161596712238
 20
128.3204511025616
 30
0.0
 11
190.9101835756062
 21
128.3204511025616
 31
0.0
  0
LINE
  5
388
330
6C
100
AcDbEntity
  8
Visible {c3}
100
AcDbLine
 10
190.910183575606
 20
120.8557966272178
 30
0.0
 11
190.9101835756057
 21
120.7686408844701
 31
0.0
  0
LINE
  5
389
330
6C
100
AcDbEntity
  8
Visible {c3}
100
AcDbLine
 10
190.9101835756057
 20
120.7686408844701
 30
0.0
 11
190.9101835756058
 21
116.0254409421269
 31
0.0
  0
LINE
  5
38A
330
6C
100
AcDbEntity
  8
Visible {c3}
100
AcDbLine
 10
190.9101835756057
 20
120.7686408844701
 30
0.0
 11
189.6161596712232
 21
120.7686408844701
 31
0.0
  0
LINE
  5
38B
330
6C
100
AcDbEntity
  8
Visible {c3}
100
AcDbLine
 10
189.1101835756057
 20
114.7365661176889
 30
0.0
 11
189.1101835756058
 21
113.7220160303265
 31
0.0
  0
LINE
  5
38C
330
6C
100
AcDbEntity
  8
Visible {c3}
100
AcDbLine
 10
189.1101835756055
 20
121.2285928658593
 30
0.0
 11
189.1101835756057
 21
114.7365661176889
 31
0.0
  0
LINE
  5
38D
330
6C
100
AcDbEntity
  8
Visible {c3}
100
AcDbLine
 10
189.110183575606
 20
121.3598473310331
 30
0.0
 11
189.1101835756055
 21
121.2285928658593
 31
0.0
  0
LINE
  5
38E
330
6C
100
AcDbEntity
  8
Visible {c3}
100
AcDbLine
 10
189.110183575606
 20
121.3598473310331
 30
0.0
 11
189.1101835756063
 21
121.9304648582818
 31
0.0
  0
LINE
  5
38F
330
6C
100
AcDbEntity
  8
Visible {c3}
100
AcDbLine
 10
189.1101835756068
 20
124.0682827863339
 30
0.0
 11
189.1101835756063
 21
121.9304648582818
 31
0.0
  0
LINE
  5
390
330
6C
100
AcDbEntity
  8
Visible {c3}
100
AcDbLine
 10
189.1101835756068
 20
124.0682827863339
 30
0.0
 11
189.1101835756067
 21
126.1370142365055
 31
0.0
  0
LINE
  5
391
330
6C
100
AcDbEntity
  8
Visible {c3}
100
AcDbLine
 10
189.1101835756061
 20
127.9414642050707
 30
0.0
 11
189.1101835756068
 21
126.1370142365055
 31
0.0
  0
LINE
  5
392
330
6C
100
AcDbEntity
  8
Visible {c3}
100
AcDbLine
 10
189.1101835756061
 20
127.9414642050707
 30
0.0
 11
189.1101835756058
 21
128.3269887201507
 31
0.0
  0
SPLINE
  5
393
330
6C
100
AcDbEntity
  8
Visible {c3}
100
AcDbSpline
210
0.0
220
0.0
230
1.0
 70
     8
 71
     3
 72
    20
 73
    16
 74
     0
 42
0.0000000001
 43
0.0000000001
 40
-0.0783397028446919
 40
-0.0783397028446919
 40
-0.0783397028446919
 40
-0.0783397028446919
 40
-0.0585746649688671
 40
-0.0585746649688671
 40
-0.0388092787219603
 40
-0.0388092787219603
 40
-0.0190431476392822
 40
-0.0190431476392822
 40
-0.0088039123129608
 40
-0.0088039123129608
 40
-0.0036393695670303
 40
-0.0036393695670303
 40
0.0
 40
0.0
 40
0.0013369609828215
 40
0.0013369609828215
 40
0.0013369609828215
 40
0.0013369609828215
 10
189.6161596712239
 20
121.6154536305912
 30
0.0
 10
189.5502763209645
 20
121.6154536305913
 30
0.0
 10
189.4850229751614
 20
121.6234716140489
 30
0.0
 10
189.3631204802553
 20
121.6546363389746
 30
0.0
 10
189.3076371467821
 20
121.6774852128459
 30
0.0
 10
189.2138506667613
 20
121.735131688608
 30
0.0
 10
189.1764449066628
 20
121.7693783081728
 30
0.0
 10
189.1372610538621
 20
121.8266588323499
 30
0.0
 10
189.1271011304264
 20
121.8469945050658
 30
0.0
 10
189.1168814687691
 20
121.8783048560249
 30
0.0
 10
189.1143182081041
 20
121.8889034851979
 30
0.0
 10
189.1114371181232
 20
121.9070722464035
 30
0.0
 10
189.1106806541333
 20
121.9146065456307
 30
0.0
 10
189.1102424483372
 20
121.9249210175418
 30
0.0
 10
189.1101835756063
 20
121.9276929158645
 30
0.0
 10
189.1101835756063
 20
121.9304648582818
 30
0.0
  0
SPLINE
  5
394
330
6C
100
AcDbEntity
  8
Visible {c3}
100
AcDbSpline
210
0.0
220
0.0
230
1.0
 70
     8
 71
     3
 72
    20
 73
    16
 74
     0
 42
0.0000000001
 43
0.0000000001
 40
-0.0796765316125099
 40
-0.0796765316125099
 40
-0.0796765316125099
 40
-0.0796765316125099
 40
-0.0783395728481856
 40
-0.0783395728481856
 40
-0.0747002093203562
 40
-0.0747002093203562
 40
-0.0695356751444622
 40
-0.0695356751444622
 40
-0.0592964568090956
 40
-0.0592964568090956
 40
-0.0395303585262213
 40
-0.0395303585262213
 40
-0.0197650050778566
 40
-0.0197650050778566
 40
0.0
 40
0.0
 40
0.0
 40
0.0
 10
189.1101835756061
 20
127.9414642050707
 30
0.0
 10
189.1101835756061
 20
127.9447999918061
 30
0.0
 10
189.110242448337
 20
127.9481356980883
 30
0.0
 10
189.1106806541332
 20
127.9605480474039
 30
0.0
 10
189.1114371181231
 20
127.9696145598694
 30
0.0
 10
189.1143182081039
 20
127.9914777505722
 30
0.0
 10
189.1168814687689
 20
128.0042311153487
 30
0.0
 10
189.1271011304262
 20
128.0419059091727
 30
0.0
 10
189.1372610538619
 20
128.0663738009231
 30
0.0
 10
189.1764449066626
 20
128.1352905640599
 30
0.0
 10
189.2138506667611
 20
128.1764900000802
 30
0.0
 10
189.3076371467818
 20
128.2458363967118
 30
0.0
 10
189.363120480255
 20
128.2733206317574
 30
0.0
 10
189.4850229751611
 20
128.3108071078923
 30
0.0
 10
189.5502763209642
 20
128.3204511025618
 30
0.0
 10
189.6161596712238
 20
128.3204511025616
 30
0.0
  0
ELLIPSE
  5
395
330
6C
100
AcDbEntity
  8
Visible {c3}
100
AcDbEllipse
 10
189.6161596712231
 20
121.2285928658593
 30
0.0
 11
0.50597609561753
 21
0.0
 31
0.0
210
0.0
220
0.0
230
1.0
 40
0.9090389553440873
 41
3.141592653589752
 42
4.712388980385391
  0
ARC
  5
396
330
6C
100
AcDbEntity
  8
Visible {c3}
100
AcDbCircle
 10
189.6161596712234
 20
128.3269887201507
 30
0.0
 40
0.5059760956175299
100
AcDbArc
 50
90.0
 51
180.0
  0
LINE
  5
397
330
6C
100
AcDbEntity
  8
Visible {c3}
100
AcDbLine
 10
191.0101835756055
 20
127.7962499007058
 30
0.0
 11
191.010183575605
 21
128.0712300636988
 31
0.0
  0
LINE
  5
398
330
6C
100
AcDbEntity
  8
Visible {c3}
100
AcDbLine
 10
191.0101835756057
 20
127.7962499007058
 30
0.0
 11
191.0101835756058
 21
127.1980231982584
 31
0.0
  0
LINE
  5
399
330
6C
100
AcDbEntity
  8
Visible {c3}
100
AcDbLine
 10
191.0101835756058
 20
127.1980231982584
 30
0.0
 11
191.0101835756056
 21
127.1384650661556
 31
0.0
  0
LINE
  5
39A
330
6C
100
AcDbEntity
  8
Visible {c3}
100
AcDbLine
 10
190.9101835756058
 20
127.1980231982584
 30
0.0
 11
191.0101835756058
 21
127.1980231982584
 31
0.0
  0
LINE
  5
39B
330
6C
100
AcDbEntity
  8
Visible {c3}
100
AcDbLine
 10
190.9101835756057
 20
127.7962499007058
 30
0.0
 11
191.0101835756057
 21
127.7962499007058
 31
0.0
  0
LINE
  5
39C
330
6C
100
AcDbEntity
  8
Visible {c3}
100
AcDbLine
 10
190.9101835756056
 20
127.1384650661556
 30
0.0
 11
191.0101835756056
 21
127.1384650661556
 31
0.0
  0
LINE
  5
39D
330
6C
100
AcDbEntity
  8
Visible {c3}
100
AcDbLine
 10
190.910183575605
 20
128.0712300636988
 30
0.0
 11
191.010183575605
 21
128.0712300636988
 31
0.0
  0
SPLINE
  5
39E
330
6C
100
AcDbEntity
  8
Visible {c3}
100
AcDbSpline
210
0.0
220
0.0
230
1.0
 70
    24
 71
     3
 72
    12
 73
     8
 74
     0
 42
0.0000000001
 43
0.0000000001
 40
-0.0318679053544686
 40
-0.0318679053544686
 40
-0.0318679053544686
 40
-0.0318679053544686
 40
-0.027765503220667
 40
-0.027765503220667
 40
-0.0185500775446183
 40
-0.0185500775446183
 40
0.0
 40
0.0
 40
0.0
 40
0.0
 10
191.010183575604
 20
126.9829633436464
 30
0.0
 10
191.010183575604
 20
126.9715536437146
 30
0.0
 10
191.010183575604
 20
126.9603981300104
 30
0.0
 10
191.010183575604
 20
126.9250586315052
 30
0.0
 10
191.010183575604
 20
126.9017579025908
 30
0.0
 10
191.010183575604
 20
126.8352035077464
 30
0.0
 10
191.010183575604
 20
126.8021999936907
 30
0.0
 10
191.010183575604
 20
126.7777249397534
 30
0.0
  0
SPLINE
  5
39F
330
6C
100
AcDbEntity
  8
Visible {c3}
100
AcDbSpline
210
0.0
220
0.0
230
1.0
 70
    24
 71
     3
 72
    10
 73
     6
 74
     0
 42
0.0000000001
 43
0.0000000001
 40
-0.0363924874362505
 40
-0.0363924874362505
 40
-0.0363924874362505
 40
-0.0363924874362505
 40
-0.0256253270216248
 40
-0.0256253270216248
 40
-0.017227534306438
 40
-0.017227534306438
 40
-0.017227534306438
 40
-0.017227534306438
 10
191.010183575604
 20
126.7777249397534
 30
0.0
 10
191.0101835756039
 20
126.7636026644906
 30
0.0
 10
191.0101835756039
 20
126.7525642182504
 30
0.0
 10
191.0101835756039
 20
126.7401369419144
 30
0.0
 10
191.0101835756039
 20
126.7370941390872
 30
0.0
 10
191.0101835756039
 20
126.7371128059124
 30
0.0
  0
LINE
  5
3A0
330
6C
100
AcDbEntity
  8
Visible {c3}
100
AcDbLine
 10
191.0101835756048
 20
128.4142414233523
 30
0.0
 11
191.0101835756048
 21
128.0712300636988
 31
0.0
  0
LINE
  5
3A1
330
6C
100
AcDbEntity
  8
Visible {c3}
100
AcDbLine
 10
190.9101835756048
 20
128.4142414233523
 30
0.0
 11
191.0101835756048
 21
128.4142414233523
 31
0.0
  0
SPLINE
  5
3A2
330
6C
100
AcDbEntity
  8
Visible {c3}
100
AcDbSpline
210
0.0
220
0.0
230
1.0
 70
    24
 71
     3
 72
    12
 73
     8
 74
     0
 42
0.0000000001
 43
0.0000000001
 40
-0.0543926149433826
 40
-0.0543926149433826
 40
-0.0543926149433826
 40
-0.0543926149433826
 40
-0.0390292669269052
 40
-0.0390292669269052
 40
-0.0236955845654293
 40
-0.0236955845654293
 40
0.0
 40
0.0
 40
0.0
 40
0.0
 10
191.0101835756037
 20
126.612883168666
 30
0.0
 10
191.0101835756037
 20
126.5843209652844
 30
0.0
 10
191.0101835756037
 20
126.5567462643805
 30
0.0
 10
191.0101835756037
 20
126.5038756789796
 30
0.0
 10
191.0101835756037
 20
126.4792364989485
 30
0.0
 10
191.0101835756037
 20
126.4207831823239
 30
0.0
 10
191.0101835756037
 20
126.3773701189012
 30
0.0
 10
191.0101835756037
 20
126.3376620600613
 30
0.0
  0
LINE
  5
3A3
330
6C
100
AcDbEntity
  8
Visible {c3}
100
AcDbLine
 10
190.9101835756036
 20
126.2732536410134
 30
0.0
 11
191.0101835756036
 21
126.2732536410134
 31
0.0
  0
SPLINE
  5
3A4
330
6C
100
AcDbEntity
  8
Visible {c3}
100
AcDbSpline
210
0.0
220
0.0
230
1.0
 70
    24
 71
     3
 72
    10
 73
     6
 74
     0
 42
0.0000000001
 43
0.0000000001
 40
-0.0171222189825052
 40
-0.0171222189825052
 40
-0.0171222189825052
 40
-0.0171222189825052
 40
-0.0083939131127361
 40
-0.0083939131127361
 40
0.0
 40
0.0
 40
0.0
 40
0.0
 10
191.0101835756037
 20
126.3376620600613
 30
0.0
 10
191.0101835756037
 20
126.3207416204285
 30
0.0
 10
191.0101835756037
 20
126.3046043636441
 30
0.0
 10
191.0101835756036
 20
126.2859189195409
 30
0.0
 10
191.0101835756036
 20
126.2789494002015
 30
0.0
 10
191.0101835756036
 20
126.2732536410134
 30
0.0
  0
LINE
  5
3A5
330
6C
100
AcDbEntity
  8
Visible {c3}
100
AcDbLine
 10
190.9101835756036
 20
126.2554772011493
 30
0.0
 11
191.0101835756036
 21
126.2554772011493
 31
0.0
  0
SPLINE
  5
3A6
330
6C
100
AcDbEntity
  8
Visible {c3}
100
AcDbSpline
210
0.0
220
0.0
230
1.0
 70
    24
 71
     3
 72
    10
 73
     6
 74
     0
 42
0.0000000001
 43
0.0000000001
 40
-0.01428989168724
 40
-0.01428989168724
 40
-0.01428989168724
 40
-0.01428989168724
 40
-0.0069054270475168
 40
-0.0069054270475168
 40
0.0
 40
0.0
 40
0.0
 40
0.0
 10
191.0101835756036
 20
126.2732536410134
 30
0.0
 10
191.0101835756036
 20
126.2678275631415
 30
0.0
 10
191.0101835756036
 20
126.2631042684959
 30
0.0
 10
191.0101835756036
 20
126.2595695343768
 30
0.0
 10
191.0101835756036
 20
126.2576101583306
 30
0.0
 10
191.0101835756036
 20
126.2554772011493
 30
0.0
  0
SPLINE
  5
3A7
330
6C
100
AcDbEntity
  8
Visible {c3}
100
AcDbSpline
210
0.0
220
0.0
230
1.0
 70
    24
 71
     3
 72
     8
 73
     4
 74
     0
 42
0.0000000001
 43
0.0000000001
 40
-0.0125880049727023
 40
-0.0125880049727023
 40
-0.0125880049727023
 40
-0.0125880049727023
 40
0.0
 40
0.0
 40
0.0
 40
0.0
 10
191.0101835756037
 20
126.7371157017816
 30
0.0
 10
191.0101835756037
 20
126.695494596124
 30
0.0
 10
191.0101835756037
 20
126.6538345327572
 30
0.0
 10
191.0101835756037
 20
126.612883168666
 30
0.0
  0
LINE
  5
3A8
330
6C
100
AcDbEntity
  8
Visible {c3}
100
AcDbLine
 10
191.0101835756042
 20
127.1384650661556
 30
0.0
 11
191.0101835756041
 21
126.9829633429213
 31
0.0
  0
LINE
  5
3A9
330
6C
100
AcDbEntity
  8
Visible {c3}
100
AcDbLine
 10
190.9101835756041
 20
126.9829633429213
 30
0.0
 11
191.0101835756041
 21
126.9829633429213
 31
0.0
  0
LINE
  5
3AA
330
6C
100
AcDbEntity
  8
Visible {c3}
100
AcDbLine
 10
190.9101835756034
 20
125.6917183916939
 30
0.0
 11
191.0101835756034
 21
125.6917183916939
 31
0.0
  0
LINE
  5
3AB
330
6C
100
AcDbEntity
  8
Visible {c3}
100
AcDbLine
 10
191.0101835756034
 20
125.7941913433477
 30
0.0
 11
191.0101835756034
 21
125.6917183916939
 31
0.0
  0
LINE
  5
3AC
330
6C
100
AcDbEntity
  8
Visible {c3}
100
AcDbLine
 10
190.9101835756034
 20
125.7941913433477
 30
0.0
 11
191.0101835756034
 21
125.7941913433477
 31
0.0
  0
LINE
  5
3AD
330
6C
100
AcDbEntity
  8
Visible {c3}
100
AcDbLine
 10
191.0101835756034
 20
126.0458033326196
 30
0.0
 11
191.0101835756034
 21
125.7941913433477
 31
0.0
  0
LINE
  5
3AE
330
6C
100
AcDbEntity
  8
Visible {c3}
100
AcDbLine
 10
190.9101835756035
 20
126.0458033326196
 30
0.0
 11
191.0101835756035
 21
126.0458033326196
 31
0.0
  0
LINE
  5
3AF
330
6C
100
AcDbEntity
  8
Visible {c3}
100
AcDbLine
 10
191.0101835756036
 20
126.1247026944563
 30
0.0
 11
191.0101835756035
 21
126.0458033326196
 31
0.0
  0
LINE
  5
3B0
330
6C
100
AcDbEntity
  8
Visible {c3}
100
AcDbLine
 10
190.9101835756036
 20
126.1247026944563
 30
0.0
 11
191.0101835756036
 21
126.1247026944563
 31
0.0
  0
LINE
  5
3B1
330
6C
100
AcDbEntity
  8
Visible {c3}
100
AcDbLine
 10
191.0101835756035
 20
126.2554772011493
 30
0.0
 11
191.0101835756036
 21
126.1247026944563
 31
0.0
  0
LINE
  5
3B2
330
6C
100
AcDbEntity
  8
Visible {c3}
100
AcDbLine
 10
190.9101835756039
 20
126.7371157032635
 30
0.0
 11
191.0101835756039
 21
126.7371157032635
 31
0.0
  0
LINE
  5
3B3
330
6C
100
AcDbEntity
  8
Visible {c3}
100
AcDbLine
 10
187.7101835756097
 20
113.4031905938757
 30
0.0
 11
187.7101835756097
 21
85.3813770434381
 31
0.0
  0
LINE
  5
3B4
330
6C
100
AcDbEntity
  8
Visible {c3}
100
AcDbLine
 10
188.51018357561
 20
85.3813770434381
 30
0.0
 11
187.7101835756097
 21
85.3813770434381
 31
0.0
  0
LINE
  5
3B5
330
6C
100
AcDbEntity
  8
Visible {c3}
100
AcDbLine
 10
187.7101835756097
 20
113.4031905938757
 30
0.0
 11
188.51018357561
 21
113.4451168173022
 31
0.0
  0
LINE
  5
3B6
330
6C
100
AcDbEntity
  8
Visible {c3}
100
AcDbLine
 10
191.1101835756099
 20
85.3813770434381
 30
0.0
 11
188.5101835756099
 21
85.3813770434381
 31
0.0
  0
LINE
  5
3B7
330
6C
100
AcDbEntity
  8
Visible {c3}
100
AcDbLine
 10
191.1101835756099
 20
84.4813770434381
 30
0.0
 11
191.1101835756099
 21
85.3813770434381
 31
0.0
  0
LINE
  5
3B8
330
6C
100
AcDbEntity
  8
Visible {c3}
100
AcDbLine
 10
196.51018357561
 20
84.4813770434381
 30
0.0
 11
191.1101835756099
 21
84.4813770434381
 31
0.0
  0
LINE
  5
3B9
330
6C
100
AcDbEntity
  8
Visible {c3}
100
AcDbLine
 10
196.51018357561
 20
117.6813770434381
 30
0.0
 11
196.51018357561
 21
84.4813770434381
 31
0.0
  0
LINE
  5
3BA
330
6C
100
AcDbEntity
  8
Visible {c3}
100
AcDbLine
 10
191.1101835756099
 20
117.6813770434381
 30
0.0
 11
196.51018357561
 21
117.6813770434381
 31
0.0
  0
LINE
  5
3BB
330
6C
100
AcDbEntity
  8
Visible {c3}
100
AcDbLine
 10
191.1101835756099
 20
116.2813770434381
 30
0.0
 11
191.1101835756099
 21
117.6813770434381
 31
0.0
  0
LINE
  5
3BC
330
6C
100
AcDbEntity
  8
Visible {c3}
100
AcDbLine
 10
188.91018357561
 20
113.4660799290154
 30
0.0
 11
191.1101835756099
 21
116.2813770434381
 31
0.0
  0
LINE
  5
3BD
330
6C
100
AcDbEntity
  8
Visible {c3}
100
AcDbLine
 10
188.5101835756099
 20
113.4451168173022
 30
0.0
 11
188.91018357561
 21
113.4660799290154
 31
0.0
  0
DIMENSION
  5
3BE
330
6C
100
AcDbEntity
  8
Dimension {c3}
 62
   176
100
AcDbDimension
  2
*D6
 10
99.86234294918325
 20
84.4813770434381
 30
0.0
 11
99.86234294918325
 21
101.0813770434381
 31
0.0
 70
   160
  1
 <> mm\X[1 5/16 in]
 71
     2
 42
33.20000000000002
  3
OD mm[in] {c3 - mm[in]}
100
AcDbAlignedDimension
 13
117.2618665813112
 23
117.6813770434381
 33
0.0
 14
117.2618665813112
 24
84.4813770434381
 34
0.0
 50
270.0
100
AcDbRotatedDimension
1001
ACAD
1000
DSTYLE
1002
{
1070
   289
1070
     1
1070
    74
1070
     0
1070
   145
1040
-0.25
1070
   271
1070
     1
1070
   170
1070
     0
1070
     3
1000

1070
   272
1070
     2
1070
    48
1040
0.0
1070
    47
1040
0.0
1002
}
  0
DIMENSION
  5
4E9
330
6C
100
AcDbEntity
  8
Dimension {c3}
 62
   176
100
AcDbDimension
  2
*D7
 10
196.51018357561
 20
142.0850381350839
 30
0.0
 11
176.0661838083063
 21
142.0850381350839
 31
0.0
 70
   160
  1
 <> mm\X[11/32 in]
 71
     2
 42
8.800000000000238
  3
OD mm[in] {c3 - mm[in]}
100
AcDbAlignedDimension
 13
187.7101835756097
 23
113.4031905938757
 33
0.0
 14
196.51018357561
 24
117.6813770434381
 34
0.0
 50
180.0
100
AcDbRotatedDimension
1001
ACAD
1000
DSTYLE
1002
{
1070
   289
1070
     2
1070
    74
1070
     0
1070
   145
1040
-0.25
1070
   271
1070
     1
1070
   170
1070
     0
1070
     3
1000

1070
   272
1070
     2
1070
    48
1040
0.0
1070
    47
1040
0.0
1002
}
  0
INSERT
  5
632
330
6C
100
AcDbEntity
  8
Symbol {c3}
100
AcDbBlockReference
  2
Revision History
 10
0.0
 20
0.0
 30
0.0
 41
0.5
 42
0.5
 43
0.5
  0
DIMENSION
  5
633
330
6C
100
AcDbEntity
  8
Dimension {c3}
 62
   176
100
AcDbDimension
  2
*D9
 10
148.5118665813112
 20
76.48137704343811
 30
0.0
 11
132.8868665813112
 21
76.48137704343811
 31
0.0
 70
   160
  1
 <> mm\X[1 15/64 in]
 71
     2
 42
31.25
  3
OD mm[in] {c3 - mm[in]}
100
AcDbAlignedDimension
 13
117.2618665813112
 23
84.4813770434381
 33
0.0
 14
148.5118665813112
 24
84.4813770434381
 34
0.0
 50
180.0
100
AcDbRotatedDimension
1001
ACAD
1000
DSTYLE
1002
{
1070
   289
1070
     1
1070
    74
1070
     0
1070
   145
1040
-0.25
1070
   271
1070
     1
1070
   170
1070
     0
1070
     3
1000

1070
   272
1070
     2
1070
    48
1040
0.0
1070
    47
1040
0.0
1002
}
  0
DIMENSION
  5
756
330
6C
100
AcDbEntity
  8
Dimension {c3}
 62
   176
100
AcDbDimension
  2
*D10
 10
88.26186658131126
 20
128.8329648157682
 30
0.0
 11
88.26186658131122
 21
106.6571709296032
 31
0.0
 70
   160
  1
 <> mm\X[1 3/4 in]
 71
     2
 42
44.35158777233016
  3
OD mm[in] {c3 - mm[in]}
100
AcDbAlignedDimension
 13
117.2618665813112
 23
84.4813770434381
 33
0.0
 14
134.6491739336129
 24
128.8329648157682
 34
0.0
 50
90.0
100
AcDbRotatedDimension
1001
ACAD
1000
DSTYLE
1002
{
1070
   289
1070
     1
1070
    74
1070
     0
1070
   145
1040
-0.25
1070
   271
1070
     1
1070
   170
1070
     0
1070
     3
1000

1070
   272
1070
     2
1070
    48
1040
0.0
1070
    47
1040
0.0
1002
}
  0
ENDSEC
  0
SECTION
  2
OBJECTS
  0
DICTIONARY
  5
C
330
0
100
AcDbDictionary
281
     1
  3
ACAD_COLOR
350
63
  3
ACAD_GROUP
350
D
  3
ACAD_LAYOUT
350
62
  3
ACAD_MATERIAL
350
10
  3
ACAD_MLEADERSTYLE
350
66
  3
ACAD_MLINESTYLE
350
5F
  3
ACAD_PLOTSETTINGS
350
61
  3
ACAD_PLOTSTYLENAME
350
E
  3
ACAD_SCALELIST
350
42
  3
ACAD_TABLESTYLE
350
64
  3
ACAD_VISUALSTYLE
350
29
  3
ACDB_RECOMPOSE_DATA
350
8C0
  3
AcDbVariableDictionary
350
880
  3
DWGPROPS
350
8C1
  0
DICTIONARY
  5
890
330
18C
100
AcDbDictionary
280
     1
281
     1
  3
ACAD_MLATT
360
892
  3
ACAD_XREC_ROUNDTRIP
360
891
  0
DICTIONARY
  5
893
330
191
100
AcDbDictionary
280
     1
281
     1
  3
ACAD_MLATT
360
895
  3
ACAD_XREC_ROUNDTRIP
360
894
  0
DICTIONARY
  5
896
330
192
100
AcDbDictionary
280
     1
281
     1
  3
ACAD_MLATT
360
898
  3
ACAD_XREC_ROUNDTRIP
360
897
  0
DICTIONARY
  5
899
330
193
100
AcDbDictionary
280
     1
281
     1
  3
ACAD_MLATT
360
89B
  3
ACAD_XREC_ROUNDTRIP
360
89A
  0
DICTIONARY
  5
89C
330
194
100
AcDbDictionary
280
     1
281
     1
  3
ACAD_MLATT
360
89E
  3
ACAD_XREC_ROUNDTRIP
360
89D
  0
DICTIONARY
  5
89F
330
195
100
AcDbDictionary
280
     1
281
     1
  3
ACAD_MLATT
360
8A1
  3
ACAD_XREC_ROUNDTRIP
360
8A0
  0
DICTIONARY
  5
8A2
330
196
100
AcDbDictionary
280
     1
281
     1
  3
ACAD_MLATT
360
8A4
  3
ACAD_XREC_ROUNDTRIP
360
8A3
  0
DICTIONARY
  5
8A5
330
198
100
AcDbDictionary
280
     1
281
     1
  3
ACAD_MLATT
360
8A7
  3
ACAD_XREC_ROUNDTRIP
360
8A6
  0
DICTIONARY
  5
8A8
330
19C
100
AcDbDictionary
280
     1
281
     1
  3
ACAD_MLATT
360
8AA
  3
ACAD_XREC_ROUNDTRIP
360
8A9
  0
DICTIONARY
  5
8AB
330
19D
100
AcDbDictionary
280
     1
281
     1
  3
ACAD_MLATT
360
8AD
  3
ACAD_XREC_ROUNDTRIP
360
8AC
  0
DICTIONARY
  5
8AE
330
19E
100
AcDbDictionary
280
     1
281
     1
  3
ACAD_MLATT
360
8B0
  3
ACAD_XREC_ROUNDTRIP
360
8AF
  0
DICTIONARY
  5
8B1
330
19F
100
AcDbDictionary
280
     1
281
     1
  3
ACAD_MLATT
360
8B3
  3
ACAD_XREC_ROUNDTRIP
360
8B2
  0
DICTIONARY
  5
8B4
330
1A0
100
AcDbDictionary
280
     1
281
     1
  3
ACAD_MLATT
360
8B6
  3
ACAD_XREC_ROUNDTRIP
360
8B5
  0
DICTIONARY
  5
8B7
330
1A1
100
AcDbDictionary
280
     1
281
     1
  3
ACAD_MLATT
360
8B9
  3
ACAD_XREC_ROUNDTRIP
360
8B8
  0
DICTIONARY
  5
8BA
330
1A2
100
AcDbDictionary
280
     1
281
     1
  3
ACAD_MLATT
360
8BC
  3
ACAD_XREC_ROUNDTRIP
360
8BB
  0
DICTIONARY
  5
8BD
330
1A3
100
AcDbDictionary
280
     1
281
     1
  3
ACAD_MLATT
360
8BF
  3
ACAD_XREC_ROUNDTRIP
360
8BE
  0
DICTIONARY
  5
63
102
{ACAD_REACTORS
330
C
102
}
330
C
100
AcDbDictionary
281
     1
  0
DICTIONARY
  5
D
102
{ACAD_REACTORS
330
C
102
}
330
C
100
AcDbDictionary
281
     1
  0
DICTIONARY
  5
62
102
{ACAD_REACTORS
330
C
102
}
330
C
100
AcDbDictionary
281
     1
  3
Layout1
350
6B
  3
Layout2
350
73
  3
Model
350
6F
  0
DICTIONARY
  5
10
102
{ACAD_REACTORS
330
C
102
}
330
C
100
AcDbDictionary
281
     1
  3
ByBlock
350
19
  3
ByLayer
350
11
  3
Global
350
21
  0
DICTIONARY
  5
66
102
{ACAD_REACTORS
330
C
102
}
330
C
100
AcDbDictionary
281
     1
  3
Standard
350
67
  0
DICTIONARY
  5
5F
102
{ACAD_REACTORS
330
C
102
}
330
C
100
AcDbDictionary
281
     1
  3
Standard
350
60
  0
DICTIONARY
  5
61
102
{ACAD_REACTORS
330
C
102
}
330
C
100
AcDbDictionary
281
     1
  0
ACDBDICTIONARYWDFLT
  5
E
102
{ACAD_REACTORS
330
C
102
}
330
C
100
AcDbDictionary
281
     1
  3
Normal
350
F
100
AcDbDictionaryWithDefault
340
F
  0
DICTIONARY
  5
42
102
{ACAD_REACTORS
330
C
102
}
330
C
100
AcDbDictionary
281
     1
  3
A0
350
43
  3
A1
350
44
  3
A2
350
45
  3
A3
350
46
  3
A4
350
47
  3
A5
350
48
  3
A6
350
49
  3
A7
350
4A
  3
A8
350
4B
  3
A9
350
4C
  3
B0
350
4D
  3
B1
350
4E
  3
B2
350
4F
  3
B3
350
50
  3
B4
350
51
  3
B5
350
52
  3
B6
350
53
  0
DICTIONARY
  5
64
102
{ACAD_REACTORS
330
C
102
}
330
C
100
AcDbDictionary
281
     1
  3
Standard
350
65
  0
DICTIONARY
  5
29
102
{ACAD_REACTORS
330
C
102
}
330
C
100
AcDbDictionary
281
     1
  3
2dWireframe
350
2F
  3
Basic
350
2E
  3
Brighten
350
35
  3
ColorChange
350
39
  3
Conceptual
350
32
  3
Dim
350
34
  3
EdgeColorOff
350
41
  3
Facepattern
350
38
  3
Flat
350
2A
  3
FlatWithEdges
350
2B
  3
Gouraud
350
2C
  3
GouraudWithEdges
350
2D
  3
Hidden
350
31
  3
JitterOff
350
3F
  3
Linepattern
350
37
  3
OverhangOff
350
40
  3
Realistic
350
33
  3
Shaded
350
3E
  3
Shaded with edges
350
3D
  3
Shades of Gray
350
3A
  3
Sketchy
350
3B
  3
Thicken
350
36
  3
Wireframe
350
30
  3
X-Ray
350
3C
  0
XRECORD
  5
8C0
102
{ACAD_REACTORS
330
C
102
}
330
C
100
AcDbXrecord
280
     1
 90
        1
330
65
330
18C
330
191
330
192
330
193
330
194
330
195
330
196
330
198
330
19C
330
19D
330
19E
330
19F
330
1A0
330
1A1
330
1A2
330
1A3
330
4E9
  0
DICTIONARY
  5
880
102
{ACAD_REACTORS
330
C
102
}
330
C
100
AcDbDictionary
281
     1
  3
CANNOSCALE
350
884
  3
CMLEADERSTYLE
350
882
  3
CTABLESTYLE
350
881
  3
DIMASSOC
350
88B
  3
HIDETEXT
350
88A
  3
INDEXCTL
350
889
  3
LAYEREVAL
350
886
  3
LAYERNOTIFY
350
887
  3
LIGHTINGUNITS
350
885
  3
MSLTSCALE
350
883
  3
SORTENTS
350
888
  3
XCLIPFRAME
350
88C
  0
XRECORD
  5
8C1
102
{ACAD_REACTORS
330
C
102
}
330
C
100
AcDbXrecord
280
     1
  1
DWGPROPS COOKIE
  2

  3

  4
D. Hehman
  6

  7

  8

  9

300
Manager=
301
Company=
302
Category=
303
Part Number=22P90101
304
Description=
305
Project=
306
Designer=D. Hehman
307
Engineer=
308
Authority=
309
Cost Center=
 40
0.000019525462963
 41
2456518.352352824
 42
2456518.352352824
  1

 90
       16
300
Vendor=
300
User Status=
300
Design Status=WorkInProgress
300
Checked by=
300
Engr Approved by=
300
Mfg Approved by=
  0
XRECORD
  5
892
102
{ACAD_REACTORS
330
890
102
}
330
890
100
AcDbXrecord
280
     1
 70
     4
 70
     0
 70
     0
 40
1.0
  2
AUTHOR
  1
Embedded Object
 10
117.5337794481153
 20
310.6979838690836
 30
0.0
 40
3.174999952316284
 41
34.67494386139798
 46
0.0
 71
     5
 72
     5
  1
D. Hehman
  7
Text Style9
 73
     1
 44
1.0
  0
XRECORD
  5
891
102
{ACAD_REACTORS
330
890
102
}
330
890
100
AcDbXrecord
280
     1
102
ACAD_MATT_HEIGHT
140
3.174999952316284
  0
XRECORD
  5
895
102
{ACAD_REACTORS
330
893
102
}
330
893
100
AcDbXrecord
280
     1
 70
     4
 70
     0
 70
     0
 40
1.0
  2
AUTHOR
  1
Embedded Object
 10
117.5337794481153
 20
299.9029838690836
 30
0.0
 40
3.174999952316284
 41
34.93789251960011
 46
0.0
 71
     5
 72
     5
  1
D. Hehman
  7
Text Style39
 73
     1
 44
1.0
  0
XRECORD
  5
894
102
{ACAD_REACTORS
330
893
102
}
330
893
100
AcDbXrecord
280
     1
102
ACAD_MATT_HEIGHT
140
3.174999952316284
  0
XRECORD
  5
898
102
{ACAD_REACTORS
330
896
102
}
330
896
100
AcDbXrecord
280
     1
 70
     4
 70
     0
 70
     0
 40
1.0
  2
CHECKED_BY
  1
Embedded Object
 10
117.5337794481153
 20
289.1079838690836
 30
0.0
 40
3.174999952316284
 41
35.33478418445767
 46
0.0
 71
     5
 72
     5
  1

  7
Text Style39
 73
     1
 44
1.0
  0
XRECORD
  5
897
102
{ACAD_REACTORS
330
896
102
}
330
896
100
AcDbXrecord
280
     1
102
ACAD_MATT_HEIGHT
140
3.174999952316284
  0
XRECORD
  5
89B
102
{ACAD_REACTORS
330
899
102
}
330
899
100
AcDbXrecord
280
     1
 70
     4
 70
     0
 70
     0
 40
1.0
  2
CREATION_DATE
  1
Embedded Object
 10
117.5337794481153
 20
278.3129838690836
 30
0.0
 40
3.174999952316284
 41
39.66775954641338
 46
0.0
 71
     5
 72
     5
  1
9/19/2011
  7
Text Style39
 73
     1
 44
1.0
  0
XRECORD
  5
89A
102
{ACAD_REACTORS
330
899
102
}
330
899
100
AcDbXrecord
280
     1
102
ACAD_MATT_HEIGHT
140
3.174999952316284
  0
XRECORD
  5
89E
102
{ACAD_REACTORS
330
89C
102
}
330
89C
100
AcDbXrecord
280
     1
 70
     4
 70
     0
 70
     0
 40
1.0
  2
Rev_#
  1
Embedded Object
 10
146.1087794481153
 20
278.3129838690836
 30
0.0
 40
3.174999952316284
 41
16.39327306961275
 46
0.0
 71
     5
 72
     5
  1
1
  7
Text Style39
 73
     1
 44
1.0
  0
XRECORD
  5
89D
102
{ACAD_REACTORS
330
89C
102
}
330
89C
100
AcDbXrecord
280
     1
102
ACAD_MATT_HEIGHT
140
3.174999952316284
  0
XRECORD
  5
8A1
102
{ACAD_REACTORS
330
89F
102
}
330
89F
100
AcDbXrecord
280
     1
 70
     4
 70
     0
 70
     0
 40
1.0
  2
Scale
  1
Embedded Object
 10
184.2087794481153
 20
278.3129838690836
 30
0.0
 40
3.174999952316284
 41
17.94754834711256
 46
0.0
 71
     5
 72
     5
  1
2 : 1
  7
Text Style39
 73
     1
 44
1.0
  0
XRECORD
  5
8A0
102
{ACAD_REACTORS
330
89F
102
}
330
89F
100
AcDbXrecord
280
     1
102
ACAD_MATT_HEIGHT
140
3.174999952316284
  0
XRECORD
  5
8A4
102
{ACAD_REACTORS
330
8A2
102
}
330
8A2
100
AcDbXrecord
280
     1
 70
     4
 70
     0
 70
     0
 40
1.0
  2
PART_NUMBER
  1
Embedded Object
 10
228.6587794481153
 20
278.3129838690836
 30
0.0
 40
3.174999952316284
 41
55.43842124286136
 46
0.0
 71
     5
 72
     5
  1
22P90101G01
  7
Text Style39
 73
     1
 44
1.0
  0
XRECORD
  5
8A3
102
{ACAD_REACTORS
330
8A2
102
}
330
8A2
100
AcDbXrecord
280
     1
102
ACAD_MATT_HEIGHT
140
3.174999952316284
  0
XRECORD
  5
8A7
102
{ACAD_REACTORS
330
8A5
102
}
330
8A5
100
AcDbXrecord
280
     1
 70
     4
 70
     0
 70
     0
 40
1.0
  2
DESCRIPTION
  1
Embedded Object
 10
200.0837794481153
 20
296.7279838690836
 30
0.0
 40
3.810000121593475
 41
124.024369043987
 46
0.0
 71
     5
 72
     5
  1
OD 22mm IEC Bracket Subassembly
  7
Text Style76
 73
     1
 44
1.0
  0
XRECORD
  5
8A6
102
{ACAD_REACTORS
330
8A5
102
}
330
8A5
100
AcDbXrecord
280
     1
102
ACAD_MATT_HEIGHT
140
3.810000121593475
  0
XRECORD
  5
8AA
102
{ACAD_REACTORS
330
8A8
102
}
330
8A8
100
AcDbXrecord
280
     1
 70
     2
 70
     0
 70
     0
 40
1.0
  2
AUTHOR
  1
Embedded Object
 10
196.85
 20
24.44750000000001
 30
0.0
 40
1.587499976158142
 41
17.33747193069899
 46
0.0
 71
     5
 72
     5
  1
D. Hehman
  7
Text Style9
 73
     1
 44
1.0
  0
XRECORD
  5
8A9
102
{ACAD_REACTORS
330
8A8
102
}
330
8A8
100
AcDbXrecord
280
     1
102
ACAD_MATT_HEIGHT
140
1.587499976158142
  0
XRECORD
  5
8AD
102
{ACAD_REACTORS
330
8AB
102
}
330
8AB
100
AcDbXrecord
280
     1
 70
     2
 70
     0
 70
     0
 40
1.0
  2
AUTHOR
  1
Embedded Object
 10
196.85
 20
19.05000000000003
 30
0.0
 40
1.587499976158142
 41
17.46894625980005
 46
0.0
 71
     5
 72
     5
  1
D. Hehman
  7
Text Style39
 73
     1
 44
1.0
  0
XRECORD
  5
8AC
102
{ACAD_REACTORS
330
8AB
102
}
330
8AB
100
AcDbXrecord
280
     1
102
ACAD_MATT_HEIGHT
140
1.587499976158142
  0
XRECORD
  5
8B0
102
{ACAD_REACTORS
330
8AE
102
}
330
8AE
100
AcDbXrecord
280
     1
 70
     2
 70
     0
 70
     0
 40
1.0
  2
CHECKED_BY
  1
Embedded Object
 10
196.85
 20
13.65250000000001
 30
0.0
 40
1.587499976158142
 41
17.66739209222883
 46
0.0
 71
     5
 72
     5
  1

  7
Text Style39
 73
     1
 44
1.0
  0
XRECORD
  5
8AF
102
{ACAD_REACTORS
330
8AE
102
}
330
8AE
100
AcDbXrecord
280
     1
102
ACAD_MATT_HEIGHT
140
1.587499976158142
  0
XRECORD
  5
8B3
102
{ACAD_REACTORS
330
8B1
102
}
330
8B1
100
AcDbXrecord
280
     1
 70
     2
 70
     0
 70
     0
 40
1.0
  2
CREATION_DATE
  1
Embedded Object
 10
196.85
 20
8.255000000000034
 30
0.0
 40
1.587499976158142
 41
19.83387977320669
 46
0.0
 71
     5
 72
     5
  1
9/19/2011
  7
Text Style39
 73
     1
 44
1.0
  0
XRECORD
  5
8B2
102
{ACAD_REACTORS
330
8B1
102
}
330
8B1
100
AcDbXrecord
280
     1
102
ACAD_MATT_HEIGHT
140
1.587499976158142
  0
XRECORD
  5
8B6
102
{ACAD_REACTORS
330
8B4
102
}
330
8B4
100
AcDbXrecord
280
     1
 70
     2
 70
     0
 70
     0
 40
1.0
  2
Rev_#
  1
Embedded Object
 10
211.1375
 20
8.255000000000034
 30
0.0
 40
1.587499976158142
 41
8.196636534806378
 46
0.0
 71
     5
 72
     5
  1
1
  7
Text Style39
 73
     1
 44
1.0
  0
XRECORD
  5
8B5
102
{ACAD_REACTORS
330
8B4
102
}
330
8B4
100
AcDbXrecord
280
     1
102
ACAD_MATT_HEIGHT
140
1.587499976158142
  0
XRECORD
  5
8B9
102
{ACAD_REACTORS
330
8B7
102
}
330
8B7
100
AcDbXrecord
280
     1
 70
     2
 70
     0
 70
     0
 40
1.0
  2
Scale
  1
Embedded Object
 10
230.1875
 20
8.255000000000034
 30
0.0
 40
1.587499976158142
 41
8.973774173556279
 46
0.0
 71
     5
 72
     5
  1
2 : 1
  7
Text Style39
 73
     1
 44
1.0
  0
XRECORD
  5
8B8
102
{ACAD_REACTORS
330
8B7
102
}
330
8B7
100
AcDbXrecord
280
     1
102
ACAD_MATT_HEIGHT
140
1.587499976158142
  0
XRECORD
  5
8BC
102
{ACAD_REACTORS
330
8BA
102
}
330
8BA
100
AcDbXrecord
280
     1
 70
     2
 70
     0
 70
     0
 40
1.0
  2
PART_NUMBER
  1
Embedded Object
 10
252.4125
 20
8.255000000000034
 30
0.0
 40
1.587499976158142
 41
27.71921062143068
 46
0.0
 71
     5
 72
     5
  1
22P90101G01
  7
Text Style39
 73
     1
 44
1.0
  0
XRECORD
  5
8BB
102
{ACAD_REACTORS
330
8BA
102
}
330
8BA
100
AcDbXrecord
280
     1
102
ACAD_MATT_HEIGHT
140
1.587499976158142
  0
XRECORD
  5
8BF
102
{ACAD_REACTORS
330
8BD
102
}
330
8BD
100
AcDbXrecord
280
     1
 70
     2
 70
     0
 70
     0
 40
1.0
  2
DESCRIPTION
  1
Embedded Object
 10
238.125
 20
17.46250000000003
 30
0.0
 40
1.905000060796737
 41
62.01218452199353
 46
0.0
 71
     5
 72
     5
  1
OD 22mm IEC Bracket Subassembly
  7
Text Style76
 73
     1
 44
1.0
  0
XRECORD
  5
8BE
102
{ACAD_REACTORS
330
8BD
102
}
330
8BD
100
AcDbXrecord
280
     1
102
ACAD_MATT_HEIGHT
140
1.905000060796737
  0
LAYOUT
  5
6B
102
{ACAD_XDICTIONARY
360
8F7
102
}
102
{ACAD_REACTORS
330
62
102
}
330
62
100
AcDbPlotSettings
  1

  2

  4

  6

 40
0.0
 41
0.0
 42
0.0
 43
0.0
 44
0.0
 45
0.0
 46
0.0
 47
0.0
 48
0.0
 49
0.0
140
0.0
141
0.0
142
1.0
143
1.0
 70
   688
 72
     0
 73
     0
 74
     5
  7

 75
    16
147
1.0
148
0.0
149
0.0
100
AcDbLayout
  1
Layout1
 70
     1
 71
     1
 10
0.0
 20
0.0
 11
12.0
 21
9.0
 12
0.0
 22
0.0
 32
0.0
 14
0.0
 24
0.0
 34
0.0
 15
0.0
 25
0.0
 35
0.0
146
0.0
 13
0.0
 23
0.0
 33
0.0
 16
1.0
 26
0.0
 36
0.0
 17
0.0
 27
1.0
 37
0.0
 76
     0
330
68
  0
LAYOUT
  5
73
102
{ACAD_XDICTIONARY
360
8FB
102
}
102
{ACAD_REACTORS
330
62
102
}
330
62
100
AcDbPlotSettings
  1

  2

  4

  6

 40
0.0
 41
0.0
 42
0.0
 43
0.0
 44
0.0
 45
0.0
 46
0.0
 47
0.0
 48
0.0
 49
0.0
140
0.0
141
0.0
142
1.0
143
1.0
 70
   688
 72
     0
 73
     0
 74
     5
  7

 75
    16
147
1.0
148
0.0
149
0.0
100
AcDbLayout
  1
Layout2
 70
     1
 71
     2
 10
0.0
 20
0.0
 11
12.0
 21
9.0
 12
0.0
 22
0.0
 32
0.0
 14
0.0
 24
0.0
 34
0.0
 15
0.0
 25
0.0
 35
0.0
146
0.0
 13
0.0
 23
0.0
 33
0.0
 16
1.0
 26
0.0
 36
0.0
 17
0.0
 27
1.0
 37
0.0
 76
     0
330
70
  0
LAYOUT
  5
6F
102
{ACAD_XDICTIONARY
360
8F9
102
}
102
{ACAD_REACTORS
330
62
102
}
330
62
100
AcDbPlotSettings
  1

  2

  4

  6

 40
0.0
 41
0.0
 42
0.0
 43
0.0
 44
0.0
 45
0.0
 46
0.0
 47
0.0
 48
0.0
 49
0.0
140
0.0
141
0.0
142
1.0
143
1.0
 70
  1712
 72
     0
 73
     0
 74
     0
  7

 75
     0
147
1.0
148
0.0
149
0.0
100
AcDbLayout
  1
Model
 70
     1
 71
     0
 10
0.0
 20
0.0
 11
12.0
 21
9.0
 12
0.0
 22
0.0
 32
0.0
 14
0.0
 24
0.0
 34
0.0
 15
0.0
 25
0.0
 35
0.0
146
0.0
 13
0.0
 23
0.0
 33
0.0
 16
1.0
 26
0.0
 36
0.0
 17
0.0
 27
1.0
 37
0.0
 76
     0
330
6C
  0
MATERIAL
  5
19
102
{ACAD_XDICTIONARY
360
1A
102
}
102
{ACAD_REACTORS
330
10
102
}
330
10
100
AcDbMaterial
  1
ByBlock
 72
     0
 43
0.0208333333333333
 43
0.0
 43
0.0
 43
0.0
 43
0.0
 43
0.0208333333333333
 43
0.0
 43
0.0
 43
0.0
 43
0.0
 43
1.0
 43
0.0
 43
0.0
 43
0.0
 43
0.0
 43
1.0
 77
     0
 47
0.0208333333333333
 47
0.0
 47
0.0
 47
0.0
 47
0.0
 47
0.0208333333333333
 47
0.0
 47
0.0
 47
0.0
 47
0.0
 47
1.0
 47
0.0
 47
0.0
 47
0.0
 47
0.0
 47
1.0
171
     0
 49
0.0208333333333333
 49
0.0
 49
0.0
 49
0.0
 49
0.0
 49
0.0208333333333333
 49
0.0
 49
0.0
 49
0.0
 49
0.0
 49
1.0
 49
0.0
 49
0.0
 49
0.0
 49
0.0
 49
1.0
175
     0
142
0.0208333333333333
142
0.0
142
0.0
142
0.0
142
0.0
142
0.0208333333333333
142
0.0
142
0.0
142
0.0
142
0.0
142
1.0
142
0.0
142
0.0
142
0.0
142
0.0
142
1.0
179
     0
144
0.0208333333333333
144
0.0
144
0.0
144
0.0
144
0.0
144
0.0208333333333333
144
0.0
144
0.0
144
0.0
144
0.0
144
1.0
144
0.0
144
0.0
144
0.0
144
0.0
144
1.0
147
0.0208333333333333
147
0.0
147
0.0
147
0.0
147
0.0
147
0.0208333333333333
147
0.0
147
0.0
147
0.0
147
0.0
147
1.0
147
0.0
147
0.0
147
0.0
147
0.0
147
1.0
  0
MATERIAL
  5
11
102
{ACAD_XDICTIONARY
360
12
102
}
102
{ACAD_REACTORS
330
10
102
}
330
10
100
AcDbMaterial
  1
ByLayer
 72
     0
 43
0.0208333333333333
 43
0.0
 43
0.0
 43
0.0
 43
0.0
 43
0.0208333333333333
 43
0.0
 43
0.0
 43
0.0
 43
0.0
 43
1.0
 43
0.0
 43
0.0
 43
0.0
 43
0.0
 43
1.0
 77
     0
 47
0.0208333333333333
 47
0.0
 47
0.0
 47
0.0
 47
0.0
 47
0.0208333333333333
 47
0.0
 47
0.0
 47
0.0
 47
0.0
 47
1.0
 47
0.0
 47
0.0
 47
0.0
 47
0.0
 47
1.0
171
     0
 49
0.0208333333333333
 49
0.0
 49
0.0
 49
0.0
 49
0.0
 49
0.0208333333333333
 49
0.0
 49
0.0
 49
0.0
 49
0.0
 49
1.0
 49
0.0
 49
0.0
 49
0.0
 49
0.0
 49
1.0
175
     0
142
0.0208333333333333
142
0.0
142
0.0
142
0.0
142
0.0
142
0.0208333333333333
142
0.0
142
0.0
142
0.0
142
0.0
142
1.0
142
0.0
142
0.0
142
0.0
142
0.0
142
1.0
179
     0
144
0.0208333333333333
144
0.0
144
0.0
144
0.0
144
0.0
144
0.0208333333333333
144
0.0
144
0.0
144
0.0
144
0.0
144
1.0
144
0.0
144
0.0
144
0.0
144
0.0
144
1.0
147
0.0208333333333333
147
0.0
147
0.0
147
0.0
147
0.0
147
0.0208333333333333
147
0.0
147
0.0
147
0.0
147
0.0
147
1.0
147
0.0
147
0.0
147
0.0
147
0.0
147
1.0
  0
MATERIAL
  5
21
102
{ACAD_XDICTIONARY
360
22
102
}
102
{ACAD_REACTORS
330
10
102
}
330
10
100
AcDbMaterial
  1
Global
 72
     0
 43
0.0208333333333333
 43
0.0
 43
0.0
 43
0.0
 43
0.0
 43
0.0208333333333333
 43
0.0
 43
0.0
 43
0.0
 43
0.0
 43
1.0
 43
0.0
 43
0.0
 43
0.0
 43
0.0
 43
1.0
 77
     0
 47
0.0208333333333333
 47
0.0
 47
0.0
 47
0.0
 47
0.0
 47
0.0208333333333333
 47
0.0
 47
0.0
 47
0.0
 47
0.0
 47
1.0
 47
0.0
 47
0.0
 47
0.0
 47
0.0
 47
1.0
171
     0
 49
0.0208333333333333
 49
0.0
 49
0.0
 49
0.0
 49
0.0
 49
0.0208333333333333
 49
0.0
 49
0.0
 49
0.0
 49
0.0
 49
1.0
 49
0.0
 49
0.0
 49
0.0
 49
0.0
 49
1.0
175
     0
142
0.0208333333333333
142
0.0
142
0.0
142
0.0
142
0.0
142
0.0208333333333333
142
0.0
142
0.0
142
0.0
142
0.0
142
1.0
142
0.0
142
0.0
142
0.0
142
0.0
142
1.0
179
     0
144
0.0208333333333333
144
0.0
144
0.0
144
0.0
144
0.0
144
0.0208333333333333
144
0.0
144
0.0
144
0.0
144
0.0
144
1.0
144
0.0
144
0.0
144
0.0
144
0.0
144
1.0
147
0.0208333333333333
147
0.0
147
0.0
147
0.0
147
0.0
147
0.0208333333333333
147
0.0
147
0.0
147
0.0
147
0.0
147
1.0
147
0.0
147
0.0
147
0.0
147
0.0
147
1.0
  0
MLEADERSTYLE
  5
67
102
{ACAD_REACTORS
330
66
102
}
330
66
100
AcDbMLeaderStyle
170
     2
171
     1
172
     0
 90
        2
 40
0.0
 41
0.0
173
     1
 91
-1056964608
340
5B
 92
       -2
290
     1
 42
0.09
291
     1
 43
0.36
  3
Standard
 44
0.18
300

342
55
174
     1
178
     6
175
     1
176
     0
 93
-1056964608
 45
0.18
292
     0
297
     0
 46
0.18
 94
-1056964608
 47
1.0
 49
1.0
140
1.0
293
     1
141
0.0
294
     1
177
     0
142
1.0
295
     0
296
     0
143
0.125
1001
ACAD_MLEADERVER
1070
     2
  0
MLINESTYLE
  5
60
102
{ACAD_REACTORS
330
5F
102
}
330
5F
100
AcDbMlineStyle
  2
STANDARD
 70
     0
  3

 62
   256
 51
90.0
 52
90.0
 71
     2
 49
0.5
 62
   256
  6
BYLAYER
 49
-0.5
 62
   256
  6
BYLAYER
  0
ACDBPLACEHOLDER
  5
F
102
{ACAD_REACTORS
330
E
102
}
330
E
  0
SCALE
  5
43
102
{ACAD_REACTORS
330
42
102
}
330
42
100
AcDbScale
 70
     0
300
1:1
140
1.0
141
1.0
290
     1
  0
SCALE
  5
44
102
{ACAD_REACTORS
330
42
102
}
330
42
100
AcDbScale
 70
     0
300
1/128" = 1'-0"
140
0.0078125
141
12.0
290
     0
  0
SCALE
  5
45
102
{ACAD_REACTORS
330
42
102
}
330
42
100
AcDbScale
 70
     0
300
1/64" = 1'-0"
140
0.015625
141
12.0
290
     0
  0
SCALE
  5
46
102
{ACAD_REACTORS
330
42
102
}
330
42
100
AcDbScale
 70
     0
300
1/32" = 1'-0"
140
0.03125
141
12.0
290
     0
  0
SCALE
  5
47
102
{ACAD_REACTORS
330
42
102
}
330
42
100
AcDbScale
 70
     0
300
1/16" = 1'-0"
140
0.0625
141
12.0
290
     0
  0
SCALE
  5
48
102
{ACAD_REACTORS
330
42
102
}
330
42
100
AcDbScale
 70
     0
300
3/32" = 1'-0"
140
0.09375
141
12.0
290
     0
  0
SCALE
  5
49
102
{ACAD_REACTORS
330
42
102
}
330
42
100
AcDbScale
 70
     0
300
1/8" = 1'-0"
140
0.125
141
12.0
290
     0
  0
SCALE
  5
4A
102
{ACAD_REACTORS
330
42
102
}
330
42
100
AcDbScale
 70
     0
300
3/16" = 1'-0"
140
0.1875
141
12.0
290
     0
  0
SCALE
  5
4B
102
{ACAD_REACTORS
330
42
102
}
330
42
100
AcDbScale
 70
     0
300
1/4" = 1'-0"
140
0.25
141
12.0
290
     0
  0
SCALE
  5
4C
102
{ACAD_REACTORS
330
42
102
}
330
42
100
AcDbScale
 70
     0
300
3/8" = 1'-0"
140
0.375
141
12.0
290
     0
  0
SCALE
  5
4D
102
{ACAD_REACTORS
330
42
102
}
330
42
100
AcDbScale
 70
     0
300
1/2" = 1'-0"
140
0.5
141
12.0
290
     0
  0
SCALE
  5
4E
102
{ACAD_REACTORS
330
42
102
}
330
42
100
AcDbScale
 70
     0
300
3/4" = 1'-0"
140
0.75
141
12.0
290
     0
  0
SCALE
  5
4F
102
{ACAD_REACTORS
330
42
102
}
330
42
100
AcDbScale
 70
     0
300
1" = 1'-0"
140
1.0
141
12.0
290
     0
  0
SCALE
  5
50
102
{ACAD_REACTORS
330
42
102
}
330
42
100
AcDbScale
 70
     0
300
1-1/2" = 1'-0"
140
1.5
141
12.0
290
     0
  0
SCALE
  5
51
102
{ACAD_REACTORS
330
42
102
}
330
42
100
AcDbScale
 70
     0
300
3" = 1'-0"
140
3.0
141
12.0
290
     0
  0
SCALE
  5
52
102
{ACAD_REACTORS
330
42
102
}
330
42
100
AcDbScale
 70
     0
300
6" = 1'-0"
140
6.0
141
12.0
290
     0
  0
SCALE
  5
53
102
{ACAD_REACTORS
330
42
102
}
330
42
100
AcDbScale
 70
     0
300
1'-0" = 1'-0"
140
12.0
141
12.0
290
     0
  0
TABLESTYLE
  5
65
102
{ACAD_XDICTIONARY
360
88D
102
}
102
{ACAD_REACTORS
330
64
102
}
330
64
100
AcDbTableStyle
  3
Standard
 70
     0
 71
     0
 40
0.06
 41
0.06
280
     0
281
     0
  7
Standard
140
0.18
170
     2
 62
     0
 63
     7
283
     0
274
    -2
284
     1
 64
     0
275
    -2
285
     1
 65
     0
276
    -2
286
     1
 66
     0
277
    -2
287
     1
 67
     0
278
    -2
288
     1
 68
     0
279
    -2
289
     1
 69
     0
  7
Standard
140
0.25
170
     5
 62
     0
 63
     7
283
     0
274
    -2
284
     1
 64
     0
275
    -2
285
     1
 65
     0
276
    -2
286
     1
 66
     0
277
    -2
287
     1
 67
     0
278
    -2
288
     1
 68
     0
279
    -2
289
     1
 69
     0
  7
Standard
140
0.18
170
     5
 62
     0
 63
     7
283
     0
274
    -2
284
     1
 64
     0
275
    -2
285
     1
 65
     0
276
    -2
286
     1
 66
     0
277
    -2
287
     1
 67
     0
278
    -2
288
     1
 68
     0
279
    -2
289
     1
 69
     0
  0
VISUALSTYLE
  5
2F
102
{ACAD_XDICTIONARY
360
8CF
102
}
102
{ACAD_REACTORS
330
29
102
}
330
29
100
AcDbVisualStyle
  2
2dWireframe
 70
     4
 71
     0
 72
     2
 73
     0
 90
        0
 40
-0.6
 41
-30.0
 62
     5
 63
     7
 74
     1
 91
        4
 64
     7
 65
   257
 75
     1
175
     1
 42
1.0
 92
        0
 66
   257
 43
1.0
 76
     1
 77
     6
 78
     2
 67
     7
 79
     5
170
     0
171
     0
290
     0
174
     0
 93
        1
 44
0.0
173
     0
291
     0
 45
0.0
1001
ACAD
1000
AcDbSavedByObjectVersion
1070
     0
  0
VISUALSTYLE
  5
2E
102
{ACAD_XDICTIONARY
360
8CD
102
}
102
{ACAD_REACTORS
330
29
102
}
330
29
100
AcDbVisualStyle
  2
Basic
 70
     7
 71
     1
 72
     0
 73
     1
 90
        0
 40
-0.6
 41
-30.0
 62
     5
 63
     7
 74
     0
 91
        4
 64
     7
 65
   257
 75
     1
175
     1
 42
1.0
 92
        8
 66
     7
 43
1.0
 76
     1
 77
     6
 78
     2
 67
     7
 79
     5
170
     0
171
     0
290
     0
174
     0
 93
        1
 44
0.0
173
     0
291
     1
 45
0.0
1001
ACAD
1000
AcDbSavedByObjectVersion
1070
     0
  0
VISUALSTYLE
  5
35
102
{ACAD_XDICTIONARY
360
8DB
102
}
102
{ACAD_REACTORS
330
29
102
}
330
29
100
AcDbVisualStyle
  2
Brighten
 70
    12
 71
     2
 72
     2
 73
     0
 90
        0
 40
-0.6
 41
-30.0
 62
     5
 63
     7
 74
     1
 91
        4
 64
     7
 65
   257
 75
     1
175
     1
 42
1.0
 92
        8
 66
     7
 43
1.0
 76
     1
 77
     6
 78
     2
 67
     7
 79
     5
170
     0
171
     0
290
     0
174
     0
 93
        1
 44
50.0
173
     0
291
     1
 45
0.0
1001
ACAD
1000
AcDbSavedByObjectVersion
1070
     0
  0
VISUALSTYLE
  5
39
102
{ACAD_XDICTIONARY
360
8E3
102
}
102
{ACAD_REACTORS
330
29
102
}
330
29
100
AcDbVisualStyle
  2
ColorChange
 70
    16
 71
     2
 72
     2
 73
     3
 90
        0
 40
-0.6
 41
-30.0
 62
     5
 63
     8
 74
     1
 91
        4
 64
     7
 65
   257
 75
     1
175
     1
 42
1.0
 92
        8
 66
     8
 43
1.0
 76
     1
 77
     6
 78
     2
 67
     7
 79
     5
170
     0
171
     0
290
     0
174
     0
 93
        1
 44
0.0
173
     0
291
     1
 45
0.0
1001
ACAD
1000
AcDbSavedByObjectVersion
1070
     0
  0
VISUALSTYLE
  5
32
102
{ACAD_XDICTIONARY
360
8D5
102
}
102
{ACAD_REACTORS
330
29
102
}
330
29
100
AcDbVisualStyle
  2
Conceptual
 70
     9
 71
     3
 72
     2
 73
     0
 90
        0
 40
-0.6
 41
-30.0
 62
     5
 63
     7
 74
     2
 91
        2
 64
     7
 65
   257
 75
     1
175
     1
 42
179.0
 92
        8
 66
     7
 43
1.0
 76
     1
 77
     6
 78
     2
 67
     7
 79
     3
170
     0
171
     0
290
     0
174
     0
 93
        1
 44
0.0
173
     0
291
     0
 45
0.0
1001
ACAD
1000
AcDbSavedByObjectVersion
1070
     0
  0
VISUALSTYLE
  5
34
102
{ACAD_XDICTIONARY
360
8D9
102
}
102
{ACAD_REACTORS
330
29
102
}
330
29
100
AcDbVisualStyle
  2
Dim
 70
    11
 71
     2
 72
     2
 73
     0
 90
        0
 40
-0.6
 41
-30.0
 62
     5
 63
     7
 74
     1
 91
        4
 64
     7
 65
   257
 75
     1
175
     1
 42
1.0
 92
        8
 66
     7
 43
1.0
 76
     1
 77
     6
 78
     2
 67
     7
 79
     5
170
     0
171
     0
290
     0
174
     0
 93
        1
 44
-50.0
173
     0
291
     1
 45
0.0
1001
ACAD
1000
AcDbSavedByObjectVersion
1070
     0
  0
VISUALSTYLE
  5
41
102
{ACAD_XDICTIONARY
360
8F3
102
}
102
{ACAD_REACTORS
330
29
102
}
330
29
100
AcDbVisualStyle
  2
EdgeColorOff
 70
    22
 71
     2
 72
     2
 73
     0
 90
        0
 40
-0.6
 41
-30.0
 62
     5
 63
     7
 74
     1
 91
        4
 64
     7
 65
   257
 75
     1
175
     1
 42
1.0
 92
        8
 66
     7
 43
1.0
 76
     1
 77
     6
 78
     2
 67
     7
 79
     5
170
     0
171
     0
290
     0
174
     0
 93
        1
 44
0.0
173
     0
291
     1
 45
0.0
1001
ACAD
1000
AcDbSavedByObjectVersion
1070
     0
  0
VISUALSTYLE
  5
38
102
{ACAD_XDICTIONARY
360
8E1
102
}
102
{ACAD_REACTORS
330
29
102
}
330
29
100
AcDbVisualStyle
  2
Facepattern
 70
    15
 71
     2
 72
     2
 73
     0
 90
        0
 40
-0.6
 41
-30.0
 62
     5
 63
     7
 74
     1
 91
        4
 64
     7
 65
   257
 75
     1
175
     1
 42
1.0
 92
        8
 66
     7
 43
1.0
 76
     1
 77
     6
 78
     2
 67
     7
 79
     5
170
     0
171
     0
290
     0
174
     0
 93
        1
 44
0.0
173
     0
291
     1
 45
0.0
1001
ACAD
1000
AcDbSavedByObjectVersion
1070
     0
  0
VISUALSTYLE
  5
2A
102
{ACAD_XDICTIONARY
360
8C5
102
}
102
{ACAD_REACTORS
330
29
102
}
330
29
100
AcDbVisualStyle
  2
Flat
 70
     0
 71
     2
 72
     1
 73
     1
 90
        2
 40
-0.6
 41
30.0
 62
     5
 63
     7
 74
     0
 91
        0
 64
     7
 65
   257
 75
     1
175
     1
 42
1.0
 92
        8
 66
     7
 43
1.0
 76
     1
 77
     6
 78
     2
 67
     7
 79
     5
170
     0
171
     0
290
     0
174
     0
 93
       13
 44
0.0
173
     0
291
     1
 45
0.0
1001
ACAD
1000
AcDbSavedByObjectVersion
1070
     0
  0
VISUALSTYLE
  5
2B
102
{ACAD_XDICTIONARY
360
8C7
102
}
102
{ACAD_REACTORS
330
29
102
}
330
29
100
AcDbVisualStyle
  2
FlatWithEdges
 70
     1
 71
     2
 72
     1
 73
     1
 90
        2
 40
-0.6
 41
30.0
 62
     5
 63
     7
 74
     1
 91
        0
 64
     7
 65
   257
 75
     1
175
     1
 42
1.0
 92
        0
 66
   257
 43
1.0
 76
     1
 77
     6
 78
     2
 67
     7
 79
     5
170
     0
171
     0
290
     0
174
     0
 93
       13
 44
0.0
173
     0
291
     1
 45
0.0
1001
ACAD
1000
AcDbSavedByObjectVersion
1070
     0
  0
VISUALSTYLE
  5
2C
102
{ACAD_XDICTIONARY
360
8C9
102
}
102
{ACAD_REACTORS
330
29
102
}
330
29
100
AcDbVisualStyle
  2
Gouraud
 70
     2
 71
     2
 72
     2
 73
     1
 90
        2
 40
-0.6
 41
30.0
 62
     5
 63
     7
 74
     0
 91
        0
 64
     7
 65
   257
 75
     1
175
     1
 42
1.0
 92
        0
 66
     7
 43
1.0
 76
     1
 77
     6
 78
     2
 67
     7
 79
     5
170
     0
171
     0
290
     0
174
     0
 93
       13
 44
0.0
173
     0
291
     1
 45
0.0
1001
ACAD
1000
AcDbSavedByObjectVersion
1070
     0
  0
VISUALSTYLE
  5
2D
102
{ACAD_XDICTIONARY
360
8CB
102
}
102
{ACAD_REACTORS
330
29
102
}
330
29
100
AcDbVisualStyle
  2
GouraudWithEdges
 70
     3
 71
     2
 72
     2
 73
     1
 90
        2
 40
-0.6
 41
30.0
 62
     5
 63
     7
 74
     1
 91
        0
 64
     7
 65
   257
 75
     1
175
     1
 42
1.0
 92
        0
 66
   257
 43
1.0
 76
     1
 77
     6
 78
     2
 67
     7
 79
     5
170
     0
171
     0
290
     0
174
     0
 93
       13
 44
0.0
173
     0
291
     1
 45
0.0
1001
ACAD
1000
AcDbSavedByObjectVersion
1070
     0
  0
VISUALSTYLE
  5
31
102
{ACAD_XDICTIONARY
360
8D3
102
}
102
{ACAD_REACTORS
330
29
102
}
330
29
100
AcDbVisualStyle
  2
Hidden
 70
     6
 71
     1
 72
     2
 73
     2
 90
        0
 40
-0.6
 41
-30.0
 62
     5
 63
     7
 74
     2
 91
        2
 64
     7
 65
   257
 75
     2
175
     1
 42
40.0
 92
        0
 66
   257
 43
1.0
 76
     1
 77
     6
 78
     2
 67
     7
 79
     3
170
     0
171
     0
290
     0
174
     0
 93
        1
 44
0.0
173
     0
291
     0
 45
0.0
1001
ACAD
1000
AcDbSavedByObjectVersion
1070
     0
  0
VISUALSTYLE
  5
3F
102
{ACAD_XDICTIONARY
360
8EF
102
}
102
{ACAD_REACTORS
330
29
102
}
330
29
100
AcDbVisualStyle
  2
JitterOff
 70
    20
 71
     2
 72
     2
 73
     0
 90
        0
 40
-0.6
 41
-30.0
 62
     5
 63
     7
 74
     1
 91
        4
 64
     7
 65
   257
 75
     1
175
     1
 42
1.0
 92
       10
 66
     7
 43
1.0
 76
     1
 77
     6
 78
     2
 67
     7
 79
     5
170
     0
171
     0
290
     0
174
     0
 93
        1
 44
0.0
173
     0
291
     1
 45
0.0
1001
ACAD
1000
AcDbSavedByObjectVersion
1070
     0
  0
VISUALSTYLE
  5
37
102
{ACAD_XDICTIONARY
360
8DF
102
}
102
{ACAD_REACTORS
330
29
102
}
330
29
100
AcDbVisualStyle
  2
Linepattern
 70
    14
 71
     2
 72
     2
 73
     0
 90
        0
 40
-0.6
 41
-30.0
 62
     5
 63
     7
 74
     1
 91
        4
 64
     7
 65
   257
 75
     7
175
     7
 42
1.0
 92
        8
 66
     7
 43
1.0
 76
     1
 77
     6
 78
     2
 67
     7
 79
     5
170
     0
171
     0
290
     0
174
     0
 93
        1
 44
0.0
173
     0
291
     1
 45
0.0
1001
ACAD
1000
AcDbSavedByObjectVersion
1070
     0
  0
VISUALSTYLE
  5
40
102
{ACAD_XDICTIONARY
360
8F1
102
}
102
{ACAD_REACTORS
330
29
102
}
330
29
100
AcDbVisualStyle
  2
OverhangOff
 70
    21
 71
     2
 72
     2
 73
     0
 90
        0
 40
-0.6
 41
-30.0
 62
     5
 63
     7
 74
     1
 91
        4
 64
     7
 65
   257
 75
     1
175
     1
 42
1.0
 92
        9
 66
     7
 43
1.0
 76
     1
 77
     6
 78
     2
 67
     7
 79
     5
170
     0
171
     0
290
     0
174
     0
 93
        1
 44
0.0
173
     0
291
     1
 45
0.0
1001
ACAD
1000
AcDbSavedByObjectVersion
1070
     0
  0
VISUALSTYLE
  5
33
102
{ACAD_XDICTIONARY
360
8D7
102
}
102
{ACAD_REACTORS
330
29
102
}
330
29
100
AcDbVisualStyle
  2
Realistic
 70
     8
 71
     2
 72
     3
 73
     0
 90
        2
 40
-0.6
 41
30.0
 62
     5
 63
     7
 74
     0
 91
        0
 64
     7
 65
   257
 75
     1
175
     1
 42
1.0
 92
        8
 66
   257
 43
1.0
 76
     1
 77
     6
 78
     2
 67
     7
 79
     3
170
     0
171
     0
290
     0
174
     0
 93
       13
 44
0.0
173
     0
291
     0
 45
0.0
1001
ACAD
1000
AcDbSavedByObjectVersion
1070
     0
  0
VISUALSTYLE
  5
3E
102
{ACAD_XDICTIONARY
360
8ED
102
}
102
{ACAD_REACTORS
330
29
102
}
330
29
100
AcDbVisualStyle
  2
Shaded
 70
    27
 71
     2
 72
     2
 73
     1
 90
        2
 40
-0.6
 41
30.0
 62
     5
 63
     7
 74
     0
 91
        4
 64
     7
 65
   257
 75
     1
175
     1
 42
1.0
 92
        8
 66
   257
 43
1.0
 76
     1
 77
     6
 78
     2
 67
     8
 79
     3
170
     0
171
     0
290
     0
174
     0
 93
        5
 44
0.0
173
     0
291
     0
 45
0.0
1001
ACAD
1000
AcDbSavedByObjectVersion
1070
     0
  0
VISUALSTYLE
  5
3D
102
{ACAD_XDICTIONARY
360
8EB
102
}
102
{ACAD_REACTORS
330
29
102
}
330
29
100
AcDbVisualStyle
  2
Shaded with edges
 70
    26
 71
     2
 72
     2
 73
     1
 90
        2
 40
-0.6
 41
30.0
 62
     5
 63
     7
 74
     1
 91
       10
 64
     7
 65
   257
 75
     2
175
     1
 42
1.0
 92
        8
 66
   257
 43
1.0
 76
     1
 77
     6
 78
     2
 67
     7
 79
     3
170
     0
171
     0
290
     0
174
     0
 93
        5
 44
0.0
173
     0
291
     0
 45
0.0
1001
ACAD
1000
AcDbSavedByObjectVersion
1070
     0
  0
VISUALSTYLE
  5
3A
102
{ACAD_XDICTIONARY
360
8E5
102
}
102
{ACAD_REACTORS
330
29
102
}
330
29
100
AcDbVisualStyle
  2
Shades of Gray
 70
    23
 71
     2
 72
     2
 73
     3
 90
        0
 40
-0.6
 41
-30.0
 62
     5
 63
     7
 74
     2
 91
        2
 64
     7
 65
     7
 75
     1
175
     1
 42
40.0
 92
        8
 66
     7
 43
1.0
 76
     1
 77
     6
 78
     2
 67
     7
 79
     3
170
     0
171
     0
290
     0
174
     0
 93
        1
 44
0.0
173
     0
291
     0
 45
0.0
1001
ACAD
1000
AcDbSavedByObjectVersion
1070
     0
  0
VISUALSTYLE
  5
3B
102
{ACAD_XDICTIONARY
360
8E7
102
}
102
{ACAD_REACTORS
330
29
102
}
330
29
100
AcDbVisualStyle
  2
Sketchy
 70
    24
 71
     1
 72
     2
 73
     2
 90
        0
 40
-0.6
 41
-30.0
 62
     5
 63
     7
 74
     2
 91
        2
 64
     7
 65
     7
 75
     1
175
     1
 42
40.0
 92
       11
 66
     7
 43
1.0
 76
     1
 77
     6
 78
     2
 67
     7
 79
     6
170
     0
171
     0
290
     0
174
     0
 93
        1
 44
0.0
173
     0
291
     0
 45
0.0
1001
ACAD
1000
AcDbSavedByObjectVersion
1070
     0
  0
VISUALSTYLE
  5
36
102
{ACAD_XDICTIONARY
360
8DD
102
}
102
{ACAD_REACTORS
330
29
102
}
330
29
100
AcDbVisualStyle
  2
Thicken
 70
    13
 71
     2
 72
     2
 73
     0
 90
        0
 40
-0.6
 41
-30.0
 62
     5
 63
     7
 74
     1
 91
        4
 64
     7
 65
   257
 75
     1
175
     1
 42
1.0
 92
       12
 66
     7
 43
1.0
 76
     1
 77
     6
 78
     2
 67
     7
 79
     5
170
     0
171
     0
290
     0
174
     0
 93
        1
 44
0.0
173
     0
291
     1
 45
0.0
1001
ACAD
1000
AcDbSavedByObjectVersion
1070
     0
  0
VISUALSTYLE
  5
30
102
{ACAD_XDICTIONARY
360
8D1
102
}
102
{ACAD_REACTORS
330
29
102
}
330
29
100
AcDbVisualStyle
  2
Wireframe
 70
     5
 71
     0
 72
     2
 73
     0
 90
        0
 40
-0.6
 41
-30.0
 62
     5
 63
     7
 74
     1
 91
        4
 64
     7
 65
   257
 75
     1
175
     1
 42
1.0
 92
        0
 66
   257
 43
1.0
 76
     1
 77
     6
 78
     2
 67
     7
 79
     3
170
     0
171
     0
290
     0
174
     0
 93
        1
 44
0.0
173
     0
291
     0
 45
0.0
1001
ACAD
1000
AcDbSavedByObjectVersion
1070
     0
  0
VISUALSTYLE
  5
3C
102
{ACAD_XDICTIONARY
360
8E9
102
}
102
{ACAD_REACTORS
330
29
102
}
330
29
100
AcDbVisualStyle
  2
X-Ray
 70
    25
 71
     2
 72
     2
 73
     1
 90
        1
 40
0.5
 41
-30.0
 62
     5
 63
     7
 74
     1
 91
        0
 64
     7
 65
   257
 75
     1
175
     1
 42
1.0
 92
        8
 66
     7
 43
1.0
 76
     1
 77
     6
 78
     2
 67
     7
 79
     3
170
     0
171
     0
290
     0
174
     0
 93
       13
 44
0.0
173
     0
291
     0
 45
0.0
1001
ACAD
1000
AcDbSavedByObjectVersion
1070
     0
  0
DICTIONARYVAR
  5
884
102
{ACAD_REACTORS
330
880
102
}
330
880
100
DictionaryVariables
280
     0
  1
1:1
  0
DICTIONARYVAR
  5
882
102
{ACAD_REACTORS
330
880
102
}
330
880
100
DictionaryVariables
280
     0
  1
STANDARD
  0
DICTIONARYVAR
  5
881
102
{ACAD_REACTORS
330
880
102
}
330
880
100
DictionaryVariables
280
     0
  1
STANDARD
  0
DICTIONARYVAR
  5
88B
102
{ACAD_REACTORS
330
880
102
}
330
880
100
DictionaryVariables
280
     0
  1
1
  0
DICTIONARYVAR
  5
88A
102
{ACAD_REACTORS
330
880
102
}
330
880
100
DictionaryVariables
280
     0
  1
1
  0
DICTIONARYVAR
  5
889
102
{ACAD_REACTORS
330
880
102
}
330
880
100
DictionaryVariables
280
     0
  1
0
  0
DICTIONARYVAR
  5
886
102
{ACAD_REACTORS
330
880
102
}
330
880
100
DictionaryVariables
280
     0
  1
0
  0
DICTIONARYVAR
  5
887
102
{ACAD_REACTORS
330
880
102
}
330
880
100
DictionaryVariables
280
     0
  1
0
  0
DICTIONARYVAR
  5
885
102
{ACAD_REACTORS
330
880
102
}
330
880
100
DictionaryVariables
280
     0
  1
2
  0
DICTIONARYVAR
  5
883
102
{ACAD_REACTORS
330
880
102
}
330
880
100
DictionaryVariables
280
     0
  1
1
  0
DICTIONARYVAR
  5
888
102
{ACAD_REACTORS
330
880
102
}
330
880
100
DictionaryVariables
280
     0
  1
127
  0
DICTIONARYVAR
  5
88C
102
{ACAD_REACTORS
330
880
102
}
330
880
100
DictionaryVariables
280
     0
  1
2
  0
DICTIONARY
  5
8F7
330
6B
100
AcDbDictionary
280
     1
281
     1
  3
ACAD_XREC_ROUNDTRIP
360
8F8
  0
DICTIONARY
  5
8FB
330
73
100
AcDbDictionary
280
     1
281
     1
  3
ACAD_XREC_ROUNDTRIP
360
8FC
  0
DICTIONARY
  5
8F9
330
6F
100
AcDbDictionary
280
     1
281
     1
  3
ACAD_XREC_ROUNDTRIP
360
8FA
  0
DICTIONARY
  5
1A
330
19
100
AcDbDictionary
280
     1
281
     1
  3
ACAD_XREC_ROUNDTRIP
360
8C3
  3
BUMPTILE
360
1C
  3
DIFFUSETILE
360
1B
  3
OPACITYTILE
360
1F
  3
REFLECTIONTILE
360
1E
  3
REFRACTIONTILE
360
20
  3
SPECULARTILE
360
1D
  0
DICTIONARY
  5
12
330
11
100
AcDbDictionary
280
     1
281
     1
  3
ACAD_XREC_ROUNDTRIP
360
8C2
  3
BUMPTILE
360
14
  3
DIFFUSETILE
360
13
  3
OPACITYTILE
360
17
  3
REFLECTIONTILE
360
16
  3
REFRACTIONTILE
360
18
  3
SPECULARTILE
360
15
  0
DICTIONARY
  5
22
330
21
100
AcDbDictionary
280
     1
281
     1
  3
ACAD_XREC_ROUNDTRIP
360
8C4
  3
BUMPTILE
360
24
  3
DIFFUSETILE
360
23
  3
OPACITYTILE
360
27
  3
REFLECTIONTILE
360
26
  3
REFRACTIONTILE
360
28
  3
SPECULARTILE
360
25
  0
DICTIONARY
  5
88D
330
65
100
AcDbDictionary
280
     1
281
     1
  3
ACAD_ROUNDTRIP_2008_TABLESTYLE_CELLSTYLEMAP
360
88E
  3
ACAD_XREC_ROUNDTRIP
360
8F5
  0
DICTIONARY
  5
8CF
330
2F
100
AcDbDictionary
280
     1
281
     1
  3
ACAD_XREC_ROUNDTRIP
360
8D0
  0
DICTIONARY
  5
8CD
330
2E
100
AcDbDictionary
280
     1
281
     1
  3
ACAD_XREC_ROUNDTRIP
360
8CE
  0
DICTIONARY
  5
8DB
330
35
100
AcDbDictionary
280
     1
281
     1
  3
ACAD_XREC_ROUNDTRIP
360
8DC
  0
DICTIONARY
  5
8E3
330
39
100
AcDbDictionary
280
     1
281
     1
  3
ACAD_XREC_ROUNDTRIP
360
8E4
  0
DICTIONARY
  5
8D5
330
32
100
AcDbDictionary
280
     1
281
     1
  3
ACAD_XREC_ROUNDTRIP
360
8D6
  0
DICTIONARY
  5
8D9
330
34
100
AcDbDictionary
280
     1
281
     1
  3
ACAD_XREC_ROUNDTRIP
360
8DA
  0
DICTIONARY
  5
8F3
330
41
100
AcDbDictionary
280
     1
281
     1
  3
ACAD_XREC_ROUNDTRIP
360
8F4
  0
DICTIONARY
  5
8E1
330
38
100
AcDbDictionary
280
     1
281
     1
  3
ACAD_XREC_ROUNDTRIP
360
8E2
  0
DICTIONARY
  5
8C5
330
2A
100
AcDbDictionary
280
     1
281
     1
  3
ACAD_XREC_ROUNDTRIP
360
8C6
  0
DICTIONARY
  5
8C7
330
2B
100
AcDbDictionary
280
     1
281
     1
  3
ACAD_XREC_ROUNDTRIP
360
8C8
  0
DICTIONARY
  5
8C9
330
2C
100
AcDbDictionary
280
     1
281
     1
  3
ACAD_XREC_ROUNDTRIP
360
8CA
  0
DICTIONARY
  5
8CB
330
2D
100
AcDbDictionary
280
     1
281
     1
  3
ACAD_XREC_ROUNDTRIP
360
8CC
  0
DICTIONARY
  5
8D3
330
31
100
AcDbDictionary
280
     1
281
     1
  3
ACAD_XREC_ROUNDTRIP
360
8D4
  0
DICTIONARY
  5
8EF
330
3F
100
AcDbDictionary
280
     1
281
     1
  3
ACAD_XREC_ROUNDTRIP
360
8F0
  0
DICTIONARY
  5
8DF
330
37
100
AcDbDictionary
280
     1
281
     1
  3
ACAD_XREC_ROUNDTRIP
360
8E0
  0
DICTIONARY
  5
8F1
330
40
100
AcDbDictionary
280
     1
281
     1
  3
ACAD_XREC_ROUNDTRIP
360
8F2
  0
DICTIONARY
  5
8D7
330
33
100
AcDbDictionary
280
     1
281
     1
  3
ACAD_XREC_ROUNDTRIP
360
8D8
  0
DICTIONARY
  5
8ED
330
3E
100
AcDbDictionary
280
     1
281
     1
  3
ACAD_XREC_ROUNDTRIP
360
8EE
  0
DICTIONARY
  5
8EB
330
3D
100
AcDbDictionary
280
     1
281
     1
  3
ACAD_XREC_ROUNDTRIP
360
8EC
  0
DICTIONARY
  5
8E5
330
3A
100
AcDbDictionary
280
     1
281
     1
  3
ACAD_XREC_ROUNDTRIP
360
8E6
  0
DICTIONARY
  5
8E7
330
3B
100
AcDbDictionary
280
     1
281
     1
  3
ACAD_XREC_ROUNDTRIP
360
8E8
  0
DICTIONARY
  5
8DD
330
36
100
AcDbDictionary
280
     1
281
     1
  3
ACAD_XREC_ROUNDTRIP
360
8DE
  0
DICTIONARY
  5
8D1
330
30
100
AcDbDictionary
280
     1
281
     1
  3
ACAD_XREC_ROUNDTRIP
360
8D2
  0
DICTIONARY
  5
8E9
330
3C
100
AcDbDictionary
280
     1
281
     1
  3
ACAD_XREC_ROUNDTRIP
360
8EA
  0
XRECORD
  5
8F8
102
{ACAD_REACTORS
330
8F7
102
}
330
8F7
100
AcDbXrecord
280
     1
102
SHADEPLOT
 70
     0
102
SHADEPLOTRESLEVEL
 70
     2
102
SHADEPLOTCUSTOMDPI
 70
   300
  0
XRECORD
  5
8FC
102
{ACAD_REACTORS
330
8FB
102
}
330
8FB
100
AcDbXrecord
280
     1
102
SHADEPLOT
 70
     0
102
SHADEPLOTRESLEVEL
 70
     2
102
SHADEPLOTCUSTOMDPI
 70
   300
  0
XRECORD
  5
8FA
102
{ACAD_REACTORS
330
8F9
102
}
330
8F9
100
AcDbXrecord
280
     1
102
SHADEPLOT
 70
     0
102
SHADEPLOTRESLEVEL
 70
     2
102
SHADEPLOTCUSTOMDPI
 70
   300
  0
XRECORD
  5
8C3
102
{ACAD_REACTORS
330
1A
102
}
330
1A
100
AcDbXrecord
280
     1
102
MATERIAL
148
0.0
149
0.0
149
0.0
 93
        0
 94
      127
282
     0
 72
     0
 77
     0
171
     0
175
     0
179
     0
273
     0
  0
XRECORD
  5
1C
102
{ACAD_REACTORS
330
1A
102
}
330
1A
100
AcDbXrecord
280
     1
270
     1
271
     1
  0
XRECORD
  5
1B
102
{ACAD_REACTORS
330
1A
102
}
330
1A
100
AcDbXrecord
280
     1
270
     1
271
     1
  0
XRECORD
  5
1F
102
{ACAD_REACTORS
330
1A
102
}
330
1A
100
AcDbXrecord
280
     1
270
     1
271
     1
  0
XRECORD
  5
1E
102
{ACAD_REACTORS
330
1A
102
}
330
1A
100
AcDbXrecord
280
     1
270
     1
271
     1
  0
XRECORD
  5
20
102
{ACAD_REACTORS
330
1A
102
}
330
1A
100
AcDbXrecord
280
     1
270
     1
271
     1
  0
XRECORD
  5
1D
102
{ACAD_REACTORS
330
1A
102
}
330
1A
100
AcDbXrecord
280
     1
270
     1
271
     1
  0
XRECORD
  5
8C2
102
{ACAD_REACTORS
330
12
102
}
330
12
100
AcDbXrecord
280
     1
102
MATERIAL
148
0.0
149
0.0
149
0.0
 93
        0
 94
      127
282
     0
 72
     0
 77
     0
171
     0
175
     0
179
     0
273
     0
  0
XRECORD
  5
14
102
{ACAD_REACTORS
330
12
102
}
330
12
100
AcDbXrecord
280
     1
270
     1
271
     1
  0
XRECORD
  5
13
102
{ACAD_REACTORS
330
12
102
}
330
12
100
AcDbXrecord
280
     1
270
     1
271
     1
  0
XRECORD
  5
17
102
{ACAD_REACTORS
330
12
102
}
330
12
100
AcDbXrecord
280
     1
270
     1
271
     1
  0
XRECORD
  5
16
102
{ACAD_REACTORS
330
12
102
}
330
12
100
AcDbXrecord
280
     1
270
     1
271
     1
  0
XRECORD
  5
18
102
{ACAD_REACTORS
330
12
102
}
330
12
100
AcDbXrecord
280
     1
270
     1
271
     1
  0
XRECORD
  5
15
102
{ACAD_REACTORS
330
12
102
}
330
12
100
AcDbXrecord
280
     1
270
     1
271
     1
  0
XRECORD
  5
8C4
102
{ACAD_REACTORS
330
22
102
}
330
22
100
AcDbXrecord
280
     1
102
MATERIAL
148
0.0
149
0.0
149
0.0
 93
        0
 94
      127
282
     0
 72
     0
 77
     0
171
     0
175
     0
179
     0
273
     0
  0
XRECORD
  5
24
102
{ACAD_REACTORS
330
22
102
}
330
22
100
AcDbXrecord
280
     1
270
     1
271
     1
  0
XRECORD
  5
23
102
{ACAD_REACTORS
330
22
102
}
330
22
100
AcDbXrecord
280
     1
270
     1
271
     1
  0
XRECORD
  5
27
102
{ACAD_REACTORS
330
22
102
}
330
22
100
AcDbXrecord
280
     1
270
     1
271
     1
  0
XRECORD
  5
26
102
{ACAD_REACTORS
330
22
102
}
330
22
100
AcDbXrecord
280
     1
270
     1
271
     1
  0
XRECORD
  5
28
102
{ACAD_REACTORS
330
22
102
}
330
22
100
AcDbXrecord
280
     1
270
     1
271
     1
  0
XRECORD
  5
25
102
{ACAD_REACTORS
330
22
102
}
330
22
100
AcDbXrecord
280
     1
270
     1
271
     1
  0
CELLSTYLEMAP
  5
88E
102
{ACAD_REACTORS
330
88D
102
}
330
88D
100
AcDbCellStyleMap
 90
        3
300
CELLSTYLE
  1
TABLEFORMAT_BEGIN
 90
        5
170
     1
 91
        0
 92
    32768
 62
   257
 93
        1
300
CONTENTFORMAT
  1
CONTENTFORMAT_BEGIN
 90
        0
 91
        0
 92
      512
 93
        0
300

 40
0.0
140
1.0
 94
        5
 62
     0
340
55
144
0.25
309
CONTENTFORMAT_END
171
     0
 94
        0
309
TABLEFORMAT_END
  1
CELLSTYLE_BEGIN
 90
        1
 91
        1
300
_TITLE
309
CELLSTYLE_END
300
CELLSTYLE
  1
TABLEFORMAT_BEGIN
 90
        5
170
     1
 91
        0
 92
        0
 62
   257
 93
        1
300
CONTENTFORMAT
  1
CONTENTFORMAT_BEGIN
 90
        0
 91
        0
 92
      512
 93
        0
300

 40
0.0
140
1.0
 94
        5
 62
     0
340
55
144
0.18
309
CONTENTFORMAT_END
171
     0
 94
        0
309
TABLEFORMAT_END
  1
CELLSTYLE_BEGIN
 90
        2
 91
        1
300
_HEADER
309
CELLSTYLE_END
300
CELLSTYLE
  1
TABLEFORMAT_BEGIN
 90
        5
170
     1
 91
        0
 92
        0
 62
   257
 93
        1
300
CONTENTFORMAT
  1
CONTENTFORMAT_BEGIN
 90
        0
 91
        0
 92
      512
 93
        0
300

 40
0.0
140
1.0
 94
        2
 62
     0
340
55
144
0.18
309
CONTENTFORMAT_END
171
     0
 94
        0
309
TABLEFORMAT_END
  1
CELLSTYLE_BEGIN
 90
        3
 91
        2
300
_DATA
309
CELLSTYLE_END
  0
XRECORD
  5
8F5
102
{ACAD_REACTORS
330
88D
102
}
330
88D
100
AcDbXrecord
280
     1
102
ACAD_ROUNDTRIP_PRE2007_TABLESTYLE
 90
      512
 91
        0
  1

 92
      512
 93
        0
  2

 94
      512
 95
        0
  3

  0
XRECORD
  5
8D0
102
{ACAD_REACTORS
330
8CF
102
}
330
8CF
100
AcDbXrecord
280
     1
102
RTVSPropertyOp0
 70
     1
102
RTVSPropertyOp1
 70
     1
102
RTVSPropertyOp2
 70
     1
102
RTVSPropertyOp3
 70
     1
102
RTVSPropertyOp4
 70
     1
102
RTVSPropertyOp5
 70
     1
102
RTVSPropertyOp6
 70
     1
102
RTVSPropertyOp7
 70
     1
102
RTVSPropertyOp8
 70
     1
102
RTVSPropertyOp9
 70
     1
102
RTVSPropertyOp10
 70
     1
102
RTVSPropertyOp11
 70
     1
102
RTVSPropertyOp12
 70
     1
102
RTVSPropertyOp13
 70
     1
102
RTVSPropertyOp14
 70
     1
102
RTVSPropertyOp15
 70
     1
102
RTVSPropertyOp16
 70
     1
102
RTVSPropertyOp17
 70
     1
102
RTVSPropertyOp18
 70
     1
102
RTVSPropertyOp19
 70
     1
102
RTVSPropertyOp20
 70
     1
102
RTVSPropertyOp21
 70
     1
102
RTVSPropertyOp22
 70
     1
102
RTVSPropertyOp23
 70
     1
102
RTVSPropertyOp24
 70
     1
102
RTVSPropertyOp25
 70
     1
102
RTVSPropertyOp26
 70
     1
102
RTVSPropertyOp27
 70
     1
102
RTVSPropertyOp28
 70
     1
102
RTVSPropertyOp29
 70
     1
102
RTVSPropertyOp30
 70
     1
102
RTVSPropertyOp31
 70
     1
102
RTVSPropertyOp32
 70
     1
  0
XRECORD
  5
8CE
102
{ACAD_REACTORS
330
8CD
102
}
330
8CD
100
AcDbXrecord
280
     1
102
RTVSPropertyOp0
 70
     1
102
RTVSPropertyOp1
 70
     1
102
RTVSPropertyOp2
 70
     1
102
RTVSPropertyOp3
 70
     1
102
RTVSPropertyOp4
 70
     1
102
RTVSPropertyOp5
 70
     1
102
RTVSPropertyOp6
 70
     1
102
RTVSPropertyOp7
 70
     1
102
RTVSPropertyOp8
 70
     1
102
RTVSPropertyOp9
 70
     1
102
RTVSPropertyOp10
 70
     1
102
RTVSPropertyOp11
 70
     1
102
RTVSPropertyOp12
 70
     1
102
RTVSPropertyOp13
 70
     1
102
RTVSPropertyOp14
 70
     1
102
RTVSPropertyOp15
 70
     1
102
RTVSPropertyOp16
 70
     1
102
RTVSPropertyOp17
 70
     1
102
RTVSPropertyOp18
 70
     1
102
RTVSPropertyOp19
 70
     1
102
RTVSPropertyOp20
 70
     1
102
RTVSPropertyOp21
 70
     1
102
RTVSPropertyOp22
 70
     1
102
RTVSPropertyOp23
 70
     1
102
RTVSPropertyOp24
 70
     1
102
RTVSPropertyOp25
 70
     1
102
RTVSPropertyOp26
 70
     1
102
RTVSPropertyOp27
 70
     1
102
RTVSPropertyOp28
 70
     1
102
RTVSPropertyOp29
 70
     1
102
RTVSPropertyOp30
 70
     1
102
RTVSPropertyOp31
 70
     1
102
RTVSPropertyOp32
 70
     1
  0
XRECORD
  5
8DC
102
{ACAD_REACTORS
330
8DB
102
}
330
8DB
100
AcDbXrecord
280
     1
102
RTVSPropertyOp0
 70
     1
102
RTVSPropertyOp1
 70
     1
102
RTVSPropertyOp2
 70
     1
102
RTVSPropertyOp3
 70
     1
102
RTVSPropertyOp4
 70
     1
102
RTVSPropertyOp5
 70
     1
102
RTVSPropertyOp6
 70
     1
102
RTVSPropertyOp7
 70
     1
102
RTVSPropertyOp8
 70
     1
102
RTVSPropertyOp9
 70
     1
102
RTVSPropertyOp10
 70
     1
102
RTVSPropertyOp11
 70
     1
102
RTVSPropertyOp12
 70
     1
102
RTVSPropertyOp13
 70
     1
102
RTVSPropertyOp14
 70
     1
102
RTVSPropertyOp15
 70
     1
102
RTVSPropertyOp16
 70
     1
102
RTVSPropertyOp17
 70
     1
102
RTVSPropertyOp18
 70
     1
102
RTVSPropertyOp19
 70
     1
102
RTVSPropertyOp20
 70
     1
102
RTVSPropertyOp21
 70
     1
102
RTVSPropertyOp22
 70
     1
102
RTVSPropertyOp23
 70
     1
102
RTVSPropertyOp24
 70
     1
102
RTVSPropertyOp25
 70
     1
102
RTVSPropertyOp26
 70
     1
102
RTVSPropertyOp27
 70
     1
102
RTVSPropertyOp28
 70
     1
102
RTVSPropertyOp29
 70
     1
102
RTVSPropertyOp30
 70
     1
102
RTVSPropertyOp31
 70
     1
102
RTVSPropertyOp32
 70
     1
  0
XRECORD
  5
8E4
102
{ACAD_REACTORS
330
8E3
102
}
330
8E3
100
AcDbXrecord
280
     1
102
RTVSPropertyOp0
 70
     1
102
RTVSPropertyOp1
 70
     1
102
RTVSPropertyOp2
 70
     1
102
RTVSPropertyOp3
 70
     1
102
RTVSPropertyOp4
 70
     1
102
RTVSPropertyOp5
 70
     1
102
RTVSPropertyOp6
 70
     1
102
RTVSPropertyOp7
 70
     1
102
RTVSPropertyOp8
 70
     1
102
RTVSPropertyOp9
 70
     1
102
RTVSPropertyOp10
 70
     1
102
RTVSPropertyOp11
 70
     1
102
RTVSPropertyOp12
 70
     1
102
RTVSPropertyOp13
 70
     1
102
RTVSPropertyOp14
 70
     1
102
RTVSPropertyOp15
 70
     1
102
RTVSPropertyOp16
 70
     1
102
RTVSPropertyOp17
 70
     1
102
RTVSPropertyOp18
 70
     1
102
RTVSPropertyOp19
 70
     1
102
RTVSPropertyOp20
 70
     1
102
RTVSPropertyOp21
 70
     1
102
RTVSPropertyOp22
 70
     1
102
RTVSPropertyOp23
 70
     1
102
RTVSPropertyOp24
 70
     1
102
RTVSPropertyOp25
 70
     1
102
RTVSPropertyOp26
 70
     1
102
RTVSPropertyOp27
 70
     1
102
RTVSPropertyOp28
 70
     1
102
RTVSPropertyOp29
 70
     1
102
RTVSPropertyOp30
 70
     1
102
RTVSPropertyOp31
 70
     1
102
RTVSPropertyOp32
 70
     1
  0
XRECORD
  5
8D6
102
{ACAD_REACTORS
330
8D5
102
}
330
8D5
100
AcDbXrecord
280
     1
102
RTVSPropertyOp0
 70
     1
102
RTVSPropertyOp1
 70
     1
102
RTVSPropertyOp2
 70
     1
102
RTVSPropertyOp3
 70
     1
102
RTVSPropertyOp4
 70
     1
102
RTVSPropertyOp5
 70
     1
102
RTVSPropertyOp6
 70
     1
102
RTVSPropertyOp7
 70
     1
102
RTVSPropertyOp8
 70
     1
102
RTVSPropertyOp9
 70
     1
102
RTVSPropertyOp10
 70
     1
102
RTVSPropertyOp11
 70
     1
102
RTVSPropertyOp12
 70
     1
102
RTVSPropertyOp13
 70
     1
102
RTVSPropertyOp14
 70
     1
102
RTVSPropertyOp15
 70
     1
102
RTVSPropertyOp16
 70
     1
102
RTVSPropertyOp17
 70
     1
102
RTVSPropertyOp18
 70
     1
102
RTVSPropertyOp19
 70
     1
102
RTVSPropertyOp20
 70
     1
102
RTVSPropertyOp21
 70
     1
102
RTVSPropertyOp22
 70
     1
102
RTVSPropertyOp23
 70
     1
102
RTVSPropertyOp24
 70
     1
102
RTVSPropertyOp25
 70
     1
102
RTVSPropertyOp26
 70
     1
102
RTVSPropertyOp27
 70
     1
102
RTVSPropertyOp28
 70
     1
102
RTVSPropertyOp29
 70
     1
102
RTVSPropertyOp30
 70
     1
102
RTVSPropertyOp31
 70
     1
102
RTVSPropertyOp32
 70
     1
  0
XRECORD
  5
8DA
102
{ACAD_REACTORS
330
8D9
102
}
330
8D9
100
AcDbXrecord
280
     1
102
RTVSPropertyOp0
 70
     1
102
RTVSPropertyOp1
 70
     1
102
RTVSPropertyOp2
 70
     1
102
RTVSPropertyOp3
 70
     1
102
RTVSPropertyOp4
 70
     1
102
RTVSPropertyOp5
 70
     1
102
RTVSPropertyOp6
 70
     1
102
RTVSPropertyOp7
 70
     1
102
RTVSPropertyOp8
 70
     1
102
RTVSPropertyOp9
 70
     1
102
RTVSPropertyOp10
 70
     1
102
RTVSPropertyOp11
 70
     1
102
RTVSPropertyOp12
 70
     1
102
RTVSPropertyOp13
 70
     1
102
RTVSPropertyOp14
 70
     1
102
RTVSPropertyOp15
 70
     1
102
RTVSPropertyOp16
 70
     1
102
RTVSPropertyOp17
 70
     1
102
RTVSPropertyOp18
 70
     1
102
RTVSPropertyOp19
 70
     1
102
RTVSPropertyOp20
 70
     1
102
RTVSPropertyOp21
 70
     1
102
RTVSPropertyOp22
 70
     1
102
RTVSPropertyOp23
 70
     1
102
RTVSPropertyOp24
 70
     1
102
RTVSPropertyOp25
 70
     1
102
RTVSPropertyOp26
 70
     1
102
RTVSPropertyOp27
 70
     1
102
RTVSPropertyOp28
 70
     1
102
RTVSPropertyOp29
 70
     1
102
RTVSPropertyOp30
 70
     1
102
RTVSPropertyOp31
 70
     1
102
RTVSPropertyOp32
 70
     1
  0
XRECORD
  5
8F4
102
{ACAD_REACTORS
330
8F3
102
}
330
8F3
100
AcDbXrecord
280
     1
102
RTVSPropertyOp0
 70
     0
102
RTVSPropertyOp1
 70
     0
102
RTVSPropertyOp2
 70
     0
102
RTVSPropertyOp3
 70
     0
102
RTVSPropertyOp4
 70
     0
102
RTVSPropertyOp5
 70
     0
102
RTVSPropertyOp6
 70
     0
102
RTVSPropertyOp7
 70
     0
102
RTVSPropertyOp8
 70
     0
102
RTVSPropertyOp9
 70
     0
102
RTVSPropertyOp10
 70
     0
102
RTVSPropertyOp11
 70
     0
102
RTVSPropertyOp12
 70
     0
102
RTVSPropertyOp13
 70
     0
102
RTVSPropertyOp14
 70
     2
102
RTVSPropertyOp15
 70
     0
102
RTVSPropertyOp16
 70
     0
102
RTVSPropertyOp17
 70
     0
102
RTVSPropertyOp18
 70
     0
102
RTVSPropertyOp19
 70
     0
102
RTVSPropertyOp20
 70
     0
102
RTVSPropertyOp21
 70
     0
102
RTVSPropertyOp22
 70
     0
102
RTVSPropertyOp23
 70
     0
102
RTVSPropertyOp24
 70
     0
102
RTVSPropertyOp25
 70
     0
102
RTVSPropertyOp26
 70
     0
102
RTVSPropertyOp27
 70
     0
102
RTVSPropertyOp28
 70
     0
102
RTVSPropertyOp29
 70
     0
102
RTVSPropertyOp30
 70
     0
102
RTVSPropertyOp31
 70
     0
102
RTVSPropertyOp32
 70
     0
  0
XRECORD
  5
8E2
102
{ACAD_REACTORS
330
8E1
102
}
330
8E1
100
AcDbXrecord
280
     1
102
RTVSPropertyOp0
 70
     1
102
RTVSPropertyOp1
 70
     1
102
RTVSPropertyOp2
 70
     1
102
RTVSPropertyOp3
 70
     1
102
RTVSPropertyOp4
 70
     1
102
RTVSPropertyOp5
 70
     1
102
RTVSPropertyOp6
 70
     1
102
RTVSPropertyOp7
 70
     1
102
RTVSPropertyOp8
 70
     1
102
RTVSPropertyOp9
 70
     1
102
RTVSPropertyOp10
 70
     1
102
RTVSPropertyOp11
 70
     1
102
RTVSPropertyOp12
 70
     1
102
RTVSPropertyOp13
 70
     1
102
RTVSPropertyOp14
 70
     1
102
RTVSPropertyOp15
 70
     1
102
RTVSPropertyOp16
 70
     1
102
RTVSPropertyOp17
 70
     1
102
RTVSPropertyOp18
 70
     1
102
RTVSPropertyOp19
 70
     1
102
RTVSPropertyOp20
 70
     1
102
RTVSPropertyOp21
 70
     1
102
RTVSPropertyOp22
 70
     1
102
RTVSPropertyOp23
 70
     1
102
RTVSPropertyOp24
 70
     1
102
RTVSPropertyOp25
 70
     1
102
RTVSPropertyOp26
 70
     1
102
RTVSPropertyOp27
 70
     1
102
RTVSPropertyOp28
 70
     1
102
RTVSPropertyOp29
 70
     1
102
RTVSPropertyOp30
 70
     1
102
RTVSPropertyOp31
 70
     1
102
RTVSPropertyOp32
 70
     1
  0
XRECORD
  5
8C6
102
{ACAD_REACTORS
330
8C5
102
}
330
8C5
100
AcDbXrecord
280
     1
102
RTVSPropertyOp0
 70
     1
102
RTVSPropertyOp1
 70
     1
102
RTVSPropertyOp2
 70
     1
102
RTVSPropertyOp3
 70
     1
102
RTVSPropertyOp4
 70
     1
102
RTVSPropertyOp5
 70
     1
102
RTVSPropertyOp6
 70
     1
102
RTVSPropertyOp7
 70
     1
102
RTVSPropertyOp8
 70
     1
102
RTVSPropertyOp9
 70
     1
102
RTVSPropertyOp10
 70
     1
102
RTVSPropertyOp11
 70
     1
102
RTVSPropertyOp12
 70
     1
102
RTVSPropertyOp13
 70
     1
102
RTVSPropertyOp14
 70
     1
102
RTVSPropertyOp15
 70
     1
102
RTVSPropertyOp16
 70
     1
102
RTVSPropertyOp17
 70
     1
102
RTVSPropertyOp18
 70
     1
102
RTVSPropertyOp19
 70
     1
102
RTVSPropertyOp20
 70
     1
102
RTVSPropertyOp21
 70
     1
102
RTVSPropertyOp22
 70
     1
102
RTVSPropertyOp23
 70
     1
102
RTVSPropertyOp24
 70
     1
102
RTVSPropertyOp25
 70
     1
102
RTVSPropertyOp26
 70
     1
102
RTVSPropertyOp27
 70
     1
102
RTVSPropertyOp28
 70
     1
102
RTVSPropertyOp29
 70
     1
102
RTVSPropertyOp30
 70
     1
102
RTVSPropertyOp31
 70
     1
102
RTVSPropertyOp32
 70
     1
  0
XRECORD
  5
8C8
102
{ACAD_REACTORS
330
8C7
102
}
330
8C7
100
AcDbXrecord
280
     1
102
RTVSPropertyOp0
 70
     1
102
RTVSPropertyOp1
 70
     1
102
RTVSPropertyOp2
 70
     1
102
RTVSPropertyOp3
 70
     1
102
RTVSPropertyOp4
 70
     1
102
RTVSPropertyOp5
 70
     1
102
RTVSPropertyOp6
 70
     1
102
RTVSPropertyOp7
 70
     1
102
RTVSPropertyOp8
 70
     1
102
RTVSPropertyOp9
 70
     1
102
RTVSPropertyOp10
 70
     1
102
RTVSPropertyOp11
 70
     1
102
RTVSPropertyOp12
 70
     1
102
RTVSPropertyOp13
 70
     1
102
RTVSPropertyOp14
 70
     1
102
RTVSPropertyOp15
 70
     1
102
RTVSPropertyOp16
 70
     1
102
RTVSPropertyOp17
 70
     1
102
RTVSPropertyOp18
 70
     1
102
RTVSPropertyOp19
 70
     1
102
RTVSPropertyOp20
 70
     1
102
RTVSPropertyOp21
 70
     1
102
RTVSPropertyOp22
 70
     1
102
RTVSPropertyOp23
 70
     1
102
RTVSPropertyOp24
 70
     1
102
RTVSPropertyOp25
 70
     1
102
RTVSPropertyOp26
 70
     1
102
RTVSPropertyOp27
 70
     1
102
RTVSPropertyOp28
 70
     1
102
RTVSPropertyOp29
 70
     1
102
RTVSPropertyOp30
 70
     1
102
RTVSPropertyOp31
 70
     1
102
RTVSPropertyOp32
 70
     1
  0
XRECORD
  5
8CA
102
{ACAD_REACTORS
330
8C9
102
}
330
8C9
100
AcDbXrecord
280
     1
102
RTVSPropertyOp0
 70
     1
102
RTVSPropertyOp1
 70
     1
102
RTVSPropertyOp2
 70
     1
102
RTVSPropertyOp3
 70
     1
102
RTVSPropertyOp4
 70
     1
102
RTVSPropertyOp5
 70
     1
102
RTVSPropertyOp6
 70
     1
102
RTVSPropertyOp7
 70
     1
102
RTVSPropertyOp8
 70
     1
102
RTVSPropertyOp9
 70
     1
102
RTVSPropertyOp10
 70
     1
102
RTVSPropertyOp11
 70
     1
102
RTVSPropertyOp12
 70
     1
102
RTVSPropertyOp13
 70
     1
102
RTVSPropertyOp14
 70
     1
102
RTVSPropertyOp15
 70
     1
102
RTVSPropertyOp16
 70
     1
102
RTVSPropertyOp17
 70
     1
102
RTVSPropertyOp18
 70
     1
102
RTVSPropertyOp19
 70
     1
102
RTVSPropertyOp20
 70
     1
102
RTVSPropertyOp21
 70
     1
102
RTVSPropertyOp22
 70
     1
102
RTVSPropertyOp23
 70
     1
102
RTVSPropertyOp24
 70
     1
102
RTVSPropertyOp25
 70
     1
102
RTVSPropertyOp26
 70
     1
102
RTVSPropertyOp27
 70
     1
102
RTVSPropertyOp28
 70
     1
102
RTVSPropertyOp29
 70
     1
102
RTVSPropertyOp30
 70
     1
102
RTVSPropertyOp31
 70
     1
102
RTVSPropertyOp32
 70
     1
  0
XRECORD
  5
8CC
102
{ACAD_REACTORS
330
8CB
102
}
330
8CB
100
AcDbXrecord
280
     1
102
RTVSPropertyOp0
 70
     1
102
RTVSPropertyOp1
 70
     1
102
RTVSPropertyOp2
 70
     1
102
RTVSPropertyOp3
 70
     1
102
RTVSPropertyOp4
 70
     1
102
RTVSPropertyOp5
 70
     1
102
RTVSPropertyOp6
 70
     1
102
RTVSPropertyOp7
 70
     1
102
RTVSPropertyOp8
 70
     1
102
RTVSPropertyOp9
 70
     1
102
RTVSPropertyOp10
 70
     1
102
RTVSPropertyOp11
 70
     1
102
RTVSPropertyOp12
 70
     1
102
RTVSPropertyOp13
 70
     1
102
RTVSPropertyOp14
 70
     1
102
RTVSPropertyOp15
 70
     1
102
RTVSPropertyOp16
 70
     1
102
RTVSPropertyOp17
 70
     1
102
RTVSPropertyOp18
 70
     1
102
RTVSPropertyOp19
 70
     1
102
RTVSPropertyOp20
 70
     1
102
RTVSPropertyOp21
 70
     1
102
RTVSPropertyOp22
 70
     1
102
RTVSPropertyOp23
 70
     1
102
RTVSPropertyOp24
 70
     1
102
RTVSPropertyOp25
 70
     1
102
RTVSPropertyOp26
 70
     1
102
RTVSPropertyOp27
 70
     1
102
RTVSPropertyOp28
 70
     1
102
RTVSPropertyOp29
 70
     1
102
RTVSPropertyOp30
 70
     1
102
RTVSPropertyOp31
 70
     1
102
RTVSPropertyOp32
 70
     1
  0
XRECORD
  5
8D4
102
{ACAD_REACTORS
330
8D3
102
}
330
8D3
100
AcDbXrecord
280
     1
102
RTVSPropertyOp0
 70
     1
102
RTVSPropertyOp1
 70
     1
102
RTVSPropertyOp2
 70
     1
102
RTVSPropertyOp3
 70
     1
102
RTVSPropertyOp4
 70
     1
102
RTVSPropertyOp5
 70
     1
102
RTVSPropertyOp6
 70
     1
102
RTVSPropertyOp7
 70
     1
102
RTVSPropertyOp8
 70
     1
102
RTVSPropertyOp9
 70
     1
102
RTVSPropertyOp10
 70
     1
102
RTVSPropertyOp11
 70
     1
102
RTVSPropertyOp12
 70
     1
102
RTVSPropertyOp13
 70
     1
102
RTVSPropertyOp14
 70
     1
102
RTVSPropertyOp15
 70
     1
102
RTVSPropertyOp16
 70
     1
102
RTVSPropertyOp17
 70
     1
102
RTVSPropertyOp18
 70
     1
102
RTVSPropertyOp19
 70
     1
102
RTVSPropertyOp20
 70
     1
102
RTVSPropertyOp21
 70
     1
102
RTVSPropertyOp22
 70
     1
102
RTVSPropertyOp23
 70
     1
102
RTVSPropertyOp24
 70
     1
102
RTVSPropertyOp25
 70
     1
102
RTVSPropertyOp26
 70
     1
102
RTVSPropertyOp27
 70
     1
102
RTVSPropertyOp28
 70
     1
102
RTVSPropertyOp29
 70
     1
102
RTVSPropertyOp30
 70
     1
102
RTVSPropertyOp31
 70
     1
102
RTVSPropertyOp32
 70
     1
  0
XRECORD
  5
8F0
102
{ACAD_REACTORS
330
8EF
102
}
330
8EF
100
AcDbXrecord
280
     1
102
RTVSPropertyOp0
 70
     0
102
RTVSPropertyOp1
 70
     0
102
RTVSPropertyOp2
 70
     0
102
RTVSPropertyOp3
 70
     0
102
RTVSPropertyOp4
 70
     0
102
RTVSPropertyOp5
 70
     0
102
RTVSPropertyOp6
 70
     0
102
RTVSPropertyOp7
 70
     0
102
RTVSPropertyOp8
 70
     0
102
RTVSPropertyOp9
 70
     0
102
RTVSPropertyOp10
 70
     0
102
RTVSPropertyOp11
 70
     0
102
RTVSPropertyOp12
 70
     0
102
RTVSPropertyOp13
 70
     0
102
RTVSPropertyOp14
 70
     2
102
RTVSPropertyOp15
 70
     0
102
RTVSPropertyOp16
 70
     0
102
RTVSPropertyOp17
 70
     0
102
RTVSPropertyOp18
 70
     0
102
RTVSPropertyOp19
 70
     0
102
RTVSPropertyOp20
 70
     0
102
RTVSPropertyOp21
 70
     0
102
RTVSPropertyOp22
 70
     0
102
RTVSPropertyOp23
 70
     0
102
RTVSPropertyOp24
 70
     0
102
RTVSPropertyOp25
 70
     0
102
RTVSPropertyOp26
 70
     0
102
RTVSPropertyOp27
 70
     0
102
RTVSPropertyOp28
 70
     0
102
RTVSPropertyOp29
 70
     0
102
RTVSPropertyOp30
 70
     0
102
RTVSPropertyOp31
 70
     0
102
RTVSPropertyOp32
 70
     0
  0
XRECORD
  5
8E0
102
{ACAD_REACTORS
330
8DF
102
}
330
8DF
100
AcDbXrecord
280
     1
102
RTVSPropertyOp0
 70
     1
102
RTVSPropertyOp1
 70
     1
102
RTVSPropertyOp2
 70
     1
102
RTVSPropertyOp3
 70
     1
102
RTVSPropertyOp4
 70
     1
102
RTVSPropertyOp5
 70
     1
102
RTVSPropertyOp6
 70
     1
102
RTVSPropertyOp7
 70
     1
102
RTVSPropertyOp8
 70
     1
102
RTVSPropertyOp9
 70
     1
102
RTVSPropertyOp10
 70
     1
102
RTVSPropertyOp11
 70
     1
102
RTVSPropertyOp12
 70
     1
102
RTVSPropertyOp13
 70
     1
102
RTVSPropertyOp14
 70
     1
102
RTVSPropertyOp15
 70
     1
102
RTVSPropertyOp16
 70
     1
102
RTVSPropertyOp17
 70
     1
102
RTVSPropertyOp18
 70
     1
102
RTVSPropertyOp19
 70
     1
102
RTVSPropertyOp20
 70
     1
102
RTVSPropertyOp21
 70
     1
102
RTVSPropertyOp22
 70
     1
102
RTVSPropertyOp23
 70
     1
102
RTVSPropertyOp24
 70
     1
102
RTVSPropertyOp25
 70
     1
102
RTVSPropertyOp26
 70
     1
102
RTVSPropertyOp27
 70
     1
102
RTVSPropertyOp28
 70
     1
102
RTVSPropertyOp29
 70
     1
102
RTVSPropertyOp30
 70
     1
102
RTVSPropertyOp31
 70
     1
102
RTVSPropertyOp32
 70
     1
  0
XRECORD
  5
8F2
102
{ACAD_REACTORS
330
8F1
102
}
330
8F1
100
AcDbXrecord
280
     1
102
RTVSPropertyOp0
 70
     0
102
RTVSPropertyOp1
 70
     0
102
RTVSPropertyOp2
 70
     0
102
RTVSPropertyOp3
 70
     0
102
RTVSPropertyOp4
 70
     0
102
RTVSPropertyOp5
 70
     0
102
RTVSPropertyOp6
 70
     0
102
RTVSPropertyOp7
 70
     0
102
RTVSPropertyOp8
 70
     0
102
RTVSPropertyOp9
 70
     0
102
RTVSPropertyOp10
 70
     0
102
RTVSPropertyOp11
 70
     0
102
RTVSPropertyOp12
 70
     0
102
RTVSPropertyOp13
 70
     0
102
RTVSPropertyOp14
 70
     2
102
RTVSPropertyOp15
 70
     0
102
RTVSPropertyOp16
 70
     0
102
RTVSPropertyOp17
 70
     0
102
RTVSPropertyOp18
 70
     0
102
RTVSPropertyOp19
 70
     0
102
RTVSPropertyOp20
 70
     0
102
RTVSPropertyOp21
 70
     0
102
RTVSPropertyOp22
 70
     0
102
RTVSPropertyOp23
 70
     0
102
RTVSPropertyOp24
 70
     0
102
RTVSPropertyOp25
 70
     0
102
RTVSPropertyOp26
 70
     0
102
RTVSPropertyOp27
 70
     0
102
RTVSPropertyOp28
 70
     0
102
RTVSPropertyOp29
 70
     0
102
RTVSPropertyOp30
 70
     0
102
RTVSPropertyOp31
 70
     0
102
RTVSPropertyOp32
 70
     0
  0
XRECORD
  5
8D8
102
{ACAD_REACTORS
330
8D7
102
}
330
8D7
100
AcDbXrecord
280
     1
102
RTVSPropertyOp0
 70
     1
102
RTVSPropertyOp1
 70
     1
102
RTVSPropertyOp2
 70
     1
102
RTVSPropertyOp3
 70
     1
102
RTVSPropertyOp4
 70
     1
102
RTVSPropertyOp5
 70
     1
102
RTVSPropertyOp6
 70
     1
102
RTVSPropertyOp7
 70
     1
102
RTVSPropertyOp8
 70
     1
102
RTVSPropertyOp9
 70
     1
102
RTVSPropertyOp10
 70
     1
102
RTVSPropertyOp11
 70
     1
102
RTVSPropertyOp12
 70
     1
102
RTVSPropertyOp13
 70
     1
102
RTVSPropertyOp14
 70
     1
102
RTVSPropertyOp15
 70
     1
102
RTVSPropertyOp16
 70
     1
102
RTVSPropertyOp17
 70
     1
102
RTVSPropertyOp18
 70
     1
102
RTVSPropertyOp19
 70
     1
102
RTVSPropertyOp20
 70
     1
102
RTVSPropertyOp21
 70
     1
102
RTVSPropertyOp22
 70
     1
102
RTVSPropertyOp23
 70
     1
102
RTVSPropertyOp24
 70
     1
102
RTVSPropertyOp25
 70
     1
102
RTVSPropertyOp26
 70
     1
102
RTVSPropertyOp27
 70
     1
102
RTVSPropertyOp28
 70
     1
102
RTVSPropertyOp29
 70
     1
102
RTVSPropertyOp30
 70
     1
102
RTVSPropertyOp31
 70
     1
102
RTVSPropertyOp32
 70
     1
  0
XRECORD
  5
8EE
102
{ACAD_REACTORS
330
8ED
102
}
330
8ED
100
AcDbXrecord
280
     1
102
RTVSPropertyOp0
 70
     1
102
RTVSPropertyOp1
 70
     1
102
RTVSPropertyOp2
 70
     1
102
RTVSPropertyOp3
 70
     1
102
RTVSPropertyOp4
 70
     1
102
RTVSPropertyOp5
 70
     1
102
RTVSPropertyOp6
 70
     1
102
RTVSPropertyOp7
 70
     1
102
RTVSPropertyOp8
 70
     1
102
RTVSPropertyOp9
 70
     1
102
RTVSPropertyOp10
 70
     1
102
RTVSPropertyOp11
 70
     1
102
RTVSPropertyOp12
 70
     1
102
RTVSPropertyOp13
 70
     1
102
RTVSPropertyOp14
 70
     1
102
RTVSPropertyOp15
 70
     1
102
RTVSPropertyOp16
 70
     1
102
RTVSPropertyOp17
 70
     1
102
RTVSPropertyOp18
 70
     1
102
RTVSPropertyOp19
 70
     1
102
RTVSPropertyOp20
 70
     1
102
RTVSPropertyOp21
 70
     1
102
RTVSPropertyOp22
 70
     1
102
RTVSPropertyOp23
 70
     1
102
RTVSPropertyOp24
 70
     1
102
RTVSPropertyOp25
 70
     1
102
RTVSPropertyOp26
 70
     1
102
RTVSPropertyOp27
 70
     1
102
RTVSPropertyOp28
 70
     1
102
RTVSPropertyOp29
 70
     1
102
RTVSPropertyOp30
 70
     1
102
RTVSPropertyOp31
 70
     1
102
RTVSPropertyOp32
 70
     1
  0
XRECORD
  5
8EC
102
{ACAD_REACTORS
330
8EB
102
}
330
8EB
100
AcDbXrecord
280
     1
102
RTVSPropertyOp0
 70
     1
102
RTVSPropertyOp1
 70
     1
102
RTVSPropertyOp2
 70
     1
102
RTVSPropertyOp3
 70
     1
102
RTVSPropertyOp4
 70
     1
102
RTVSPropertyOp5
 70
     1
102
RTVSPropertyOp6
 70
     1
102
RTVSPropertyOp7
 70
     1
102
RTVSPropertyOp8
 70
     1
102
RTVSPropertyOp9
 70
     1
102
RTVSPropertyOp10
 70
     1
102
RTVSPropertyOp11
 70
     1
102
RTVSPropertyOp12
 70
     1
102
RTVSPropertyOp13
 70
     1
102
RTVSPropertyOp14
 70
     1
102
RTVSPropertyOp15
 70
     1
102
RTVSPropertyOp16
 70
     1
102
RTVSPropertyOp17
 70
     1
102
RTVSPropertyOp18
 70
     1
102
RTVSPropertyOp19
 70
     1
102
RTVSPropertyOp20
 70
     1
102
RTVSPropertyOp21
 70
     1
102
RTVSPropertyOp22
 70
     1
102
RTVSPropertyOp23
 70
     1
102
RTVSPropertyOp24
 70
     1
102
RTVSPropertyOp25
 70
     1
102
RTVSPropertyOp26
 70
     1
102
RTVSPropertyOp27
 70
     1
102
RTVSPropertyOp28
 70
     1
102
RTVSPropertyOp29
 70
     1
102
RTVSPropertyOp30
 70
     1
102
RTVSPropertyOp31
 70
     1
102
RTVSPropertyOp32
 70
     1
  0
XRECORD
  5
8E6
102
{ACAD_REACTORS
330
8E5
102
}
330
8E5
100
AcDbXrecord
280
     1
102
RTVSPropertyOp0
 70
     1
102
RTVSPropertyOp1
 70
     1
102
RTVSPropertyOp2
 70
     1
102
RTVSPropertyOp3
 70
     1
102
RTVSPropertyOp4
 70
     1
102
RTVSPropertyOp5
 70
     1
102
RTVSPropertyOp6
 70
     1
102
RTVSPropertyOp7
 70
     1
102
RTVSPropertyOp8
 70
     1
102
RTVSPropertyOp9
 70
     1
102
RTVSPropertyOp10
 70
     1
102
RTVSPropertyOp11
 70
     1
102
RTVSPropertyOp12
 70
     1
102
RTVSPropertyOp13
 70
     1
102
RTVSPropertyOp14
 70
     1
102
RTVSPropertyOp15
 70
     1
102
RTVSPropertyOp16
 70
     1
102
RTVSPropertyOp17
 70
     1
102
RTVSPropertyOp18
 70
     1
102
RTVSPropertyOp19
 70
     1
102
RTVSPropertyOp20
 70
     1
102
RTVSPropertyOp21
 70
     1
102
RTVSPropertyOp22
 70
     1
102
RTVSPropertyOp23
 70
     1
102
RTVSPropertyOp24
 70
     1
102
RTVSPropertyOp25
 70
     1
102
RTVSPropertyOp26
 70
     1
102
RTVSPropertyOp27
 70
     1
102
RTVSPropertyOp28
 70
     1
102
RTVSPropertyOp29
 70
     1
102
RTVSPropertyOp30
 70
     1
102
RTVSPropertyOp31
 70
     1
102
RTVSPropertyOp32
 70
     1
  0
XRECORD
  5
8E8
102
{ACAD_REACTORS
330
8E7
102
}
330
8E7
100
AcDbXrecord
280
     1
102
RTVSPropertyOp0
 70
     1
102
RTVSPropertyOp1
 70
     1
102
RTVSPropertyOp2
 70
     1
102
RTVSPropertyOp3
 70
     1
102
RTVSPropertyOp4
 70
     1
102
RTVSPropertyOp5
 70
     1
102
RTVSPropertyOp6
 70
     1
102
RTVSPropertyOp7
 70
     1
102
RTVSPropertyOp8
 70
     1
102
RTVSPropertyOp9
 70
     1
102
RTVSPropertyOp10
 70
     1
102
RTVSPropertyOp11
 70
     1
102
RTVSPropertyOp12
 70
     1
102
RTVSPropertyOp13
 70
     1
102
RTVSPropertyOp14
 70
     1
102
RTVSPropertyOp15
 70
     1
102
RTVSPropertyOp16
 70
     1
102
RTVSPropertyOp17
 70
     1
102
RTVSPropertyOp18
 70
     1
102
RTVSPropertyOp19
 70
     1
102
RTVSPropertyOp20
 70
     1
102
RTVSPropertyOp21
 70
     1
102
RTVSPropertyOp22
 70
     1
102
RTVSPropertyOp23
 70
     1
102
RTVSPropertyOp24
 70
     1
102
RTVSPropertyOp25
 70
     1
102
RTVSPropertyOp26
 70
     1
102
RTVSPropertyOp27
 70
     1
102
RTVSPropertyOp28
 70
     1
102
RTVSPropertyOp29
 70
     1
102
RTVSPropertyOp30
 70
     1
102
RTVSPropertyOp31
 70
     1
102
RTVSPropertyOp32
 70
     1
  0
XRECORD
  5
8DE
102
{ACAD_REACTORS
330
8DD
102
}
330
8DD
100
AcDbXrecord
280
     1
102
RTVSPropertyOp0
 70
     1
102
RTVSPropertyOp1
 70
     1
102
RTVSPropertyOp2
 70
     1
102
RTVSPropertyOp3
 70
     1
102
RTVSPropertyOp4
 70
     1
102
RTVSPropertyOp5
 70
     1
102
RTVSPropertyOp6
 70
     1
102
RTVSPropertyOp7
 70
     1
102
RTVSPropertyOp8
 70
     1
102
RTVSPropertyOp9
 70
     1
102
RTVSPropertyOp10
 70
     1
102
RTVSPropertyOp11
 70
     1
102
RTVSPropertyOp12
 70
     1
102
RTVSPropertyOp13
 70
     1
102
RTVSPropertyOp14
 70
     1
102
RTVSPropertyOp15
 70
     1
102
RTVSPropertyOp16
 70
     1
102
RTVSPropertyOp17
 70
     1
102
RTVSPropertyOp18
 70
     1
102
RTVSPropertyOp19
 70
     1
102
RTVSPropertyOp20
 70
     1
102
RTVSPropertyOp21
 70
     1
102
RTVSPropertyOp22
 70
     1
102
RTVSPropertyOp23
 70
     1
102
RTVSPropertyOp24
 70
     1
102
RTVSPropertyOp25
 70
     1
102
RTVSPropertyOp26
 70
     1
102
RTVSPropertyOp27
 70
     1
102
RTVSPropertyOp28
 70
     1
102
RTVSPropertyOp29
 70
     1
102
RTVSPropertyOp30
 70
     1
102
RTVSPropertyOp31
 70
     1
102
RTVSPropertyOp32
 70
     1
  0
XRECORD
  5
8D2
102
{ACAD_REACTORS
330
8D1
102
}
330
8D1
100
AcDbXrecord
280
     1
102
RTVSPropertyOp0
 70
     1
102
RTVSPropertyOp1
 70
     1
102
RTVSPropertyOp2
 70
     1
102
RTVSPropertyOp3
 70
     1
102
RTVSPropertyOp4
 70
     1
102
RTVSPropertyOp5
 70
     1
102
RTVSPropertyOp6
 70
     1
102
RTVSPropertyOp7
 70
     1
102
RTVSPropertyOp8
 70
     1
102
RTVSPropertyOp9
 70
     1
102
RTVSPropertyOp10
 70
     1
102
RTVSPropertyOp11
 70
     1
102
RTVSPropertyOp12
 70
     1
102
RTVSPropertyOp13
 70
     1
102
RTVSPropertyOp14
 70
     1
102
RTVSPropertyOp15
 70
     1
102
RTVSPropertyOp16
 70
     1
102
RTVSPropertyOp17
 70
     1
102
RTVSPropertyOp18
 70
     1
102
RTVSPropertyOp19
 70
     1
102
RTVSPropertyOp20
 70
     1
102
RTVSPropertyOp21
 70
     1
102
RTVSPropertyOp22
 70
     1
102
RTVSPropertyOp23
 70
     1
102
RTVSPropertyOp24
 70
     1
102
RTVSPropertyOp25
 70
     1
102
RTVSPropertyOp26
 70
     1
102
RTVSPropertyOp27
 70
     1
102
RTVSPropertyOp28
 70
     1
102
RTVSPropertyOp29
 70
     1
102
RTVSPropertyOp30
 70
     1
102
RTVSPropertyOp31
 70
     1
102
RTVSPropertyOp32
 70
     1
  0
XRECORD
  5
8EA
102
{ACAD_REACTORS
330
8E9
102
}
330
8E9
100
AcDbXrecord
280
     1
102
RTVSPropertyOp0
 70
     1
102
RTVSPropertyOp1
 70
     1
102
RTVSPropertyOp2
 70
     1
102
RTVSPropertyOp3
 70
     1
102
RTVSPropertyOp4
 70
     1
102
RTVSPropertyOp5
 70
     1
102
RTVSPropertyOp6
 70
     1
102
RTVSPropertyOp7
 70
     1
102
RTVSPropertyOp8
 70
     1
102
RTVSPropertyOp9
 70
     1
102
RTVSPropertyOp10
 70
     1
102
RTVSPropertyOp11
 70
     1
102
RTVSPropertyOp12
 70
     1
102
RTVSPropertyOp13
 70
     1
102
RTVSPropertyOp14
 70
     1
102
RTVSPropertyOp15
 70
     1
102
RTVSPropertyOp16
 70
     1
102
RTVSPropertyOp17
 70
     1
102
RTVSPropertyOp18
 70
     1
102
RTVSPropertyOp19
 70
     1
102
RTVSPropertyOp20
 70
     1
102
RTVSPropertyOp21
 70
     1
102
RTVSPropertyOp22
 70
     1
102
RTVSPropertyOp23
 70
     1
102
RTVSPropertyOp24
 70
     1
102
RTVSPropertyOp25
 70
     1
102
RTVSPropertyOp26
 70
     1
102
RTVSPropertyOp27
 70
     1
102
RTVSPropertyOp28
 70
     1
102
RTVSPropertyOp29
 70
     1
102
RTVSPropertyOp30
 70
     1
102
RTVSPropertyOp31
 70
     1
102
RTVSPropertyOp32
 70
     1
  0
ENDSEC
  0
EOF
